  0
SECTION
  2
HEADER
  9
$ACADVER
  1
AC1015
  9
$ACADMAINTVER
 70
    20
  9
$DWGCODEPAGE
  3
ANSI_1252
  9
$INSBASE
 10
0.0
 20
0.0
 30
0.0
  9
$EXTMIN
 10
0.0
 20
-0.0000000000000044
 30
0.0
  9
$EXTMAX
 10
60.97989403831786
 20
31.96455091807199
 30
0.0
  9
$LIMMIN
 10
0.0
 20
-0.0000000000000036
  9
$LIMMAX
 10
60.97989403831786
 20
31.96455091807199
  9
$ORTHOMODE
 70
     0
  9
$REGENMODE
 70
     1
  9
$FILLMODE
 70
     1
  9
$QTEXTMODE
 70
     0
  9
$MIRRTEXT
 70
     1
  9
$LTSCALE
 40
0.5
  9
$ATTMODE
 70
     1
  9
$TEXTSIZE
 40
0.25
  9
$TRACEWID
 40
0.05
  9
$TEXTSTYLE
  7
STANDARD
  9
$CLAYER
  8
0
  9
$CELTYPE
  6
BYLAYER
  9
$CECOLOR
 62
   256
  9
$CELTSCALE
 40
1.0
  9
$DISPSILH
 70
     0
  9
$DIMSCALE
 40
1.0
  9
$DIMASZ
 40
0.2
  9
$DIMEXO
 40
0.125
  9
$DIMDLI
 40
0.375
  9
$DIMRND
 40
0.0
  9
$DIMDLE
 40
0.0
  9
$DIMEXE
 40
0.125
  9
$DIMTP
 40
0.0
  9
$DIMTM
 40
0.0
  9
$DIMTXT
 40
0.25
  9
$DIMCEN
 40
0.0
  9
$DIMTSZ
 40
0.0
  9
$DIMTOL
 70
     0
  9
$DIMLIM
 70
     0
  9
$DIMTIH
 70
     0
  9
$DIMTOH
 70
     0
  9
$DIMSE1
 70
     0
  9
$DIMSE2
 70
     0
  9
$DIMTAD
 70
     1
  9
$DIMZIN
 70
     3
  9
$DIMBLK
  1

  9
$DIMASO
 70
     1
  9
$DIMSHO
 70
     1
  9
$DIMPOST
  1

  9
$DIMAPOST
  1

  9
$DIMALT
 70
     0
  9
$DIMALTD
 70
     2
  9
$DIMALTF
 40
25.4
  9
$DIMLFAC
 40
1.0
  9
$DIMTOFL
 70
     0
  9
$DIMTVP
 40
0.0
  9
$DIMTIX
 70
     0
  9
$DIMSOXD
 70
     0
  9
$DIMSAH
 70
     0
  9
$DIMBLK1
  1

  9
$DIMBLK2
  1

  9
$DIMSTYLE
  2
STANDARD
  9
$DIMCLRD
 70
     0
  9
$DIMCLRE
 70
     0
  9
$DIMCLRT
 70
     0
  9
$DIMTFAC
 40
1.0
  9
$DIMGAP
 40
0.125
  9
$DIMJUST
 70
     0
  9
$DIMSD1
 70
     0
  9
$DIMSD2
 70
     0
  9
$DIMTOLJ
 70
     1
  9
$DIMTZIN
 70
     3
  9
$DIMALTZ
 70
     3
  9
$DIMALTTZ
 70
     3
  9
$DIMUPT
 70
     0
  9
$DIMDEC
 70
     5
  9
$DIMTDEC
 70
     5
  9
$DIMALTU
 70
     4
  9
$DIMALTTD
 70
     2
  9
$DIMTXSTY
  7
STANDARD
  9
$DIMAUNIT
 70
     0
  9
$DIMADEC
 70
     0
  9
$DIMALTRND
 40
0.0
  9
$DIMAZIN
 70
     0
  9
$DIMDSEP
 70
    46
  9
$DIMATFIT
 70
     0
  9
$DIMFRAC
 70
     2
  9
$DIMLDRBLK
  1

  9
$DIMLUNIT
 70
     4
  9
$DIMLWD
 70
    -2
  9
$DIMLWE
 70
    -2
  9
$DIMTMOVE
 70
     0
  9
$LUNITS
 70
     2
  9
$LUPREC
 70
     5
  9
$SKETCHINC
 40
0.1
  9
$FILLETRAD
 40
0.0
  9
$AUNITS
 70
     0
  9
$AUPREC
 70
     0
  9
$MENU
  1
ACAD
  9
$ELEVATION
 40
0.0
  9
$PELEVATION
 40
0.0
  9
$THICKNESS
 40
0.0
  9
$LIMCHECK
 70
     1
  9
$CHAMFERA
 40
0.0
  9
$CHAMFERB
 40
0.0
  9
$CHAMFERC
 40
0.0
  9
$CHAMFERD
 40
0.0
  9
$SKPOLY
 70
     0
  9
$TDCREATE
 40
2450777.537570949
  9
$TDUCREATE
 40
2450777.745904282
  9
$TDUPDATE
 40
2457809.464724699
  9
$TDUUPDATE
 40
2457809.673058033
  9
$TDINDWG
 40
0.9714667361
  9
$TDUSRTIMER
 40
0.9714667361
  9
$USRTIMER
 70
     1
  9
$ANGBASE
 50
0.0
  9
$ANGDIR
 70
     0
  9
$PDMODE
 70
     0
  9
$PDSIZE
 40
0.0
  9
$PLINEWID
 40
0.0
  9
$SPLFRAME
 70
     0
  9
$SPLINETYPE
 70
     6
  9
$SPLINESEGS
 70
     8
  9
$HANDSEED
  5
119C7
  9
$SURFTAB1
 70
     6
  9
$SURFTAB2
 70
     6
  9
$SURFTYPE
 70
     6
  9
$SURFU
 70
     6
  9
$SURFV
 70
     6
  9
$UCSBASE
  2

  9
$UCSNAME
  2

  9
$UCSORG
 10
0.0
 20
0.0
 30
0.0
  9
$UCSXDIR
 10
1.0
 20
0.0
 30
0.0
  9
$UCSYDIR
 10
0.0
 20
1.0
 30
0.0
  9
$UCSORTHOREF
  2

  9
$UCSORTHOVIEW
 70
     0
  9
$UCSORGTOP
 10
0.0
 20
0.0
 30
0.0
  9
$UCSORGBOTTOM
 10
0.0
 20
0.0
 30
0.0
  9
$UCSORGLEFT
 10
0.0
 20
0.0
 30
0.0
  9
$UCSORGRIGHT
 10
0.0
 20
0.0
 30
0.0
  9
$UCSORGFRONT
 10
0.0
 20
0.0
 30
0.0
  9
$UCSORGBACK
 10
0.0
 20
0.0
 30
0.0
  9
$PUCSBASE
  2

  9
$PUCSNAME
  2

  9
$PUCSORG
 10
0.0
 20
0.0
 30
0.0
  9
$PUCSXDIR
 10
1.0
 20
0.0
 30
0.0
  9
$PUCSYDIR
 10
0.0
 20
1.0
 30
0.0
  9
$PUCSORTHOREF
  2

  9
$PUCSORTHOVIEW
 70
     0
  9
$PUCSORGTOP
 10
0.0
 20
0.0
 30
0.0
  9
$PUCSORGBOTTOM
 10
0.0
 20
0.0
 30
0.0
  9
$PUCSORGLEFT
 10
0.0
 20
0.0
 30
0.0
  9
$PUCSORGRIGHT
 10
0.0
 20
0.0
 30
0.0
  9
$PUCSORGFRONT
 10
0.0
 20
0.0
 30
0.0
  9
$PUCSORGBACK
 10
0.0
 20
0.0
 30
0.0
  9
$USERI1
 70
     0
  9
$USERI2
 70
     0
  9
$USERI3
 70
     0
  9
$USERI4
 70
     0
  9
$USERI5
 70
     0
  9
$USERR1
 40
0.0
  9
$USERR2
 40
0.0
  9
$USERR3
 40
0.0
  9
$USERR4
 40
0.0
  9
$USERR5
 40
0.0
  9
$WORLDVIEW
 70
     1
  9
$SHADEDGE
 70
     3
  9
$SHADEDIF
 70
    70
  9
$TILEMODE
 70
     1
  9
$MAXACTVP
 70
    16
  9
$PINSBASE
 10
0.0
 20
0.0
 30
0.0
  9
$PLIMCHECK
 70
     0
  9
$PEXTMIN
 10
1.000000000000000E+20
 20
1.000000000000000E+20
 30
1.000000000000000E+20
  9
$PEXTMAX
 10
-1.000000000000000E+20
 20
-1.000000000000000E+20
 30
-1.000000000000000E+20
  9
$PLIMMIN
 10
0.0
 20
0.0
  9
$PLIMMAX
 10
12.0
 20
9.0
  9
$UNITMODE
 70
     0
  9
$VISRETAIN
 70
     0
  9
$PLINEGEN
 70
     0
  9
$PSLTSCALE
 70
     1
  9
$TREEDEPTH
 70
  3020
  9
$CMLSTYLE
  2
STANDARD
  9
$CMLJUST
 70
     0
  9
$CMLSCALE
 40
1.0
  9
$PROXYGRAPHICS
 70
     1
  9
$MEASUREMENT
 70
     0
  9
$CELWEIGHT
370
    -1
  9
$ENDCAPS
280
     0
  9
$JOINSTYLE
280
     0
  9
$LWDISPLAY
290
     0
  9
$INSUNITS
 70
     1
  9
$HYPERLINKBASE
  1

  9
$STYLESHEET
  1
monochrome.ctb
  9
$XEDIT
290
     1
  9
$CEPSNTYPE
380
     0
  9
$PSTYLEMODE
290
     1
  9
$FINGERPRINTGUID
  2
{0629316B-ECEC-4590-92C0-748751088798}
  9
$VERSIONGUID
  2
{D120604F-6141-4E81-91B0-B0D94D878DF6}
  9
$EXTNAMES
290
     1
  9
$PSVPSCALE
 40
0.0
  9
$OLESTARTUP
290
     0
  0
ENDSEC
  0
SECTION
  2
CLASSES
  0
CLASS
  1
DICTIONARYVAR
  2
AcDbDictionaryVar
  3
ObjectDBX Classes
 90
        0
280
     0
281
     0
  0
CLASS
  1
ACDBDICTIONARYWDFLT
  2
AcDbDictionaryWithDefault
  3
ObjectDBX Classes
 90
        0
280
     0
281
     0
  0
CLASS
  1
ACDBPLACEHOLDER
  2
AcDbPlaceHolder
  3
ObjectDBX Classes
 90
        0
280
     0
281
     0
  0
CLASS
  1
LAYOUT
  2
AcDbLayout
  3
ObjectDBX Classes
 90
        0
280
     0
281
     0
  0
CLASS
  1
MATERIAL
  2
AcDbMaterial
  3
ObjectDBX Classes
 90
     1153
280
     0
281
     0
  0
CLASS
  1
VISUALSTYLE
  2
AcDbVisualStyle
  3
ObjectDBX Classes
 90
     4095
280
     0
281
     0
  0
CLASS
  1
TABLESTYLE
  2
AcDbTableStyle
  3
ObjectDBX Classes
 90
     4095
280
     0
281
     0
  0
CLASS
  1
SCALE
  2
AcDbScale
  3
ObjectDBX Classes
 90
     1153
280
     0
281
     0
  0
CLASS
  1
MLEADERSTYLE
  2
AcDbMLeaderStyle
  3
ACDB_MLEADERSTYLE_CLASS
 90
     4095
280
     0
281
     0
  0
CLASS
  1
CELLSTYLEMAP
  2
AcDbCellStyleMap
  3
ObjectDBX Classes
 90
     1152
280
     0
281
     0
  0
CLASS
  1
SORTENTSTABLE
  2
AcDbSortentsTable
  3
ObjectDBX Classes
 90
        0
280
     0
281
     0
  0
CLASS
  1
DIMASSOC
  2
AcDbDimAssoc
  3
"AcDbDimAssoc|Product Desc:     AcDim ARX App For Dimension|Company:          Autodesk, Inc.|WEB Address:      www.autodesk.com"
 90
    32768
280
     0
281
     0
  0
CLASS
  1
EXACXREFPANELOBJECT
  2
ExAcXREFPanelObject
  3
EXAC_ESW
 90
     1025
280
     0
281
     0
  0
CLASS
  1
NPOCOLLECTION
  2
AcDbImpNonPersistentObjectsCollection
  3
ObjectDBX Classes
 90
     1153
280
     0
281
     0
  0
CLASS
  1
FIELD
  2
AcDbField
  3
ObjectDBX Classes
 90
    33920
280
     0
281
     0
  0
CLASS
  1
FIELDLIST
  2
AcDbFieldList
  3
ObjectDBX Classes
 90
     1152
280
     0
281
     0
  0
ENDSEC
  0
SECTION
  2
TABLES
  0
TABLE
  2
VPORT
  5
8
102
{ACAD_XDICTIONARY
360
115B1
102
}
330
0
100
AcDbSymbolTable
 70
     1
  0
VPORT
  5
BCA9
330
8
100
AcDbSymbolTableRecord
100
AcDbViewportTableRecord
  2
*Active
 70
     0
 10
0.0
 20
0.0
 11
1.0
 21
1.0
 12
55.74966327189333
 22
15.98227553345925
 13
0.0
 23
0.0
 14
1.0
 24
1.0
 15
0.0
 25
0.0
 16
0.0
 26
0.0
 36
1.0
 17
0.0
 27
0.0
 37
0.0
 40
32.18746848228722
 41
3.716019417475727
 42
50.0
 43
0.0
 44
0.0
 50
0.0
 51
0.0
 71
     0
 72
  2000
 73
     1
 74
     0
 75
     0
 76
     0
 77
     0
 78
     1
281
     0
 65
     1
110
0.0
120
0.0
130
0.0
111
1.0
121
0.0
131
0.0
112
0.0
122
1.0
132
0.0
 79
     0
146
0.0
1001
ACAD_NAV_VCDISPLAY
1070
     3
  0
ENDTAB
  0
TABLE
  2
LTYPE
  5
5
330
0
100
AcDbSymbolTable
 70
     5
  0
LTYPE
  5
11
330
5
100
AcDbSymbolTableRecord
100
AcDbLinetypeTableRecord
  2
BYBLOCK
 70
     0
  3

 72
    65
 73
     0
 40
0.0
  0
LTYPE
  5
12
330
5
100
AcDbSymbolTableRecord
100
AcDbLinetypeTableRecord
  2
BYLAYER
 70
     0
  3

 72
    65
 73
     0
 40
0.0
  0
LTYPE
  5
13
330
5
100
AcDbSymbolTableRecord
100
AcDbLinetypeTableRecord
  2
CONTINUOUS
 70
     0
  3
Solid line
 72
    65
 73
     0
 40
0.0
  0
LTYPE
  5
985C
330
5
100
AcDbSymbolTableRecord
100
AcDbLinetypeTableRecord
  2
HIDDEN
 70
     0
  3
Hidden __ __ __ __ __ __ __ __ __ __ __ __ __ _
 72
    65
 73
     2
 40
0.375
 49
0.25
 74
     0
 49
-0.125
 74
     0
  0
LTYPE
  5
98AB
330
5
100
AcDbSymbolTableRecord
100
AcDbLinetypeTableRecord
  2
CENTER
 70
     0
  3
CENTER LINE
 72
    65
 73
     4
 40
2.0
 49
1.25
 74
     0
 49
-0.25
 74
     0
 49
0.25
 74
     0
 49
-0.25
 74
     0
  0
LTYPE
  5
11913
330
5
100
AcDbSymbolTableRecord
100
AcDbLinetypeTableRecord
  2
DASHED
 70
     0
  3
Dashed __ __ __ __ __ __ __ __ __ __ __ __ __ _
 72
    65
 73
     2
 40
0.75
 49
0.5
 74
     0
 49
-0.25
 74
     0
  0
LTYPE
  5
11914
330
5
100
AcDbSymbolTableRecord
100
AcDbLinetypeTableRecord
  2
DOT
 70
     0
  3
Dot . . . . . . . . . . . . . . . . . . . . . .
 72
    65
 73
     2
 40
0.25
 49
0.0
 74
     0
 49
-0.25
 74
     0
  0
ENDTAB
  0
TABLE
  2
LAYER
  5
2
102
{ACAD_XDICTIONARY
360
CC78
102
}
330
0
100
AcDbSymbolTable
 70
    10
  0
LAYER
  5
E
102
{ACAD_XDICTIONARY
360
BD27
102
}
330
2
100
AcDbSymbolTableRecord
100
AcDbLayerTableRecord
  2
0
 70
     0
 62
     7
  6
CONTINUOUS
370
    -3
390
B2FB
  0
LAYER
  5
98AD
102
{ACAD_XDICTIONARY
360
BD2B
102
}
330
2
100
AcDbSymbolTableRecord
100
AcDbLayerTableRecord
  2
CENTER
 70
     0
 62
     1
  6
CENTER
370
    -3
390
B2FB
  0
LAYER
  5
A48F
102
{ACAD_XDICTIONARY
360
BD2D
102
}
330
2
100
AcDbSymbolTableRecord
100
AcDbLayerTableRecord
  2
R-SWTS-DET1
 70
     0
 62
     1
  6
CONTINUOUS
370
    -3
390
B2FB
  0
LAYER
  5
A491
102
{ACAD_XDICTIONARY
360
BD2F
102
}
330
2
100
AcDbSymbolTableRecord
100
AcDbLayerTableRecord
  2
R-SWTS-DET2
 70
     0
 62
     4
  6
CONTINUOUS
370
    -3
390
B2FB
  0
LAYER
  5
A492
102
{ACAD_XDICTIONARY
360
BD31
102
}
330
2
100
AcDbSymbolTableRecord
100
AcDbLayerTableRecord
  2
R-SWTS-DET3
 70
     0
 62
     5
  6
CONTINUOUS
370
    -3
390
B2FB
  0
LAYER
  5
A840
102
{ACAD_XDICTIONARY
360
BD33
102
}
330
2
100
AcDbSymbolTableRecord
100
AcDbLayerTableRecord
  2
R-ANNO-DIMS
 70
     0
 62
     3
  6
CONTINUOUS
370
    -3
390
B2FB
  0
LAYER
  5
AB2C
102
{ACAD_XDICTIONARY
360
BD35
102
}
330
2
100
AcDbSymbolTableRecord
100
AcDbLayerTableRecord
  2
PART_NUMBERS
 70
     0
 62
     6
  6
CONTINUOUS
370
    -3
390
B2FB
  0
LAYER
  5
CC57
330
2
100
AcDbSymbolTableRecord
100
AcDbLayerTableRecord
  2
DEFPOINTS
 70
     0
 62
    11
  6
CONTINUOUS
290
     0
370
    -3
390
B2FB
  0
LAYER
  5
1163E
102
{ACAD_XDICTIONARY
360
1163F
102
}
330
2
100
AcDbSymbolTableRecord
100
AcDbLayerTableRecord
  2
TEXT
 70
     0
 62
     3
  6
CONTINUOUS
370
    -3
390
B2FB
  0
LAYER
  5
11915
330
2
100
AcDbSymbolTableRecord
100
AcDbLayerTableRecord
  2
Kawneer Logo-English
 70
     0
 62
     7
  6
CONTINUOUS
370
    -3
390
B2FB
1001
AcAecLayerStandard
1000

1000

1001
AcCmTransparency
1071
        0
  0
ENDTAB
  0
TABLE
  2
STYLE
  5
3
330
0
100
AcDbSymbolTable
 70
     1
  0
STYLE
  5
F
330
3
100
AcDbSymbolTableRecord
100
AcDbTextStyleTableRecord
  2
STANDARD
 70
     0
 40
0.0
 41
1.0
 50
0.0
 71
     0
 42
0.25
  3
arial.ttf
  4

1001
ACAD
1000
Arial
1071
       34
  0
ENDTAB
  0
TABLE
  2
VIEW
  5
6
330
0
100
AcDbSymbolTable
 70
     0
  0
ENDTAB
  0
TABLE
  2
UCS
  5
7
330
0
100
AcDbSymbolTable
 70
     0
  0
ENDTAB
  0
TABLE
  2
APPID
  5
9
330
0
100
AcDbSymbolTable
 70
    15
  0
APPID
  5
10
330
9
100
AcDbSymbolTableRecord
100
AcDbRegAppTableRecord
  2
ACAD
 70
     0
  0
APPID
  5
CC75
330
9
100
AcDbSymbolTableRecord
100
AcDbRegAppTableRecord
  2
ACAD_PSEXT
 70
     0
  0
APPID
  5
CC76
330
9
100
AcDbSymbolTableRecord
100
AcDbRegAppTableRecord
  2
ACAD_DSTYLE_DIMJAG
 70
     0
  0
APPID
  5
CC77
330
9
100
AcDbSymbolTableRecord
100
AcDbRegAppTableRecord
  2
ACAD_DSTYLE_DIMTALN
 70
     0
  0
APPID
  5
11642
330
9
100
AcDbSymbolTableRecord
100
AcDbRegAppTableRecord
  2
ACAD_NAV_VCDISPLAY
 70
     0
  0
APPID
  5
11916
330
9
100
AcDbSymbolTableRecord
100
AcDbRegAppTableRecord
  2
ACAD_EXEMPT_FROM_CAD_STANDARDS
 70
     0
  0
APPID
  5
11917
330
9
100
AcDbSymbolTableRecord
100
AcDbRegAppTableRecord
  2
GradientColor1ACI
 70
     0
  0
APPID
  5
11918
330
9
100
AcDbSymbolTableRecord
100
AcDbRegAppTableRecord
  2
GradientColor2ACI
 70
     0
  0
APPID
  5
11919
330
9
100
AcDbSymbolTableRecord
100
AcDbRegAppTableRecord
  2
ACAD_MLEADERVER
 70
     0
  0
APPID
  5
1191A
330
9
100
AcDbSymbolTableRecord
100
AcDbRegAppTableRecord
  2
ACAD_DSTYLE_DIMBREAK
 70
     0
  0
APPID
  5
1191B
330
9
100
AcDbSymbolTableRecord
100
AcDbRegAppTableRecord
  2
AcDbDynamicBlockGUID
 70
     0
  0
APPID
  5
1191C
330
9
100
AcDbSymbolTableRecord
100
AcDbRegAppTableRecord
  2
ACAUTHENVIRON
 70
     0
  0
APPID
  5
1191D
330
9
100
AcDbSymbolTableRecord
100
AcDbRegAppTableRecord
  2
AcDbDynamicBlockTrueName
 70
     0
  0
APPID
  5
1191E
330
9
100
AcDbSymbolTableRecord
100
AcDbRegAppTableRecord
  2
AcAecLayerStandard
 70
     0
  0
APPID
  5
1191F
330
9
100
AcDbSymbolTableRecord
100
AcDbRegAppTableRecord
  2
AcCmTransparency
 70
     0
  0
ENDTAB
  0
TABLE
  2
DIMSTYLE
  5
A
330
0
100
AcDbSymbolTable
 70
     4
100
AcDbDimStyleTable
 71
     2
340
26C
340
CC5A
  0
DIMSTYLE
105
26C
330
A
100
AcDbSymbolTableRecord
100
AcDbDimStyleTableRecord
  2
STANDARD
 70
     0
340
F
  0
DIMSTYLE
105
CC5A
102
{ACAD_REACTORS
330
DCC1
330
E13D
330
E13E
330
E16A
330
E379
330
E37A
330
E564
330
E565
330
E582
330
E78A
330
E78B
102
}
330
A
100
AcDbSymbolTableRecord
100
AcDbDimStyleTableRecord
  2
EXT_ON-ON
 70
     0
  3
"
  4
mm
 40
2.0
 41
0.125
 42
0.1875
 43
0.1875
 44
0.09
 73
     0
 74
     0
 77
     3
 78
     3
140
0.125
141
0.0
147
0.05
171
     3
179
     2
271
     5
272
     5
273
     5
274
     3
276
     2
277
     5
284
     3
285
     3
286
     3
289
     0
340
F
1001
ACAD_DSTYLE_DIMJAG
1070
   388
1040
1.5
1001
ACAD_DSTYLE_DIMTALN
1070
   392
1070
     0
  0
DIMSTYLE
105
CC5B
102
{ACAD_REACTORS
330
DCC0
330
DC6E
330
E168
330
E169
330
E581
102
}
330
A
100
AcDbSymbolTableRecord
100
AcDbDimStyleTableRecord
  2
EXT_ON-OFF
 70
     0
  3
"
  4
mm
 40
2.0
 41
0.125
 42
0.1875
 43
0.1875
 44
0.09
 73
     0
 74
     0
 76
     1
 77
     3
 78
     3
140
0.125
141
0.0
147
0.05
171
     3
271
     5
273
     5
274
     3
276
     2
277
     5
284
     3
285
     3
286
     3
289
     0
340
F
  0
DIMSTYLE
105
CC5C
102
{ACAD_REACTORS
330
E13F
330
E37B
330
E566
330
E78C
102
}
330
A
100
AcDbSymbolTableRecord
100
AcDbDimStyleTableRecord
  2
EXT_ON-ONNL
 70
     0
  3
"
  4
mm
 40
2.0
 41
0.125
 42
0.1875
 43
0.1875
 44
0.09
 73
     0
 74
     0
 77
     3
 78
     3
140
0.125
141
0.0
147
0.05
171
     3
271
     5
273
     5
274
     3
276
     2
277
     5
279
     2
284
     3
285
     3
286
     3
340
F
  0
ENDTAB
  0
TABLE
  2
BLOCK_RECORD
  5
1
330
0
100
AcDbSymbolTable
 70
    21
  0
BLOCK_RECORD
  5
17
102
{ACAD_XDICTIONARY
360
B78D
102
}
330
1
100
AcDbSymbolTableRecord
100
AcDbBlockTableRecord
  2
*MODEL_SPACE
340
B2FE
  0
BLOCK_RECORD
  5
14
102
{ACAD_XDICTIONARY
360
B78B
102
}
330
1
100
AcDbSymbolTableRecord
100
AcDbBlockTableRecord
  2
*PAPER_SPACE
340
B2FF
  0
BLOCK_RECORD
  5
DD32
330
1
100
AcDbSymbolTableRecord
100
AcDbBlockTableRecord
  2
*D0
340
0
  0
BLOCK_RECORD
  5
DD3E
330
1
100
AcDbSymbolTableRecord
100
AcDbBlockTableRecord
  2
*D1
340
0
  0
BLOCK_RECORD
  5
DD81
330
1
100
AcDbSymbolTableRecord
100
AcDbBlockTableRecord
  2
*D2
340
0
  0
BLOCK_RECORD
  5
E1AD
330
1
100
AcDbSymbolTableRecord
100
AcDbBlockTableRecord
  2
*D3
340
0
  0
BLOCK_RECORD
  5
E1BA
330
1
100
AcDbSymbolTableRecord
100
AcDbBlockTableRecord
  2
*D4
340
0
  0
BLOCK_RECORD
  5
E1C6
330
1
100
AcDbSymbolTableRecord
100
AcDbBlockTableRecord
  2
*D5
340
0
  0
BLOCK_RECORD
  5
E1E9
330
1
100
AcDbSymbolTableRecord
100
AcDbBlockTableRecord
  2
*D6
340
0
  0
BLOCK_RECORD
  5
E1F4
330
1
100
AcDbSymbolTableRecord
100
AcDbBlockTableRecord
  2
*D7
340
0
  0
BLOCK_RECORD
  5
E1FF
330
1
100
AcDbSymbolTableRecord
100
AcDbBlockTableRecord
  2
*D8
340
0
  0
BLOCK_RECORD
  5
E3B3
330
1
100
AcDbSymbolTableRecord
100
AcDbBlockTableRecord
  2
*D9
340
0
  0
BLOCK_RECORD
  5
E3C0
330
1
100
AcDbSymbolTableRecord
100
AcDbBlockTableRecord
  2
*D10
340
0
  0
BLOCK_RECORD
  5
E3CC
330
1
100
AcDbSymbolTableRecord
100
AcDbBlockTableRecord
  2
*D11
340
0
  0
BLOCK_RECORD
  5
E5B4
330
1
100
AcDbSymbolTableRecord
100
AcDbBlockTableRecord
  2
*D12
340
0
  0
BLOCK_RECORD
  5
E5C1
330
1
100
AcDbSymbolTableRecord
100
AcDbBlockTableRecord
  2
*D13
340
0
  0
BLOCK_RECORD
  5
E5CD
330
1
100
AcDbSymbolTableRecord
100
AcDbBlockTableRecord
  2
*D14
340
0
  0
BLOCK_RECORD
  5
E5F1
330
1
100
AcDbSymbolTableRecord
100
AcDbBlockTableRecord
  2
*D15
340
0
  0
BLOCK_RECORD
  5
E5FC
330
1
100
AcDbSymbolTableRecord
100
AcDbBlockTableRecord
  2
*D16
340
0
  0
BLOCK_RECORD
  5
E7BD
330
1
100
AcDbSymbolTableRecord
100
AcDbBlockTableRecord
  2
*D17
340
0
  0
BLOCK_RECORD
  5
E7CA
330
1
100
AcDbSymbolTableRecord
100
AcDbBlockTableRecord
  2
*D18
340
0
  0
BLOCK_RECORD
  5
E7D6
330
1
100
AcDbSymbolTableRecord
100
AcDbBlockTableRecord
  2
*D19
340
0
  0
BLOCK_RECORD
  5
11920
102
{ACAD_XDICTIONARY
360
1192A
102
}
330
1
100
AcDbSymbolTableRecord
100
AcDbBlockTableRecord
  2
Kawneer Logo English
340
0
102
{BLKREFS
331
1192E
102
}
1001
ACAD
1000
DesignCenter Data
1002
{
1070
     1
1070
     1
1002
}
  0
ENDTAB
  0
ENDSEC
  0
SECTION
  2
BLOCKS
  0
BLOCK
  5
3C
330
17
100
AcDbEntity
  8
0
100
AcDbBlockBegin
  2
*MODEL_SPACE
 70
     0
 10
0.0
 20
0.0
 30
0.0
  3
*MODEL_SPACE
  1

  0
ENDBLK
  5
3D
330
17
100
AcDbEntity
  8
0
100
AcDbBlockEnd
  0
BLOCK
  5
3A
330
14
100
AcDbEntity
 67
     1
  8
0
100
AcDbBlockBegin
  2
*PAPER_SPACE
 70
     0
 10
0.0
 20
0.0
 30
0.0
  3
*PAPER_SPACE
  1

  0
ENDBLK
  5
3B
330
14
100
AcDbEntity
 67
     1
  8
0
100
AcDbBlockEnd
  0
BLOCK
  5
DD33
330
DD32
100
AcDbEntity
  8
0
100
AcDbBlockBegin
  2
*D0
 70
     1
 10
0.0
 20
0.0
 30
0.0
  3
*D0
  1

  0
LINE
  5
11490
330
DD32
100
AcDbEntity
  8
R-ANNO-DIMS
 62
     0
370
    -2
100
AcDbLine
 10
11.21356754918076
 20
16.64438053155713
 30
0.0
 11
9.033567549180766
 21
16.64438053155713
 31
0.0
  0
LINE
  5
11491
330
DD32
100
AcDbEntity
  8
R-ANNO-DIMS
 62
     0
370
    -2
100
AcDbLine
 10
9.213567549180766
 20
16.89438053155713
 30
0.0
 11
9.213567549180766
 21
17.14438053155713
 31
0.0
  0
LINE
  5
11492
330
DD32
100
AcDbEntity
  8
R-ANNO-DIMS
 62
     0
370
    -2
100
AcDbLine
 10
9.213567549180766
 20
15.89438053155713
 30
0.0
 11
9.213567549180766
 21
14.6110471982238
 31
0.0
  0
SOLID
  5
11493
330
DD32
100
AcDbEntity
  8
R-ANNO-DIMS
 62
     0
100
AcDbTrace
 10
9.171900882514099
 20
16.89438053155713
 30
0.0
 11
9.255234215847432
 21
16.89438053155713
 31
0.0
 12
9.213567549180766
 22
16.64438053155713
 32
0.0
 13
9.213567549180766
 23
16.64438053155713
 33
0.0
  0
SOLID
  5
11494
330
DD32
100
AcDbEntity
  8
R-ANNO-DIMS
 62
     0
100
AcDbTrace
 10
9.171900882514099
 20
15.89438053155713
 30
0.0
 11
9.255234215847432
 21
15.89438053155713
 31
0.0
 12
9.213567549180766
 22
16.14438053155713
 32
0.0
 13
9.213567549180766
 23
16.14438053155713
 33
0.0
  0
MTEXT
  5
11495
330
DD32
100
AcDbEntity
  8
R-ANNO-DIMS
 62
     0
100
AcDbMText
 10
8.988567549180764
 20
15.12771386489047
 30
0.0
 40
0.25
 41
0.0
 71
     5
 72
     1
  1
\A1;1/2"
 11
0.0000000000000001
 21
1.0
 31
0.0
 73
     1
 44
1.0
1001
ACAD
1000
MTEXTBEGIN
1070
    73
1070
     1
1070
    44
1040
1.0
1070
    74
1070
     0
1000
MTEXTEND
  0
POINT
  5
11496
330
DD32
100
AcDbEntity
  8
DEFPOINTS
 62
     0
100
AcDbPoint
 10
11.58856754918077
 20
16.64438053155713
 30
0.0
  0
POINT
  5
11497
330
DD32
100
AcDbEntity
  8
DEFPOINTS
 62
     0
100
AcDbPoint
 10
11.33774908034354
 20
16.14438053155713
 30
0.0
  0
POINT
  5
11498
330
DD32
100
AcDbEntity
  8
DEFPOINTS
 62
     0
100
AcDbPoint
 10
9.213567549180766
 20
16.14438053155713
 30
0.0
  0
ENDBLK
  5
DD34
330
DD32
100
AcDbEntity
  8
0
100
AcDbBlockEnd
  0
BLOCK
  5
DD3F
330
DD3E
100
AcDbEntity
  8
0
100
AcDbBlockBegin
  2
*D1
 70
     1
 10
0.0
 20
0.0
 30
0.0
  3
*D1
  1

  0
LINE
  5
11499
330
DD3E
100
AcDbEntity
  8
R-ANNO-DIMS
 62
     0
370
    -2
100
AcDbLine
 10
10.96274908034354
 20
16.14438053155713
 30
0.0
 11
8.408567549180764
 21
16.14438053155713
 31
0.0
  0
LINE
  5
1149A
330
DD3E
100
AcDbEntity
  8
R-ANNO-DIMS
 62
     0
370
    -2
100
AcDbLine
 10
10.96274908034354
 20
26.85848700325847
 30
0.0
 11
8.408567549180766
 21
26.85848700325847
 31
0.0
  0
LINE
  5
1149B
330
DD3E
100
AcDbEntity
  8
R-ANNO-DIMS
 62
     0
370
    -2
100
AcDbLine
 10
8.588567549180764
 20
16.39438053155713
 30
0.0
 11
8.588567549180766
 21
26.60848700325848
 31
0.0
  0
SOLID
  5
1149C
330
DD3E
100
AcDbEntity
  8
R-ANNO-DIMS
 62
     0
100
AcDbTrace
 10
8.546900882514098
 20
16.39438053155713
 30
0.0
 11
8.63023421584743
 21
16.39438053155713
 31
0.0
 12
8.588567549180764
 22
16.14438053155713
 32
0.0
 13
8.588567549180764
 23
16.14438053155713
 33
0.0
  0
SOLID
  5
1149D
330
DD3E
100
AcDbEntity
  8
R-ANNO-DIMS
 62
     0
100
AcDbTrace
 10
8.546900882514099
 20
26.60848700325848
 30
0.0
 11
8.630234215847432
 21
26.60848700325848
 31
0.0
 12
8.588567549180766
 22
26.85848700325847
 32
0.0
 13
8.588567549180766
 23
26.85848700325847
 33
0.0
  0
MTEXT
  5
1149E
330
DD3E
100
AcDbEntity
  8
R-ANNO-DIMS
 62
     0
100
AcDbMText
 10
8.363567549180762
 20
21.50143376740781
 30
0.0
 40
0.25
 41
0.0
 71
     5
 72
     1
  1
\A1;O.D.
 11
0.0000000000000001
 21
1.0
 31
0.0
 73
     1
 44
1.0
1001
ACAD
1000
MTEXTBEGIN
1070
    73
1070
     1
1070
    44
1040
1.0
1070
    74
1070
     0
1000
MTEXTEND
  0
POINT
  5
1149F
330
DD3E
100
AcDbEntity
  8
DEFPOINTS
 62
     0
100
AcDbPoint
 10
11.33774908034354
 20
16.14438053155713
 30
0.0
  0
POINT
  5
114A0
330
DD3E
100
AcDbEntity
  8
DEFPOINTS
 62
     0
100
AcDbPoint
 10
11.33774908034354
 20
26.85848700325847
 30
0.0
  0
POINT
  5
114A1
330
DD3E
100
AcDbEntity
  8
DEFPOINTS
 62
     0
100
AcDbPoint
 10
8.588567549180766
 20
26.85848700325847
 30
0.0
  0
ENDBLK
  5
DD40
330
DD3E
100
AcDbEntity
  8
0
100
AcDbBlockEnd
  0
BLOCK
  5
DD82
330
DD81
100
AcDbEntity
  8
0
100
AcDbBlockBegin
  2
*D2
 70
     1
 10
0.0
 20
0.0
 30
0.0
  3
*D2
  1

  0
LINE
  5
11487
330
DD81
100
AcDbEntity
  8
R-ANNO-DIMS
 62
     0
370
    -2
100
AcDbLine
 10
11.21356754918076
 20
26.35848700325848
 30
0.0
 11
9.033567549180766
 21
26.35848700325848
 31
0.0
  0
LINE
  5
11488
330
DD81
100
AcDbEntity
  8
R-ANNO-DIMS
 62
     0
370
    -2
100
AcDbLine
 10
9.213567549180766
 20
26.10848700325848
 30
0.0
 11
9.213567549180766
 21
25.85848700325847
 31
0.0
  0
LINE
  5
11489
330
DD81
100
AcDbEntity
  8
R-ANNO-DIMS
 62
     0
370
    -2
100
AcDbLine
 10
9.213567549180766
 20
27.10848700325847
 30
0.0
 11
9.213567549180767
 21
28.39182033659181
 31
0.0
  0
SOLID
  5
1148A
330
DD81
100
AcDbEntity
  8
R-ANNO-DIMS
 62
     0
100
AcDbTrace
 10
9.171900882514099
 20
26.10848700325848
 30
0.0
 11
9.255234215847432
 21
26.10848700325848
 31
0.0
 12
9.213567549180766
 22
26.35848700325848
 32
0.0
 13
9.213567549180766
 23
26.35848700325848
 33
0.0
  0
SOLID
  5
1148B
330
DD81
100
AcDbEntity
  8
R-ANNO-DIMS
 62
     0
100
AcDbTrace
 10
9.171900882514099
 20
27.10848700325847
 30
0.0
 11
9.255234215847432
 21
27.10848700325847
 31
0.0
 12
9.213567549180766
 22
26.85848700325847
 32
0.0
 13
9.213567549180766
 23
26.85848700325847
 33
0.0
  0
MTEXT
  5
1148C
330
DD81
100
AcDbEntity
  8
R-ANNO-DIMS
 62
     0
100
AcDbMText
 10
8.988567549180762
 20
27.87515366992515
 30
0.0
 40
0.25
 41
0.0
 71
     5
 72
     1
  1
\A1;1/2"
 11
0.0000000000000001
 21
1.0
 31
0.0
 73
     1
 44
1.0
1001
ACAD
1000
MTEXTBEGIN
1070
    73
1070
     1
1070
    44
1040
1.0
1070
    74
1070
     0
1000
MTEXTEND
  0
POINT
  5
1148D
330
DD81
100
AcDbEntity
  8
DEFPOINTS
 62
     0
100
AcDbPoint
 10
11.58856754918077
 20
26.35848700325848
 30
0.0
  0
POINT
  5
1148E
330
DD81
100
AcDbEntity
  8
DEFPOINTS
 62
     0
100
AcDbPoint
 10
11.33774908034354
 20
26.85848700325847
 30
0.0
  0
POINT
  5
1148F
330
DD81
100
AcDbEntity
  8
DEFPOINTS
 62
     0
100
AcDbPoint
 10
9.213567549180766
 20
26.85848700325847
 30
0.0
  0
ENDBLK
  5
DD83
330
DD81
100
AcDbEntity
  8
0
100
AcDbBlockEnd
  0
BLOCK
  5
E1AE
330
E1AD
100
AcDbEntity
  8
0
100
AcDbBlockBegin
  2
*D3
 70
     1
 10
0.0
 20
0.0
 30
0.0
  3
*D3
  1

  0
LINE
  5
114A2
330
E1AD
100
AcDbEntity
  8
R-ANNO-DIMS
 62
     0
370
    -2
100
AcDbLine
 10
32.23063364466933
 20
16.64428172762651
 30
0.0
 11
31.42563564466933
 21
16.64428172762651
 31
0.0
  0
LINE
  5
114A3
330
E1AD
100
AcDbEntity
  8
R-ANNO-DIMS
 62
     0
370
    -2
100
AcDbLine
 10
32.23063364466933
 20
16.14428172762651
 30
0.0
 11
31.42563564466933
 21
16.14428172762651
 31
0.0
  0
LINE
  5
114A4
330
E1AD
100
AcDbEntity
  8
R-ANNO-DIMS
 62
     0
370
    -2
100
AcDbLine
 10
31.60563564466933
 20
16.89428172762651
 30
0.0
 11
31.60563564466933
 21
17.14428172762651
 31
0.0
  0
LINE
  5
114A5
330
E1AD
100
AcDbEntity
  8
R-ANNO-DIMS
 62
     0
370
    -2
100
AcDbLine
 10
31.60563564466933
 20
15.89428172762651
 30
0.0
 11
31.60563564466933
 21
14.61094839429318
 31
0.0
  0
SOLID
  5
114A6
330
E1AD
100
AcDbEntity
  8
R-ANNO-DIMS
 62
     0
100
AcDbTrace
 10
31.56396897800266
 20
16.89428172762651
 30
0.0
 11
31.647302311336
 21
16.89428172762651
 31
0.0
 12
31.60563564466933
 22
16.64428172762651
 32
0.0
 13
31.60563564466933
 23
16.64428172762651
 33
0.0
  0
SOLID
  5
114A7
330
E1AD
100
AcDbEntity
  8
R-ANNO-DIMS
 62
     0
100
AcDbTrace
 10
31.56396897800266
 20
15.89428172762651
 30
0.0
 11
31.647302311336
 21
15.89428172762651
 31
0.0
 12
31.60563564466933
 22
16.14428172762651
 32
0.0
 13
31.60563564466933
 23
16.14428172762651
 33
0.0
  0
MTEXT
  5
114A8
330
E1AD
100
AcDbEntity
  8
R-ANNO-DIMS
 62
     0
100
AcDbMText
 10
31.38063564466933
 20
15.12761506095985
 30
0.0
 40
0.25
 41
0.0
 71
     5
 72
     1
  1
\A1;1/2"
 11
0.0000000000000001
 21
1.0
 31
0.0
 73
     1
 44
1.0
1001
ACAD
1000
MTEXTBEGIN
1070
    73
1070
     1
1070
    44
1040
1.0
1070
    74
1070
     0
1000
MTEXTEND
  0
POINT
  5
114A9
330
E1AD
100
AcDbEntity
  8
DEFPOINTS
 62
     0
100
AcDbPoint
 10
32.60563364466932
 20
16.64428172762651
 30
0.0
  0
POINT
  5
114AA
330
E1AD
100
AcDbEntity
  8
DEFPOINTS
 62
     0
100
AcDbPoint
 10
32.60563364466932
 20
16.14428172762651
 30
0.0
  0
POINT
  5
114AB
330
E1AD
100
AcDbEntity
  8
DEFPOINTS
 62
     0
100
AcDbPoint
 10
31.60563564466933
 20
16.14428172762651
 30
0.0
  0
ENDBLK
  5
E1AF
330
E1AD
100
AcDbEntity
  8
0
100
AcDbBlockEnd
  0
BLOCK
  5
E1BB
330
E1BA
100
AcDbEntity
  8
0
100
AcDbBlockBegin
  2
*D4
 70
     1
 10
0.0
 20
0.0
 30
0.0
  3
*D4
  1

  0
LINE
  5
114AC
330
E1BA
100
AcDbEntity
  8
R-ANNO-DIMS
 62
     0
370
    -2
100
AcDbLine
 10
32.23063364466933
 20
16.64428172762651
 30
0.0
 11
31.42563564466933
 21
16.64428172762651
 31
0.0
  0
LINE
  5
114AD
330
E1BA
100
AcDbEntity
  8
R-ANNO-DIMS
 62
     0
370
    -2
100
AcDbLine
 10
32.23063364466933
 20
18.64428172762651
 30
0.0
 11
31.42563564466933
 21
18.64428172762651
 31
0.0
  0
LINE
  5
114AE
330
E1BA
100
AcDbEntity
  8
R-ANNO-DIMS
 62
     0
370
    -2
100
AcDbLine
 10
31.60563564466933
 20
16.89428172762651
 30
0.0
 11
31.60563564466933
 21
18.39428172762651
 31
0.0
  0
SOLID
  5
114AF
330
E1BA
100
AcDbEntity
  8
R-ANNO-DIMS
 62
     0
100
AcDbTrace
 10
31.56396897800266
 20
16.89428172762651
 30
0.0
 11
31.647302311336
 21
16.89428172762651
 31
0.0
 12
31.60563564466933
 22
16.64428172762651
 32
0.0
 13
31.60563564466933
 23
16.64428172762651
 33
0.0
  0
SOLID
  5
114B0
330
E1BA
100
AcDbEntity
  8
R-ANNO-DIMS
 62
     0
100
AcDbTrace
 10
31.56396897800266
 20
18.39428172762651
 30
0.0
 11
31.647302311336
 21
18.39428172762651
 31
0.0
 12
31.60563564466933
 22
18.64428172762651
 32
0.0
 13
31.60563564466933
 23
18.64428172762651
 33
0.0
  0
MTEXT
  5
114B1
330
E1BA
100
AcDbEntity
  8
R-ANNO-DIMS
 62
     0
100
AcDbMText
 10
31.38063564466933
 20
17.64428172762652
 30
0.0
 40
0.25
 41
0.0
 71
     5
 72
     1
  1
\A1;2"
 11
0.0000000000000001
 21
1.0
 31
0.0
 73
     1
 44
1.0
1001
ACAD
1000
MTEXTBEGIN
1070
    73
1070
     1
1070
    44
1040
1.0
1070
    74
1070
     0
1000
MTEXTEND
  0
POINT
  5
114B2
330
E1BA
100
AcDbEntity
  8
DEFPOINTS
 62
     0
100
AcDbPoint
 10
32.60563364466932
 20
16.64428172762651
 30
0.0
  0
POINT
  5
114B3
330
E1BA
100
AcDbEntity
  8
DEFPOINTS
 62
     0
100
AcDbPoint
 10
32.60563364466932
 20
18.64428172762651
 30
0.0
  0
POINT
  5
114B4
330
E1BA
100
AcDbEntity
  8
DEFPOINTS
 62
     0
100
AcDbPoint
 10
31.60563564466933
 20
18.64428172762651
 30
0.0
  0
ENDBLK
  5
E1BC
330
E1BA
100
AcDbEntity
  8
0
100
AcDbBlockEnd
  0
BLOCK
  5
E1C7
330
E1C6
100
AcDbEntity
  8
0
100
AcDbBlockBegin
  2
*D5
 70
     1
 10
0.0
 20
0.0
 30
0.0
  3
*D5
  1

  0
LINE
  5
114B5
330
E1C6
100
AcDbEntity
  8
R-ANNO-DIMS
 62
     0
370
    -2
100
AcDbLine
 10
32.23063364466933
 20
18.64428172762651
 30
0.0
 11
31.42563564466933
 21
18.64428172762651
 31
0.0
  0
LINE
  5
114B6
330
E1C6
100
AcDbEntity
  8
R-ANNO-DIMS
 62
     0
370
    -2
100
AcDbLine
 10
31.60563564466933
 20
18.89428172762651
 30
0.0
 11
31.60563564466933
 21
19.64428172762651
 31
0.0
  0
MTEXT
  5
114B7
330
E1C6
100
AcDbEntity
  8
R-ANNO-DIMS
 62
     0
100
AcDbMText
 10
31.34943751044846
 20
19.26928172762651
 30
0.0
 40
0.25
 41
0.0
 71
     5
 72
     1
  1
\A1;DLO
 11
0.0000000000000001
 21
1.0
 31
0.0
 73
     1
 44
1.0
1001
ACAD
1000
MTEXTBEGIN
1070
    73
1070
     1
1070
    44
1040
1.0
1070
    74
1070
     0
1000
MTEXTEND
  0
SOLID
  5
114B8
330
E1C6
100
AcDbEntity
  8
R-ANNO-DIMS
 62
     0
100
AcDbTrace
 10
31.56396897800266
 20
18.89428172762651
 30
0.0
 11
31.647302311336
 21
18.89428172762651
 31
0.0
 12
31.60563564466933
 22
18.64428172762651
 32
0.0
 13
31.60563564466933
 23
18.64428172762651
 33
0.0
  0
SOLID
  5
114B9
330
E1C6
100
AcDbEntity
  8
R-ANNO-DIMS
 62
     0
100
AcDbTrace
 10
31.56396897800266
 20
19.64428172762651
 30
0.0
 11
31.647302311336
 21
19.64428172762651
 31
0.0
 12
31.60563564466933
 22
19.89428172762651
 32
0.0
 13
31.60563564466933
 23
19.89428172762651
 33
0.0
  0
POINT
  5
114BA
330
E1C6
100
AcDbEntity
  8
DEFPOINTS
 62
     0
100
AcDbPoint
 10
32.60563364466932
 20
18.64428172762651
 30
0.0
  0
POINT
  5
114BB
330
E1C6
100
AcDbEntity
  8
DEFPOINTS
 62
     0
100
AcDbPoint
 10
36.35563364466933
 20
19.89428172762651
 30
0.0
  0
POINT
  5
114BC
330
E1C6
100
AcDbEntity
  8
DEFPOINTS
 62
     0
100
AcDbPoint
 10
31.60563564466933
 20
19.89428172762651
 30
0.0
  0
ENDBLK
  5
E1C8
330
E1C6
100
AcDbEntity
  8
0
100
AcDbBlockEnd
  0
BLOCK
  5
E1EA
330
E1E9
100
AcDbEntity
  8
0
100
AcDbBlockBegin
  2
*D6
 70
     1
 10
0.0
 20
0.0
 30
0.0
  3
*D6
  1

  0
LINE
  5
114BD
330
E1E9
100
AcDbEntity
  8
R-ANNO-DIMS
 62
     0
370
    -2
100
AcDbLine
 10
38.60563364464918
 20
20.26928172762655
 30
0.0
 11
38.60563364464918
 21
20.94928172762655
 31
0.0
  0
LINE
  5
114BE
330
E1E9
100
AcDbEntity
  8
R-ANNO-DIMS
 62
     0
370
    -2
100
AcDbLine
 10
38.85563364464918
 20
20.76928172762655
 30
0.0
 11
42.35563164466934
 21
20.76928172762655
 31
0.0
  0
SOLID
  5
114BF
330
E1E9
100
AcDbEntity
  8
R-ANNO-DIMS
 62
     0
100
AcDbTrace
 10
38.85563364464918
 20
20.81094839429322
 30
0.0
 11
38.85563364464918
 21
20.72761506095988
 31
0.0
 12
38.60563364464918
 22
20.76928172762655
 32
0.0
 13
38.60563364464918
 23
20.76928172762655
 33
0.0
  0
SOLID
  5
114C0
330
E1E9
100
AcDbEntity
  8
R-ANNO-DIMS
 62
     0
100
AcDbTrace
 10
42.35563164466934
 20
20.81094839429322
 30
0.0
 11
42.35563164466934
 21
20.72761506095988
 31
0.0
 12
42.60563164466933
 22
20.76928172762655
 32
0.0
 13
42.60563164466933
 23
20.76928172762655
 33
0.0
  0
MTEXT
  5
114C1
330
E1E9
100
AcDbEntity
  8
R-ANNO-DIMS
 62
     0
100
AcDbMText
 10
40.60563264465925
 20
20.99428172762655
 30
0.0
 40
0.25
 41
0.0
 71
     5
 72
     1
  1
\A1;DLO
 73
     1
 44
1.0
1001
ACAD
1000
MTEXTBEGIN
1070
    73
1070
     1
1070
    44
1040
1.0
1070
    74
1070
     0
1000
MTEXTEND
  0
POINT
  5
114C2
330
E1E9
100
AcDbEntity
  8
DEFPOINTS
 62
     0
100
AcDbPoint
 10
38.60563364464918
 20
19.89428172762655
 30
0.0
  0
POINT
  5
114C3
330
E1E9
100
AcDbEntity
  8
DEFPOINTS
 62
     0
100
AcDbPoint
 10
42.60563164466933
 20
18.89428172762651
 30
0.0
  0
POINT
  5
114C4
330
E1E9
100
AcDbEntity
  8
DEFPOINTS
 62
     0
100
AcDbPoint
 10
42.60563164466933
 20
20.76928172762655
 30
0.0
  0
ENDBLK
  5
E1EB
330
E1E9
100
AcDbEntity
  8
0
100
AcDbBlockEnd
  0
BLOCK
  5
E1F5
330
E1F4
100
AcDbEntity
  8
0
100
AcDbBlockBegin
  2
*D7
 70
     1
 10
0.0
 20
0.0
 30
0.0
  3
*D7
  1

  0
LINE
  5
114C5
330
E1F4
100
AcDbEntity
  8
R-ANNO-DIMS
 62
     0
370
    -2
100
AcDbLine
 10
36.60563364464918
 20
20.26928172762655
 30
0.0
 11
36.60563364464918
 21
20.94928172762655
 31
0.0
  0
LINE
  5
114C6
330
E1F4
100
AcDbEntity
  8
R-ANNO-DIMS
 62
     0
370
    -2
100
AcDbLine
 10
36.35563364464918
 20
20.76928172762655
 30
0.0
 11
32.85563564466933
 21
20.76928172762655
 31
0.0
  0
SOLID
  5
114C7
330
E1F4
100
AcDbEntity
  8
R-ANNO-DIMS
 62
     0
100
AcDbTrace
 10
36.35563364464918
 20
20.81094839429322
 30
0.0
 11
36.35563364464918
 21
20.72761506095988
 31
0.0
 12
36.60563364464918
 22
20.76928172762655
 32
0.0
 13
36.60563364464918
 23
20.76928172762655
 33
0.0
  0
SOLID
  5
114C8
330
E1F4
100
AcDbEntity
  8
R-ANNO-DIMS
 62
     0
100
AcDbTrace
 10
32.85563564466933
 20
20.81094839429322
 30
0.0
 11
32.85563564466933
 21
20.72761506095988
 31
0.0
 12
32.60563564466933
 22
20.76928172762655
 32
0.0
 13
32.60563564466933
 23
20.76928172762655
 33
0.0
  0
MTEXT
  5
114C9
330
E1F4
100
AcDbEntity
  8
R-ANNO-DIMS
 62
     0
100
AcDbMText
 10
34.60563464465926
 20
20.99428172762655
 30
0.0
 40
0.25
 41
0.0
 71
     5
 72
     1
  1
\A1;DLO
 73
     1
 44
1.0
1001
ACAD
1000
MTEXTBEGIN
1070
    73
1070
     1
1070
    44
1040
1.0
1070
    74
1070
     0
1000
MTEXTEND
  0
POINT
  5
114CA
330
E1F4
100
AcDbEntity
  8
DEFPOINTS
 62
     0
100
AcDbPoint
 10
36.60563364464918
 20
19.89428172762655
 30
0.0
  0
POINT
  5
114CB
330
E1F4
100
AcDbEntity
  8
DEFPOINTS
 62
     0
100
AcDbPoint
 10
32.60563564466933
 20
18.89428172762651
 30
0.0
  0
POINT
  5
114CC
330
E1F4
100
AcDbEntity
  8
DEFPOINTS
 62
     0
100
AcDbPoint
 10
32.60563564466933
 20
20.76928172762655
 30
0.0
  0
ENDBLK
  5
E1F6
330
E1F4
100
AcDbEntity
  8
0
100
AcDbBlockEnd
  0
BLOCK
  5
E200
330
E1FF
100
AcDbEntity
  8
0
100
AcDbBlockBegin
  2
*D8
 70
     1
 10
0.0
 20
0.0
 30
0.0
  3
*D8
  1

  0
LINE
  5
114CD
330
E1FF
100
AcDbEntity
  8
R-ANNO-DIMS
 62
     0
370
    -2
100
AcDbLine
 10
36.60563364464918
 20
20.26928172762655
 30
0.0
 11
36.60563364464918
 21
20.94928172762655
 31
0.0
  0
LINE
  5
114CE
330
E1FF
100
AcDbEntity
  8
R-ANNO-DIMS
 62
     0
370
    -2
100
AcDbLine
 10
38.60563364464918
 20
20.26928172762655
 30
0.0
 11
38.60563364464918
 21
20.94928172762655
 31
0.0
  0
LINE
  5
114CF
330
E1FF
100
AcDbEntity
  8
R-ANNO-DIMS
 62
     0
370
    -2
100
AcDbLine
 10
36.85563364464918
 20
20.76928172762655
 30
0.0
 11
38.35563364464918
 21
20.76928172762655
 31
0.0
  0
SOLID
  5
114D0
330
E1FF
100
AcDbEntity
  8
R-ANNO-DIMS
 62
     0
100
AcDbTrace
 10
36.85563364464918
 20
20.81094839429322
 30
0.0
 11
36.85563364464918
 21
20.72761506095988
 31
0.0
 12
36.60563364464918
 22
20.76928172762655
 32
0.0
 13
36.60563364464918
 23
20.76928172762655
 33
0.0
  0
SOLID
  5
114D1
330
E1FF
100
AcDbEntity
  8
R-ANNO-DIMS
 62
     0
100
AcDbTrace
 10
38.35563364464918
 20
20.81094839429322
 30
0.0
 11
38.35563364464918
 21
20.72761506095988
 31
0.0
 12
38.60563364464918
 22
20.76928172762655
 32
0.0
 13
38.60563364464918
 23
20.76928172762655
 33
0.0
  0
MTEXT
  5
114D2
330
E1FF
100
AcDbEntity
  8
R-ANNO-DIMS
 62
     0
100
AcDbMText
 10
37.60563364464918
 20
20.99428172762655
 30
0.0
 40
0.25
 41
0.0
 71
     5
 72
     1
  1
\A1;2"
 73
     1
 44
1.0
1001
ACAD
1000
MTEXTBEGIN
1070
    73
1070
     1
1070
    44
1040
1.0
1070
    74
1070
     0
1000
MTEXTEND
  0
POINT
  5
114D3
330
E1FF
100
AcDbEntity
  8
DEFPOINTS
 62
     0
100
AcDbPoint
 10
36.60563364464918
 20
19.89428172762655
 30
0.0
  0
POINT
  5
114D4
330
E1FF
100
AcDbEntity
  8
DEFPOINTS
 62
     0
100
AcDbPoint
 10
38.60563364464918
 20
19.89428172762655
 30
0.0
  0
POINT
  5
114D5
330
E1FF
100
AcDbEntity
  8
DEFPOINTS
 62
     0
100
AcDbPoint
 10
38.60563364464918
 20
20.76928172762655
 30
0.0
  0
ENDBLK
  5
E201
330
E1FF
100
AcDbEntity
  8
0
100
AcDbBlockEnd
  0
BLOCK
  5
E3B4
330
E3B3
100
AcDbEntity
  8
0
100
AcDbBlockBegin
  2
*D9
 70
     1
 10
0.0
 20
0.0
 30
0.0
  3
*D9
  1

  0
LINE
  5
114D6
330
E3B3
100
AcDbEntity
  8
R-ANNO-DIMS
 62
     0
370
    -2
100
AcDbLine
 10
32.23063364466933
 20
26.35852242452362
 30
0.0
 11
31.42563564466933
 21
26.35852242452362
 31
0.0
  0
LINE
  5
114D7
330
E3B3
100
AcDbEntity
  8
R-ANNO-DIMS
 62
     0
370
    -2
100
AcDbLine
 10
32.23063364466933
 20
26.85852242452362
 30
0.0
 11
31.42563564466933
 21
26.85852242452362
 31
0.0
  0
LINE
  5
114D8
330
E3B3
100
AcDbEntity
  8
R-ANNO-DIMS
 62
     0
370
    -2
100
AcDbLine
 10
31.60563564466933
 20
26.10852242452362
 30
0.0
 11
31.60563564466933
 21
25.85852242452362
 31
0.0
  0
LINE
  5
114D9
330
E3B3
100
AcDbEntity
  8
R-ANNO-DIMS
 62
     0
370
    -2
100
AcDbLine
 10
31.60563564466933
 20
27.10852242452362
 30
0.0
 11
31.60563564466933
 21
28.39185575785695
 31
0.0
  0
SOLID
  5
114DA
330
E3B3
100
AcDbEntity
  8
R-ANNO-DIMS
 62
     0
100
AcDbTrace
 10
31.56396897800266
 20
26.10852242452362
 30
0.0
 11
31.647302311336
 21
26.10852242452362
 31
0.0
 12
31.60563564466933
 22
26.35852242452362
 32
0.0
 13
31.60563564466933
 23
26.35852242452362
 33
0.0
  0
SOLID
  5
114DB
330
E3B3
100
AcDbEntity
  8
R-ANNO-DIMS
 62
     0
100
AcDbTrace
 10
31.56396897800266
 20
27.10852242452362
 30
0.0
 11
31.647302311336
 21
27.10852242452362
 31
0.0
 12
31.60563564466933
 22
26.85852242452362
 32
0.0
 13
31.60563564466933
 23
26.85852242452362
 33
0.0
  0
MTEXT
  5
114DC
330
E3B3
100
AcDbEntity
  8
R-ANNO-DIMS
 62
     0
100
AcDbMText
 10
31.38063564466932
 20
27.87518909119029
 30
0.0
 40
0.25
 41
0.0
 71
     5
 72
     1
  1
\A1;1/2"
 11
0.0000000000000001
 21
1.0
 31
0.0
 73
     1
 44
1.0
1001
ACAD
1000
MTEXTBEGIN
1070
    73
1070
     1
1070
    44
1040
1.0
1070
    74
1070
     0
1000
MTEXTEND
  0
POINT
  5
114DD
330
E3B3
100
AcDbEntity
  8
DEFPOINTS
 62
     0
100
AcDbPoint
 10
32.60563364466932
 20
26.35852242452362
 30
0.0
  0
POINT
  5
114DE
330
E3B3
100
AcDbEntity
  8
DEFPOINTS
 62
     0
100
AcDbPoint
 10
32.60563364466932
 20
26.85852242452362
 30
0.0
  0
POINT
  5
114DF
330
E3B3
100
AcDbEntity
  8
DEFPOINTS
 62
     0
100
AcDbPoint
 10
31.60563564466933
 20
26.85852242452362
 30
0.0
  0
ENDBLK
  5
E3B5
330
E3B3
100
AcDbEntity
  8
0
100
AcDbBlockEnd
  0
BLOCK
  5
E3C1
330
E3C0
100
AcDbEntity
  8
0
100
AcDbBlockBegin
  2
*D10
 70
     1
 10
0.0
 20
0.0
 30
0.0
  3
*D10
  1

  0
LINE
  5
114E0
330
E3C0
100
AcDbEntity
  8
R-ANNO-DIMS
 62
     0
370
    -2
100
AcDbLine
 10
32.23063364466933
 20
26.35852242452362
 30
0.0
 11
31.42563564466933
 21
26.35852242452362
 31
0.0
  0
LINE
  5
114E1
330
E3C0
100
AcDbEntity
  8
R-ANNO-DIMS
 62
     0
370
    -2
100
AcDbLine
 10
32.23063364466933
 20
24.35852242452362
 30
0.0
 11
31.42563564466933
 21
24.35852242452362
 31
0.0
  0
LINE
  5
114E2
330
E3C0
100
AcDbEntity
  8
R-ANNO-DIMS
 62
     0
370
    -2
100
AcDbLine
 10
31.60563564466933
 20
26.10852242452362
 30
0.0
 11
31.60563564466933
 21
24.60852242452362
 31
0.0
  0
SOLID
  5
114E3
330
E3C0
100
AcDbEntity
  8
R-ANNO-DIMS
 62
     0
100
AcDbTrace
 10
31.56396897800266
 20
26.10852242452362
 30
0.0
 11
31.647302311336
 21
26.10852242452362
 31
0.0
 12
31.60563564466933
 22
26.35852242452362
 32
0.0
 13
31.60563564466933
 23
26.35852242452362
 33
0.0
  0
SOLID
  5
114E4
330
E3C0
100
AcDbEntity
  8
R-ANNO-DIMS
 62
     0
100
AcDbTrace
 10
31.56396897800266
 20
24.60852242452362
 30
0.0
 11
31.647302311336
 21
24.60852242452362
 31
0.0
 12
31.60563564466933
 22
24.35852242452362
 32
0.0
 13
31.60563564466933
 23
24.35852242452362
 33
0.0
  0
MTEXT
  5
114E5
330
E3C0
100
AcDbEntity
  8
R-ANNO-DIMS
 62
     0
100
AcDbMText
 10
31.38063564466932
 20
25.35852242452362
 30
0.0
 40
0.25
 41
0.0
 71
     5
 72
     1
  1
\A1;2"
 11
0.0000000000000001
 21
1.0
 31
0.0
 73
     1
 44
1.0
1001
ACAD
1000
MTEXTBEGIN
1070
    73
1070
     1
1070
    44
1040
1.0
1070
    74
1070
     0
1000
MTEXTEND
  0
POINT
  5
114E6
330
E3C0
100
AcDbEntity
  8
DEFPOINTS
 62
     0
100
AcDbPoint
 10
32.60563364466932
 20
26.35852242452362
 30
0.0
  0
POINT
  5
114E7
330
E3C0
100
AcDbEntity
  8
DEFPOINTS
 62
     0
100
AcDbPoint
 10
32.60563364466932
 20
24.35852242452362
 30
0.0
  0
POINT
  5
114E8
330
E3C0
100
AcDbEntity
  8
DEFPOINTS
 62
     0
100
AcDbPoint
 10
31.60563564466933
 20
24.35852242452362
 30
0.0
  0
ENDBLK
  5
E3C2
330
E3C0
100
AcDbEntity
  8
0
100
AcDbBlockEnd
  0
BLOCK
  5
E3CD
330
E3CC
100
AcDbEntity
  8
0
100
AcDbBlockBegin
  2
*D11
 70
     1
 10
0.0
 20
0.0
 30
0.0
  3
*D11
  1

  0
LINE
  5
114E9
330
E3CC
100
AcDbEntity
  8
R-ANNO-DIMS
 62
     0
370
    -2
100
AcDbLine
 10
32.23063364466933
 20
24.35852242452362
 30
0.0
 11
31.42563564466933
 21
24.35852242452362
 31
0.0
  0
LINE
  5
114EA
330
E3CC
100
AcDbEntity
  8
R-ANNO-DIMS
 62
     0
370
    -2
100
AcDbLine
 10
31.60563564466933
 20
24.10852242452362
 30
0.0
 11
31.60563564466933
 21
23.35852242452362
 31
0.0
  0
MTEXT
  5
114EB
330
E3CC
100
AcDbEntity
  8
R-ANNO-DIMS
 62
     0
100
AcDbMText
 10
31.34943751044846
 20
23.73352242452362
 30
0.0
 40
0.25
 41
0.0
 71
     5
 72
     1
  1
\A1;DLO
 11
0.0000000000000001
 21
1.0
 31
0.0
 73
     1
 44
1.0
1001
ACAD
1000
MTEXTBEGIN
1070
    73
1070
     1
1070
    44
1040
1.0
1070
    74
1070
     0
1000
MTEXTEND
  0
SOLID
  5
114EC
330
E3CC
100
AcDbEntity
  8
R-ANNO-DIMS
 62
     0
100
AcDbTrace
 10
31.56396897800266
 20
24.10852242452362
 30
0.0
 11
31.647302311336
 21
24.10852242452362
 31
0.0
 12
31.60563564466933
 22
24.35852242452362
 32
0.0
 13
31.60563564466933
 23
24.35852242452362
 33
0.0
  0
SOLID
  5
114ED
330
E3CC
100
AcDbEntity
  8
R-ANNO-DIMS
 62
     0
100
AcDbTrace
 10
31.56396897800266
 20
23.35852242452362
 30
0.0
 11
31.647302311336
 21
23.35852242452362
 31
0.0
 12
31.60563564466933
 22
23.10852242452362
 32
0.0
 13
31.60563564466933
 23
23.10852242452362
 33
0.0
  0
POINT
  5
114EE
330
E3CC
100
AcDbEntity
  8
DEFPOINTS
 62
     0
100
AcDbPoint
 10
32.60563364466932
 20
24.35852242452362
 30
0.0
  0
POINT
  5
114EF
330
E3CC
100
AcDbEntity
  8
DEFPOINTS
 62
     0
100
AcDbPoint
 10
36.35563364466933
 20
23.10852242452362
 30
0.0
  0
POINT
  5
114F0
330
E3CC
100
AcDbEntity
  8
DEFPOINTS
 62
     0
100
AcDbPoint
 10
31.60563564466933
 20
23.10852242452362
 30
0.0
  0
ENDBLK
  5
E3CE
330
E3CC
100
AcDbEntity
  8
0
100
AcDbBlockEnd
  0
BLOCK
  5
E5B5
330
E5B4
100
AcDbEntity
  8
0
100
AcDbBlockBegin
  2
*D12
 70
     1
 10
0.0
 20
0.0
 30
0.0
  3
*D12
  1

  0
LINE
  5
114F1
330
E5B4
100
AcDbEntity
  8
R-ANNO-DIMS
 62
     0
370
    -2
100
AcDbLine
 10
50.2293696866368
 20
16.64428172762651
 30
0.0
 11
48.4243696866368
 21
16.64428172762651
 31
0.0
  0
LINE
  5
114F2
330
E5B4
100
AcDbEntity
  8
R-ANNO-DIMS
 62
     0
370
    -2
100
AcDbLine
 10
50.2293696866368
 20
16.14428172762651
 30
0.0
 11
48.4243696866368
 21
16.14428172762651
 31
0.0
  0
LINE
  5
114F3
330
E5B4
100
AcDbEntity
  8
R-ANNO-DIMS
 62
     0
370
    -2
100
AcDbLine
 10
48.60436968663679
 20
16.89428172762651
 30
0.0
 11
48.60436968663679
 21
17.14428172762651
 31
0.0
  0
LINE
  5
114F4
330
E5B4
100
AcDbEntity
  8
R-ANNO-DIMS
 62
     0
370
    -2
100
AcDbLine
 10
48.60436968663679
 20
15.89428172762651
 30
0.0
 11
48.60436968663679
 21
14.61094839429318
 31
0.0
  0
SOLID
  5
114F5
330
E5B4
100
AcDbEntity
  8
R-ANNO-DIMS
 62
     0
100
AcDbTrace
 10
48.56270301997013
 20
16.89428172762651
 30
0.0
 11
48.64603635330346
 21
16.89428172762651
 31
0.0
 12
48.60436968663679
 22
16.64428172762651
 32
0.0
 13
48.60436968663679
 23
16.64428172762651
 33
0.0
  0
SOLID
  5
114F6
330
E5B4
100
AcDbEntity
  8
R-ANNO-DIMS
 62
     0
100
AcDbTrace
 10
48.56270301997012
 20
15.89428172762651
 30
0.0
 11
48.64603635330345
 21
15.89428172762651
 31
0.0
 12
48.60436968663679
 22
16.14428172762651
 32
0.0
 13
48.60436968663679
 23
16.14428172762651
 33
0.0
  0
MTEXT
  5
114F7
330
E5B4
100
AcDbEntity
  8
R-ANNO-DIMS
 62
     0
100
AcDbMText
 10
48.37936968663679
 20
15.12761506095985
 30
0.0
 40
0.25
 41
0.0
 71
     5
 72
     1
  1
\A1;1/2"
 11
0.0000000000000001
 21
1.0
 31
0.0
 73
     1
 44
1.0
1001
ACAD
1000
MTEXTBEGIN
1070
    73
1070
     1
1070
    44
1040
1.0
1070
    74
1070
     0
1000
MTEXTEND
  0
POINT
  5
114F8
330
E5B4
100
AcDbEntity
  8
DEFPOINTS
 62
     0
100
AcDbPoint
 10
50.6043696866368
 20
16.64428172762651
 30
0.0
  0
POINT
  5
114F9
330
E5B4
100
AcDbEntity
  8
DEFPOINTS
 62
     0
100
AcDbPoint
 10
50.6043696866368
 20
16.14428172762651
 30
0.0
  0
POINT
  5
114FA
330
E5B4
100
AcDbEntity
  8
DEFPOINTS
 62
     0
100
AcDbPoint
 10
48.60436968663679
 20
16.14428172762651
 30
0.0
  0
ENDBLK
  5
E5B6
330
E5B4
100
AcDbEntity
  8
0
100
AcDbBlockEnd
  0
BLOCK
  5
E5C2
330
E5C1
100
AcDbEntity
  8
0
100
AcDbBlockBegin
  2
*D13
 70
     1
 10
0.0
 20
0.0
 30
0.0
  3
*D13
  1

  0
LINE
  5
114FB
330
E5C1
100
AcDbEntity
  8
R-ANNO-DIMS
 62
     0
370
    -2
100
AcDbLine
 10
50.2293696866368
 20
16.64428172762651
 30
0.0
 11
48.4243696866368
 21
16.64428172762651
 31
0.0
  0
LINE
  5
114FC
330
E5C1
100
AcDbEntity
  8
R-ANNO-DIMS
 62
     0
370
    -2
100
AcDbLine
 10
50.2293696866368
 20
18.64428172762651
 30
0.0
 11
48.4243696866368
 21
18.64428172762651
 31
0.0
  0
LINE
  5
114FD
330
E5C1
100
AcDbEntity
  8
R-ANNO-DIMS
 62
     0
370
    -2
100
AcDbLine
 10
48.6043696866368
 20
16.89428172762651
 30
0.0
 11
48.6043696866368
 21
18.39428172762651
 31
0.0
  0
SOLID
  5
114FE
330
E5C1
100
AcDbEntity
  8
R-ANNO-DIMS
 62
     0
100
AcDbTrace
 10
48.56270301997014
 20
16.89428172762651
 30
0.0
 11
48.64603635330347
 21
16.89428172762651
 31
0.0
 12
48.6043696866368
 22
16.64428172762651
 32
0.0
 13
48.6043696866368
 23
16.64428172762651
 33
0.0
  0
SOLID
  5
114FF
330
E5C1
100
AcDbEntity
  8
R-ANNO-DIMS
 62
     0
100
AcDbTrace
 10
48.56270301997014
 20
18.39428172762651
 30
0.0
 11
48.64603635330347
 21
18.39428172762651
 31
0.0
 12
48.6043696866368
 22
18.64428172762651
 32
0.0
 13
48.6043696866368
 23
18.64428172762651
 33
0.0
  0
MTEXT
  5
11500
330
E5C1
100
AcDbEntity
  8
R-ANNO-DIMS
 62
     0
100
AcDbMText
 10
48.37936968663679
 20
17.64428172762652
 30
0.0
 40
0.25
 41
0.0
 71
     5
 72
     1
  1
\A1;2"
 11
0.0000000000000001
 21
1.0
 31
0.0
 73
     1
 44
1.0
1001
ACAD
1000
MTEXTBEGIN
1070
    73
1070
     1
1070
    44
1040
1.0
1070
    74
1070
     0
1000
MTEXTEND
  0
POINT
  5
11501
330
E5C1
100
AcDbEntity
  8
DEFPOINTS
 62
     0
100
AcDbPoint
 10
50.6043696866368
 20
16.64428172762651
 30
0.0
  0
POINT
  5
11502
330
E5C1
100
AcDbEntity
  8
DEFPOINTS
 62
     0
100
AcDbPoint
 10
50.6043696866368
 20
18.64428172762651
 30
0.0
  0
POINT
  5
11503
330
E5C1
100
AcDbEntity
  8
DEFPOINTS
 62
     0
100
AcDbPoint
 10
48.6043696866368
 20
18.64428172762651
 30
0.0
  0
ENDBLK
  5
E5C3
330
E5C1
100
AcDbEntity
  8
0
100
AcDbBlockEnd
  0
BLOCK
  5
E5CE
330
E5CD
100
AcDbEntity
  8
0
100
AcDbBlockBegin
  2
*D14
 70
     1
 10
0.0
 20
0.0
 30
0.0
  3
*D14
  1

  0
LINE
  5
11504
330
E5CD
100
AcDbEntity
  8
R-ANNO-DIMS
 62
     0
370
    -2
100
AcDbLine
 10
50.2293696866368
 20
18.64428172762651
 30
0.0
 11
48.4243696866368
 21
18.64428172762651
 31
0.0
  0
LINE
  5
11505
330
E5CD
100
AcDbEntity
  8
R-ANNO-DIMS
 62
     0
370
    -2
100
AcDbLine
 10
48.6043696866368
 20
18.89428172762651
 30
0.0
 11
48.6043696866368
 21
19.64428172762651
 31
0.0
  0
MTEXT
  5
11506
330
E5CD
100
AcDbEntity
  8
R-ANNO-DIMS
 62
     0
100
AcDbMText
 10
48.34817155241593
 20
19.26928172762651
 30
0.0
 40
0.25
 41
0.0
 71
     5
 72
     1
  1
\A1;DLO
 11
0.0000000000000001
 21
1.0
 31
0.0
 73
     1
 44
1.0
1001
ACAD
1000
MTEXTBEGIN
1070
    73
1070
     1
1070
    44
1040
1.0
1070
    74
1070
     0
1000
MTEXTEND
  0
SOLID
  5
11507
330
E5CD
100
AcDbEntity
  8
R-ANNO-DIMS
 62
     0
100
AcDbTrace
 10
48.56270301997014
 20
18.89428172762651
 30
0.0
 11
48.64603635330347
 21
18.89428172762651
 31
0.0
 12
48.6043696866368
 22
18.64428172762651
 32
0.0
 13
48.6043696866368
 23
18.64428172762651
 33
0.0
  0
SOLID
  5
11508
330
E5CD
100
AcDbEntity
  8
R-ANNO-DIMS
 62
     0
100
AcDbTrace
 10
48.56270301997014
 20
19.64428172762651
 30
0.0
 11
48.64603635330347
 21
19.64428172762651
 31
0.0
 12
48.6043696866368
 22
19.89428172762651
 32
0.0
 13
48.6043696866368
 23
19.89428172762651
 33
0.0
  0
POINT
  5
11509
330
E5CD
100
AcDbEntity
  8
DEFPOINTS
 62
     0
100
AcDbPoint
 10
50.6043696866368
 20
18.64428172762651
 30
0.0
  0
POINT
  5
1150A
330
E5CD
100
AcDbEntity
  8
DEFPOINTS
 62
     0
100
AcDbPoint
 10
50.35436968663681
 20
19.89428172762651
 30
0.0
  0
POINT
  5
1150B
330
E5CD
100
AcDbEntity
  8
DEFPOINTS
 62
     0
100
AcDbPoint
 10
48.6043696866368
 20
19.89428172762651
 30
0.0
  0
ENDBLK
  5
E5CF
330
E5CD
100
AcDbEntity
  8
0
100
AcDbBlockEnd
  0
BLOCK
  5
E5F2
330
E5F1
100
AcDbEntity
  8
0
100
AcDbBlockBegin
  2
*D15
 70
     1
 10
0.0
 20
0.0
 30
0.0
  3
*D15
  1

  0
LINE
  5
1150C
330
E5F1
100
AcDbEntity
  8
R-ANNO-DIMS
 62
     0
370
    -2
100
AcDbLine
 10
52.60436968661665
 20
20.26928172762654
 30
0.0
 11
52.60436968661665
 21
20.94928172762654
 31
0.0
  0
LINE
  5
1150D
330
E5F1
100
AcDbEntity
  8
R-ANNO-DIMS
 62
     0
370
    -2
100
AcDbLine
 10
52.85436968661666
 20
20.76928172762654
 30
0.0
 11
58.85436768663681
 21
20.76928172762654
 31
0.0
  0
SOLID
  5
1150E
330
E5F1
100
AcDbEntity
  8
R-ANNO-DIMS
 62
     0
100
AcDbTrace
 10
52.85436968661666
 20
20.81094839429321
 30
0.0
 11
52.85436968661666
 21
20.72761506095988
 31
0.0
 12
52.60436968661665
 22
20.76928172762654
 32
0.0
 13
52.60436968661665
 23
20.76928172762654
 33
0.0
  0
SOLID
  5
1150F
330
E5F1
100
AcDbEntity
  8
R-ANNO-DIMS
 62
     0
100
AcDbTrace
 10
58.85436768663681
 20
20.81094839429321
 30
0.0
 11
58.85436768663681
 21
20.72761506095988
 31
0.0
 12
59.10436768663681
 22
20.76928172762654
 32
0.0
 13
59.10436768663681
 23
20.76928172762654
 33
0.0
  0
MTEXT
  5
11510
330
E5F1
100
AcDbEntity
  8
R-ANNO-DIMS
 62
     0
100
AcDbMText
 10
55.85436868662673
 20
20.99428172762654
 30
0.0
 40
0.25
 41
0.0
 71
     5
 72
     1
  1
\A1;DLO
 73
     1
 44
1.0
1001
ACAD
1000
MTEXTBEGIN
1070
    73
1070
     1
1070
    44
1040
1.0
1070
    74
1070
     0
1000
MTEXTEND
  0
POINT
  5
11511
330
E5F1
100
AcDbEntity
  8
DEFPOINTS
 62
     0
100
AcDbPoint
 10
52.60436968661665
 20
19.89428172762654
 30
0.0
  0
POINT
  5
11512
330
E5F1
100
AcDbEntity
  8
DEFPOINTS
 62
     0
100
AcDbPoint
 10
59.10436768663681
 20
18.89428172762651
 30
0.0
  0
POINT
  5
11513
330
E5F1
100
AcDbEntity
  8
DEFPOINTS
 62
     0
100
AcDbPoint
 10
59.10436768663681
 20
20.76928172762654
 30
0.0
  0
ENDBLK
  5
E5F3
330
E5F1
100
AcDbEntity
  8
0
100
AcDbBlockEnd
  0
BLOCK
  5
E5FD
330
E5FC
100
AcDbEntity
  8
0
100
AcDbBlockBegin
  2
*D16
 70
     1
 10
0.0
 20
0.0
 30
0.0
  3
*D16
  1

  0
LINE
  5
11514
330
E5FC
100
AcDbEntity
  8
R-ANNO-DIMS
 62
     0
370
    -2
100
AcDbLine
 10
50.60436968661665
 20
20.26928172762654
 30
0.0
 11
50.60436968661665
 21
20.94928172762654
 31
0.0
  0
LINE
  5
11515
330
E5FC
100
AcDbEntity
  8
R-ANNO-DIMS
 62
     0
370
    -2
100
AcDbLine
 10
52.60436968661665
 20
20.26928172762654
 30
0.0
 11
52.60436968661665
 21
20.94928172762654
 31
0.0
  0
LINE
  5
11516
330
E5FC
100
AcDbEntity
  8
R-ANNO-DIMS
 62
     0
370
    -2
100
AcDbLine
 10
50.85436968661666
 20
20.76928172762654
 30
0.0
 11
52.35436968661666
 21
20.76928172762654
 31
0.0
  0
SOLID
  5
11517
330
E5FC
100
AcDbEntity
  8
R-ANNO-DIMS
 62
     0
100
AcDbTrace
 10
50.85436968661666
 20
20.81094839429321
 30
0.0
 11
50.85436968661666
 21
20.72761506095988
 31
0.0
 12
50.60436968661665
 22
20.76928172762654
 32
0.0
 13
50.60436968661665
 23
20.76928172762654
 33
0.0
  0
SOLID
  5
11518
330
E5FC
100
AcDbEntity
  8
R-ANNO-DIMS
 62
     0
100
AcDbTrace
 10
52.35436968661666
 20
20.81094839429321
 30
0.0
 11
52.35436968661666
 21
20.72761506095988
 31
0.0
 12
52.60436968661665
 22
20.76928172762654
 32
0.0
 13
52.60436968661665
 23
20.76928172762654
 33
0.0
  0
MTEXT
  5
11519
330
E5FC
100
AcDbEntity
  8
R-ANNO-DIMS
 62
     0
100
AcDbMText
 10
51.60436968661666
 20
20.99428172762654
 30
0.0
 40
0.25
 41
0.0
 71
     5
 72
     1
  1
\A1;2"
 73
     1
 44
1.0
1001
ACAD
1000
MTEXTBEGIN
1070
    73
1070
     1
1070
    44
1040
1.0
1070
    74
1070
     0
1000
MTEXTEND
  0
POINT
  5
1151A
330
E5FC
100
AcDbEntity
  8
DEFPOINTS
 62
     0
100
AcDbPoint
 10
50.60436968661665
 20
19.89428172762654
 30
0.0
  0
POINT
  5
1151B
330
E5FC
100
AcDbEntity
  8
DEFPOINTS
 62
     0
100
AcDbPoint
 10
52.60436968661665
 20
19.89428172762654
 30
0.0
  0
POINT
  5
1151C
330
E5FC
100
AcDbEntity
  8
DEFPOINTS
 62
     0
100
AcDbPoint
 10
52.60436968661665
 20
20.76928172762654
 30
0.0
  0
ENDBLK
  5
E5FE
330
E5FC
100
AcDbEntity
  8
0
100
AcDbBlockEnd
  0
BLOCK
  5
E7BE
330
E7BD
100
AcDbEntity
  8
0
100
AcDbBlockBegin
  2
*D17
 70
     1
 10
0.0
 20
0.0
 30
0.0
  3
*D17
  1

  0
LINE
  5
1151D
330
E7BD
100
AcDbEntity
  8
R-ANNO-DIMS
 62
     0
370
    -2
100
AcDbLine
 10
50.2293696866368
 20
26.35852242452362
 30
0.0
 11
48.4243696866368
 21
26.35852242452362
 31
0.0
  0
LINE
  5
1151E
330
E7BD
100
AcDbEntity
  8
R-ANNO-DIMS
 62
     0
370
    -2
100
AcDbLine
 10
50.2293696866368
 20
26.85852242452362
 30
0.0
 11
48.4243696866368
 21
26.85852242452362
 31
0.0
  0
LINE
  5
1151F
330
E7BD
100
AcDbEntity
  8
R-ANNO-DIMS
 62
     0
370
    -2
100
AcDbLine
 10
48.60436968663679
 20
26.10852242452362
 30
0.0
 11
48.60436968663679
 21
25.85852242452362
 31
0.0
  0
LINE
  5
11520
330
E7BD
100
AcDbEntity
  8
R-ANNO-DIMS
 62
     0
370
    -2
100
AcDbLine
 10
48.60436968663679
 20
27.10852242452362
 30
0.0
 11
48.60436968663679
 21
28.39185575785696
 31
0.0
  0
SOLID
  5
11521
330
E7BD
100
AcDbEntity
  8
R-ANNO-DIMS
 62
     0
100
AcDbTrace
 10
48.56270301997013
 20
26.10852242452362
 30
0.0
 11
48.64603635330346
 21
26.10852242452362
 31
0.0
 12
48.60436968663679
 22
26.35852242452362
 32
0.0
 13
48.60436968663679
 23
26.35852242452362
 33
0.0
  0
SOLID
  5
11522
330
E7BD
100
AcDbEntity
  8
R-ANNO-DIMS
 62
     0
100
AcDbTrace
 10
48.56270301997013
 20
27.10852242452362
 30
0.0
 11
48.64603635330346
 21
27.10852242452362
 31
0.0
 12
48.60436968663679
 22
26.85852242452362
 32
0.0
 13
48.60436968663679
 23
26.85852242452362
 33
0.0
  0
MTEXT
  5
11523
330
E7BD
100
AcDbEntity
  8
R-ANNO-DIMS
 62
     0
100
AcDbMText
 10
48.37936968663679
 20
27.87518909119029
 30
0.0
 40
0.25
 41
0.0
 71
     5
 72
     1
  1
\A1;1/2"
 11
0.0000000000000001
 21
1.0
 31
0.0
 73
     1
 44
1.0
1001
ACAD
1000
MTEXTBEGIN
1070
    73
1070
     1
1070
    44
1040
1.0
1070
    74
1070
     0
1000
MTEXTEND
  0
POINT
  5
11524
330
E7BD
100
AcDbEntity
  8
DEFPOINTS
 62
     0
100
AcDbPoint
 10
50.6043696866368
 20
26.35852242452362
 30
0.0
  0
POINT
  5
11525
330
E7BD
100
AcDbEntity
  8
DEFPOINTS
 62
     0
100
AcDbPoint
 10
50.6043696866368
 20
26.85852242452362
 30
0.0
  0
POINT
  5
11526
330
E7BD
100
AcDbEntity
  8
DEFPOINTS
 62
     0
100
AcDbPoint
 10
48.60436968663679
 20
26.85852242452362
 30
0.0
  0
ENDBLK
  5
E7BF
330
E7BD
100
AcDbEntity
  8
0
100
AcDbBlockEnd
  0
BLOCK
  5
E7CB
330
E7CA
100
AcDbEntity
  8
0
100
AcDbBlockBegin
  2
*D18
 70
     1
 10
0.0
 20
0.0
 30
0.0
  3
*D18
  1

  0
LINE
  5
11527
330
E7CA
100
AcDbEntity
  8
R-ANNO-DIMS
 62
     0
370
    -2
100
AcDbLine
 10
50.2293696866368
 20
26.35852242452362
 30
0.0
 11
48.4243696866368
 21
26.35852242452362
 31
0.0
  0
LINE
  5
11528
330
E7CA
100
AcDbEntity
  8
R-ANNO-DIMS
 62
     0
370
    -2
100
AcDbLine
 10
50.2293696866368
 20
24.35852242452362
 30
0.0
 11
48.4243696866368
 21
24.35852242452362
 31
0.0
  0
LINE
  5
11529
330
E7CA
100
AcDbEntity
  8
R-ANNO-DIMS
 62
     0
370
    -2
100
AcDbLine
 10
48.6043696866368
 20
26.10852242452362
 30
0.0
 11
48.6043696866368
 21
24.60852242452362
 31
0.0
  0
SOLID
  5
1152A
330
E7CA
100
AcDbEntity
  8
R-ANNO-DIMS
 62
     0
100
AcDbTrace
 10
48.56270301997014
 20
26.10852242452362
 30
0.0
 11
48.64603635330347
 21
26.10852242452362
 31
0.0
 12
48.6043696866368
 22
26.35852242452362
 32
0.0
 13
48.6043696866368
 23
26.35852242452362
 33
0.0
  0
SOLID
  5
1152B
330
E7CA
100
AcDbEntity
  8
R-ANNO-DIMS
 62
     0
100
AcDbTrace
 10
48.56270301997014
 20
24.60852242452362
 30
0.0
 11
48.64603635330347
 21
24.60852242452362
 31
0.0
 12
48.6043696866368
 22
24.35852242452362
 32
0.0
 13
48.6043696866368
 23
24.35852242452362
 33
0.0
  0
MTEXT
  5
1152C
330
E7CA
100
AcDbEntity
  8
R-ANNO-DIMS
 62
     0
100
AcDbMText
 10
48.37936968663679
 20
25.35852242452363
 30
0.0
 40
0.25
 41
0.0
 71
     5
 72
     1
  1
\A1;2"
 11
0.0000000000000001
 21
1.0
 31
0.0
 73
     1
 44
1.0
1001
ACAD
1000
MTEXTBEGIN
1070
    73
1070
     1
1070
    44
1040
1.0
1070
    74
1070
     0
1000
MTEXTEND
  0
POINT
  5
1152D
330
E7CA
100
AcDbEntity
  8
DEFPOINTS
 62
     0
100
AcDbPoint
 10
50.6043696866368
 20
26.35852242452362
 30
0.0
  0
POINT
  5
1152E
330
E7CA
100
AcDbEntity
  8
DEFPOINTS
 62
     0
100
AcDbPoint
 10
50.6043696866368
 20
24.35852242452362
 30
0.0
  0
POINT
  5
1152F
330
E7CA
100
AcDbEntity
  8
DEFPOINTS
 62
     0
100
AcDbPoint
 10
48.6043696866368
 20
24.35852242452362
 30
0.0
  0
ENDBLK
  5
E7CC
330
E7CA
100
AcDbEntity
  8
0
100
AcDbBlockEnd
  0
BLOCK
  5
E7D7
330
E7D6
100
AcDbEntity
  8
0
100
AcDbBlockBegin
  2
*D19
 70
     1
 10
0.0
 20
0.0
 30
0.0
  3
*D19
  1

  0
LINE
  5
11530
330
E7D6
100
AcDbEntity
  8
R-ANNO-DIMS
 62
     0
370
    -2
100
AcDbLine
 10
50.2293696866368
 20
24.35852242452362
 30
0.0
 11
48.4243696866368
 21
24.35852242452362
 31
0.0
  0
LINE
  5
11531
330
E7D6
100
AcDbEntity
  8
R-ANNO-DIMS
 62
     0
370
    -2
100
AcDbLine
 10
48.6043696866368
 20
24.10852242452362
 30
0.0
 11
48.6043696866368
 21
23.35852242452362
 31
0.0
  0
MTEXT
  5
11532
330
E7D6
100
AcDbEntity
  8
R-ANNO-DIMS
 62
     0
100
AcDbMText
 10
48.34817155241593
 20
23.73352242452362
 30
0.0
 40
0.25
 41
0.0
 71
     5
 72
     1
  1
\A1;DLO
 11
0.0000000000000001
 21
1.0
 31
0.0
 73
     1
 44
1.0
1001
ACAD
1000
MTEXTBEGIN
1070
    73
1070
     1
1070
    44
1040
1.0
1070
    74
1070
     0
1000
MTEXTEND
  0
SOLID
  5
11533
330
E7D6
100
AcDbEntity
  8
R-ANNO-DIMS
 62
     0
100
AcDbTrace
 10
48.56270301997014
 20
24.10852242452362
 30
0.0
 11
48.64603635330347
 21
24.10852242452362
 31
0.0
 12
48.6043696866368
 22
24.35852242452362
 32
0.0
 13
48.6043696866368
 23
24.35852242452362
 33
0.0
  0
SOLID
  5
11534
330
E7D6
100
AcDbEntity
  8
R-ANNO-DIMS
 62
     0
100
AcDbTrace
 10
48.56270301997014
 20
23.35852242452362
 30
0.0
 11
48.64603635330347
 21
23.35852242452362
 31
0.0
 12
48.6043696866368
 22
23.10852242452362
 32
0.0
 13
48.6043696866368
 23
23.10852242452362
 33
0.0
  0
POINT
  5
11535
330
E7D6
100
AcDbEntity
  8
DEFPOINTS
 62
     0
100
AcDbPoint
 10
50.6043696866368
 20
24.35852242452362
 30
0.0
  0
POINT
  5
11536
330
E7D6
100
AcDbEntity
  8
DEFPOINTS
 62
     0
100
AcDbPoint
 10
50.35436968663681
 20
23.10852242452362
 30
0.0
  0
POINT
  5
11537
330
E7D6
100
AcDbEntity
  8
DEFPOINTS
 62
     0
100
AcDbPoint
 10
48.6043696866368
 20
23.10852242452362
 30
0.0
  0
ENDBLK
  5
E7D8
330
E7D6
100
AcDbEntity
  8
0
100
AcDbBlockEnd
  0
BLOCK
  5
1192C
330
11920
100
AcDbEntity
  8
0
100
AcDbBlockBegin
  2
Kawneer Logo English
 70
     0
 10
0.0
 20
0.0
 30
0.0
  3
Kawneer Logo English
  1

  0
MTEXT
  5
11921
102
{ACAD_XDICTIONARY
360
11987
102
}
330
11920
100
AcDbEntity
  8
Kawneer Logo-English
100
AcDbMText
 10
1.510096758583198
 20
0.0372523876656778
 30
0.0
 40
0.036
 41
0.6125900866323382
 71
     3
 72
     5
  1
{\fArial TUR|b0|i0|c0|p34;\T1.05;AN ARCONIC COMPANY}
 73
     1
 44
1.0
1001
ACAD
1000
ACAD_MTEXT_COLUMN_INFO_BEGIN
1070
    75
1070
     2
1070
    79
1070
     0
1070
    76
1070
     1
1070
    78
1070
     0
1070
    48
1040
0.6125900866323382
1070
    49
1040
1.0
1070
    50
1070
     1
1040
0.0
1000
ACAD_MTEXT_COLUMN_INFO_END
1000
MTEXTBEGIN
1070
    73
1070
     1
1070
    44
1040
1.0
1070
    74
1070
     0
1000
MTEXTEND
  0
HATCH
  5
11922
330
11920
100
AcDbEntity
  8
Kawneer Logo-English
100
AcDbHatch
 10
0.0
 20
0.0
 30
0.0
210
0.0
220
0.0
230
1.0
  2
SOLID
 70
     1
 71
     0
 91
        1
 92
        1
 93
       81
 72
     1
 10
0.2706169776412204
 20
0.0336337282279411
 11
0.2687512969786691
 21
0.0350329887248546
 72
     1
 10
0.2687512969786696
 20
0.0350329887248547
 11
0.2633408230572721
 21
0.039137486182467
 72
     1
 10
0.2633408230572729
 20
0.0391374861824669
 11
0.2550385441089194
 21
0.0453875164020133
 72
     1
 10
0.2550385441089191
 20
0.0453875164020132
 11
0.2442175962661241
 21
0.053596511317238
 72
     1
 10
0.2442175962661235
 20
0.0535965113172379
 11
0.2314376837276472
 21
0.0632980507625037
 72
     1
 10
0.2314376837276479
 20
0.0632980507625037
 11
0.2172585106922595
 21
0.0741189986052996
 72
     1
 10
0.2172585106922598
 20
0.0741189986052996
 11
0.2019599292593419
 21
0.0856862187131167
 72
     1
 10
0.201959929259341
 20
0.0856862187131167
 11
0.1862882116939105
 21
0.0976265749534437
 72
     1
 10
0.1862882116939102
 20
0.0976265749534437
 11
0.1706164941284813
 21
0.1095669311937706
 72
     1
 10
0.1706164941284811
 20
0.1095669311937709
 11
0.1553179126955632
 21
0.1211341513015875
 72
     1
 10
0.1553179126955642
 20
0.1211341513015876
 11
0.1411387396601757
 21
0.131955099144384
 72
     1
 10
0.1411387396601755
 20
0.1319550991443839
 11
0.1284521111548274
 21
0.141749922622777
 72
     1
 10
0.1284521111548278
 20
0.1417499226227768
 11
0.117631163312031
 21
0.1499589175380016
 72
     1
 10
0.1176311633120304
 20
0.1499589175380017
 11
0.1094221683968068
 21
0.1563022317906752
 72
     1
 10
0.1094221683968062
 20
0.1563022317906754
 11
0.1041049785085351
 21
0.1604067292482882
 72
     1
 10
0.1041049785085351
 20
0.1604067292482878
 11
0.1023325818791119
 21
0.1618992737783286
 72
     1
 10
0.1023325818791116
 20
0.1618992737783289
 11
0.1043848306079176
 21
0.1636716704077524
 72
     1
 10
0.1043848306079194
 20
0.1636716704077524
 11
0.1100751566286996
 21
0.1683358720641301
 72
     1
 10
0.1100751566286986
 20
0.1683358720641301
 11
0.1189371397758159
 21
0.1757053106812067
 72
     1
 10
0.1189371397758161
 20
0.1757053106812067
 11
0.1304110758505067
 21
0.1851269980270901
 72
     1
 10
0.1304110758505059
 20
0.1851269980270902
 11
0.1439372606540007
 21
0.1963210820023967
 72
     1
 10
0.1439372606540017
 20
0.1963210820023967
 11
0.1589559899875385
 21
0.2087278584083611
 72
     1
 10
0.1589559899875379
 20
0.2087278584083611
 11
0.1750941277186041
 21
0.2220674751456017
 72
     1
 10
0.1750941277186047
 20
0.2220674751456017
 11
0.19169868561531
 21
0.2358735120484796
 72
     1
 10
0.1916986856153105
 20
0.2358735120484796
 11
0.208303243512014
 21
0.2495862649182301
 72
     1
 10
0.2083032435120131
 20
0.2495862649182304
 11
0.2244413812430811
 21
0.2628325976223432
 72
     1
 10
0.2244413812430812
 20
0.2628325976223429
 11
0.239460110576618
 21
0.2753326580614352
 72
     1
 10
0.2394601105766174
 20
0.2753326580614351
 11
0.2529862953801122
 21
0.2864334580036143
 72
     1
 10
0.2529862953801132
 20
0.2864334580036143
 11
0.2643669474216756
 21
0.2958551453494973
 72
     1
 10
0.2643669474216757
 20
0.2958551453494973
 11
0.2731356465356649
 21
0.3031312999334466
 72
     1
 10
0.273135646535664
 20
0.3031312999334466
 11
0.2788259725564443
 21
0.3077955015898243
 72
     1
 10
0.278825972556445
 20
0.3077955015898246
 11
0.2807849372521245
 21
0.3094746141861208
 72
     1
 10
0.2807849372521249
 20
0.3094746141861205
 11
0.2798520969208501
 21
0.3094746141861205
 72
     1
 10
0.2798520969208496
 20
0.3094746141861205
 11
0.2769602918938953
 21
0.3095678982192478
 72
     1
 10
0.2769602918938943
 20
0.3095678982192481
 11
0.2724826583037715
 21
0.3095678982192481
 72
     1
 10
0.2724826583037729
 20
0.3095678982192481
 11
0.2666057642167363
 21
0.3095678982192481
 72
     1
 10
0.266605764216735
 20
0.3095678982192481
 11
0.2597027457652953
 21
0.3095678982192481
 72
     1
 10
0.2597027457652956
 20
0.3095678982192481
 11
0.2519601710157094
 21
0.3095678982192481
 72
     1
 10
0.2519601710157104
 20
0.3095678982192481
 11
0.2437511761004851
 21
0.3095678982192481
 72
     1
 10
0.243751176100484
 20
0.3095678982192481
 11
0.2351690450527495
 21
0.3095678982192481
 72
     1
 10
0.2351690450527495
 20
0.3095678982192481
 11
0.2266801980381413
 21
0.3095678982192481
 72
     1
 10
0.2266801980381423
 20
0.3095678982192481
 11
0.2183779190897905
 21
0.3094746141861208
 72
     1
 10
0.2183779190897899
 20
0.3094746141861205
 11
0.2106353443402037
 21
0.3094746141861205
 72
     1
 10
0.2106353443402029
 20
0.3094746141861205
 11
0.2037323258887632
 21
0.3094746141861205
 72
     1
 10
0.203732325888764
 20
0.3094746141861205
 11
0.1978554318017273
 21
0.3094746141861205
 72
     1
 10
0.1978554318017278
 20
0.3094746141861205
 11
0.1932845141784786
 21
0.3094746141861205
 72
     1
 10
0.1932845141784787
 20
0.3094746141861205
 11
0.1903927091515244
 21
0.3094746141861205
 72
     1
 10
0.1903927091515234
 20
0.3094746141861205
 11
0.1893665847871204
 21
0.3094746141861205
 72
     1
 10
0.1893665847871206
 20
0.3094746141861205
 11
0.1879673242902067
 21
0.3077955015898243
 72
     1
 10
0.1879673242902076
 20
0.3077955015898246
 11
0.1841426789319786
 21
0.3030380159003196
 72
     1
 10
0.1841426789319787
 20
0.3030380159003192
 11
0.1780792167786874
 21
0.29576186131637
 72
     1
 10
0.1780792167786873
 20
0.29576186131637
 11
0.170243357995973
 21
0.2862468899373593
 72
     1
 10
0.170243357995973
 20
0.2862468899373593
 11
0.1610082387163447
 21
0.2750528059620528
 72
     1
 10
0.1610082387163438
 20
0.2750528059620528
 11
0.1507469950723126
 21
0.2624594614898328
 72
     1
 10
0.1507469950723133
 20
0.2624594614898328
 11
0.1396461951301336
 21
0.2491198447525922
 72
     1
 10
0.1396461951301333
 20
0.2491198447525922
 11
0.1282655430885727
 21
0.2352205238165866
 72
     1
 10
0.1282655430885726
 20
0.2352205238165868
 11
0.1168848910470102
 21
0.2214144869137089
 72
     1
 10
0.1168848910470102
 20
0.2214144869137087
 11
0.1058773751379587
 21
0.2079815861433408
 72
     1
 10
0.105877375137958
 20
0.2079815861433408
 11
0.0955228474608004
 21
0.1954815257042486
 72
     1
 10
0.0955228474608019
 20
0.1954815257042488
 11
0.0862877281811736
 21
0.1842874417289424
 72
     1
 10
0.0862877281811727
 20
0.1842874417289424
 11
0.0784518693984583
 21
0.1747724703499316
 72
     1
 10
0.0784518693984584
 20
0.1747724703499314
 11
0.0723884072451672
 21
0.1674963157659821
 72
     1
 10
0.0723884072451671
 20
0.1674963157659822
 11
0.0685637618869363
 21
0.1627388300764767
 72
     1
 10
0.0685637618869364
 20
0.1627388300764767
 11
0.0671645013900242
 21
0.1611530015133082
 72
     1
 10
0.0671645013900251
 20
0.1611530015133082
 11
0.0680040576881734
 21
0.1596604569832674
 72
     1
 10
0.0680040576881726
 20
0.1596604569832674
 11
0.0704294425494878
 21
0.1556492435587824
 72
     1
 10
0.0704294425494871
 20
0.1556492435587824
 11
0.0742540879077179
 21
0.1493059293061089
 72
     1
 10
0.0742540879077192
 20
0.1493059293061089
 11
0.0791048576303511
 21
0.1411902184240116
 72
     1
 10
0.0791048576303508
 20
0.1411902184240116
 11
0.0848884676842594
 21
0.1314886789787458
 72
     1
 10
0.0848884676842596
 20
0.1314886789787459
 11
0.0913250659700619
 21
0.1207610151690772
 72
     1
 10
0.0913250659700613
 20
0.1207610151690775
 11
0.0982280844214992
 21
0.1091937950612604
 72
     1
 10
0.0982280844214985
 20
0.1091937950612603
 11
0.1053176709391927
 21
0.0973467228540611
 72
     1
 10
0.105317670939193
 20
0.0973467228540612
 11
0.1124072574568872
 21
0.0854996506468619
 72
     1
 10
0.1124072574568871
 20
0.0854996506468617
 11
0.1193102759083267
 21
0.0739324305390446
 72
     1
 10
0.1193102759083278
 20
0.0739324305390448
 11
0.1257468741941283
 21
0.0632047667293762
 72
     1
 10
0.1257468741941277
 20
0.063204766729376
 11
0.1315304842480362
 21
0.0535032272841102
 72
     1
 10
0.1315304842480365
 20
0.0535032272841104
 11
0.1363812539706702
 21
0.0453875164020132
 72
     1
 10
0.1363812539706699
 20
0.0453875164020132
 11
0.1402058993288989
 21
0.0391374861824667
 72
     1
 10
0.1402058993288988
 20
0.0391374861824669
 11
0.1426312841902157
 21
0.0350329887248546
 72
     1
 10
0.1426312841902164
 20
0.0350329887248547
 11
0.1434708404883648
 21
0.0336337282279412
 72
     1
 10
0.143470840488364
 20
0.0336337282279411
 11
0.2706169776412211
 21
0.0336337282279411
 97
        0
 75
     0
 76
     1
 98
        1
 10
-0.3743130907707726
 20
-0.2500502867693841
1001
ACAD
1010
0.0
1020
0.0
1030
0.0
  0
HATCH
  5
11923
330
11920
100
AcDbEntity
  8
Kawneer Logo-English
100
AcDbHatch
 10
0.0
 20
0.0
 30
0.0
210
0.0
220
0.0
230
1.0
  2
SOLID
 70
     1
 71
     0
 91
        1
 92
        1
 93
       18
 72
     1
 10
0.0001865656044393
 20
0.2563959993365415
 11
-0.0000000024618153
 21
0.113671428651383
 72
     1
 10
-0.0000000024618159
 20
0.1136714286513832
 11
0.0012126899688416
 21
0.1152572572145516
 72
     1
 10
0.0012126899688421
 20
0.1152572572145516
 11
0.0045709151614355
 21
0.1197348908046738
 72
     1
 10
0.004570915161435
 20
0.119734890804674
 11
0.0098881050497044
 21
0.1268244773223682
 72
     1
 10
0.0098881050497044
 20
0.1268244773223682
 11
0.0166978394680158
 21
0.1359663125688683
 72
     1
 10
0.016697839468016
 20
0.1359663125688683
 11
0.0248135503501131
 21
0.1467872604116651
 72
     1
 10
0.024813550350113
 20
0.1467872604116652
 11
0.0338621015634867
 21
0.1588209006851195
 72
     1
 10
0.0338621015634872
 20
0.1588209006851194
 11
0.0434703569756247
 21
0.1716940972567221
 72
     1
 10
0.0434703569756247
 20
0.1716940972567224
 11
0.0534517485202732
 21
0.1850337139939626
 72
     1
 10
0.0534517485202724
 20
0.1850337139939624
 11
0.0634331400649208
 21
0.1983733307312025
 72
     1
 10
0.0634331400649222
 20
0.1983733307312024
 11
0.0730413954770597
 21
0.2112465273028051
 72
     1
 10
0.0730413954770595
 20
0.2112465273028053
 11
0.0820899466904331
 21
0.2233734516093873
 72
     1
 10
0.0820899466904321
 20
0.2233734516093873
 11
0.0902056575725293
 21
0.2341943994521837
 72
     1
 10
0.0902056575725308
 20
0.2341943994521837
 11
0.0970153919908422
 21
0.2433362346986839
 72
     1
 10
0.0970153919908405
 20
0.2433362346986839
 11
0.1022392978459834
 21
0.2503325371832507
 72
     1
 10
0.1022392978459843
 20
0.2503325371832508
 11
0.1056908070717041
 21
0.2549034548065008
 72
     1
 10
0.1056908070717046
 20
0.254903454806501
 11
0.1069034995023621
 21
0.2564892833696694
 72
     1
 10
0.1069034995023625
 20
0.2564892833696695
 11
0.0001865656044399
 21
0.2563959993365418
 97
        0
 75
     0
 76
     1
 98
        1
 10
-0.3743130907707726
 20
-0.2500502867693841
1001
ACAD
1010
0.0
1020
0.0
1030
0.0
  0
HATCH
  5
11924
330
11920
100
AcDbEntity
  8
Kawneer Logo-English
100
AcDbHatch
 10
0.0
 20
0.0
 30
0.0
210
0.0
220
0.0
230
1.0
  2
SOLID
 70
     1
 71
     0
 91
        2
 92
       16
 93
       76
 72
     1
 10
1.358402087941634
 20
0.1650709309046659
 11
1.358402087941634
 21
0.16796273593162
 72
     1
 10
1.358402087941634
 20
0.1679627359316202
 11
1.358402087941634
 21
0.1729067896873803
 72
     1
 10
1.358402087941634
 20
0.1729067896873803
 11
1.358402087941634
 21
0.1791568199069267
 72
     1
 10
1.358402087941634
 20
0.1791568199069267
 11
1.358402087941634
 21
0.1861531223914932
 72
     1
 10
1.358402087941634
 20
0.186153122391493
 11
1.358402087941634
 21
0.1931494248760595
 72
     1
 10
1.358402087941634
 20
0.1931494248760596
 11
1.358402087941634
 21
0.1994927391287338
 72
     1
 10
1.358402087941634
 20
0.1994927391287336
 11
1.358402087941634
 21
0.2044367928844937
 72
     1
 10
1.358402087941634
 20
0.2044367928844937
 11
1.358402087941634
 21
0.2072353138783208
 72
     1
 10
1.358402087941634
 20
0.2072353138783208
 11
1.359894632471676
 21
0.2072353138783208
 72
     1
 10
1.359894632471676
 20
0.2072353138783208
 11
1.362693153465502
 21
0.2072353138783208
 72
     1
 10
1.362693153465502
 20
0.2072353138783208
 11
1.366424514790605
 21
0.2072353138783208
 72
     1
 10
1.366424514790606
 20
0.2072353138783208
 11
1.371088716446983
 21
0.2072353138783208
 72
     1
 10
1.371088716446982
 20
0.2072353138783208
 11
1.376405906335254
 21
0.2072353138783208
 72
     1
 10
1.376405906335254
 20
0.2072353138783208
 11
1.382282800422289
 21
0.2072353138783208
 72
     1
 10
1.38228280042229
 20
0.2072353138783208
 11
1.388346262575581
 21
0.2072353138783208
 72
     1
 10
1.388346262575579
 20
0.2072353138783208
 11
1.394596292795125
 21
0.2072353138783208
 72
     1
 10
1.394596292795125
 20
0.2072353138783208
 11
1.400753038981545
 21
0.2072353138783208
 72
     1
 10
1.400753038981546
 20
0.2072353138783208
 11
1.406723217101709
 21
0.2072353138783208
 72
     1
 10
1.406723217101708
 20
0.2072353138783208
 11
1.412320259089362
 21
0.2072353138783208
 72
     1
 10
1.412320259089362
 20
0.2072353138783208
 11
1.417264312845122
 21
0.2072353138783208
 72
     1
 10
1.417264312845123
 20
0.2072353138783208
 11
1.421368810302735
 21
0.2072353138783208
 72
     1
 10
1.421368810302734
 20
0.2072353138783208
 11
1.424540467429071
 21
0.2072353138783208
 72
     1
 10
1.424540467429072
 20
0.2072353138783208
 11
1.426592716157878
 21
0.2072353138783208
 72
     1
 10
1.426592716157878
 20
0.2072353138783208
 11
1.427338988422898
 21
0.2072353138783208
 72
     1
 10
1.427338988422898
 20
0.2072353138783208
 11
1.430977065714873
 21
0.207142029845193
 72
     1
 10
1.430977065714872
 20
0.207142029845193
 11
1.434335290907465
 21
0.2068621777458102
 72
     1
 10
1.434335290907465
 20
0.2068621777458102
 11
1.435921119470633
 21
0.2066756096795552
 72
     1
 10
1.435921119470633
 20
0.206675609679555
 11
1.437413664000673
 21
0.2063957575801723
 72
     1
 10
1.437413664000674
 20
0.2063957575801723
 11
1.438906208530714
 21
0.2061159054807895
 72
     1
 10
1.438906208530714
 20
0.2061159054807898
 11
1.440398753060756
 21
0.2056494853151523
 72
     1
 10
1.440398753060756
 20
0.2056494853151521
 11
1.441704729524542
 21
0.2050897811163865
 72
     1
 10
1.441704729524542
 20
0.2050897811163866
 11
1.443010705988328
 21
0.204530076917621
 72
     1
 10
1.443010705988329
 20
0.204530076917621
 11
1.444223398418986
 21
0.2036905206194736
 72
     1
 10
1.444223398418985
 20
0.2036905206194736
 11
1.445436090849643
 21
0.2028509643213252
 72
     1
 10
1.445436090849643
 20
0.2028509643213252
 11
1.446555499247174
 21
0.2018248399569224
 72
     1
 10
1.446555499247173
 20
0.2018248399569223
 11
1.447581623611576
 21
0.2007054315593917
 72
     1
 10
1.447581623611578
 20
0.2007054315593915
 11
1.448607747975981
 21
0.1993061710624781
 72
     1
 10
1.448607747975981
 20
0.1993061710624781
 11
1.449540588307258
 21
0.1978136265324374
 72
     1
 10
1.449540588307256
 20
0.1978136265324373
 11
1.450380144605403
 21
0.1961345139361415
 72
     1
 10
1.450380144605404
 20
0.1961345139361415
 11
1.451126416870426
 21
0.1944554013398453
 72
     1
 10
1.451126416870426
 20
0.1944554013398454
 11
1.451592837036063
 21
0.1929628568098046
 72
     1
 10
1.451592837036062
 20
0.1929628568098046
 11
1.451965973168573
 21
0.1913770282466361
 72
     1
 10
1.451965973168574
 20
0.1913770282466361
 11
1.452245825267955
 21
0.1899777677497231
 72
     1
 10
1.452245825267954
 20
0.1899777677497231
 11
1.452432393334211
 21
0.188671791285937
 72
     1
 10
1.452432393334211
 20
0.1886717912859369
 11
1.452432393334211
 21
0.1874590988552789
 72
     1
 10
1.452432393334211
 20
0.1874590988552789
 11
1.452525677367338
 21
0.1863396904577482
 72
     1
 10
1.452525677367337
 20
0.1863396904577481
 11
1.452432393334211
 21
0.1844740097951972
 72
     1
 10
1.452432393334211
 20
0.1844740097951974
 11
1.452245825267955
 21
0.1827948971989012
 72
     1
 10
1.452245825267954
 20
0.1827948971989009
 11
1.451872689135445
 21
0.1810225005694773
 72
     1
 10
1.451872689135446
 20
0.1810225005694774
 11
1.451406268969809
 21
0.1794366720063093
 72
     1
 10
1.451406268969809
 20
0.1794366720063094
 11
1.450846564771043
 21
0.1779441274762682
 72
     1
 10
1.450846564771041
 20
0.1779441274762681
 11
1.450100292506021
 21
0.1764515829462274
 72
     1
 10
1.450100292506023
 20
0.1764515829462275
 11
1.449260736207875
 21
0.1750523224493141
 72
     1
 10
1.449260736207873
 20
0.1750523224493139
 11
1.448327895876597
 21
0.1737463459855283
 72
     1
 10
1.448327895876596
 20
0.1737463459855281
 11
1.44702191941281
 21
0.1723470854886151
 72
     1
 10
1.447021919412811
 20
0.1723470854886151
 11
1.445715942949025
 21
0.1711343930579568
 72
     1
 10
1.445715942949026
 20
0.1711343930579568
 11
1.444316682452114
 21
0.1700149846604262
 72
     1
 10
1.444316682452114
 20
0.1700149846604259
 11
1.442824137922072
 21
0.168988860296023
 72
     1
 10
1.442824137922072
 20
0.168988860296023
 11
1.441238309358904
 21
0.1682425880310024
 72
     1
 10
1.441238309358902
 20
0.1682425880310024
 11
1.439559196762608
 21
0.1674963157659821
 72
     1
 10
1.439559196762608
 20
0.1674963157659822
 11
1.437880084166311
 21
0.1669366115672166
 72
     1
 10
1.437880084166311
 20
0.1669366115672167
 11
1.436107687536888
 21
0.1664701914015788
 72
     1
 10
1.436107687536888
 20
0.1664701914015789
 11
1.434242006874337
 21
0.166003771235941
 72
     1
 10
1.434242006874337
 20
0.1660037712359412
 11
1.432376326211786
 21
0.1657239191365588
 72
     1
 10
1.432376326211785
 20
0.1657239191365585
 11
1.430417361516107
 21
0.1655373510703035
 72
     1
 10
1.430417361516108
 20
0.1655373510703037
 11
1.428458396820429
 21
0.1653507830040482
 72
     1
 10
1.428458396820428
 20
0.1653507830040482
 11
1.424353899362817
 21
0.1651642149377932
 72
     1
 10
1.424353899362817
 20
0.1651642149377932
 11
1.420156117872077
 21
0.1650709309046658
 72
     1
 10
1.420156117872076
 20
0.1650709309046659
 11
1.41773073301076
 21
0.1650709309046659
 72
     1
 10
1.417730733010761
 20
0.1650709309046659
 11
1.411107566658704
 21
0.1650709309046659
 72
     1
 10
1.411107566658702
 20
0.1650709309046659
 11
1.401779163345947
 21
0.1650709309046659
 72
     1
 10
1.401779163345949
 20
0.1650709309046659
 11
1.390958215503152
 21
0.1650709309046659
 72
     1
 10
1.390958215503152
 20
0.1650709309046659
 11
1.379950699594101
 21
0.1650709309046659
 72
     1
 10
1.379950699594099
 20
0.1650709309046659
 11
1.369969308049451
 21
0.1650709309046659
 72
     1
 10
1.369969308049451
 20
0.1650709309046659
 11
1.362320017332992
 21
0.1650709309046659
 72
     1
 10
1.362320017332992
 20
0.1650709309046659
 11
1.358402087941635
 21
0.1650709309046659
 97
        0
 92
        1
 93
      107
 72
     1
 10
1.443756978253348
 20
0.1485596570410883
 11
1.446928635379685
 21
0.1492126452729816
 72
     1
 10
1.446928635379685
 20
0.1492126452729817
 11
1.449540588307256
 21
0.1498656335048746
 72
     1
 10
1.449540588307256
 20
0.1498656335048745
 11
1.451872689135445
 21
0.1506119057698948
 72
     1
 10
1.451872689135446
 20
0.1506119057698946
 11
1.45401822189738
 21
0.1514514620680426
 72
     1
 10
1.45401822189738
 20
0.1514514620680425
 11
1.455883902559929
 21
0.1521977343330632
 72
     1
 10
1.455883902559929
 20
0.1521977343330631
 11
1.457563015156225
 21
0.1530372906312111
 72
     1
 10
1.457563015156225
 20
0.1530372906312111
 11
1.459148843719394
 21
0.1539701309624869
 72
     1
 10
1.459148843719394
 20
0.1539701309624866
 11
1.460641388249434
 21
0.1549029712937624
 72
     1
 10
1.460641388249434
 20
0.1549029712937622
 11
1.462133932779476
 21
0.155835811625038
 72
     1
 10
1.462133932779476
 20
0.155835811625038
 11
1.463439909243262
 21
0.1568619359894408
 72
     1
 10
1.463439909243262
 20
0.1568619359894408
 11
1.464745885707048
 21
0.1579813443869714
 72
     1
 10
1.464745885707047
 20
0.1579813443869716
 11
1.465865294104579
 21
0.1591007527845022
 72
     1
 10
1.465865294104579
 20
0.1591007527845025
 11
1.466984702502109
 21
0.1602201611820331
 72
     1
 10
1.466984702502108
 20
0.1602201611820328
 11
1.468010826866511
 21
0.1613395695795634
 72
     1
 10
1.468010826866511
 20
0.1613395695795637
 11
1.468943667197788
 21
0.1625522620102216
 72
     1
 10
1.468943667197788
 20
0.1625522620102216
 11
1.469876507529063
 21
0.1636716704077522
 72
     1
 10
1.469876507529063
 20
0.1636716704077524
 11
1.470622779794084
 21
0.1648843628384107
 72
     1
 10
1.470622779794084
 20
0.1648843628384107
 11
1.471462336092232
 21
0.1661903393021964
 72
     1
 10
1.471462336092232
 20
0.1661903393021967
 11
1.472115324324125
 21
0.1674030317328546
 72
     1
 10
1.472115324324124
 20
0.1674030317328546
 11
1.472768312556016
 21
0.1686157241635125
 72
     1
 10
1.472768312556017
 20
0.1686157241635125
 11
1.473328016754783
 21
0.1699217006272986
 72
     1
 10
1.473328016754782
 20
0.1699217006272989
 11
1.47379443692042
 21
0.1711343930579568
 72
     1
 10
1.47379443692042
 20
0.1711343930579568
 11
1.474260857086057
 21
0.1724403695217425
 72
     1
 10
1.474260857086058
 20
0.1724403695217424
 11
1.474727277251697
 21
0.1736530619524008
 72
     1
 10
1.474727277251697
 20
0.173653061952401
 11
1.475380265483589
 21
0.1760784468137175
 72
     1
 10
1.475380265483588
 20
0.1760784468137173
 11
1.475846685649225
 21
0.1785038316750338
 72
     1
 10
1.475846685649226
 20
0.1785038316750335
 11
1.476219821781737
 21
0.1808359325032223
 72
     1
 10
1.476219821781738
 20
0.1808359325032223
 11
1.47649967388112
 21
0.1830747492982838
 72
     1
 10
1.47649967388112
 20
0.1830747492982838
 11
1.476592957914248
 21
0.1851269980270901
 72
     1
 10
1.476592957914248
 20
0.1851269980270902
 11
1.476686241947374
 21
0.1870859627227688
 72
     1
 10
1.476686241947375
 20
0.1870859627227687
 11
1.476592957914249
 21
0.1888583593521923
 72
     1
 10
1.476592957914248
 20
0.1888583593521922
 11
1.476499673881119
 21
0.1906307559816158
 72
     1
 10
1.47649967388112
 20
0.1906307559816159
 11
1.476406389847991
 21
0.1924031526110394
 72
     1
 10
1.476406389847991
 20
0.1924031526110394
 11
1.476126537748608
 21
0.1940822652073352
 72
     1
 10
1.476126537748608
 20
0.1940822652073352
 11
1.475846685649226
 21
0.195761377803631
 72
     1
 10
1.475846685649226
 20
0.1957613778036309
 11
1.475566833549843
 21
0.1974404903999272
 72
     1
 10
1.475566833549843
 20
0.1974404903999272
 11
1.475100413384206
 21
0.1990263189630953
 72
     1
 10
1.475100413384205
 20
0.1990263189630952
 11
1.474633993218568
 21
0.2006121475262637
 72
     1
 10
1.474633993218568
 20
0.2006121475262639
 11
1.47416757305293
 21
0.2021046920563051
 72
     1
 10
1.474167573052932
 20
0.2021046920563049
 11
1.473514584821038
 21
0.2035972365863457
 72
     1
 10
1.473514584821037
 20
0.2035972365863459
 11
1.472954880622271
 21
0.2050897811163867
 72
     1
 10
1.472954880622272
 20
0.2050897811163866
 11
1.472208608357252
 21
0.2064890416133
 72
     1
 10
1.472208608357252
 20
0.2064890416133001
 11
1.471462336092232
 21
0.2078883021102135
 72
     1
 10
1.471462336092232
 20
0.2078883021102136
 11
1.470622779794083
 21
0.2091942785739993
 72
     1
 10
1.470622779794084
 20
0.2091942785739991
 11
1.469783223495935
 21
0.2105002550377848
 72
     1
 10
1.469783223495934
 20
0.2105002550377851
 11
1.468850383164659
 21
0.2118062315015707
 72
     1
 10
1.468850383164661
 20
0.2118062315015709
 11
1.467917542833386
 21
0.2130189239322288
 72
     1
 10
1.467917542833385
 20
0.2130189239322289
 11
1.466891418468982
 21
0.2141383323297595
 72
     1
 10
1.466891418468982
 20
0.2141383323297595
 11
1.465772010071451
 21
0.2153510247604178
 72
     1
 10
1.46577201007145
 20
0.215351024760418
 11
1.464652601673919
 21
0.2163771491248209
 72
     1
 10
1.46465260167392
 20
0.2163771491248209
 11
1.463533193276389
 21
0.2174032734892238
 72
     1
 10
1.463533193276389
 20
0.2174032734892238
 11
1.462227216812603
 21
0.2184293978536266
 72
     1
 10
1.462227216812602
 20
0.2184293978536266
 11
1.461014524381945
 21
0.2193622381849024
 72
     1
 10
1.461014524381946
 20
0.2193622381849023
 11
1.459615263885032
 21
0.2202950785161781
 72
     1
 10
1.459615263885031
 20
0.2202950785161782
 11
1.458309287421245
 21
0.2211346348143262
 72
     1
 10
1.458309287421246
 20
0.221134634814326
 11
1.456816742891206
 21
0.221974191112474
 72
     1
 10
1.456816742891206
 20
0.2219741911124738
 11
1.455417482394292
 21
0.2227204633774945
 72
     1
 10
1.455417482394291
 20
0.2227204633774944
 11
1.453831653831122
 21
0.2233734516093874
 72
     1
 10
1.453831653831123
 20
0.2233734516093873
 11
1.452339109301082
 21
0.2240264398412803
 72
     1
 10
1.452339109301082
 20
0.2240264398412803
 11
1.450659996704785
 21
0.2245861440400459
 72
     1
 10
1.450659996704787
 20
0.2245861440400457
 11
1.44907416814162
 21
0.2251458482388108
 72
     1
 10
1.449074168141619
 20
0.2251458482388109
 11
1.447301771512194
 21
0.2256122684044489
 72
     1
 10
1.447301771512194
 20
0.2256122684044488
 11
1.445249522783388
 21
0.2261719726032139
 72
     1
 10
1.445249522783388
 20
0.226171972603214
 11
1.44329055808771
 21
0.2265451087357246
 72
     1
 10
1.443290558087712
 20
0.2265451087357244
 11
1.441145025325778
 21
0.2269182448682345
 72
     1
 10
1.441145025325776
 20
0.2269182448682345
 11
1.438906208530714
 21
0.2271980969676173
 72
     1
 10
1.438906208530714
 20
0.2271980969676173
 11
1.436387539636271
 21
0.2273846650338724
 72
     1
 10
1.436387539636271
 20
0.2273846650338724
 11
1.433495734609316
 21
0.2275712331001274
 72
     1
 10
1.433495734609317
 20
0.2275712331001274
 11
1.430044225383597
 21
0.2276645171332552
 72
     1
 10
1.430044225383597
 20
0.2276645171332549
 11
1.42612629599224
 21
0.2277578011663822
 72
     1
 10
1.42612629599224
 20
0.2277578011663825
 11
1.426033011959112
 21
0.2277578011663825
 72
     1
 10
1.426033011959111
 20
0.2277578011663825
 11
1.33489451159349
 21
0.2277578011663825
 72
     1
 10
1.334894511593491
 20
0.2277578011663825
 11
1.334894511593491
 21
0.0926825211976832
 72
     1
 10
1.334894511593491
 20
0.0926825211976832
 11
1.358588656007891
 21
0.0926825211976832
 72
     1
 10
1.358588656007891
 20
0.0926825211976832
 11
1.358588656007891
 21
0.0947347699264896
 72
     1
 10
1.358588656007891
 20
0.0947347699264896
 11
1.358588656007891
 21
0.1001452438478876
 72
     1
 10
1.358588656007891
 20
0.1001452438478875
 11
1.358588656007891
 21
0.1079811026306024
 72
     1
 10
1.358588656007891
 20
0.1079811026306024
 11
1.358588656007891
 21
0.1170296538439752
 72
     1
 10
1.358588656007891
 20
0.1170296538439753
 11
1.358588656007891
 21
0.1262647731236032
 72
     1
 10
1.358588656007891
 20
0.1262647731236031
 11
1.358588656007891
 21
0.1347536201382103
 72
     1
 10
1.358588656007891
 20
0.1347536201382104
 11
1.358588656007891
 21
0.1412835024571394
 72
     1
 10
1.358588656007891
 20
0.1412835024571393
 11
1.358588656007891
 21
0.1448282957159864
 72
     1
 10
1.358588656007891
 20
0.1448282957159865
 11
1.362320017332992
 21
0.1448282957159865
 72
     1
 10
1.362320017332992
 20
0.1448282957159865
 11
1.369409603850688
 21
0.1448282957159865
 72
     1
 10
1.369409603850688
 20
0.1448282957159865
 11
1.378738007163443
 21
0.1448282957159865
 72
     1
 10
1.378738007163443
 20
0.1448282957159865
 11
1.388999250807475
 21
0.1448282957159865
 72
     1
 10
1.388999250807473
 20
0.1448282957159865
 11
1.399260494451505
 21
0.1448282957159865
 72
     1
 10
1.399260494451506
 20
0.1448282957159865
 11
1.408215761631749
 21
0.1448282957159865
 72
     1
 10
1.408215761631748
 20
0.1448282957159865
 11
1.414745643950677
 21
0.1448282957159865
 72
     1
 10
1.414745643950678
 20
0.1448282957159865
 11
1.41773073301076
 21
0.1448282957159865
 72
     1
 10
1.417730733010761
 20
0.1448282957159865
 11
1.420062833838949
 21
0.1420297747221594
 72
     1
 10
1.420062833838949
 20
0.1420297747221597
 11
1.425193455660966
 21
0.1359663125688683
 72
     1
 10
1.425193455660965
 20
0.1359663125688683
 11
1.432283042178659
 21
0.1275707495873888
 72
     1
 10
1.432283042178659
 20
0.1275707495873886
 11
1.440305469027628
 21
0.1180557782083779
 72
     1
 10
1.440305469027629
 20
0.1180557782083781
 11
1.448234611843471
 21
0.1087273748956225
 72
     1
 10
1.448234611843471
 20
0.1087273748956225
 11
1.455044346261782
 21
0.1006116640135252
 72
     1
 10
1.455044346261782
 20
0.1006116640135252
 11
1.459895115984414
 21
0.0948280539596167
 72
     1
 10
1.459895115984414
 20
0.0948280539596169
 11
1.461760796646965
 21
0.0926825211976832
 72
     1
 10
1.461760796646967
 20
0.0926825211976832
 11
1.49254452757906
 21
0.0926825211976832
 72
     1
 10
1.492544527579059
 20
0.0926825211976832
 11
1.490678846916508
 21
0.0948280539596169
 72
     1
 10
1.490678846916508
 20
0.0948280539596169
 11
1.48564150912762
 21
0.100518379980398
 72
     1
 10
1.48564150912762
 20
0.1005183799803981
 11
1.478458638576797
 21
0.1088206589287502
 72
     1
 10
1.478458638576798
 20
0.1088206589287502
 11
1.470063075595318
 21
0.1183356303077609
 72
     1
 10
1.470063075595317
 20
0.118335630307761
 11
1.461480944547582
 21
0.1282237378192818
 72
     1
 10
1.461480944547582
 20
0.1282237378192818
 11
1.453551801731739
 21
0.1372722890326546
 72
     1
 10
1.45355180173174
 20
0.1372722890326546
 11
1.447395055545323
 21
0.1444551595834761
 72
     1
 10
1.447395055545323
 20
0.1444551595834759
 11
1.443756978253349
 21
0.1485596570410882
 97
        0
 75
     0
 76
     1
 98
        1
 10
-0.3743130907707726
 20
-0.2500502867693841
1001
ACAD
1010
0.0
1020
0.0
1030
0.0
  0
HATCH
  5
11925
330
11920
100
AcDbEntity
  8
Kawneer Logo-English
100
AcDbHatch
 10
0.0
 20
0.0
 30
0.0
210
0.0
220
0.0
230
1.0
  2
SOLID
 70
     1
 71
     0
 91
        1
 92
        1
 93
       87
 72
     1
 10
1.205602841678699
 20
0.1525708704655737
 11
1.207468522341251
 21
0.1525708704655737
 72
     1
 10
1.207468522341252
 20
0.1525708704655737
 11
1.211199883666355
 21
0.1525708704655737
 72
     1
 10
1.211199883666355
 20
0.1525708704655737
 11
1.216517073554626
 21
0.1525708704655737
 72
     1
 10
1.216517073554626
 20
0.1525708704655737
 11
1.223046955873555
 21
0.1525708704655737
 72
     1
 10
1.223046955873553
 20
0.1525708704655737
 11
1.230602962556885
 21
0.1525708704655737
 72
     1
 10
1.230602962556885
 20
0.1525708704655737
 11
1.238998525538365
 21
0.1525708704655737
 72
     1
 10
1.238998525538365
 20
0.1525708704655737
 11
1.247767224652354
 21
0.1525708704655737
 72
     1
 10
1.247767224652355
 20
0.1525708704655737
 11
1.256815775865728
 21
0.1525708704655737
 72
     1
 10
1.256815775865729
 20
0.1525708704655737
 11
1.265771043045974
 21
0.1525708704655737
 72
     1
 10
1.265771043045973
 20
0.1525708704655737
 11
1.274446458126836
 21
0.1525708704655737
 72
     1
 10
1.274446458126837
 20
0.1525708704655737
 11
1.282562169008935
 21
0.1525708704655737
 72
     1
 10
1.282562169008935
 20
0.1525708704655737
 11
1.289745039559756
 21
0.1525708704655737
 72
     1
 10
1.289745039559755
 20
0.1525708704655737
 11
1.295808501713046
 21
0.1525708704655737
 72
     1
 10
1.295808501713046
 20
0.1525708704655737
 11
1.300472703369423
 21
0.1525708704655737
 72
     1
 10
1.300472703369423
 20
0.1525708704655737
 11
1.303457792429505
 21
0.1525708704655737
 72
     1
 10
1.303457792429505
 20
0.1525708704655737
 11
1.304483916793908
 21
0.1525708704655737
 72
     1
 10
1.304483916793908
 20
0.1525708704655737
 11
1.304483916793908
 21
0.1730000737205081
 72
     1
 10
1.304483916793908
 20
0.1730000737205078
 11
1.303457792429505
 21
0.1730000737205078
 72
     1
 10
1.303457792429505
 20
0.1730000737205078
 11
1.300472703369423
 21
0.1730000737205078
 72
     1
 10
1.300472703369423
 20
0.1730000737205078
 11
1.295808501713045
 21
0.1730000737205078
 72
     1
 10
1.295808501713046
 20
0.1730000737205078
 11
1.289745039559754
 21
0.1730000737205078
 72
     1
 10
1.289745039559755
 20
0.1730000737205078
 11
1.282562169008934
 21
0.1730000737205078
 72
     1
 10
1.282562169008935
 20
0.1730000737205078
 11
1.274446458126837
 21
0.1730000737205078
 72
     1
 10
1.274446458126837
 20
0.1730000737205078
 11
1.265771043045975
 21
0.1730000737205078
 72
     1
 10
1.265771043045973
 20
0.1730000737205078
 11
1.256815775865728
 21
0.1730000737205078
 72
     1
 10
1.256815775865729
 20
0.1730000737205078
 11
1.247767224652355
 21
0.1730000737205078
 72
     1
 10
1.247767224652355
 20
0.1730000737205078
 11
1.238998525538365
 21
0.1730000737205078
 72
     1
 10
1.238998525538365
 20
0.1730000737205078
 11
1.230602962556885
 21
0.1730000737205078
 72
     1
 10
1.230602962556885
 20
0.1730000737205078
 11
1.223046955873553
 21
0.1730000737205078
 72
     1
 10
1.223046955873553
 20
0.1730000737205078
 11
1.216517073554625
 21
0.1730000737205078
 72
     1
 10
1.216517073554626
 20
0.1730000737205078
 11
1.211199883666355
 21
0.1730000737205078
 72
     1
 10
1.211199883666355
 20
0.1730000737205078
 11
1.207468522341252
 21
0.1730000737205078
 72
     1
 10
1.207468522341252
 20
0.1730000737205078
 11
1.205602841678701
 21
0.1730000737205078
 72
     1
 10
1.205602841678699
 20
0.1730000737205078
 11
1.205602841678699
 21
0.1754254585818243
 72
     1
 10
1.205602841678699
 20
0.1754254585818245
 11
1.205602841678699
 21
0.1794366720063095
 72
     1
 10
1.205602841678699
 20
0.1794366720063094
 11
1.205602841678699
 21
0.1843807257620694
 72
     1
 10
1.205602841678699
 20
0.1843807257620694
 11
1.205602841678699
 21
0.1898844837165951
 72
     1
 10
1.205602841678699
 20
0.1898844837165951
 11
1.205602841678699
 21
0.1952949576379935
 72
     1
 10
1.205602841678699
 20
0.1952949576379937
 11
1.205602841678699
 21
0.2003322954268815
 72
     1
 10
1.205602841678699
 20
0.2003322954268814
 11
1.205602841678699
 21
0.2042502248182386
 72
     1
 10
1.205602841678699
 20
0.2042502248182386
 11
1.205602841678699
 21
0.206675609679555
 72
     1
 10
1.205602841678699
 20
0.206675609679555
 11
1.207468522341251
 21
0.206675609679555
 72
     1
 10
1.207468522341252
 20
0.206675609679555
 11
1.211293167699483
 21
0.206675609679555
 72
     1
 10
1.211293167699483
 20
0.206675609679555
 11
1.21670364162088
 21
0.206675609679555
 72
     1
 10
1.216703641620879
 20
0.206675609679555
 11
1.223420092006063
 21
0.206675609679555
 72
     1
 10
1.223420092006064
 20
0.206675609679555
 11
1.231255950788778
 21
0.206675609679555
 72
     1
 10
1.231255950788778
 20
0.206675609679555
 11
1.239744797803386
 21
0.206675609679555
 72
     1
 10
1.239744797803385
 20
0.206675609679555
 11
1.248886633049885
 21
0.206675609679555
 72
     1
 10
1.248886633049885
 20
0.206675609679555
 11
1.258121752329513
 21
0.206675609679555
 72
     1
 10
1.258121752329514
 20
0.206675609679555
 11
1.267356871609143
 21
0.206675609679555
 72
     1
 10
1.267356871609142
 20
0.206675609679555
 11
1.276218854756259
 21
0.206675609679555
 72
     1
 10
1.276218854756259
 20
0.206675609679555
 11
1.284521133704611
 21
0.206675609679555
 72
     1
 10
1.284521133704611
 20
0.206675609679555
 11
1.291890572321688
 21
0.206675609679555
 72
     1
 10
1.291890572321688
 20
0.206675609679555
 11
1.298140602541234
 21
0.206675609679555
 72
     1
 10
1.298140602541234
 20
0.206675609679555
 11
1.30289808823074
 21
0.206675609679555
 72
     1
 10
1.30289808823074
 20
0.206675609679555
 11
1.305976461323949
 21
0.206675609679555
 72
     1
 10
1.305976461323949
 20
0.206675609679555
 11
1.30709586972148
 21
0.206675609679555
 72
     1
 10
1.307095869721479
 20
0.206675609679555
 11
1.307095869721479
 21
0.2277578011663822
 72
     1
 10
1.307095869721479
 20
0.2277578011663825
 11
1.304577200827036
 21
0.2277578011663825
 72
     1
 10
1.304577200827037
 20
0.2277578011663825
 11
1.182188549363684
 21
0.2277578011663825
 72
     1
 10
1.182188549363684
 20
0.2277578011663825
 11
1.182188549363684
 21
0.0926825211976832
 72
     1
 10
1.182188549363684
 20
0.0926825211976832
 11
1.311853355410986
 21
0.0926825211976832
 72
     1
 10
1.311853355410985
 20
0.0926825211976832
 11
1.311853355410985
 21
0.113671428651383
 72
     1
 10
1.311853355410985
 20
0.1136714286513832
 11
1.310733947013454
 21
0.1136714286513832
 72
     1
 10
1.310733947013455
 20
0.1136714286513832
 11
1.307469005853991
 21
0.1136714286513832
 72
     1
 10
1.307469005853991
 20
0.1136714286513832
 11
1.302431668065102
 21
0.1136714286513832
 72
     1
 10
1.302431668065103
 20
0.1136714286513832
 11
1.295901785746174
 21
0.1136714286513832
 72
     1
 10
1.295901785746174
 20
0.1136714286513832
 11
1.288159210996586
 21
0.1136714286513832
 72
     1
 10
1.288159210996587
 20
0.1136714286513832
 11
1.279483795915724
 21
0.1136714286513832
 72
     1
 10
1.279483795915723
 20
0.1136714286513832
 11
1.270155392602968
 21
0.1136714286513832
 72
     1
 10
1.270155392602969
 20
0.1136714286513832
 11
1.260547137190832
 21
0.1136714286513832
 72
     1
 10
1.260547137190831
 20
0.1136714286513832
 11
1.250752313712437
 21
0.1136714286513832
 72
     1
 10
1.250752313712437
 20
0.1136714286513832
 11
1.241330626366554
 21
0.1136714286513832
 72
     1
 10
1.241330626366555
 20
0.1136714286513832
 11
1.23237535918631
 21
0.1136714286513832
 72
     1
 10
1.232375359186308
 20
0.1136714286513832
 11
1.224166364271082
 21
0.1136714286513832
 72
     1
 10
1.224166364271083
 20
0.1136714286513832
 11
1.217170061786517
 21
0.1136714286513832
 72
     1
 10
1.217170061786517
 20
0.1136714286513832
 11
1.211479735765737
 21
0.1136714286513832
 72
     1
 10
1.211479735765737
 20
0.1136714286513832
 11
1.20756180637438
 21
0.1136714286513832
 72
     1
 10
1.207561806374379
 20
0.1136714286513832
 11
1.2056028416787
 21
0.1136714286513832
 72
     1
 10
1.205602841678699
 20
0.1136714286513832
 11
1.205602841678699
 21
0.1163766656120825
 72
     1
 10
1.205602841678699
 20
0.1163766656120823
 11
1.205602841678699
 21
0.1209475832353323
 72
     1
 10
1.205602841678699
 20
0.1209475832353325
 11
1.205602841678699
 21
0.1267311932892411
 72
     1
 10
1.205602841678699
 20
0.1267311932892408
 11
1.205602841678699
 21
0.1330745075419143
 72
     1
 10
1.205602841678699
 20
0.1330745075419144
 11
1.205602841678699
 21
0.1395111058277156
 72
     1
 10
1.205602841678699
 20
0.1395111058277158
 11
1.205602841678699
 21
0.1452947158816239
 72
     1
 10
1.205602841678699
 20
0.145294715881624
 11
1.205602841678699
 21
0.1498656335048746
 72
     1
 10
1.205602841678699
 20
0.1498656335048745
 11
1.205602841678699
 21
0.1525708704655738
 97
        0
 75
     0
 76
     1
 98
        1
 10
-0.3743130907707726
 20
-0.2500502867693841
1001
ACAD
1010
0.0
1020
0.0
1030
0.0
  0
HATCH
  5
11926
330
11920
100
AcDbEntity
  8
Kawneer Logo-English
100
AcDbHatch
 10
0.0
 20
0.0
 30
0.0
210
0.0
220
0.0
230
1.0
  2
SOLID
 70
     1
 71
     0
 91
        1
 92
        1
 93
       87
 72
     1
 10
1.049352086190046
 20
0.1525708704655737
 11
1.051217766852597
 21
0.1525708704655737
 72
     1
 10
1.051217766852596
 20
0.1525708704655737
 11
1.054949128177699
 21
0.1525708704655737
 72
     1
 10
1.0549491281777
 20
0.1525708704655737
 11
1.060173034032843
 21
0.1525708704655737
 72
     1
 10
1.060173034032843
 20
0.1525708704655737
 11
1.0667962003849
 21
0.1525708704655737
 72
     1
 10
1.0667962003849
 20
0.1525708704655737
 11
1.074352207068231
 21
0.1525708704655737
 72
     1
 10
1.074352207068232
 20
0.1525708704655737
 11
1.082747770049711
 21
0.1525708704655737
 72
     1
 10
1.082747770049711
 20
0.1525708704655737
 11
1.0915164691637
 21
0.1525708704655737
 72
     1
 10
1.091516469163701
 20
0.1525708704655737
 11
1.100565020377075
 21
0.1525708704655737
 72
     1
 10
1.100565020377073
 20
0.1525708704655737
 11
1.109520287557319
 21
0.1525708704655737
 72
     1
 10
1.10952028755732
 20
0.1525708704655737
 11
1.118195702638183
 21
0.1525708704655737
 72
     1
 10
1.118195702638182
 20
0.1525708704655737
 11
1.126218129487151
 21
0.1525708704655737
 72
     1
 10
1.126218129487152
 20
0.1525708704655737
 11
1.133401000037974
 21
0.1525708704655737
 72
     1
 10
1.133401000037974
 20
0.1525708704655737
 11
1.139557746224391
 21
0.1525708704655737
 72
     1
 10
1.139557746224392
 20
0.1525708704655737
 11
1.14422194788077
 21
0.1525708704655737
 72
     1
 10
1.144221947880769
 20
0.1525708704655737
 11
1.147207036940851
 21
0.1525708704655737
 72
     1
 10
1.147207036940852
 20
0.1525708704655737
 11
1.148233161305255
 21
0.1525708704655737
 72
     1
 10
1.148233161305255
 20
0.1525708704655737
 11
1.148233161305255
 21
0.1730000737205081
 72
     1
 10
1.148233161305255
 20
0.1730000737205078
 11
1.147207036940852
 21
0.1730000737205078
 72
     1
 10
1.147207036940852
 20
0.1730000737205078
 11
1.14422194788077
 21
0.1730000737205078
 72
     1
 10
1.144221947880769
 20
0.1730000737205078
 11
1.139557746224391
 21
0.1730000737205078
 72
     1
 10
1.139557746224392
 20
0.1730000737205078
 11
1.133494284071101
 21
0.1730000737205078
 72
     1
 10
1.133494284071101
 20
0.1730000737205078
 11
1.126218129487152
 21
0.1730000737205078
 72
     1
 10
1.126218129487152
 20
0.1730000737205078
 11
1.118195702638183
 21
0.1730000737205078
 72
     1
 10
1.118195702638182
 20
0.1730000737205078
 11
1.10952028755732
 21
0.1730000737205078
 72
     1
 10
1.10952028755732
 20
0.1730000737205078
 11
1.100565020377074
 21
0.1730000737205078
 72
     1
 10
1.100565020377073
 20
0.1730000737205078
 11
1.0915164691637
 21
0.1730000737205078
 72
     1
 10
1.091516469163701
 20
0.1730000737205078
 11
1.082747770049712
 21
0.1730000737205078
 72
     1
 10
1.082747770049711
 20
0.1730000737205078
 11
1.074352207068231
 21
0.1730000737205078
 72
     1
 10
1.074352207068232
 20
0.1730000737205078
 11
1.0667962003849
 21
0.1730000737205078
 72
     1
 10
1.0667962003849
 20
0.1730000737205078
 11
1.060173034032843
 21
0.1730000737205078
 72
     1
 10
1.060173034032843
 20
0.1730000737205078
 11
1.054949128177701
 21
0.1730000737205078
 72
     1
 10
1.0549491281777
 20
0.1730000737205078
 11
1.051217766852597
 21
0.1730000737205078
 72
     1
 10
1.051217766852596
 20
0.1730000737205078
 11
1.049352086190045
 21
0.1730000737205078
 72
     1
 10
1.049352086190046
 20
0.1730000737205078
 11
1.049352086190046
 21
0.1754254585818243
 72
     1
 10
1.049352086190046
 20
0.1754254585818245
 11
1.049352086190046
 21
0.1794366720063095
 72
     1
 10
1.049352086190046
 20
0.1794366720063094
 11
1.049352086190046
 21
0.1843807257620694
 72
     1
 10
1.049352086190046
 20
0.1843807257620694
 11
1.049352086190046
 21
0.1898844837165951
 72
     1
 10
1.049352086190046
 20
0.1898844837165951
 11
1.049352086190046
 21
0.1952949576379935
 72
     1
 10
1.049352086190046
 20
0.1952949576379937
 11
1.049352086190046
 21
0.2003322954268815
 72
     1
 10
1.049352086190046
 20
0.2003322954268814
 11
1.049352086190046
 21
0.2042502248182386
 72
     1
 10
1.049352086190046
 20
0.2042502248182386
 11
1.049352086190046
 21
0.206675609679555
 72
     1
 10
1.049352086190046
 20
0.206675609679555
 11
1.051217766852597
 21
0.206675609679555
 72
     1
 10
1.051217766852596
 20
0.206675609679555
 11
1.055042412210825
 21
0.206675609679555
 72
     1
 10
1.055042412210827
 20
0.206675609679555
 11
1.060452886132226
 21
0.206675609679555
 72
     1
 10
1.060452886132225
 20
0.206675609679555
 11
1.067169336517409
 21
0.206675609679555
 72
     1
 10
1.06716933651741
 20
0.206675609679555
 11
1.075005195300124
 21
0.206675609679555
 72
     1
 10
1.075005195300123
 20
0.206675609679555
 11
1.083494042314731
 21
0.206675609679555
 72
     1
 10
1.083494042314732
 20
0.206675609679555
 11
1.092542593528105
 21
0.206675609679555
 72
     1
 10
1.092542593528106
 20
0.206675609679555
 11
1.10187099684086
 21
0.206675609679555
 72
     1
 10
1.101870996840861
 20
0.206675609679555
 11
1.111106116120489
 21
0.206675609679555
 72
     1
 10
1.111106116120488
 20
0.206675609679555
 11
1.119968099267605
 21
0.206675609679555
 72
     1
 10
1.119968099267605
 20
0.206675609679555
 11
1.128270378215957
 21
0.206675609679555
 72
     1
 10
1.128270378215957
 20
0.206675609679555
 11
1.135639816833034
 21
0.206675609679555
 72
     1
 10
1.135639816833034
 20
0.206675609679555
 11
1.14188984705258
 21
0.206675609679555
 72
     1
 10
1.141889847052581
 20
0.206675609679555
 11
1.146647332742086
 21
0.206675609679555
 72
     1
 10
1.146647332742086
 20
0.206675609679555
 11
1.149725705835295
 21
0.206675609679555
 72
     1
 10
1.149725705835296
 20
0.206675609679555
 11
1.150845114232827
 21
0.206675609679555
 72
     1
 10
1.150845114232826
 20
0.206675609679555
 11
1.150845114232826
 21
0.2277578011663822
 72
     1
 10
1.150845114232826
 20
0.2277578011663825
 11
1.148326445338383
 21
0.2277578011663825
 72
     1
 10
1.148326445338383
 20
0.2277578011663825
 11
1.025937793875031
 21
0.2277578011663825
 72
     1
 10
1.025937793875032
 20
0.2277578011663825
 11
1.025937793875032
 21
0.0926825211976832
 72
     1
 10
1.025937793875032
 20
0.0926825211976832
 11
1.155602599922332
 21
0.0926825211976832
 72
     1
 10
1.155602599922332
 20
0.0926825211976832
 11
1.155602599922332
 21
0.113671428651383
 72
     1
 10
1.155602599922332
 20
0.1136714286513832
 11
1.154483191524801
 21
0.1136714286513832
 72
     1
 10
1.154483191524799
 20
0.1136714286513832
 11
1.151218250365336
 21
0.1136714286513832
 72
     1
 10
1.151218250365338
 20
0.1136714286513832
 11
1.146180912576449
 21
0.1136714286513832
 72
     1
 10
1.146180912576449
 20
0.1136714286513832
 11
1.13965103025752
 21
0.1136714286513832
 72
     1
 10
1.13965103025752
 20
0.1136714286513832
 11
1.131908455507932
 21
0.1136714286513832
 72
     1
 10
1.131908455507931
 20
0.1136714286513832
 11
1.12323304042707
 21
0.1136714286513832
 72
     1
 10
1.123233040427071
 20
0.1136714286513832
 11
1.113904637114314
 21
0.1136714286513832
 72
     1
 10
1.113904637114314
 20
0.1136714286513832
 11
1.104296381702177
 21
0.1136714286513832
 72
     1
 10
1.104296381702177
 20
0.1136714286513832
 11
1.094501558223783
 21
0.1136714286513832
 72
     1
 10
1.094501558223784
 20
0.1136714286513832
 11
1.085079870877901
 21
0.1136714286513832
 72
     1
 10
1.085079870877899
 20
0.1136714286513832
 11
1.076124603697654
 21
0.1136714286513832
 72
     1
 10
1.076124603697655
 20
0.1136714286513832
 11
1.067915608782429
 21
0.1136714286513832
 72
     1
 10
1.067915608782429
 20
0.1136714286513832
 11
1.060919306297863
 21
0.1136714286513832
 72
     1
 10
1.060919306297863
 20
0.1136714286513832
 11
1.055228980277083
 21
0.1136714286513832
 72
     1
 10
1.055228980277082
 20
0.1136714286513832
 11
1.051311050885725
 21
0.1136714286513832
 72
     1
 10
1.051311050885726
 20
0.1136714286513832
 11
1.049352086190046
 21
0.1136714286513832
 72
     1
 10
1.049352086190046
 20
0.1136714286513832
 11
1.049352086190046
 21
0.1163766656120825
 72
     1
 10
1.049352086190046
 20
0.1163766656120823
 11
1.049352086190046
 21
0.1209475832353323
 72
     1
 10
1.049352086190046
 20
0.1209475832353325
 11
1.049352086190046
 21
0.1267311932892411
 72
     1
 10
1.049352086190046
 20
0.1267311932892408
 11
1.049352086190046
 21
0.1330745075419143
 72
     1
 10
1.049352086190046
 20
0.1330745075419144
 11
1.049352086190046
 21
0.1395111058277156
 72
     1
 10
1.049352086190046
 20
0.1395111058277158
 11
1.049352086190046
 21
0.1452947158816239
 72
     1
 10
1.049352086190046
 20
0.145294715881624
 11
1.049352086190046
 21
0.1498656335048746
 72
     1
 10
1.049352086190046
 20
0.1498656335048745
 11
1.049352086190046
 21
0.1525708704655738
 97
        0
 75
     0
 76
     1
 98
        1
 10
-0.3743130907707726
 20
-0.2500502867693841
1001
ACAD
1010
0.0
1020
0.0
1030
0.0
  0
HATCH
  5
11927
330
11920
100
AcDbEntity
  8
Kawneer Logo-English
100
AcDbHatch
 10
0.0
 20
0.0
 30
0.0
210
0.0
220
0.0
230
1.0
  2
SOLID
 70
     1
 71
     0
 91
        1
 92
        1
 93
       42
 72
     1
 10
0.9725793269260698
 20
0.2277578011663825
 11
0.9725793269260698
 21
0.1354998924032311
 72
     1
 10
0.9725793269260698
 20
0.1354998924032311
 11
0.9729524630585808
 21
0.1264513411898582
 72
     1
 10
0.9729524630585796
 20
0.1264513411898583
 11
0.9729524630585796
 21
0.1255185008585825
 72
     1
 10
0.9729524630585796
 20
0.1255185008585824
 11
0.9731390311248343
 21
0.1238393882622866
 72
     1
 10
0.9731390311248349
 20
0.1238393882622866
 11
0.9717397706279211
 21
0.1254252168254551
 72
     1
 10
0.97173977062792
 20
0.1254252168254551
 11
0.9710867823960281
 21
0.1262647731236031
 72
     1
 10
0.9710867823960294
 20
0.1262647731236031
 11
0.9641837639445897
 21
0.1339140638400625
 72
     1
 10
0.9641837639445899
 20
0.1339140638400624
 11
0.8755639324734129
 21
0.2277578011663823
 72
     1
 10
0.8755639324734115
 20
0.2277578011663825
 11
0.8529891964565429
 21
0.2277578011663825
 72
     1
 10
0.8529891964565434
 20
0.2277578011663825
 11
0.8529891964565434
 21
0.0926825211976832
 72
     1
 10
0.8529891964565434
 20
0.0926825211976832
 11
0.8756572165065401
 21
0.0926825211976832
 72
     1
 10
0.875657216506541
 20
0.0926825211976832
 11
0.875657216506541
 21
0.1927762887435495
 72
     1
 10
0.875657216506541
 20
0.1927762887435495
 11
0.875657216506541
 21
0.1931494248760597
 72
     1
 10
0.875657216506541
 20
0.1931494248760596
 11
0.8755639324734129
 21
0.193988981174208
 72
     1
 10
0.8755639324734115
 20
0.1939889811742079
 11
0.8754706484402849
 21
0.1952949576379935
 72
     1
 10
0.8754706484402859
 20
0.1952949576379937
 11
0.8753773644071577
 21
0.1967875021680344
 72
     1
 10
0.875377364407158
 20
0.1967875021680343
 11
0.8755639324734126
 21
0.1965076500686515
 72
     1
 10
0.8755639324734115
 20
0.1965076500686517
 11
0.8756572165065396
 21
0.1963210820023967
 72
     1
 10
0.875657216506541
 20
0.1963210820023967
 11
0.8764967728046894
 21
0.1954815257042487
 72
     1
 10
0.8764967728046887
 20
0.1954815257042488
 11
0.8781758854009835
 21
0.1936158450416976
 72
     1
 10
0.8781758854009842
 20
0.1936158450416973
 11
0.8797617139641527
 21
0.1917501643791464
 72
     1
 10
0.879761713964152
 20
0.1917501643791466
 11
0.8805079862291723
 21
0.1909106080809982
 72
     1
 10
0.8805079862291727
 20
0.190910608080998
 11
0.8816273946267036
 21
0.1897911996834678
 72
     1
 10
0.8816273946267028
 20
0.1897911996834681
 11
0.884519199653657
 21
0.1867128265902584
 72
     1
 10
0.8845191996536581
 20
0.1867128265902582
 11
0.8891834013100353
 21
0.1818620568676254
 72
     1
 10
0.889183401310035
 20
0.1818620568676252
 11
0.8951535794301982
 21
0.1756120266480794
 72
     1
 10
0.8951535794301985
 20
0.1756120266480794
 11
0.9021498819147662
 21
0.1681493039978751
 72
     1
 10
0.9021498819147669
 20
0.1681493039978752
 11
0.9099857406974814
 21
0.1598470250495227
 72
     1
 10
0.9099857406974813
 20
0.1598470250495225
 11
0.9183813036789613
 21
0.1509850419024051
 72
     1
 10
0.9183813036789612
 20
0.1509850419024052
 11
0.9271500027929521
 21
0.1418432066559046
 72
     1
 10
0.9271500027929509
 20
0.1418432066559046
 11
0.9358254178738118
 21
0.1326080873762767
 72
     1
 10
0.9358254178738132
 20
0.1326080873762767
 11
0.9442209808552931
 21
0.1237461042291589
 72
     1
 10
0.9442209808552931
 20
0.1237461042291589
 11
0.9520568396380092
 21
0.1154438252808068
 72
     1
 10
0.9520568396380092
 20
0.1154438252808068
 11
0.9590531421225751
 21
0.1079811026306025
 72
     1
 10
0.959053142122574
 20
0.1079811026306024
 11
0.9650233202427372
 21
0.101731072411056
 72
     1
 10
0.9650233202427376
 20
0.101731072411056
 11
0.9695942378659868
 21
0.0968803026884232
 72
     1
 10
0.9695942378659871
 20
0.096880302688423
 11
0.9725793269260696
 21
0.0938019295952138
 72
     1
 10
0.9725793269260698
 20
0.093801929595214
 11
0.9736054512904727
 21
0.0926825211976834
 72
     1
 10
0.9736054512904726
 20
0.0926825211976832
 11
0.9952473469760661
 21
0.0926825211976832
 72
     1
 10
0.9952473469760651
 20
0.0926825211976832
 11
0.9952473469760651
 21
0.2277578011663825
 72
     1
 10
0.9952473469760651
 20
0.2277578011663825
 11
0.9927286780816201
 21
0.2277578011663825
 72
     1
 10
0.9927286780816203
 20
0.2277578011663825
 11
0.9725793269260686
 21
0.2277578011663825
 97
        0
 75
     0
 76
     1
 98
        1
 10
-0.3743130907707726
 20
-0.2500502867693841
1001
ACAD
1010
0.0
1020
0.0
1030
0.0
  0
HATCH
  5
11928
330
11920
100
AcDbEntity
  8
Kawneer Logo-English
100
AcDbHatch
 10
0.0
 20
0.0
 30
0.0
210
0.0
220
0.0
230
1.0
  2
SOLID
 70
     1
 71
     0
 91
        2
 92
       16
 93
       32
 72
     1
 10
0.5269615006757409
 20
0.144641727649731
 11
0.5290137494045469
 21
0.148652941074216
 72
     1
 10
0.5290137494045464
 20
0.1486529410742159
 11
0.5322786905640116
 21
0.1551828233931449
 72
     1
 10
0.532278690564012
 20
0.1551828233931452
 11
0.5364764720547521
 21
0.1633918183083696
 72
     1
 10
0.5364764720547526
 20
0.1633918183083696
 11
0.5409541056448736
 21
0.1722538014554874
 72
     1
 10
0.5409541056448726
 20
0.1722538014554873
 11
0.545338455201869
 21
0.1808359325032223
 72
     1
 10
0.5453384552018701
 20
0.1808359325032223
 11
0.5490698165269726
 21
0.1882053711202994
 72
     1
 10
0.549069816526973
 20
0.1882053711202996
 11
0.5515884854214162
 21
0.1932427089091875
 72
     1
 10
0.5515884854214148
 20
0.1932427089091872
 11
0.5526146097858177
 21
0.1952016736048658
 72
     1
 10
0.5526146097858194
 20
0.1952016736048658
 11
0.552801177852074
 21
0.195761377803631
 72
     1
 10
0.5528011778520723
 20
0.1957613778036309
 11
0.5533608820508379
 21
0.1970673542674166
 72
     1
 10
0.5533608820508378
 20
0.1970673542674169
 11
0.5542004383489863
 21
0.1990263189630955
 72
     1
 10
0.5542004383489872
 20
0.1990263189630952
 11
0.5550399946471356
 21
0.2012651357581567
 72
     1
 10
0.5550399946471352
 20
0.2012651357581567
 11
0.5555064148127727
 21
0.2001457273606265
 72
     1
 10
0.5555064148127729
 20
0.2001457273606264
 11
0.5560661190115385
 21
0.198933034929968
 72
     1
 10
0.5560661190115379
 20
0.198933034929968
 11
0.5567191072434298
 21
0.197533774433055
 72
     1
 10
0.5567191072434304
 20
0.197533774433055
 11
0.5574653795084506
 21
0.1959479458698865
 72
     1
 10
0.557465379508451
 20
0.1959479458698865
 11
0.5583049358065995
 21
0.1942688332735902
 72
     1
 10
0.5583049358065986
 20
0.1942688332735903
 11
0.5606370366347874
 21
0.1896046316172126
 72
     1
 10
0.5606370366347871
 20
0.1896046316172126
 11
0.5639952618273804
 21
0.1828881812320289
 72
     1
 10
0.5639952618273814
 20
0.1828881812320287
 11
0.5680064752518651
 21
0.1748657543830587
 72
     1
 10
0.5680064752518637
 20
0.1748657543830589
 11
0.57239082480886
 21
0.1661903393021966
 72
     1
 10
0.5723908248088612
 20
0.1661903393021967
 11
0.5765886062996012
 21
0.1577947763207168
 72
     1
 10
0.5765886062996
 20
0.1577947763207165
 11
0.5803199676247008
 21
0.1503320536705122
 72
     1
 10
0.5803199676247015
 20
0.1503320536705122
 11
0.5831184886185295
 21
0.144641727649731
 72
     1
 10
0.5831184886185295
 20
0.144641727649731
 11
0.5791072751940441
 21
0.144641727649731
 72
     1
 10
0.5791072751940436
 20
0.144641727649731
 11
0.5724841088419869
 21
0.144641727649731
 72
     1
 10
0.5724841088419872
 20
0.144641727649731
 11
0.5641818298936356
 21
0.144641727649731
 72
     1
 10
0.5641818298936352
 20
0.144641727649731
 11
0.5550399946471351
 21
0.144641727649731
 72
     1
 10
0.5550399946471352
 20
0.144641727649731
 11
0.5458981594006351
 21
0.144641727649731
 72
     1
 10
0.5458981594006352
 20
0.144641727649731
 11
0.5375958804522815
 21
0.144641727649731
 72
     1
 10
0.5375958804522814
 20
0.144641727649731
 11
0.5310659981333528
 21
0.144641727649731
 72
     1
 10
0.5310659981333524
 20
0.144641727649731
 11
0.5269615006757405
 21
0.144641727649731
 97
        0
 92
        1
 93
      141
 72
     1
 10
0.5656743744236757
 20
0.2277578011663825
 11
0.544405614870593
 21
0.2277578011663825
 72
     1
 10
0.544405614870593
 20
0.2277578011663825
 11
0.4748157261574382
 21
0.0934287934627039
 72
     1
 10
0.4748157261574378
 20
0.0934287934627039
 11
0.4729500454948865
 21
0.0955743262246376
 72
     1
 10
0.4729500454948874
 20
0.0955743262246376
 11
0.4699649564348049
 21
0.0991191194834847
 72
     1
 10
0.4699649564348043
 20
0.0991191194834847
 11
0.4661403110765752
 21
0.1036900371067346
 72
     1
 10
0.4661403110765754
 20
0.1036900371067347
 11
0.4615693934533244
 21
0.1091005110281331
 72
     1
 10
0.461569393453325
 20
0.109100511028133
 11
0.456345487598182
 21
0.1152572572145517
 72
     1
 10
0.4563454875981812
 20
0.1152572572145516
 11
0.4506551615774008
 21
0.1219737075997353
 72
     1
 10
0.4506551615774015
 20
0.1219737075997354
 11
0.4447782674903648
 21
0.1290632941174296
 72
     1
 10
0.4447782674903636
 20
0.1290632941174296
 11
0.4387148053370722
 21
0.1362461646682511
 72
     1
 10
0.4387148053370727
 20
0.1362461646682512
 11
0.4326513431837832
 21
0.1433357511859454
 72
     1
 10
0.4326513431837844
 20
0.1433357511859453
 11
0.4268677331298759
 21
0.1502387696373844
 72
     1
 10
0.4268677331298756
 20
0.1502387696373844
 11
0.4214572592084763
 21
0.1566753679231857
 72
     1
 10
0.4214572592084754
 20
0.1566753679231858
 11
0.4165132054527153
 21
0.1625522620102216
 72
     1
 10
0.4165132054527163
 20
0.1625522620102216
 11
0.4123154239619763
 21
0.1674963157659821
 72
     1
 10
0.4123154239619753
 20
0.1674963157659822
 11
0.4088639147362555
 21
0.1715075291904667
 72
     1
 10
0.4088639147362568
 20
0.1715075291904669
 11
0.4065318139080681
 21
0.1743993342174211
 72
     1
 10
0.4065318139080665
 20
0.1743993342174211
 11
0.405319121477409
 21
0.1757985947143345
 72
     1
 10
0.4053191214774104
 20
0.1757985947143345
 11
0.4067183819743243
 21
0.1769180031118651
 72
     1
 10
0.4067183819743235
 20
0.1769180031118651
 11
0.4094236189350213
 21
0.1788769678075437
 72
     1
 10
0.4094236189350218
 20
0.1788769678075437
 11
0.4132482642932526
 21
0.1816754888013702
 72
     1
 10
0.4132482642932525
 20
0.1816754888013703
 11
0.4179124659496298
 21
0.1852202820602174
 72
     1
 10
0.417912465949629
 20
0.1852202820602174
 11
0.4232296558379
 21
0.189138211451575
 72
     1
 10
0.4232296558379001
 20
0.1891382114515751
 11
0.4291065499249351
 21
0.1935225610085696
 72
     1
 10
0.4291065499249367
 20
0.1935225610085698
 11
0.4352632961113562
 21
0.1981867626649482
 72
     1
 10
0.4352632961113554
 20
0.1981867626649479
 11
0.4416066103640296
 21
0.2028509643213252
 72
     1
 10
0.4416066103640293
 20
0.2028509643213252
 11
0.4479499246167016
 21
0.2076084500108307
 72
     1
 10
0.4479499246167018
 20
0.2076084500108307
 11
0.4540133867699932
 21
0.2120860836009535
 72
     1
 10
0.4540133867699927
 20
0.2120860836009535
 11
0.4596104287576467
 21
0.2162838650916932
 72
     1
 10
0.4596104287576468
 20
0.216283865091693
 11
0.4646477665465351
 21
0.2200152264167952
 72
     1
 10
0.464647766546535
 20
0.2200152264167951
 11
0.4689388320704013
 21
0.223186883543132
 72
     1
 10
0.4689388320704016
 20
0.2231868835431323
 11
0.4721104891967386
 21
0.2256122684044488
 72
     1
 10
0.4721104891967376
 20
0.2256122684044488
 11
0.4742560219586717
 21
0.2271980969676172
 72
     1
 10
0.4742560219586727
 20
0.2271980969676173
 11
0.475002294223693
 21
0.2277578011663825
 72
     1
 10
0.4750022942236929
 20
0.2277578011663825
 11
0.4674462875403612
 21
0.2277578011663825
 72
     1
 10
0.4674462875403611
 20
0.2277578011663825
 11
0.4395543616352215
 21
0.2277578011663825
 72
     1
 10
0.439554361635222
 20
0.2277578011663825
 11
0.4386215213039473
 21
0.2270115289013622
 72
     1
 10
0.4386215213039466
 20
0.2270115289013622
 11
0.4359162843432469
 21
0.2250525642056836
 72
     1
 10
0.4359162843432465
 20
0.2250525642056836
 11
0.4318117868856346
 21
0.2220674751456017
 72
     1
 10
0.4318117868856351
 20
0.2220674751456017
 11
0.4264013129642376
 21
0.2180562617211167
 72
     1
 10
0.4264013129642379
 20
0.2180562617211168
 11
0.4200579987115638
 21
0.2132987760316117
 72
     1
 10
0.4200579987115641
 20
0.2132987760316114
 11
0.4128751281607416
 21
0.2079815861433408
 72
     1
 10
0.4128751281607408
 20
0.2079815861433408
 11
0.4051325534111546
 21
0.20229126012256
 72
     1
 10
0.4051325534111552
 20
0.20229126012256
 11
0.397016842529058
 21
0.1963210820023964
 72
     1
 10
0.3970168425290583
 20
0.1963210820023967
 11
0.3889011316469611
 21
0.1903509038822331
 72
     1
 10
0.3889011316469611
 20
0.190350903882233
 11
0.3808787047979902
 21
0.1844740097951972
 72
     1
 10
0.3808787047979898
 20
0.1844740097951974
 11
0.3733226981146581
 21
0.1787836837744166
 72
     1
 10
0.373322698114658
 20
0.1787836837744166
 11
0.3663263956300919
 21
0.173653061952401
 72
     1
 10
0.3663263956300931
 20
0.173653061952401
 11
0.3601696494436735
 21
0.169082144329151
 72
     1
 10
0.3601696494436726
 20
0.1690821443291508
 11
0.3550390276216579
 21
0.1653507830040483
 72
     1
 10
0.3550390276216584
 20
0.1653507830040482
 11
0.3513076662965558
 21
0.1625522620102218
 72
     1
 10
0.3513076662965551
 20
0.1625522620102216
 11
0.3490688495014928
 21
0.1609664334470531
 72
     1
 10
0.3490688495014926
 20
0.1609664334470531
 11
0.3490688495014926
 21
0.1631119662089868
 72
     1
 10
0.3490688495014926
 20
0.1631119662089868
 11
0.3490688495014926
 21
0.1662836233353237
 72
     1
 10
0.3490688495014926
 20
0.1662836233353238
 11
0.3490688495014926
 21
0.1702948367598088
 72
     1
 10
0.3490688495014926
 20
0.1702948367598088
 11
0.3490688495014926
 21
0.1749590384161865
 72
     1
 10
0.3490688495014926
 20
0.1749590384161865
 11
0.3490688495014926
 21
0.1801829442713294
 72
     1
 10
0.3490688495014926
 20
0.1801829442713296
 11
0.3490688495014926
 21
0.185779986258983
 72
     1
 10
0.3490688495014926
 20
0.1857799862589829
 11
0.3490688495014926
 21
0.1916568803460187
 72
     1
 10
0.3490688495014926
 20
0.1916568803460186
 11
0.3490688495014926
 21
0.1975337744330549
 72
     1
 10
0.3490688495014926
 20
0.197533774433055
 11
0.3490688495014926
 21
0.2033173844869632
 72
     1
 10
0.3490688495014926
 20
0.2033173844869631
 11
0.3490688495014926
 21
0.2088211424414888
 72
     1
 10
0.3490688495014926
 20
0.2088211424414888
 11
0.3490688495014926
 21
0.2139517642635044
 72
     1
 10
0.3490688495014926
 20
0.2139517642635044
 11
0.3490688495014926
 21
0.2185226818867544
 72
     1
 10
0.3490688495014926
 20
0.2185226818867545
 11
0.3490688495014926
 21
0.2222540432118567
 72
     1
 10
0.3490688495014926
 20
0.2222540432118567
 11
0.3490688495014926
 21
0.2252391322719387
 72
     1
 10
0.3490688495014926
 20
0.2252391322719387
 11
0.3490688495014926
 21
0.2271048129344895
 72
     1
 10
0.3490688495014926
 20
0.2271048129344895
 11
0.3490688495014926
 21
0.2277578011663825
 72
     1
 10
0.3490688495014926
 20
0.2277578011663825
 11
0.3258411252527322
 21
0.2277578011663825
 72
     1
 10
0.3258411252527336
 20
0.2277578011663825
 11
0.3258411252527336
 21
0.0926825211976832
 72
     1
 10
0.3258411252527336
 20
0.0926825211976832
 11
0.3486957133689848
 21
0.0926825211976832
 72
     1
 10
0.3486957133689845
 20
0.0926825211976832
 11
0.3486957133689845
 21
0.0943616337939795
 72
     1
 10
0.3486957133689845
 20
0.0943616337939795
 11
0.3486957133689845
 21
0.0988392673841017
 72
     1
 10
0.3486957133689845
 20
0.0988392673841017
 11
0.3486957133689845
 21
0.1051825816367752
 72
     1
 10
0.3486957133689845
 20
0.1051825816367753
 11
0.3486957133689845
 21
0.1125520202538523
 72
     1
 10
0.3486957133689845
 20
0.1125520202538524
 11
0.3486957133689845
 21
0.1200147429040567
 72
     1
 10
0.3486957133689845
 20
0.1200147429040567
 11
0.3486957133689845
 21
0.1267311932892408
 72
     1
 10
0.3486957133689845
 20
0.1267311932892408
 11
0.3486957133689845
 21
0.1317685310781287
 72
     1
 10
0.3486957133689845
 20
0.1317685310781289
 11
0.3486957133689845
 21
0.1342871999725727
 72
     1
 10
0.3486957133689845
 20
0.1342871999725725
 11
0.3507479620977905
 21
0.1356864604694859
 72
     1
 10
0.35074796209779
 20
0.1356864604694859
 11
0.3548524595554018
 21
0.1387648335626952
 72
     1
 10
0.3548524595554015
 20
0.1387648335626952
 11
0.3605427855761835
 21
0.1428693310203079
 72
     1
 10
0.3605427855761842
 20
0.1428693310203079
 11
0.3668860998288565
 21
0.1476268167098129
 72
     1
 10
0.3668860998288568
 20
0.1476268167098129
 11
0.373322698114659
 21
0.1522910183661906
 72
     1
 10
0.373322698114658
 20
0.1522910183661908
 11
0.3791995922016947
 21
0.1565820838900582
 72
     1
 10
0.3791995922016946
 20
0.1565820838900582
 11
0.3836772257918156
 21
0.1599403090826502
 72
     1
 10
0.3836772257918159
 20
0.1599403090826503
 11
0.386195894686261
 21
0.1618059897452011
 72
     1
 10
0.3861958946862609
 20
0.1618059897452011
 11
0.3873153030837921
 21
0.1604067292482882
 72
     1
 10
0.3873153030837915
 20
0.1604067292482878
 11
0.3894608358457238
 21
0.1577947763207163
 72
     1
 10
0.3894608358457248
 20
0.1577947763207165
 11
0.3925392089389353
 21
0.1541566990287417
 72
     1
 10
0.3925392089389348
 20
0.1541566990287417
 11
0.396457138330292
 21
0.149492497372364
 72
     1
 10
0.3964571383302933
 20
0.149492497372364
 11
0.4009347719204161
 21
0.1442685915172211
 72
     1
 10
0.4009347719204146
 20
0.1442685915172209
 11
0.4057855416430466
 21
0.138391697430185
 72
     1
 10
0.4057855416430463
 20
0.1383916974301853
 11
0.4109161634650628
 21
0.1322349512437666
 72
     1
 10
0.410916163465064
 20
0.1322349512437666
 11
0.4162333533533335
 21
0.1259849210242201
 72
     1
 10
0.4162333533533334
 20
0.1259849210242201
 11
0.4215505432416044
 21
0.1196416067715466
 72
     1
 10
0.4215505432416045
 20
0.1196416067715466
 11
0.4265878810304927
 21
0.113671428651383
 72
     1
 10
0.4265878810304931
 20
0.1136714286513832
 11
0.4312520826868704
 21
0.1079811026306024
 72
     1
 10
0.4312520826868696
 20
0.1079811026306024
 11
0.4355431482107378
 21
0.1029437648417141
 72
     1
 10
0.435543148210738
 20
0.1029437648417139
 11
0.4390879414695842
 21
0.0987459833509739
 72
     1
 10
0.4390879414695843
 20
0.0987459833509741
 11
0.4417931784302841
 21
0.0954810421915098
 72
     1
 10
0.4417931784302845
 20
0.0954810421915096
 11
0.4435655750597076
 21
0.0934287934627037
 72
     1
 10
0.4435655750597074
 20
0.0934287934627039
 11
0.4442185632915993
 21
0.0926825211976832
 72
     1
 10
0.4442185632915985
 20
0.0926825211976832
 11
0.4743493059918004
 21
0.0926825211976832
 72
     1
 10
0.4743493059918001
 20
0.0926825211976832
 11
0.4753754303562029
 21
0.0926825211976832
 72
     1
 10
0.4753754303562033
 20
0.0926825211976832
 11
0.5008419714000258
 21
0.0926825211976832
 72
     1
 10
0.5008419714000265
 20
0.0926825211976832
 11
0.5014949596319184
 21
0.0939884976614689
 72
     1
 10
0.501494959631919
 20
0.0939884976614688
 11
0.5031740722282155
 21
0.0973467228540609
 72
     1
 10
0.503174072228215
 20
0.0973467228540612
 11
0.5055061730564038
 21
0.1021042085435666
 72
     1
 10
0.505506173056403
 20
0.1021042085435665
 11
0.5083046940502291
 21
0.1077012505312196
 72
     1
 10
0.5083046940502292
 20
0.1077012505312194
 11
0.5111032150440553
 21
0.1134848605851279
 72
     1
 10
0.5111032150440549
 20
0.1134848605851281
 11
0.5137151679716264
 21
0.1186154824071433
 72
     1
 10
0.5137151679716277
 20
0.1186154824071433
 11
0.5156741326673071
 21
0.1226266958316283
 72
     1
 10
0.5156741326673076
 20
0.122626695831628
 11
0.5167002570317104
 21
0.1247722285935621
 72
     1
 10
0.5167002570317103
 20
0.1247722285935622
 11
0.5180062334954961
 21
0.1247722285935622
 72
     1
 10
0.5180062334954961
 20
0.1247722285935622
 11
0.5207114704561957
 21
0.1247722285935622
 72
     1
 10
0.5207114704561944
 20
0.1247722285935622
 11
0.5246293998475517
 21
0.1247722285935622
 72
     1
 10
0.5246293998475525
 20
0.1247722285935622
 11
0.5295734536033125
 21
0.1247722285935622
 72
     1
 10
0.5295734536033115
 20
0.1247722285935622
 11
0.5352637796240919
 21
0.1247722285935622
 72
     1
 10
0.5352637796240929
 20
0.1247722285935622
 11
0.5415138098436386
 21
0.1247722285935622
 72
     1
 10
0.5415138098436394
 20
0.1247722285935622
 11
0.5482302602288245
 21
0.1247722285935622
 72
     1
 10
0.5482302602288236
 20
0.1247722285935622
 11
0.5551332786802616
 21
0.1247722285935622
 72
     1
 10
0.5551332786802608
 20
0.1247722285935622
 11
0.5620362971317004
 21
0.1247722285935622
 72
     1
 10
0.5620362971317015
 20
0.1247722285935622
 11
0.5687527475168847
 21
0.1247722285935622
 72
     1
 10
0.5687527475168839
 20
0.1247722285935622
 11
0.5750027777364317
 21
0.1247722285935622
 72
     1
 10
0.5750027777364322
 20
0.1247722285935622
 11
0.5806931037572126
 21
0.1247722285935622
 72
     1
 10
0.5806931037572119
 20
0.1247722285935622
 11
0.585637157512972
 21
0.1247722285935622
 72
     1
 10
0.5856371575129727
 20
0.1247722285935622
 11
0.5895550869043299
 21
0.1247722285935622
 72
     1
 10
0.5895550869043289
 20
0.1247722285935622
 11
0.5922603238650286
 21
0.1247722285935622
 72
     1
 10
0.5922603238650291
 20
0.1247722285935622
 11
0.5935663003288148
 21
0.1247722285935622
 72
     1
 10
0.5935663003288148
 20
0.1247722285935622
 11
0.5945924246932176
 21
0.1226266958316281
 72
     1
 10
0.5945924246932175
 20
0.122626695831628
 11
0.5965513893888953
 21
0.1186154824071431
 72
     1
 10
0.5965513893888957
 20
0.1186154824071433
 11
0.5991633423164672
 21
0.1134848605851281
 72
     1
 10
0.5991633423164667
 20
0.1134848605851281
 11
0.6019618633102946
 21
0.1077012505312196
 72
     1
 10
0.6019618633102959
 20
0.1077012505312194
 11
0.604760384304122
 21
0.1021042085435664
 72
     1
 10
0.6047603843041221
 20
0.1021042085435665
 11
0.6070924851323109
 21
0.0973467228540611
 72
     1
 10
0.6070924851323101
 20
0.0973467228540612
 11
0.6087715977286067
 21
0.0939884976614691
 72
     1
 10
0.6087715977286062
 20
0.0939884976614688
 11
0.609424585960498
 21
0.0926825211976832
 72
     1
 10
0.6094245859604986
 20
0.0926825211976832
 11
0.6363836715343633
 21
0.0926825211976832
 72
     1
 10
0.6363836715343641
 20
0.0926825211976832
 11
0.5671669189537184
 21
0.2277578011663825
 72
     1
 10
0.5671669189537179
 20
0.2277578011663825
 11
0.5656743744236758
 21
0.2277578011663825
 97
        0
 75
     0
 76
     1
 98
        1
 10
-0.3743130907707726
 20
-0.2500502867693841
1001
ACAD
1010
0.0
1020
0.0
1030
0.0
  0
HATCH
  5
11929
330
11920
100
AcDbEntity
  8
Kawneer Logo-English
100
AcDbHatch
 10
0.0
 20
0.0
 30
0.0
210
0.0
220
0.0
230
1.0
  2
SOLID
 70
     1
 71
     0
 91
        1
 92
        1
 93
       69
 72
     1
 10
0.8092389849197205
 20
0.2277578011663825
 11
0.778921674153266
 21
0.1309289747799811
 72
     1
 10
0.778921674153267
 20
0.1309289747799809
 11
0.7781754018882468
 21
0.1287834420180468
 72
     1
 10
0.7781754018882468
 20
0.1287834420180467
 11
0.7776156976894812
 21
0.1270110453886236
 72
     1
 10
0.7776156976894813
 20
0.1270110453886237
 11
0.7771492775238438
 21
0.1253319327923275
 72
     1
 10
0.7771492775238436
 20
0.1253319327923274
 11
0.7766828573582045
 21
0.1238393882622867
 72
     1
 10
0.7766828573582046
 20
0.1238393882622866
 11
0.7764030052588217
 21
0.1248655126266895
 72
     1
 10
0.776403005258822
 20
0.1248655126266896
 11
0.7761231531594392
 21
0.1259849210242202
 72
     1
 10
0.7761231531594391
 20
0.1259849210242201
 11
0.7759365850931844
 21
0.1268244773223681
 72
     1
 10
0.7759365850931843
 20
0.1268244773223682
 11
0.7758433010600562
 21
0.1271976134548783
 72
     1
 10
0.7758433010600552
 20
0.1271976134548783
 11
0.7755634489606744
 21
0.1280371697530267
 72
     1
 10
0.775563448960674
 20
0.1280371697530267
 11
0.7750970287950349
 21
0.1291565781505569
 72
     1
 10
0.7750970287950363
 20
0.1291565781505568
 11
0.773977620397507
 21
0.1323282352768938
 72
     1
 10
0.7739776203975062
 20
0.1323282352768939
 11
0.7721119397349549
 21
0.1372722890326544
 72
     1
 10
0.7721119397349554
 20
0.1372722890326546
 11
0.7697798389067666
 21
0.1436156032853281
 72
     1
 10
0.769779838906767
 20
0.1436156032853281
 11
0.7670746019460673
 21
0.1511716099686602
 72
     1
 10
0.7670746019460668
 20
0.15117160996866
 11
0.7639962288528581
 21
0.1595671729501399
 72
     1
 10
0.7639962288528582
 20
0.15956717295014
 11
0.7606380036602665
 21
0.1686157241635125
 72
     1
 10
0.7606380036602652
 20
0.1686157241635125
 11
0.7572797784676718
 21
0.1778508434431408
 72
     1
 10
0.7572797784676726
 20
0.1778508434431408
 11
0.753921553275081
 21
0.187179246755896
 72
     1
 10
0.7539215532750814
 20
0.1871792467558961
 11
0.7505633280824898
 21
0.1962277979692689
 72
     1
 10
0.7505633280824902
 20
0.1962277979692689
 11
0.7474849549892814
 21
0.2046233609507488
 72
     1
 10
0.7474849549892797
 20
0.2046233609507488
 11
0.74477971802858
 21
0.2121793676340809
 72
     1
 10
0.7447797180285814
 20
0.2121793676340809
 11
0.7424476172003926
 21
0.2185226818867544
 72
     1
 10
0.7424476172003929
 20
0.2185226818867545
 11
0.7405819365378416
 21
0.2234667356425151
 72
     1
 10
0.7405819365378408
 20
0.2234667356425151
 11
0.7394625281403098
 21
0.2266383927688516
 72
     1
 10
0.7394625281403103
 20
0.2266383927688516
 11
0.7390893920078009
 21
0.2277578011663822
 72
     1
 10
0.7390893920078004
 20
0.2277578011663825
 11
0.7191266089185034
 21
0.2277578011663825
 72
     1
 10
0.7191266089185029
 20
0.2277578011663825
 11
0.6843316645619254
 21
0.1336342117406798
 72
     1
 10
0.6843316645619267
 20
0.1336342117406795
 11
0.6832122561643957
 21
0.130649122680598
 72
     1
 10
0.6832122561643961
 20
0.1306491226805981
 11
0.6823726998662476
 21
0.1282237378192816
 72
     1
 10
0.6823726998662468
 20
0.1282237378192818
 11
0.6817197116343549
 21
0.1260782050573481
 72
     1
 10
0.6817197116343552
 20
0.1260782050573481
 11
0.6811600074355896
 21
0.1241192403616695
 72
     1
 10
0.6811600074355884
 20
0.1241192403616695
 11
0.6808801553362055
 21
0.1250520806929446
 72
     1
 10
0.6808801553362059
 20
0.1250520806929445
 11
0.6805070192036949
 21
0.1261714890904751
 72
     1
 10
0.680507019203696
 20
0.1261714890904752
 11
0.6802271671043131
 21
0.1272908974880058
 72
     1
 10
0.680227167104313
 20
0.1272908974880061
 11
0.6798540309718037
 21
0.1286901579849195
 72
     1
 10
0.6798540309718031
 20
0.1286901579849194
 11
0.6794808948392922
 21
0.12980956638245
 72
     1
 10
0.6794808948392932
 20
0.1298095663824503
 11
0.6784547704748904
 21
0.1328879394756595
 72
     1
 10
0.67845477047489
 20
0.1328879394756595
 11
0.6769622259448497
 21
0.1378319932314196
 72
     1
 10
0.6769622259448496
 20
0.1378319932314196
 11
0.6750032612491701
 21
0.1441753074840938
 72
     1
 10
0.6750032612491697
 20
0.1441753074840937
 11
0.6725778763878547
 21
0.1516380301342981
 72
     1
 10
0.6725778763878556
 20
0.1516380301342981
 11
0.6699659234602841
 21
0.160033593115778
 72
     1
 10
0.6699659234602829
 20
0.160033593115778
 11
0.6671674024664549
 21
0.168988860296023
 72
     1
 10
0.6671674024664554
 20
0.168988860296023
 11
0.6642755974395012
 21
0.1782239795756509
 72
     1
 10
0.6642755974395019
 20
0.178223979575651
 11
0.6613837924125477
 21
0.1874590988552789
 72
     1
 10
0.6613837924125466
 20
0.1874590988552789
 11
0.6585852714187205
 21
0.1964143660355239
 72
     1
 10
0.6585852714187204
 20
0.1964143660355237
 11
0.6559733184911489
 21
0.2047166449838762
 72
     1
 10
0.6559733184911494
 20
0.2047166449838765
 11
0.6536412176629606
 21
0.2122726516672082
 72
     1
 10
0.6536412176629614
 20
0.2122726516672082
 11
0.6515889689341538
 21
0.2186159659198823
 72
     1
 10
0.6515889689341537
 20
0.2186159659198821
 11
0.6500964244041133
 21
0.2234667356425149
 72
     1
 10
0.6500964244041132
 20
0.2234667356425151
 11
0.6490703000397104
 21
0.2266383927688516
 72
     1
 10
0.6490703000397105
 20
0.2266383927688516
 11
0.6487904479403276
 21
0.2277578011663822
 72
     1
 10
0.648790447940328
 20
0.2277578011663825
 11
0.6237903270621445
 21
0.2277578011663825
 72
     1
 10
0.6237903270621437
 20
0.2277578011663825
 11
0.6676338226320932
 21
0.0926825211976832
 72
     1
 10
0.6676338226320926
 20
0.0926825211976832
 11
0.6922608073777669
 21
0.0926825211976832
 72
     1
 10
0.6922608073777666
 20
0.0926825211976832
 11
0.726029627369941
 21
0.1855001341596003
 72
     1
 10
0.7260296273699423
 20
0.1855001341596003
 11
0.7269624677012189
 21
0.1882986551534267
 72
     1
 10
0.7269624677012177
 20
0.1882986551534266
 11
0.7278020239993661
 21
0.1906307559816158
 72
     1
 10
0.727802023999367
 20
0.1906307559816159
 11
0.7284550122312589
 21
0.1927762887435496
 72
     1
 10
0.7284550122312581
 20
0.1927762887435495
 11
0.7290147164300237
 21
0.1947352534392281
 72
     1
 10
0.7290147164300232
 20
0.1947352534392282
 11
0.7298542727281716
 21
0.192216584544784
 72
     1
 10
0.729854272728173
 20
0.1922165845447839
 11
0.7306938290263214
 21
0.1894180635509575
 72
     1
 10
0.7306938290263206
 20
0.1894180635509575
 11
0.7318132374238499
 21
0.1863396904577483
 72
     1
 10
0.7318132374238511
 20
0.1863396904577481
 11
0.7331192138876387
 21
0.1827016131657736
 72
     1
 10
0.7331192138876382
 20
0.1827016131657737
 11
0.7654887733828987
 21
0.0926825211976834
 72
     1
 10
0.7654887733828986
 20
0.0926825211976832
 11
0.7895560539298075
 21
0.0926825211976832
 72
     1
 10
0.7895560539298075
 20
0.0926825211976832
 11
0.8341458217647785
 21
0.2277578011663825
 72
     1
 10
0.8341458217647783
 20
0.2277578011663825
 11
0.830601028505932
 21
0.2277578011663825
 72
     1
 10
0.8306010285059324
 20
0.2277578011663825
 11
0.8092389849197216
 21
0.2277578011663825
 97
        0
 75
     0
 76
     1
 98
        1
 10
-0.3743130907707726
 20
-0.2500502867693841
1001
ACAD
1010
0.0
1020
0.0
1030
0.0
  0
ENDBLK
  5
1192D
330
11920
100
AcDbEntity
  8
0
100
AcDbBlockEnd
  0
ENDSEC
  0
SECTION
  2
ENTITIES
  0
MTEXT
  5
20C5
330
17
100
AcDbEntity
  8
0
 62
     2
100
AcDbMText
 10
29.872410824041
 20
2.024000661671166
 30
0.0
 40
0.375
 41
9.6875
 71
     2
 72
     5
  1
DETAIL SCALE: 1" = 1"
 73
     1
 44
1.0
1001
ACAD
1000
MTEXTBEGIN
1070
    73
1070
     1
1070
    44
1040
1.0
1070
    74
1070
     0
1000
MTEXTEND
  0
LINE
  5
20CE
330
17
100
AcDbEntity
  8
0
100
AcDbLine
 10
0.0
 20
0.0
 30
0.0
 11
0.0
 21
31.96455091807199
 31
0.0
  0
LINE
  5
20CF
330
17
100
AcDbEntity
  8
0
100
AcDbLine
 10
0.0
 20
0.0
 30
0.0
 11
60.97989403831786
 21
-0.0000000000000044
 31
0.0
  0
MTEXT
  5
2E0C
330
17
100
AcDbEntity
  8
0
 62
     2
100
AcDbMText
 10
29.872410824041
 20
5.202352346992427
 30
0.0
 40
0.5
 41
16.7471120768609
 71
     2
 72
     5
  1
1602 WALL SYSTEM\P4-15/16" DEEP (1" & 1/4" INFILL)\PTYPICAL ANCHOR DETAILS
 73
     1
 44
1.0
1001
ACAD
1000
MTEXTBEGIN
1070
    73
1070
     1
1070
    44
1040
1.0
1070
    74
1070
     0
1000
MTEXTEND
  0
LINE
  5
AB25
330
17
100
AcDbEntity
  8
0
100
AcDbLine
 10
27.21999006578153
 20
31.96455091807198
 30
0.0
 11
27.21999006578153
 21
9.421284925568301
 31
0.0
  0
TEXT
  5
AF10
330
17
100
AcDbEntity
  8
0
  6
Continuous
 62
     7
100
AcDbText
 10
33.3416119652869
 20
11.81693814966848
 30
0.0
 40
0.375
  1
EXTERIOR VIEW AT HEAD & SILL
 72
     1
 11
37.48988959148062
 21
11.81693814966848
 31
0.0
100
AcDbText
  0
TEXT
  5
AF11
330
17
100
AcDbEntity
  8
0
  6
Continuous
 62
     2
100
AcDbText
 10
34.94634323837453
 20
12.62025692004824
 30
0.0
 40
0.375
  1
"T-ANCHOR" DETAIL
 72
     1
 11
37.50445203782883
 21
12.62025692004824
 31
0.0
100
AcDbText
  0
TEXT
  5
B174
330
17
100
AcDbEntity
  8
0
  6
Continuous
 62
     7
100
AcDbText
 10
48.71408248198285
 20
11.81693814966848
 30
0.0
 40
0.375
  1
EXTERIOR VIEW AT HEAD & SILL
 72
     1
 11
52.86236010817657
 21
11.81693814966848
 31
0.0
100
AcDbText
  0
TEXT
  5
B181
330
17
100
AcDbEntity
  8
0
  6
Continuous
 62
     2
100
AcDbText
 10
49.98020718649246
 20
12.62025692004824
 30
0.0
 40
0.375
  1
"F-ANCHOR" DETAIL
 72
     1
 11
52.53831598594675
 21
12.62025692004824
 31
0.0
100
AcDbText
  0
LINE
  5
B21B
330
17
100
AcDbEntity
  8
PART_NUMBERS
100
AcDbLine
 10
52.91486658428133
 20
27.01517295137362
 30
0.0
 11
54.0166169330172
 21
28.69018124356791
 31
0.0
  0
LINE
  5
B21C
330
17
100
AcDbEntity
  8
PART_NUMBERS
100
AcDbLine
 10
38.11022637424798
 20
26.91748892796658
 30
0.0
 11
39.21197672298385
 21
28.59249722016087
 31
0.0
  0
SOLID
  5
B257
330
17
100
AcDbEntity
  8
PART_NUMBERS
100
AcDbTrace
 10
38.08411795310632
 20
26.93466195465058
 30
0.0
 11
38.13633479538964
 21
26.90031590128258
 31
0.0
 12
38.00718821414398
 22
26.76083840111658
 32
0.0
 13
38.00718821414398
 23
26.76083840111658
 33
0.0
  0
SOLID
  5
B2A0
330
17
100
AcDbEntity
  8
PART_NUMBERS
100
AcDbTrace
 10
52.88875816313965
 20
27.03234597805762
 30
0.0
 11
52.94097500542298
 21
26.99799992468963
 31
0.0
 12
52.81182842417732
 22
26.85852242452362
 32
0.0
 13
52.81182842417732
 23
26.85852242452362
 33
0.0
  0
TEXT
  5
B2A8
330
17
100
AcDbEntity
  8
PART_NUMBERS
100
AcDbText
 10
40.11554589611151
 20
28.47902640868944
 30
0.0
 40
0.25
  1
170209 "T" ANCHOR
100
AcDbText
  0
LINE
  5
B2A9
330
17
100
AcDbEntity
  8
PART_NUMBERS
100
AcDbLine
 10
39.21197672298385
 20
28.59249722016087
 30
0.0
 11
40.01910408696111
 21
28.59249722016087
 31
0.0
  0
LINE
  5
B2AA
330
17
100
AcDbEntity
  8
PART_NUMBERS
100
AcDbLine
 10
54.0166169330172
 20
28.69018124356791
 30
0.0
 11
54.82374429699444
 21
28.69018124356792
 31
0.0
  0
TEXT
  5
B2C2
330
17
100
AcDbEntity
  8
PART_NUMBERS
100
AcDbText
 10
54.92018610614485
 20
28.57671043209649
 30
0.0
 40
0.25
  1
170210 "F" ANCHOR
100
AcDbText
  0
DIMENSION
  5
DC6E
330
17
100
AcDbEntity
  8
R-ANNO-DIMS
100
AcDbDimension
  2
*D2
 10
9.213567549180766
 20
26.85848700325847
 30
0.0
 11
8.988567549180762
 21
27.87515366992515
 31
0.0
 70
    32
 71
     5
 42
0.5
  3
EXT_ON-OFF
100
AcDbAlignedDimension
 13
11.58856754918077
 23
26.35848700325848
 33
0.0
 14
11.33774908034354
 24
26.85848700325847
 34
0.0
 50
90.0
100
AcDbRotatedDimension
  0
DIMENSION
  5
DCC0
330
17
100
AcDbEntity
  8
R-ANNO-DIMS
100
AcDbDimension
  2
*D0
 10
9.213567549180766
 20
16.14438053155713
 30
0.0
 11
8.988567549180764
 21
15.12771386489047
 31
0.0
 70
    32
 71
     5
 42
0.5
  3
EXT_ON-OFF
100
AcDbAlignedDimension
 13
11.58856754918077
 23
16.64438053155713
 33
0.0
 14
11.33774908034354
 24
16.14438053155713
 34
0.0
 50
270.0
100
AcDbRotatedDimension
  0
DIMENSION
  5
DCC1
330
17
100
AcDbEntity
  8
R-ANNO-DIMS
100
AcDbDimension
  2
*D1
 10
8.588567549180766
 20
26.85848700325847
 30
0.0
 11
8.363567549180762
 21
21.50143376740781
 31
0.0
 70
    32
  1
O.D.
 71
     5
 42
10.71410647170134
  3
EXT_ON-ON
100
AcDbAlignedDimension
 13
11.33774908034354
 23
16.14438053155713
 33
0.0
 14
11.33774908034354
 24
26.85848700325847
 34
0.0
 50
270.0
100
AcDbRotatedDimension
  0
TEXT
  5
DF8F
330
17
100
AcDbEntity
  8
0
  6
Continuous
 62
     2
100
AcDbText
 10
10.93100452499854
 20
12.62025692004824
 30
0.0
 40
0.375
  1
SECTION THRU "T" & "F-ANCHORS"
 72
     1
 11
15.37754272417999
 21
12.62025692004824
 31
0.0
100
AcDbText
  0
LINE
  5
DFBD
330
17
100
AcDbEntity
  8
PART_NUMBERS
100
AcDbLine
 10
15.94210570928476
 20
19.55103105840713
 30
0.0
 11
16.31413484695315
 21
20.11663277684311
 31
0.0
  0
SOLID
  5
DFBE
330
17
100
AcDbEntity
  8
PART_NUMBERS
100
AcDbTrace
 10
15.91599728814309
 20
19.56820408509113
 30
0.0
 11
15.96821413042642
 21
19.53385803172313
 31
0.0
 12
15.83906754918075
 22
19.39438053155713
 32
0.0
 13
15.83906754918075
 23
19.39438053155713
 33
0.0
  0
TEXT
  5
DFBF
330
17
100
AcDbEntity
  8
PART_NUMBERS
100
AcDbText
 10
17.2372562914721
 20
22.75890109452207
 30
0.0
 40
0.25
  1
170210 "F" ANCHOR
100
AcDbText
  0
LINE
  5
DFC0
330
17
100
AcDbEntity
  8
PART_NUMBERS
100
AcDbLine
 10
16.31413484695315
 20
20.11663277684311
 30
0.0
 11
17.04833582185498
 21
20.11663277684311
 31
0.0
  0
LINE
  5
DFC1
330
17
100
AcDbEntity
  8
PART_NUMBERS
100
AcDbLine
 10
15.94210570928476
 20
23.42558770516048
 30
0.0
 11
16.31413484695314
 21
22.8599859867245
 31
0.0
  0
LINE
  5
DFC2
330
17
100
AcDbEntity
  8
PART_NUMBERS
100
AcDbLine
 10
16.31413484695314
 20
22.85998598672451
 30
0.0
 11
17.04833582185496
 21
22.85998598672451
 31
0.0
  0
SOLID
  5
DFC3
330
17
100
AcDbEntity
  8
PART_NUMBERS
100
AcDbTrace
 10
15.91599728814309
 20
23.40841467847648
 30
0.0
 11
15.96821413042642
 21
23.44276073184448
 31
0.0
 12
15.83906754918075
 22
23.58223823201048
 32
0.0
 13
15.83906754918075
 23
23.58223823201048
 33
0.0
  0
TEXT
  5
DFC4
330
17
100
AcDbEntity
  8
PART_NUMBERS
100
AcDbText
 10
17.2372562914721
 20
22.23229676103643
 30
0.0
 40
0.25
  1
or 170209 "T" ANCHOR
100
AcDbText
  0
TEXT
  5
DFC7
330
17
100
AcDbEntity
  8
PART_NUMBERS
100
AcDbText
 10
17.23725629147212
 20
20.01554788464066
 30
0.0
 40
0.25
  1
170210 "F" ANCHOR
100
AcDbText
  0
TEXT
  5
DFC8
330
17
100
AcDbEntity
  8
PART_NUMBERS
100
AcDbText
 10
17.23725629147212
 20
19.48894355115502
 30
0.0
 40
0.25
  1
or 170209 "T" ANCHOR
100
AcDbText
  0
DIMENSION
  5
E13D
330
17
100
AcDbEntity
  8
R-ANNO-DIMS
100
AcDbDimension
  2
*D3
 10
31.60563564466933
 20
16.14428172762651
 30
0.0
 11
31.38063564466933
 21
15.12761506095985
 31
0.0
 70
    32
 71
     5
 42
0.5
  3
EXT_ON-ON
100
AcDbAlignedDimension
 13
32.60563364466932
 23
16.64428172762651
 33
0.0
 14
32.60563364466932
 24
16.14428172762651
 34
0.0
 50
90.0
100
AcDbRotatedDimension
  0
DIMENSION
  5
E13E
330
17
100
AcDbEntity
  8
R-ANNO-DIMS
100
AcDbDimension
  2
*D4
 10
31.60563564466933
 20
18.64428172762651
 30
0.0
 11
31.38063564466933
 21
17.64428172762652
 31
0.0
 70
    32
 71
     5
 42
2.0
  3
EXT_ON-ON
100
AcDbAlignedDimension
 13
32.60563364466932
 23
16.64428172762651
 33
0.0
 14
32.60563364466932
 24
18.64428172762651
 34
0.0
 50
90.0
100
AcDbRotatedDimension
  0
DIMENSION
  5
E13F
330
17
100
AcDbEntity
  8
R-ANNO-DIMS
100
AcDbDimension
  2
*D5
 10
31.60563564466933
 20
19.89428172762651
 30
0.0
 11
31.34943751044846
 21
19.26928172762651
 31
0.0
 70
   160
  1
DLO
 71
     5
 42
1.25
  3
EXT_ON-ONNL
100
AcDbAlignedDimension
 13
32.60563364466932
 23
18.64428172762651
 33
0.0
 14
36.35563364466933
 24
19.89428172762651
 34
0.0
 50
90.0
100
AcDbRotatedDimension
1001
ACAD
1000
DSTYLE
1002
{
1070
    76
1070
     1
1002
}
  0
LINE
  5
E140
330
17
100
AcDbEntity
  8
R-SWTS-DET1
100
AcDbLine
 10
37.35563364466934
 20
16.64428172762651
 30
0.0
 11
37.35563364466934
 21
19.89428172762651
 31
0.0
  0
LINE
  5
E141
330
17
100
AcDbEntity
  8
R-SWTS-DET1
100
AcDbLine
 10
37.85563364466934
 20
16.64428172762651
 30
0.0
 11
37.85563364466934
 21
19.89428172762651
 31
0.0
  0
LINE
  5
E142
330
17
100
AcDbEntity
  8
R-SWTS-DET1
100
AcDbLine
 10
38.60563364466934
 20
16.64428172762651
 30
0.0
 11
42.60563364466934
 21
16.64428172762651
 31
0.0
  0
LINE
  5
E143
330
17
100
AcDbEntity
  8
R-SWTS-DET1
100
AcDbLine
 10
38.60563364466934
 20
17.89428172762653
 30
0.0
 11
42.60563164466933
 21
17.89428172762653
 31
0.0
  0
LINE
  5
E144
330
17
100
AcDbEntity
  8
R-SWTS-DET1
100
AcDbLine
 10
38.60563364466934
 20
17.39428172762653
 30
0.0
 11
42.48266590918749
 21
17.39428172762653
 31
0.0
  0
LINE
  5
E145
330
17
100
AcDbEntity
  8
R-SWTS-DET1
100
AcDbLine
 10
36.60563364466933
 20
16.64428172762651
 30
0.0
 11
32.60563364466932
 21
16.64428172762651
 31
0.0
  0
LINE
  5
E146
330
17
100
AcDbEntity
  8
R-SWTS-DET1
100
AcDbLine
 10
36.60563364466933
 20
17.39428172762653
 30
0.0
 11
32.48266990918749
 21
17.39428172762653
 31
0.0
  0
LINE
  5
E147
330
17
100
AcDbEntity
  8
R-SWTS-DET1
100
AcDbLine
 10
36.60563364466934
 20
17.89428172762653
 30
0.0
 11
32.60563564466933
 21
17.89428172762653
 31
0.0
  0
LINE
  5
E148
330
17
100
AcDbEntity
  8
CENTER
100
AcDbLine
 10
34.35563364466934
 20
15.44446415673064
 30
0.0
 11
34.35563364466934
 21
16.53702925924141
 31
0.0
  0
LINE
  5
E149
330
17
100
AcDbEntity
  8
R-SWTS-DET3
100
AcDbLine
 10
42.60563164466933
 20
16.14428172762651
 30
0.0
 11
32.60563564466933
 21
16.14428172762651
 31
0.0
  0
LINE
  5
E14A
330
17
100
AcDbEntity
  8
R-SWTS-DET1
100
AcDbLine
 10
38.60563364466934
 20
16.64428172762651
 30
0.0
 11
36.60563364466933
 21
16.64428172762651
 31
0.0
  0
LINE
  5
E14B
330
17
100
AcDbEntity
  8
CENTER
100
AcDbLine
 10
40.85563364466933
 20
15.44446415673064
 30
0.0
 11
40.85563364466933
 21
16.53702925924141
 31
0.0
  0
LINE
  5
E152
330
17
100
AcDbEntity
  8
R-SWTS-DET1
100
AcDbLine
 10
38.60563364466934
 20
18.64428172762651
 30
0.0
 11
42.60563364466934
 21
18.64428172762651
 31
0.0
  0
LINE
  5
E156
330
17
100
AcDbEntity
  8
R-SWTS-DET1
100
AcDbLine
 10
36.60563364466933
 20
18.64428172762651
 30
0.0
 11
32.60563364466932
 21
18.64428172762651
 31
0.0
  0
LWPOLYLINE
  5
E15E
330
17
100
AcDbEntity
  8
R-SWTS-DET2
100
AcDbPolyline
 90
       14
 70
     0
 43
0.0
 10
36.91813364466934
 20
16.64428172762651
 10
36.91813364466934
 20
16.45428172762651
 42
-0.4142135623730974
 10
36.85813364466934
 20
16.39428172762651
 10
33.66563364466934
 20
16.39428172762651
 42
0.4142135623730994
 10
33.60563364466934
 20
16.33428172762651
 10
33.60563364466934
 20
16.20428172762651
 42
0.4142135623730994
 10
33.66563364466934
 20
16.14428172762651
 10
41.54563364466933
 20
16.14428172762651
 42
0.4142135623730864
 10
41.60563364466933
 20
16.20428172762651
 10
41.60563364466933
 20
16.33428172762651
 42
0.4142135623730864
 10
41.54563364466933
 20
16.39428172762651
 10
38.35313364466934
 20
16.39428172762651
 42
-0.4142135623730951
 10
38.29313364466934
 20
16.45428172762651
 10
38.29313364466934
 20
16.64428172762651
  0
LWPOLYLINE
  5
E15F
330
17
100
AcDbEntity
  8
R-SWTS-DET2
100
AcDbPolyline
 90
        6
 70
     0
 43
0.0
 10
38.16813364466934
 20
16.64428172762651
 10
38.16813364466934
 20
16.45428172762651
 42
-0.4142135623730951
 10
38.10813364466934
 20
16.39428172762651
 10
37.10313364466934
 20
16.39428172762651
 42
-0.414213562373093
 10
37.04313364466934
 20
16.45428172762651
 10
37.04313364466934
 20
16.64428172762651
  0
LWPOLYLINE
  5
E160
330
17
100
AcDbEntity
  8
R-SWTS-DET2
  6
HIDDEN
100
AcDbPolyline
 90
        7
 70
     0
 43
0.0
 10
37.04313364466934
 20
16.64428172762651
 10
37.04313364466934
 20
18.89428172762651
 10
37.15602701922539
 20
19.31560553730761
 42
0.9999999999999927
 10
37.03528629093926
 20
19.34795791794542
 10
36.9223929163832
 20
18.92663410826433
 42
0.0655434628152386
 10
36.91813364466934
 20
18.89428172762651
 10
36.91813364466934
 20
16.64428172762651
  0
LWPOLYLINE
  5
E161
330
17
100
AcDbEntity
  8
R-SWTS-DET2
  6
HIDDEN
100
AcDbPolyline
 90
        7
 70
     0
 43
0.0
 10
38.29313364466934
 20
16.64428172762651
 10
38.29313364466934
 20
18.89428172762651
 42
0.0655434628152379
 10
38.28887437295547
 20
18.92663410826433
 10
38.17598099839942
 20
19.34795791794543
 42
0.9999999999999927
 10
38.05524027011328
 20
19.31560553730761
 10
38.16813364466934
 20
18.89428172762651
 10
38.16813364466934
 20
16.64428172762651
  0
LWPOLYLINE
  5
E162
330
17
100
AcDbEntity
  8
R-SWTS-DET1
100
AcDbPolyline
 90
        6
 70
     0
 43
0.0
 10
36.35563364466933
 20
19.89428172762651
 10
37.51188364466933
 20
19.89428172762651
 10
37.56495222640583
 20
20.10649692060873
 10
37.67250331440701
 20
19.68208217961854
 10
37.72557189614351
 20
19.89429737260075
 10
38.88182189614351
 20
19.89429737260075
  0
LWPOLYLINE
  5
E163
330
17
100
AcDbEntity
  8
R-SWTS-DET1
100
AcDbPolyline
 90
        6
 70
     0
 43
0.0
 10
32.60563564466933
 20
15.64428172762651
 10
32.60563564466933
 20
17.30053172762651
 10
32.39342045168712
 20
17.35360030936301
 10
32.8178351926773
 20
17.46115139736419
 10
32.60561999969509
 20
17.51421997910068
 10
32.60561999969509
 20
18.92046997910068
  0
LWPOLYLINE
  5
E164
330
17
100
AcDbEntity
  8
R-SWTS-DET1
100
AcDbPolyline
 90
        6
 70
     0
 43
0.0
 10
42.60563164466933
 20
15.76928172762651
 10
42.60563164466933
 20
17.42553172762651
 10
42.39341645168713
 20
17.47860030936301
 10
42.81783119267731
 20
17.58615139736419
 10
42.60561599969509
 20
17.63921997910068
 10
42.60561599969509
 20
19.04546997910068
  0
DIMENSION
  5
E168
330
17
100
AcDbEntity
  8
R-ANNO-DIMS
100
AcDbDimension
  2
*D6
 10
42.60563164466933
 20
20.76928172762655
 30
0.0
 11
40.60563264465925
 21
20.99428172762655
 31
0.0
 70
    32
  1
DLO
 71
     5
 42
3.999998000020156
  3
EXT_ON-OFF
100
AcDbAlignedDimension
 13
38.60563364464918
 23
19.89428172762655
 33
0.0
 14
42.60563164466933
 24
18.89428172762651
 34
0.0
100
AcDbRotatedDimension
  0
DIMENSION
  5
E169
330
17
100
AcDbEntity
  8
R-ANNO-DIMS
100
AcDbDimension
  2
*D7
 10
32.60563564466933
 20
20.76928172762655
 30
0.0
 11
34.60563464465926
 21
20.99428172762655
 31
0.0
 70
    32
  1
DLO
 71
     5
 42
3.999997999979854
  3
EXT_ON-OFF
100
AcDbAlignedDimension
 13
36.60563364464918
 23
19.89428172762655
 33
0.0
 14
32.60563564466933
 24
18.89428172762651
 34
0.0
100
AcDbRotatedDimension
  0
DIMENSION
  5
E16A
330
17
100
AcDbEntity
  8
R-ANNO-DIMS
100
AcDbDimension
  2
*D8
 10
38.60563364464918
 20
20.76928172762655
 30
0.0
 11
37.60563364464918
 21
20.99428172762655
 31
0.0
 70
    32
 71
     5
 42
2.0
  3
EXT_ON-ON
100
AcDbAlignedDimension
 13
36.60563364464918
 23
19.89428172762655
 33
0.0
 14
38.60563364464918
 24
19.89428172762655
 34
0.0
100
AcDbRotatedDimension
1001
ACAD
1000
DSTYLE
1002
{
1002
}
  0
LINE
  5
E182
330
17
100
AcDbEntity
  8
R-SWTS-DET1
100
AcDbLine
 10
36.60563364466933
 20
16.64428172762651
 30
0.0
 11
36.60563364466933
 21
19.89428172762651
 31
0.0
  0
LINE
  5
E184
330
17
100
AcDbEntity
  8
R-SWTS-DET1
100
AcDbLine
 10
38.60563364466936
 20
16.64428172762651
 30
0.0
 11
38.60563364466936
 21
19.89428172762651
 31
0.0
  0
HATCH
  5
E33C
330
17
100
AcDbEntity
  8
R-SWTS-DET3
100
AcDbHatch
 10
0.0
 20
0.0
 30
0.0
210
0.0
220
0.0
230
1.0
  2
ANSI31
 70
     0
 71
     0
 91
        1
 92
        1
 93
        4
 72
     1
 10
32.60563564466933
 20
15.51928172762651
 11
42.60563164466933
 21
15.51928172762651
 72
     1
 10
42.60563164466933
 20
15.51928172762651
 11
42.60563164466933
 21
16.14428172762651
 72
     1
 10
42.60563164466933
 20
16.14428172762651
 11
32.60563564466933
 21
16.14428172762651
 72
     1
 10
32.60563564466933
 20
16.14428172762651
 11
32.60563564466933
 21
15.51928172762651
 97
        0
 75
     0
 76
     1
 52
0.0
 41
4.0
 77
     0
 78
     1
 53
45.0
 43
0.0
 44
-24.0883251724355
 45
-0.3535533905932737
 46
0.3535533905932738
 79
     0
 98
        1
 10
0.0
 20
-24.0883251724355
1001
ACAD
1010
0.0
1020
0.0
1030
0.0
  0
LINE
  5
E347
330
17
100
AcDbEntity
  8
R-SWTS-DET3
  6
HIDDEN
100
AcDbLine
 10
36.60563364466933
 20
17.74478172762651
 30
0.0
 11
36.48063364466933
 21
17.74478172762651
 31
0.0
  0
LINE
  5
E348
330
17
100
AcDbEntity
  8
R-SWTS-DET3
  6
HIDDEN
100
AcDbLine
 10
36.60563364466933
 20
17.54378172762651
 30
0.0
 11
36.48063364466933
 21
17.54378172762651
 31
0.0
  0
LWPOLYLINE
  5
E349
330
17
100
AcDbEntity
  8
R-SWTS-DET2
  6
HIDDEN
100
AcDbPolyline
 90
       30
 70
     1
 43
0.0
 10
35.82320779393438
 20
16.95528172762651
 10
35.86363364466933
 20
16.95528172762651
 42
0.4204164661722894
 10
36.03559524363805
 20
17.13091607490226
 42
0.9999999999999491
 10
35.94811477904638
 20
17.12906720637536
 42
-2.488247546898235
 10
35.86541889789307
 20
17.21176286676969
 42
1.0
 10
35.86726756679583
 20
17.29924494086789
 42
0.3881118343108012
 10
35.69268658643553
 20
17.14635423680123
 10
35.66206525055465
 20
16.87188170278534
 42
0.3707340792558976
 10
35.71351631151215
 20
16.79650554581589
 10
35.86363364466933
 20
16.75628172762651
 10
36.60563364466933
 20
16.75628172762651
 10
36.60563364466933
 20
18.53228172762651
 10
35.86363364466933
 20
18.53228172762651
 10
35.71351631151215
 20
18.49205790943713
 42
0.3707340792558978
 10
35.66206525055465
 20
18.41668175246768
 10
35.69268658643553
 20
18.1422092184518
 42
0.388111834310801
 10
35.86726756679583
 20
17.98931851438514
 42
1.0
 10
35.86541889789307
 20
18.07680058848333
 42
-2.488247546898235
 10
35.94811477904639
 20
18.15949624887766
 42
0.9999999999999491
 10
36.03559524363805
 20
18.15764738035076
 42
0.4204164661722893
 10
35.86363364466933
 20
18.33328172762651
 10
35.82320779393438
 20
18.33328172762651
 42
-0.8769764629927207
 10
35.81573569063765
 20
18.39003798697336
 10
35.88009020686776
 20
18.40728172762651
 10
36.41063364466933
 20
18.40728172762651
 42
-0.4142135623730951
 10
36.48063364466933
 20
18.33728172762651
 10
36.48063364466933
 20
16.95128172762651
 42
-0.4142135623730951
 10
36.41063364466933
 20
16.88128172762651
 10
35.88009020686776
 20
16.88128172762651
 10
35.81573569063765
 20
16.89852546827966
 42
-0.8769764629927209
  0
LINE
  5
E34A
330
17
100
AcDbEntity
  8
R-SWTS-DET3
  6
HIDDEN
100
AcDbLine
 10
38.60563364466936
 20
17.74478172762651
 30
0.0
 11
38.73063364466935
 21
17.74478172762651
 31
0.0
  0
LINE
  5
E34B
330
17
100
AcDbEntity
  8
R-SWTS-DET3
  6
HIDDEN
100
AcDbLine
 10
38.60563364466936
 20
17.54378172762651
 30
0.0
 11
38.73063364466935
 21
17.54378172762651
 31
0.0
  0
LWPOLYLINE
  5
E34C
330
17
100
AcDbEntity
  8
R-SWTS-DET2
  6
HIDDEN
100
AcDbPolyline
 90
       30
 70
     1
 43
0.0
 10
39.3880594954043
 20
16.95528172762651
 10
39.34763364466935
 20
16.95528172762651
 42
-0.4204164661722894
 10
39.17567204570063
 20
17.13091607490226
 42
-0.9999999999999491
 10
39.26315251029229
 20
17.12906720637536
 42
2.488247546898235
 10
39.34584839144561
 20
17.21176286676969
 42
-1.0
 10
39.34399972254285
 20
17.29924494086789
 42
-0.3881118343108012
 10
39.51858070290315
 20
17.14635423680123
 10
39.54920203878403
 20
16.87188170278534
 42
-0.3707340792558976
 10
39.49775097782653
 20
16.79650554581589
 10
39.34763364466935
 20
16.75628172762651
 10
38.60563364466936
 20
16.75628172762651
 10
38.60563364466936
 20
18.53228172762651
 10
39.34763364466935
 20
18.53228172762651
 10
39.49775097782654
 20
18.49205790943713
 42
-0.3707340792558978
 10
39.54920203878403
 20
18.41668175246768
 10
39.51858070290315
 20
18.1422092184518
 42
-0.388111834310801
 10
39.34399972254285
 20
17.98931851438514
 42
-1.0
 10
39.34584839144561
 20
18.07680058848333
 42
2.488247546898235
 10
39.2631525102923
 20
18.15949624887766
 42
-0.9999999999999491
 10
39.17567204570063
 20
18.15764738035076
 42
-0.4204164661722893
 10
39.34763364466935
 20
18.33328172762651
 10
39.3880594954043
 20
18.33328172762651
 42
0.8769764629927207
 10
39.39553159870103
 20
18.39003798697336
 10
39.33117708247092
 20
18.40728172762651
 10
38.80063364466936
 20
18.40728172762651
 42
0.4142135623730951
 10
38.73063364466935
 20
18.33728172762651
 10
38.73063364466935
 20
16.95128172762651
 42
0.4142135623730951
 10
38.80063364466936
 20
16.88128172762651
 10
39.33117708247092
 20
16.88128172762651
 10
39.39553159870103
 20
16.89852546827966
 42
0.8769764629927209
  0
LINE
  5
E34D
330
17
100
AcDbEntity
  8
CENTER
100
AcDbLine
 10
36.22263374466932
 20
17.64428172762651
 30
0.0
 11
36.98063364466932
 21
17.64428172762651
 31
0.0
  0
LWPOLYLINE
  5
E34E
330
17
100
AcDbEntity
  8
R-SWTS-DET2
  6
HIDDEN
100
AcDbPolyline
 90
        6
 70
     0
 43
0.0
 10
36.48063364466933
 20
17.73928169762651
 10
36.73063214466833
 20
17.73928169762651
 10
36.85563364466933
 20
17.70928136762663
 10
36.85563364466933
 20
17.57928208762639
 10
36.73063214466833
 20
17.54928175762651
 10
36.48063364466933
 20
17.54928175762651
  0
LWPOLYLINE
  5
E34F
330
17
100
AcDbEntity
  8
R-SWTS-DET2
  6
HIDDEN
100
AcDbPolyline
 90
        4
 70
     1
 43
0.0
 10
36.4141338252755
 20
17.83078172762651
 10
36.48063364466933
 20
17.83078172762651
 10
36.48063364466933
 20
17.45778172762651
 10
36.4141338252755
 20
17.45778172762651
 42
-0.3565687968159385
  0
LINE
  5
E350
330
17
100
AcDbEntity
  8
R-SWTS-DET2
  6
HIDDEN
100
AcDbLine
 10
36.42806023387084
 20
17.70058172762651
 30
0.0
 11
36.35306023387084
 21
17.70058172762651
 31
0.0
  0
LINE
  5
E351
330
17
100
AcDbEntity
  8
R-SWTS-DET2
  6
HIDDEN
100
AcDbLine
 10
36.42806023387084
 20
17.58798172762651
 30
0.0
 11
36.35306023387084
 21
17.58798172762651
 31
0.0
  0
LINE
  5
E352
330
17
100
AcDbEntity
  8
R-SWTS-DET2
  6
HIDDEN
100
AcDbLine
 10
36.42806023387084
 20
17.70058172762651
 30
0.0
 11
36.47206023387084
 21
17.64428172762651
 31
0.0
  0
LINE
  5
E353
330
17
100
AcDbEntity
  8
R-SWTS-DET2
  6
HIDDEN
100
AcDbLine
 10
36.47206023387084
 20
17.64428172762651
 30
0.0
 11
36.42806023387084
 21
17.58798172762651
 31
0.0
  0
LINE
  5
E354
330
17
100
AcDbEntity
  8
CENTER
100
AcDbLine
 10
38.98863354466936
 20
17.64428172762651
 30
0.0
 11
38.23063364466936
 21
17.64428172762651
 31
0.0
  0
LWPOLYLINE
  5
E355
330
17
100
AcDbEntity
  8
R-SWTS-DET2
  6
HIDDEN
100
AcDbPolyline
 90
        6
 70
     0
 43
0.0
 10
38.73063364466935
 20
17.73928169762651
 10
38.48063514467035
 20
17.73928169762651
 10
38.35563364466935
 20
17.70928136762663
 10
38.35563364466935
 20
17.57928208762639
 10
38.48063514467035
 20
17.54928175762651
 10
38.73063364466935
 20
17.54928175762651
  0
LWPOLYLINE
  5
E356
330
17
100
AcDbEntity
  8
R-SWTS-DET2
  6
HIDDEN
100
AcDbPolyline
 90
        4
 70
     1
 43
0.0
 10
38.79713346406318
 20
17.83078172762651
 10
38.73063364466935
 20
17.83078172762651
 10
38.73063364466935
 20
17.45778172762651
 10
38.79713346406318
 20
17.45778172762651
 42
0.3565687968159385
  0
LINE
  5
E357
330
17
100
AcDbEntity
  8
R-SWTS-DET2
  6
HIDDEN
100
AcDbLine
 10
38.78320705546784
 20
17.70058172762651
 30
0.0
 11
38.85820705546784
 21
17.70058172762651
 31
0.0
  0
LINE
  5
E358
330
17
100
AcDbEntity
  8
R-SWTS-DET2
  6
HIDDEN
100
AcDbLine
 10
38.78320705546784
 20
17.58798172762651
 30
0.0
 11
38.85820705546784
 21
17.58798172762651
 31
0.0
  0
LINE
  5
E359
330
17
100
AcDbEntity
  8
R-SWTS-DET2
  6
HIDDEN
100
AcDbLine
 10
38.78320705546784
 20
17.70058172762651
 30
0.0
 11
38.73920705546784
 21
17.64428172762651
 31
0.0
  0
LINE
  5
E35A
330
17
100
AcDbEntity
  8
R-SWTS-DET2
  6
HIDDEN
100
AcDbLine
 10
38.73920705546784
 20
17.64428172762651
 30
0.0
 11
38.78320705546784
 21
17.58798172762651
 31
0.0
  0
CIRCLE
  5
E369
330
17
100
AcDbEntity
  8
R-SWTS-DET2
100
AcDbCircle
 10
35.85563364466934
 20
18.14428172762652
 30
0.0
 40
0.1865
  0
LWPOLYLINE
  5
E36E
330
17
100
AcDbEntity
  8
R-SWTS-DET2
100
AcDbPolyline
 90
        4
 70
     1
 43
0.0
 10
35.79933364466933
 20
18.20058172762652
 10
35.91193364466934
 20
18.20058172762652
 10
35.91193364466934
 20
18.08798172762652
 10
35.79933364466933
 20
18.08798172762652
  0
CIRCLE
  5
E36F
330
17
100
AcDbEntity
  8
R-SWTS-DET2
100
AcDbCircle
 10
35.85563364466934
 20
17.11028172762655
 30
0.0
 40
0.1865
  0
LWPOLYLINE
  5
E370
330
17
100
AcDbEntity
  8
R-SWTS-DET2
100
AcDbPolyline
 90
        4
 70
     1
 43
0.0
 10
35.79933364466933
 20
17.16658172762655
 10
35.91193364466934
 20
17.16658172762655
 10
35.91193364466934
 20
17.05398172762655
 10
35.79933364466933
 20
17.05398172762655
  0
CIRCLE
  5
E371
330
17
100
AcDbEntity
  8
R-SWTS-DET2
100
AcDbCircle
 10
39.33963364466939
 20
18.1442817276265
 30
0.0
 40
0.1865
  0
LWPOLYLINE
  5
E372
330
17
100
AcDbEntity
  8
R-SWTS-DET2
100
AcDbPolyline
 90
        4
 70
     1
 43
0.0
 10
39.28333364466939
 20
18.2005817276265
 10
39.39593364466939
 20
18.2005817276265
 10
39.39593364466939
 20
18.0879817276265
 10
39.28333364466939
 20
18.0879817276265
  0
CIRCLE
  5
E373
330
17
100
AcDbEntity
  8
R-SWTS-DET2
100
AcDbCircle
 10
39.33963364466939
 20
17.11028172762654
 30
0.0
 40
0.1865
  0
LWPOLYLINE
  5
E374
330
17
100
AcDbEntity
  8
R-SWTS-DET2
100
AcDbPolyline
 90
        4
 70
     1
 43
0.0
 10
39.28333364466939
 20
17.16658172762654
 10
39.39593364466939
 20
17.16658172762654
 10
39.39593364466939
 20
17.05398172762654
 10
39.28333364466939
 20
17.05398172762654
  0
DIMENSION
  5
E379
330
17
100
AcDbEntity
  8
R-ANNO-DIMS
100
AcDbDimension
  2
*D9
 10
31.60563564466933
 20
26.85852242452362
 30
0.0
 11
31.38063564466932
 21
27.87518909119029
 31
0.0
 70
    32
 71
     5
 42
0.5
  3
EXT_ON-ON
100
AcDbAlignedDimension
 13
32.60563364466932
 23
26.35852242452362
 33
0.0
 14
32.60563364466932
 24
26.85852242452362
 34
0.0
 50
270.0
100
AcDbRotatedDimension
  0
DIMENSION
  5
E37A
330
17
100
AcDbEntity
  8
R-ANNO-DIMS
100
AcDbDimension
  2
*D10
 10
31.60563564466933
 20
24.35852242452362
 30
0.0
 11
31.38063564466932
 21
25.35852242452362
 31
0.0
 70
    32
 71
     5
 42
2.0
  3
EXT_ON-ON
100
AcDbAlignedDimension
 13
32.60563364466932
 23
26.35852242452362
 33
0.0
 14
32.60563364466932
 24
24.35852242452362
 34
0.0
 50
270.0
100
AcDbRotatedDimension
  0
DIMENSION
  5
E37B
330
17
100
AcDbEntity
  8
R-ANNO-DIMS
100
AcDbDimension
  2
*D11
 10
31.60563564466933
 20
23.10852242452362
 30
0.0
 11
31.34943751044846
 21
23.73352242452362
 31
0.0
 70
   160
  1
DLO
 71
     5
 42
1.25
  3
EXT_ON-ONNL
100
AcDbAlignedDimension
 13
32.60563364466932
 23
24.35852242452362
 33
0.0
 14
36.35563364466933
 24
23.10852242452362
 34
0.0
 50
270.0
100
AcDbRotatedDimension
1001
ACAD
1000
DSTYLE
1002
{
1070
    76
1070
     1
1002
}
  0
LINE
  5
E37C
330
17
100
AcDbEntity
  8
R-SWTS-DET1
100
AcDbLine
 10
37.35563364466934
 20
26.35852242452362
 30
0.0
 11
37.35563364466934
 21
23.10852242452362
 31
0.0
  0
LINE
  5
E37D
330
17
100
AcDbEntity
  8
R-SWTS-DET1
100
AcDbLine
 10
37.85563364466934
 20
26.35852242452362
 30
0.0
 11
37.85563364466934
 21
23.10852242452362
 31
0.0
  0
LINE
  5
E37E
330
17
100
AcDbEntity
  8
R-SWTS-DET1
100
AcDbLine
 10
38.60563364466934
 20
26.35852242452362
 30
0.0
 11
42.60563364466934
 21
26.35852242452362
 31
0.0
  0
LINE
  5
E37F
330
17
100
AcDbEntity
  8
R-SWTS-DET1
100
AcDbLine
 10
38.60563364466934
 20
25.1085224245236
 30
0.0
 11
42.60563164466933
 21
25.1085224245236
 31
0.0
  0
LINE
  5
E380
330
17
100
AcDbEntity
  8
R-SWTS-DET1
100
AcDbLine
 10
38.60563364466934
 20
25.6085224245236
 30
0.0
 11
42.48266590918749
 21
25.60852242452361
 31
0.0
  0
LINE
  5
E381
330
17
100
AcDbEntity
  8
R-SWTS-DET1
100
AcDbLine
 10
36.60563364466933
 20
26.35852242452362
 30
0.0
 11
32.60563364466932
 21
26.35852242452362
 31
0.0
  0
LINE
  5
E382
330
17
100
AcDbEntity
  8
R-SWTS-DET1
100
AcDbLine
 10
36.60563364466933
 20
25.6085224245236
 30
0.0
 11
32.48266990918749
 21
25.60852242452361
 31
0.0
  0
LINE
  5
E383
330
17
100
AcDbEntity
  8
R-SWTS-DET1
100
AcDbLine
 10
36.60563364466934
 20
25.1085224245236
 30
0.0
 11
32.60563564466933
 21
25.1085224245236
 31
0.0
  0
LINE
  5
E384
330
17
100
AcDbEntity
  8
CENTER
100
AcDbLine
 10
34.35563364466934
 20
27.5583399954195
 30
0.0
 11
34.35563364466934
 21
26.46577489290872
 31
0.0
  0
LINE
  5
E385
330
17
100
AcDbEntity
  8
R-SWTS-DET3
100
AcDbLine
 10
42.60563164466933
 20
26.85852242452362
 30
0.0
 11
32.60563564466933
 21
26.85852242452362
 31
0.0
  0
LINE
  5
E386
330
17
100
AcDbEntity
  8
R-SWTS-DET1
100
AcDbLine
 10
38.60563364466934
 20
26.35852242452362
 30
0.0
 11
36.60563364466933
 21
26.35852242452362
 31
0.0
  0
LINE
  5
E387
330
17
100
AcDbEntity
  8
CENTER
100
AcDbLine
 10
40.85563364466933
 20
27.5583399954195
 30
0.0
 11
40.85563364466933
 21
26.46577489290872
 31
0.0
  0
LINE
  5
E388
330
17
100
AcDbEntity
  8
R-SWTS-DET1
100
AcDbLine
 10
38.60563364466934
 20
24.35852242452362
 30
0.0
 11
42.60563364466934
 21
24.35852242452362
 31
0.0
  0
LINE
  5
E389
330
17
100
AcDbEntity
  8
R-SWTS-DET1
100
AcDbLine
 10
36.60563364466933
 20
24.35852242452362
 30
0.0
 11
32.60563364466932
 21
24.35852242452362
 31
0.0
  0
LWPOLYLINE
  5
E38A
330
17
100
AcDbEntity
  8
R-SWTS-DET2
100
AcDbPolyline
 90
       14
 70
     0
 43
0.0
 10
36.91813364466934
 20
26.35852242452362
 10
36.91813364466934
 20
26.54852242452362
 42
0.4142135623730974
 10
36.85813364466934
 20
26.60852242452362
 10
33.66563364466934
 20
26.60852242452362
 42
-0.4142135623730994
 10
33.60563364466934
 20
26.66852242452363
 10
33.60563364466934
 20
26.79852242452362
 42
-0.4142135623730994
 10
33.66563364466934
 20
26.85852242452362
 10
41.54563364466933
 20
26.85852242452362
 42
-0.4142135623730864
 10
41.60563364466933
 20
26.79852242452362
 10
41.60563364466933
 20
26.66852242452363
 42
-0.4142135623730864
 10
41.54563364466933
 20
26.60852242452362
 10
38.35313364466934
 20
26.60852242452362
 42
0.4142135623730951
 10
38.29313364466934
 20
26.54852242452362
 10
38.29313364466934
 20
26.35852242452362
  0
LWPOLYLINE
  5
E38B
330
17
100
AcDbEntity
  8
R-SWTS-DET2
100
AcDbPolyline
 90
        6
 70
     0
 43
0.0
 10
38.16813364466934
 20
26.35852242452362
 10
38.16813364466934
 20
26.54852242452362
 42
0.4142135623730951
 10
38.10813364466934
 20
26.60852242452362
 10
37.10313364466934
 20
26.60852242452362
 42
0.414213562373093
 10
37.04313364466934
 20
26.54852242452362
 10
37.04313364466934
 20
26.35852242452362
  0
LWPOLYLINE
  5
E38C
330
17
100
AcDbEntity
  8
R-SWTS-DET2
  6
HIDDEN
100
AcDbPolyline
 90
        7
 70
     0
 43
0.0
 10
37.04313364466934
 20
26.35852242452362
 10
37.04313364466934
 20
24.10852242452362
 10
37.15602701922539
 20
23.68719861484252
 42
-0.9999999999999927
 10
37.03528629093926
 20
23.65484623420471
 10
36.9223929163832
 20
24.0761700438858
 42
-0.0655434628152386
 10
36.91813364466934
 20
24.10852242452362
 10
36.91813364466934
 20
26.35852242452362
  0
LWPOLYLINE
  5
E38D
330
17
100
AcDbEntity
  8
R-SWTS-DET2
  6
HIDDEN
100
AcDbPolyline
 90
        7
 70
     0
 43
0.0
 10
38.29313364466934
 20
26.35852242452362
 10
38.29313364466934
 20
24.10852242452362
 42
-0.0655434628152379
 10
38.28887437295547
 20
24.0761700438858
 10
38.17598099839942
 20
23.65484623420471
 42
-0.9999999999999927
 10
38.05524027011328
 20
23.68719861484252
 10
38.16813364466934
 20
24.10852242452362
 10
38.16813364466934
 20
26.35852242452362
  0
LWPOLYLINE
  5
E38E
330
17
100
AcDbEntity
  8
R-SWTS-DET1
100
AcDbPolyline
 90
        6
 70
     0
 43
0.0
 10
36.35563364466933
 20
23.10852242452362
 10
37.51188364466933
 20
23.10852242452362
 10
37.56495222640583
 20
22.89630723154141
 10
37.67250331440701
 20
23.32072197253159
 10
37.72557189614351
 20
23.10850677954938
 10
38.88182189614351
 20
23.10850677954938
  0
LWPOLYLINE
  5
E38F
330
17
100
AcDbEntity
  8
R-SWTS-DET1
100
AcDbPolyline
 90
        6
 70
     0
 43
0.0
 10
32.60563564466933
 20
27.35852242452362
 10
32.60563564466933
 20
25.70227242452362
 10
32.39342045168712
 20
25.64920384278713
 10
32.8178351926773
 20
25.54165275478594
 10
32.60561999969509
 20
25.48858417304945
 10
32.60561999969509
 20
24.08233417304945
  0
LWPOLYLINE
  5
E390
330
17
100
AcDbEntity
  8
R-SWTS-DET1
100
AcDbPolyline
 90
        6
 70
     0
 43
0.0
 10
42.60563164466933
 20
27.23352242452362
 10
42.60563164466933
 20
25.57727242452362
 10
42.39341645168713
 20
25.52420384278712
 10
42.81783119267731
 20
25.41665275478595
 10
42.60561599969509
 20
25.36358417304946
 10
42.60561599969509
 20
23.95733417304946
  0
CIRCLE
  5
E394
330
17
100
AcDbEntity
  8
R-SWTS-DET2
100
AcDbCircle
 10
35.85563364466934
 20
24.85852242452362
 30
0.0
 40
0.1865
  0
LWPOLYLINE
  5
E395
330
17
100
AcDbEntity
  8
R-SWTS-DET2
100
AcDbPolyline
 90
        4
 70
     1
 43
0.0
 10
35.79933364466933
 20
24.80222242452362
 10
35.91193364466934
 20
24.80222242452362
 10
35.91193364466934
 20
24.91482242452362
 10
35.79933364466933
 20
24.91482242452362
  0
LINE
  5
E396
330
17
100
AcDbEntity
  8
R-SWTS-DET1
100
AcDbLine
 10
36.60563364466933
 20
26.35852242452362
 30
0.0
 11
36.60563364466933
 21
23.10852242452362
 31
0.0
  0
LINE
  5
E397
330
17
100
AcDbEntity
  8
R-SWTS-DET1
100
AcDbLine
 10
38.60563364466936
 20
26.35852242452362
 30
0.0
 11
38.60563364466936
 21
23.10852242452362
 31
0.0
  0
LINE
  5
E398
330
17
100
AcDbEntity
  8
CENTER
100
AcDbLine
 10
36.22263374466932
 20
25.35852242452362
 30
0.0
 11
36.98063364466932
 21
25.35852242452362
 31
0.0
  0
LWPOLYLINE
  5
E399
330
17
100
AcDbEntity
  8
R-SWTS-DET2
  6
HIDDEN
100
AcDbPolyline
 90
        6
 70
     0
 43
0.0
 10
36.48063364466933
 20
25.26352245452362
 10
36.73063214466833
 20
25.26352245452362
 10
36.85563364466933
 20
25.2935227845235
 10
36.85563364466933
 20
25.42352206452374
 10
36.73063214466833
 20
25.45352239452363
 10
36.48063364466933
 20
25.45352239452363
  0
LWPOLYLINE
  5
E39A
330
17
100
AcDbEntity
  8
R-SWTS-DET2
  6
HIDDEN
100
AcDbPolyline
 90
        4
 70
     1
 43
0.0
 10
36.4141338252755
 20
25.17202242452362
 10
36.48063364466933
 20
25.17202242452362
 10
36.48063364466933
 20
25.54502242452362
 10
36.4141338252755
 20
25.54502242452362
 42
0.3565687968159385
  0
LINE
  5
E39B
330
17
100
AcDbEntity
  8
R-SWTS-DET2
  6
HIDDEN
100
AcDbLine
 10
36.42806023387084
 20
25.30222242452362
 30
0.0
 11
36.35306023387084
 21
25.30222242452362
 31
0.0
  0
LINE
  5
E39C
330
17
100
AcDbEntity
  8
R-SWTS-DET2
  6
HIDDEN
100
AcDbLine
 10
36.42806023387084
 20
25.41482242452362
 30
0.0
 11
36.35306023387084
 21
25.41482242452362
 31
0.0
  0
LINE
  5
E39D
330
17
100
AcDbEntity
  8
R-SWTS-DET2
  6
HIDDEN
100
AcDbLine
 10
36.42806023387084
 20
25.30222242452362
 30
0.0
 11
36.47206023387084
 21
25.35852242452362
 31
0.0
  0
LINE
  5
E39E
330
17
100
AcDbEntity
  8
R-SWTS-DET2
  6
HIDDEN
100
AcDbLine
 10
36.47206023387084
 20
25.35852242452362
 30
0.0
 11
36.42806023387084
 21
25.41482242452362
 31
0.0
  0
LINE
  5
E39F
330
17
100
AcDbEntity
  8
R-SWTS-DET3
  6
HIDDEN
100
AcDbLine
 10
36.60563364466933
 20
25.25802242452363
 30
0.0
 11
36.48063364466933
 21
25.25802242452363
 31
0.0
  0
LINE
  5
E3A0
330
17
100
AcDbEntity
  8
R-SWTS-DET3
  6
HIDDEN
100
AcDbLine
 10
36.60563364466933
 20
25.45902242452362
 30
0.0
 11
36.48063364466933
 21
25.45902242452362
 31
0.0
  0
LWPOLYLINE
  5
E3A1
330
17
100
AcDbEntity
  8
R-SWTS-DET2
  6
HIDDEN
100
AcDbPolyline
 90
       30
 70
     1
 43
0.0
 10
35.82320779393438
 20
26.04752242452362
 10
35.86363364466933
 20
26.04752242452362
 42
-0.4204164661722894
 10
36.03559524363805
 20
25.87188807724787
 42
-0.9999999999999491
 10
35.94811477904638
 20
25.87373694577478
 42
2.488247546898235
 10
35.86541889789307
 20
25.79104128538044
 42
-1.0
 10
35.86726756679583
 20
25.70355921128224
 42
-0.3881118343108012
 10
35.69268658643553
 20
25.8564499153489
 10
35.66206525055465
 20
26.13092244936479
 42
-0.3707340792558976
 10
35.71351631151215
 20
26.20629860633425
 10
35.86363364466933
 20
26.24652242452362
 10
36.60563364466933
 20
26.24652242452362
 10
36.60563364466933
 20
24.47052242452362
 10
35.86363364466933
 20
24.47052242452362
 10
35.71351631151215
 20
24.510746242713
 42
-0.3707340792558978
 10
35.66206525055465
 20
24.58612239968245
 10
35.69268658643553
 20
24.86059493369834
 42
-0.388111834310801
 10
35.86726756679583
 20
25.01348563776499
 42
-1.0
 10
35.86541889789307
 20
24.9260035636668
 42
2.488247546898235
 10
35.94811477904639
 20
24.84330790327247
 42
-0.9999999999999491
 10
36.03559524363805
 20
24.84515677179937
 42
-0.4204164661722893
 10
35.86363364466933
 20
24.66952242452362
 10
35.82320779393438
 20
24.66952242452362
 42
0.8769764629927207
 10
35.81573569063765
 20
24.61276616517678
 10
35.88009020686776
 20
24.59552242452363
 10
36.41063364466933
 20
24.59552242452363
 42
0.4142135623730951
 10
36.48063364466933
 20
24.66552242452362
 10
36.48063364466933
 20
26.05152242452362
 42
0.4142135623730951
 10
36.41063364466933
 20
26.12152242452362
 10
35.88009020686776
 20
26.12152242452362
 10
35.81573569063765
 20
26.10427868387047
 42
0.8769764629927209
  0
LINE
  5
E3A2
330
17
100
AcDbEntity
  8
CENTER
100
AcDbLine
 10
38.98863354466936
 20
25.35852242452362
 30
0.0
 11
38.23063364466936
 21
25.35852242452362
 31
0.0
  0
LWPOLYLINE
  5
E3A3
330
17
100
AcDbEntity
  8
R-SWTS-DET2
  6
HIDDEN
100
AcDbPolyline
 90
        6
 70
     0
 43
0.0
 10
38.73063364466935
 20
25.26352245452362
 10
38.48063514467035
 20
25.26352245452362
 10
38.35563364466935
 20
25.2935227845235
 10
38.35563364466935
 20
25.42352206452374
 10
38.48063514467035
 20
25.45352239452363
 10
38.73063364466935
 20
25.45352239452363
  0
LWPOLYLINE
  5
E3A4
330
17
100
AcDbEntity
  8
R-SWTS-DET2
  6
HIDDEN
100
AcDbPolyline
 90
        4
 70
     1
 43
0.0
 10
38.79713346406318
 20
25.17202242452362
 10
38.73063364466935
 20
25.17202242452362
 10
38.73063364466935
 20
25.54502242452362
 10
38.79713346406318
 20
25.54502242452362
 42
-0.3565687968159385
  0
LINE
  5
E3A5
330
17
100
AcDbEntity
  8
R-SWTS-DET2
  6
HIDDEN
100
AcDbLine
 10
38.78320705546784
 20
25.30222242452362
 30
0.0
 11
38.85820705546784
 21
25.30222242452362
 31
0.0
  0
LINE
  5
E3A6
330
17
100
AcDbEntity
  8
R-SWTS-DET2
  6
HIDDEN
100
AcDbLine
 10
38.78320705546784
 20
25.41482242452362
 30
0.0
 11
38.85820705546784
 21
25.41482242452362
 31
0.0
  0
LINE
  5
E3A7
330
17
100
AcDbEntity
  8
R-SWTS-DET2
  6
HIDDEN
100
AcDbLine
 10
38.78320705546784
 20
25.30222242452362
 30
0.0
 11
38.73920705546784
 21
25.35852242452362
 31
0.0
  0
LINE
  5
E3A8
330
17
100
AcDbEntity
  8
R-SWTS-DET2
  6
HIDDEN
100
AcDbLine
 10
38.73920705546784
 20
25.35852242452362
 30
0.0
 11
38.78320705546784
 21
25.41482242452362
 31
0.0
  0
LINE
  5
E3A9
330
17
100
AcDbEntity
  8
R-SWTS-DET3
  6
HIDDEN
100
AcDbLine
 10
38.60563364466936
 20
25.25802242452363
 30
0.0
 11
38.73063364466935
 21
25.25802242452363
 31
0.0
  0
LINE
  5
E3AA
330
17
100
AcDbEntity
  8
R-SWTS-DET3
  6
HIDDEN
100
AcDbLine
 10
38.60563364466936
 20
25.45902242452362
 30
0.0
 11
38.73063364466935
 21
25.45902242452362
 31
0.0
  0
LWPOLYLINE
  5
E3AB
330
17
100
AcDbEntity
  8
R-SWTS-DET2
  6
HIDDEN
100
AcDbPolyline
 90
       30
 70
     1
 43
0.0
 10
39.3880594954043
 20
26.04752242452362
 10
39.34763364466935
 20
26.04752242452362
 42
0.4204164661722894
 10
39.17567204570063
 20
25.87188807724787
 42
0.9999999999999491
 10
39.26315251029229
 20
25.87373694577478
 42
-2.488247546898235
 10
39.34584839144561
 20
25.79104128538044
 42
1.0
 10
39.34399972254285
 20
25.70355921128224
 42
0.3881118343108012
 10
39.51858070290315
 20
25.8564499153489
 10
39.54920203878403
 20
26.13092244936479
 42
0.3707340792558976
 10
39.49775097782653
 20
26.20629860633425
 10
39.34763364466935
 20
26.24652242452362
 10
38.60563364466936
 20
26.24652242452362
 10
38.60563364466936
 20
24.47052242452362
 10
39.34763364466935
 20
24.47052242452362
 10
39.49775097782654
 20
24.510746242713
 42
0.3707340792558978
 10
39.54920203878403
 20
24.58612239968245
 10
39.51858070290315
 20
24.86059493369834
 42
0.388111834310801
 10
39.34399972254285
 20
25.01348563776499
 42
1.0
 10
39.34584839144561
 20
24.9260035636668
 42
-2.488247546898235
 10
39.2631525102923
 20
24.84330790327247
 42
0.9999999999999491
 10
39.17567204570063
 20
24.84515677179937
 42
0.4204164661722893
 10
39.34763364466935
 20
24.66952242452362
 10
39.3880594954043
 20
24.66952242452362
 42
-0.8769764629927207
 10
39.39553159870103
 20
24.61276616517678
 10
39.33117708247092
 20
24.59552242452363
 10
38.80063364466936
 20
24.59552242452363
 42
-0.4142135623730951
 10
38.73063364466935
 20
24.66552242452362
 10
38.73063364466935
 20
26.05152242452362
 42
-0.4142135623730951
 10
38.80063364466936
 20
26.12152242452362
 10
39.33117708247092
 20
26.12152242452362
 10
39.39553159870103
 20
26.10427868387047
 42
-0.8769764629927209
  0
HATCH
  5
E3AC
330
17
100
AcDbEntity
  8
R-SWTS-DET3
100
AcDbHatch
 10
0.0
 20
0.0
 30
0.0
210
0.0
220
0.0
230
1.0
  2
ANSI31
 70
     0
 71
     0
 91
        1
 92
        1
 93
        4
 72
     1
 10
32.60563564466933
 20
26.85852242452362
 11
42.60563164466933
 21
26.85852242452362
 72
     1
 10
42.60563164466933
 20
26.85852242452362
 11
42.60563164466933
 21
27.48352242452362
 72
     1
 10
42.60563164466933
 20
27.48352242452362
 11
32.60563564466933
 21
27.48352242452362
 72
     1
 10
32.60563564466933
 20
27.48352242452362
 11
32.60563564466933
 21
26.85852242452362
 97
        0
 75
     0
 76
     1
 52
0.0
 41
4.0
 77
     0
 78
     1
 53
45.00000000000001
 43
0.0
 44
-12.74908447553839
 45
-0.3535533905932737
 46
0.3535533905932738
 79
     0
 98
        1
 10
0.0
 20
-12.74908447553839
1001
ACAD
1010
0.0
1020
0.0
1030
0.0
  0
CIRCLE
  5
E3AD
330
17
100
AcDbEntity
  8
R-SWTS-DET2
100
AcDbCircle
 10
35.85563364466934
 20
25.89252242452359
 30
0.0
 40
0.1865
  0
LWPOLYLINE
  5
E3AE
330
17
100
AcDbEntity
  8
R-SWTS-DET2
100
AcDbPolyline
 90
        4
 70
     1
 43
0.0
 10
35.79933364466933
 20
25.83622242452359
 10
35.91193364466934
 20
25.83622242452359
 10
35.91193364466934
 20
25.94882242452359
 10
35.79933364466933
 20
25.94882242452359
  0
CIRCLE
  5
E3AF
330
17
100
AcDbEntity
  8
R-SWTS-DET2
100
AcDbCircle
 10
39.33963364466939
 20
24.85852242452363
 30
0.0
 40
0.1865
  0
LWPOLYLINE
  5
E3B0
330
17
100
AcDbEntity
  8
R-SWTS-DET2
100
AcDbPolyline
 90
        4
 70
     1
 43
0.0
 10
39.28333364466939
 20
24.80222242452363
 10
39.39593364466939
 20
24.80222242452363
 10
39.39593364466939
 20
24.91482242452363
 10
39.28333364466939
 20
24.91482242452363
  0
CIRCLE
  5
E3B1
330
17
100
AcDbEntity
  8
R-SWTS-DET2
100
AcDbCircle
 10
39.33963364466939
 20
25.89252242452359
 30
0.0
 40
0.1865
  0
LWPOLYLINE
  5
E3B2
330
17
100
AcDbEntity
  8
R-SWTS-DET2
100
AcDbPolyline
 90
        4
 70
     1
 43
0.0
 10
39.28333364466939
 20
25.83622242452359
 10
39.39593364466939
 20
25.83622242452359
 10
39.39593364466939
 20
25.94882242452359
 10
39.28333364466939
 20
25.94882242452359
  0
DIMENSION
  5
E564
330
17
100
AcDbEntity
  8
R-ANNO-DIMS
100
AcDbDimension
  2
*D12
 10
48.60436968663679
 20
16.14428172762651
 30
0.0
 11
48.37936968663679
 21
15.12761506095985
 31
0.0
 70
    32
 71
     5
 42
0.5
  3
EXT_ON-ON
100
AcDbAlignedDimension
 13
50.6043696866368
 23
16.64428172762651
 33
0.0
 14
50.6043696866368
 24
16.14428172762651
 34
0.0
 50
90.0
100
AcDbRotatedDimension
  0
DIMENSION
  5
E565
330
17
100
AcDbEntity
  8
R-ANNO-DIMS
100
AcDbDimension
  2
*D13
 10
48.6043696866368
 20
18.64428172762651
 30
0.0
 11
48.37936968663679
 21
17.64428172762652
 31
0.0
 70
    32
 71
     5
 42
2.0
  3
EXT_ON-ON
100
AcDbAlignedDimension
 13
50.6043696866368
 23
16.64428172762651
 33
0.0
 14
50.6043696866368
 24
18.64428172762651
 34
0.0
 50
90.0
100
AcDbRotatedDimension
  0
DIMENSION
  5
E566
330
17
100
AcDbEntity
  8
R-ANNO-DIMS
100
AcDbDimension
  2
*D14
 10
48.6043696866368
 20
19.89428172762651
 30
0.0
 11
48.34817155241593
 21
19.26928172762651
 31
0.0
 70
   160
  1
DLO
 71
     5
 42
1.25
  3
EXT_ON-ONNL
100
AcDbAlignedDimension
 13
50.6043696866368
 23
18.64428172762651
 33
0.0
 14
50.35436968663681
 24
19.89428172762651
 34
0.0
 50
90.0
100
AcDbRotatedDimension
1001
ACAD
1000
DSTYLE
1002
{
1070
    76
1070
     1
1002
}
  0
LINE
  5
E567
330
17
100
AcDbEntity
  8
R-SWTS-DET1
100
AcDbLine
 10
51.35436968663682
 20
16.64428172762651
 30
0.0
 11
51.35436968663682
 21
19.89428172762651
 31
0.0
  0
LINE
  5
E568
330
17
100
AcDbEntity
  8
R-SWTS-DET1
100
AcDbLine
 10
51.85436968663681
 20
16.64428172762651
 30
0.0
 11
51.85436968663681
 21
19.89428172762651
 31
0.0
  0
LINE
  5
E569
330
17
100
AcDbEntity
  8
R-SWTS-DET1
100
AcDbLine
 10
52.60436968663682
 20
16.64428172762651
 30
0.0
 11
59.10436968663681
 21
16.64428172762651
 31
0.0
  0
LINE
  5
E56A
330
17
100
AcDbEntity
  8
R-SWTS-DET1
100
AcDbLine
 10
52.60436968663682
 20
17.89428172762654
 30
0.0
 11
59.10436768663681
 21
17.89428172762654
 31
0.0
  0
LINE
  5
E56B
330
17
100
AcDbEntity
  8
R-SWTS-DET1
100
AcDbLine
 10
52.60436968663682
 20
17.39428172762654
 30
0.0
 11
59.10436768663681
 21
17.39428172762653
 31
0.0
  0
LINE
  5
E56C
330
17
100
AcDbEntity
  8
R-SWTS-DET1
100
AcDbLine
 10
52.60436968663682
 20
16.64428172762651
 30
0.0
 11
50.6043696866368
 21
16.64428172762651
 31
0.0
  0
LINE
  5
E56D
330
17
100
AcDbEntity
  8
CENTER
100
AcDbLine
 10
57.3543696866368
 20
15.44446415673064
 30
0.0
 11
57.3543696866368
 21
16.53702925924141
 31
0.0
  0
LINE
  5
E56E
330
17
100
AcDbEntity
  8
R-SWTS-DET3
100
AcDbLine
 10
46.51928916171783
 20
16.14428172762651
 30
0.0
 11
59.10436768663681
 21
16.14428172762651
 31
0.0
  0
LINE
  5
E574
330
17
100
AcDbEntity
  8
R-SWTS-DET1
100
AcDbLine
 10
52.60436968663682
 20
18.64428172762651
 30
0.0
 11
59.10436968663681
 21
18.64428172762651
 31
0.0
  0
LWPOLYLINE
  5
E579
330
17
100
AcDbEntity
  8
R-SWTS-DET2
100
AcDbPolyline
 90
       14
 70
     0
 43
0.0
 10
50.91686968663681
 20
16.64428172762651
 10
50.91686968663681
 20
16.45428172762651
 42
-0.4142135623730974
 10
50.85686968663681
 20
16.39428172762651
 10
50.6643696866368
 20
16.39428172762651
 42
0.4142135623730994
 10
50.6043696866368
 20
16.33428172762651
 10
50.6043696866368
 20
16.20428172762651
 42
0.4142135623730994
 10
50.6643696866368
 20
16.14428172762651
 10
58.0443696866368
 20
16.14428172762651
 42
0.4142135623730864
 10
58.1043696866368
 20
16.20428172762651
 10
58.1043696866368
 20
16.33428172762651
 42
0.4142135623730864
 10
58.0443696866368
 20
16.39428172762651
 10
52.35186968663681
 20
16.39428172762651
 42
-0.4142135623730951
 10
52.29186968663682
 20
16.45428172762651
 10
52.29186968663682
 20
16.64428172762651
  0
LWPOLYLINE
  5
E57A
330
17
100
AcDbEntity
  8
R-SWTS-DET2
100
AcDbPolyline
 90
        6
 70
     0
 43
0.0
 10
52.16686968663681
 20
16.64428172762651
 10
52.16686968663681
 20
16.45428172762651
 42
-0.4142135623730951
 10
52.10686968663681
 20
16.39428172762651
 10
51.10186968663681
 20
16.39428172762651
 42
-0.414213562373093
 10
51.04186968663682
 20
16.45428172762651
 10
51.04186968663682
 20
16.64428172762651
  0
LWPOLYLINE
  5
E57B
330
17
100
AcDbEntity
  8
R-SWTS-DET2
  6
HIDDEN
100
AcDbPolyline
 90
        7
 70
     0
 43
0.0
 10
51.04186968663682
 20
16.64428172762651
 10
51.04186968663682
 20
18.89428172762651
 10
51.15476306119287
 20
19.31560553730761
 42
0.9999999999999927
 10
51.03402233290672
 20
19.34795791794541
 10
50.92112895835068
 20
18.92663410826433
 42
0.0655434628152386
 10
50.91686968663681
 20
18.89428172762651
 10
50.91686968663681
 20
16.64428172762651
  0
LWPOLYLINE
  5
E57C
330
17
100
AcDbEntity
  8
R-SWTS-DET2
  6
HIDDEN
100
AcDbPolyline
 90
        7
 70
     0
 43
0.0
 10
52.29186968663682
 20
16.64428172762651
 10
52.29186968663682
 20
18.89428172762651
 42
0.0655434628152379
 10
52.28761041492294
 20
18.92663410826433
 10
52.1747170403669
 20
19.34795791794543
 42
0.9999999999999927
 10
52.05397631208075
 20
19.31560553730761
 10
52.16686968663681
 20
18.89428172762651
 10
52.16686968663681
 20
16.64428172762651
  0
LWPOLYLINE
  5
E57D
330
17
100
AcDbEntity
  8
R-SWTS-DET1
100
AcDbPolyline
 90
        6
 70
     0
 43
0.0
 10
50.35436968663681
 20
19.89428172762651
 10
51.51061968663681
 20
19.89428172762651
 10
51.5636882683733
 20
20.10649692060873
 10
51.67123935637448
 20
19.68208217961854
 10
51.72430793811098
 20
19.89429737260075
 10
52.88055793811098
 20
19.89429737260075
  0
LWPOLYLINE
  5
E57E
330
17
100
AcDbEntity
  8
R-SWTS-DET1
100
AcDbPolyline
 90
        6
 70
     0
 43
0.0
 10
59.10436768663681
 20
15.76928172762651
 10
59.10436768663681
 20
17.42553172762651
 10
58.8921524936546
 20
17.47860030936301
 10
59.31656723464478
 20
17.5861513973642
 10
59.10435204166257
 20
17.63921997910068
 10
59.10435204166257
 20
19.04546997910068
  0
DIMENSION
  5
E581
330
17
100
AcDbEntity
  8
R-ANNO-DIMS
100
AcDbDimension
  2
*D15
 10
59.10436768663681
 20
20.76928172762654
 30
0.0
 11
55.85436868662673
 21
20.99428172762654
 31
0.0
 70
    32
  1
DLO
 71
     5
 42
6.499998000020156
  3
EXT_ON-OFF
100
AcDbAlignedDimension
 13
52.60436968661665
 23
19.89428172762654
 33
0.0
 14
59.10436768663681
 24
18.89428172762651
 34
0.0
100
AcDbRotatedDimension
  0
DIMENSION
  5
E582
330
17
100
AcDbEntity
  8
R-ANNO-DIMS
100
AcDbDimension
  2
*D16
 10
52.60436968661665
 20
20.76928172762654
 30
0.0
 11
51.60436968661666
 21
20.99428172762654
 31
0.0
 70
    32
 71
     5
 42
2.0
  3
EXT_ON-ON
100
AcDbAlignedDimension
 13
50.60436968661665
 23
19.89428172762654
 33
0.0
 14
52.60436968661665
 24
19.89428172762654
 34
0.0
100
AcDbRotatedDimension
1001
ACAD
1000
DSTYLE
1002
{
1002
}
  0
LINE
  5
E593
330
17
100
AcDbEntity
  8
R-SWTS-DET1
100
AcDbLine
 10
50.6043696866368
 20
16.64428172762651
 30
0.0
 11
50.6043696866368
 21
19.89428172762651
 31
0.0
  0
LINE
  5
E595
330
17
100
AcDbEntity
  8
R-SWTS-DET1
100
AcDbLine
 10
52.60436968663682
 20
16.64428172762651
 30
0.0
 11
52.60436968663682
 21
19.89428172762651
 31
0.0
  0
LINE
  5
E5A6
330
17
100
AcDbEntity
  8
CENTER
100
AcDbLine
 10
54.10436968663681
 20
15.44446415673064
 30
0.0
 11
54.10436968663681
 21
16.53702925924141
 31
0.0
  0
LINE
  5
E6F3
330
17
100
AcDbEntity
  8
R-SWTS-DET3
  6
HIDDEN
100
AcDbLine
 10
52.60436968663682
 20
17.74478172762651
 30
0.0
 11
52.72936968663683
 21
17.74478172762651
 31
0.0
  0
LINE
  5
E6F4
330
17
100
AcDbEntity
  8
R-SWTS-DET3
  6
HIDDEN
100
AcDbLine
 10
52.60436968663682
 20
17.54378172762651
 30
0.0
 11
52.72936968663683
 21
17.54378172762651
 31
0.0
  0
LWPOLYLINE
  5
E6F5
330
17
100
AcDbEntity
  8
R-SWTS-DET2
  6
HIDDEN
100
AcDbPolyline
 90
       30
 70
     1
 43
0.0
 10
53.38679553737177
 20
16.95528172762652
 10
53.34636968663683
 20
16.95528172762652
 42
-0.4204164661722894
 10
53.17440808766811
 20
17.13091607490226
 42
-0.9999999999999491
 10
53.26188855225976
 20
17.12906720637536
 42
2.488247546898235
 10
53.34458443341309
 20
17.21176286676969
 42
-1.0
 10
53.34273576451032
 20
17.29924494086789
 42
-0.3881118343108012
 10
53.51731674487062
 20
17.14635423680124
 10
53.5479380807515
 20
16.87188170278535
 42
-0.3707340792558976
 10
53.49648701979401
 20
16.7965055458159
 10
53.34636968663683
 20
16.75628172762651
 10
52.60436968663682
 20
16.75628172762651
 10
52.60436968663682
 20
18.53228172762652
 10
53.34636968663683
 20
18.53228172762652
 10
53.49648701979401
 20
18.49205790943713
 42
-0.3707340792558978
 10
53.5479380807515
 20
18.41668175246767
 10
53.51731674487062
 20
18.14220921845179
 42
-0.388111834310801
 10
53.34273576451032
 20
17.98931851438514
 42
-1.0
 10
53.34458443341309
 20
18.07680058848333
 42
2.488247546898235
 10
53.26188855225977
 20
18.15949624887766
 42
-0.9999999999999491
 10
53.17440808766811
 20
18.15764738035076
 42
-0.4204164661722893
 10
53.34636968663683
 20
18.3332817276265
 10
53.38679553737177
 20
18.3332817276265
 42
0.8769764629927207
 10
53.39426764066851
 20
18.39003798697336
 10
53.3299131244384
 20
18.40728172762652
 10
52.79936968663683
 20
18.40728172762652
 42
0.4142135623730951
 10
52.72936968663683
 20
18.33728172762651
 10
52.72936968663683
 20
16.95128172762651
 42
0.4142135623730951
 10
52.79936968663683
 20
16.88128172762651
 10
53.3299131244384
 20
16.88128172762651
 10
53.39426764066851
 20
16.89852546827966
 42
0.8769764629927209
  0
LINE
  5
E6F6
330
17
100
AcDbEntity
  8
CENTER
100
AcDbLine
 10
52.98736958663683
 20
17.64428172762651
 30
0.0
 11
52.22936968663683
 21
17.64428172762651
 31
0.0
  0
LWPOLYLINE
  5
E6F7
330
17
100
AcDbEntity
  8
R-SWTS-DET2
  6
HIDDEN
100
AcDbPolyline
 90
        6
 70
     0
 43
0.0
 10
52.72936968663683
 20
17.73928169762651
 10
52.47937118663783
 20
17.73928169762651
 10
52.35436968663683
 20
17.70928136762664
 10
52.35436968663683
 20
17.57928208762639
 10
52.47937118663783
 20
17.54928175762651
 10
52.72936968663683
 20
17.54928175762651
  0
LWPOLYLINE
  5
E6F8
330
17
100
AcDbEntity
  8
R-SWTS-DET2
100
AcDbPolyline
 90
        4
 70
     1
 43
0.0
 10
52.79586950603065
 20
17.83078172762651
 10
52.72936968663683
 20
17.83078172762651
 10
52.72936968663683
 20
17.45778172762651
 10
52.79586950603065
 20
17.45778172762651
 42
0.3565687968159385
  0
LINE
  5
E6F9
330
17
100
AcDbEntity
  8
R-SWTS-DET2
100
AcDbLine
 10
52.78194309743531
 20
17.7005817276265
 30
0.0
 11
52.85694309743531
 21
17.7005817276265
 31
0.0
  0
LINE
  5
E6FA
330
17
100
AcDbEntity
  8
R-SWTS-DET2
100
AcDbLine
 10
52.78194309743531
 20
17.58798172762652
 30
0.0
 11
52.85694309743531
 21
17.58798172762652
 31
0.0
  0
LINE
  5
E6FB
330
17
100
AcDbEntity
  8
R-SWTS-DET2
100
AcDbLine
 10
52.78194309743531
 20
17.7005817276265
 30
0.0
 11
52.73794309743531
 21
17.64428172762651
 31
0.0
  0
LINE
  5
E6FC
330
17
100
AcDbEntity
  8
R-SWTS-DET2
100
AcDbLine
 10
52.73794309743531
 20
17.64428172762651
 30
0.0
 11
52.78194309743531
 21
17.58798172762652
 31
0.0
  0
LINE
  5
E6FD
330
17
100
AcDbEntity
  8
CENTER
100
AcDbLine
 10
50.2213697866368
 20
17.64428172762651
 30
0.0
 11
50.9793696866368
 21
17.64428172762651
 31
0.0
  0
LWPOLYLINE
  5
E6FE
330
17
100
AcDbEntity
  8
R-SWTS-DET2
100
AcDbPolyline
 90
        6
 70
     0
 43
0.0
 10
50.4793696866368
 20
17.73928169762651
 10
50.7293681866358
 20
17.73928169762651
 10
50.8543696866368
 20
17.70928136762664
 10
50.8543696866368
 20
17.57928208762639
 10
50.7293681866358
 20
17.54928175762651
 10
50.4793696866368
 20
17.54928175762651
  0
LWPOLYLINE
  5
E6FF
330
17
100
AcDbEntity
  8
R-SWTS-DET2
100
AcDbPolyline
 90
        4
 70
     1
 43
0.0
 10
50.41286986724298
 20
17.83078172762651
 10
50.4793696866368
 20
17.83078172762651
 10
50.4793696866368
 20
17.45778172762651
 10
50.41286986724298
 20
17.45778172762651
 42
-0.3565687968159385
  0
LINE
  5
E700
330
17
100
AcDbEntity
  8
R-SWTS-DET2
100
AcDbLine
 10
50.42679627583832
 20
17.7005817276265
 30
0.0
 11
50.35179627583832
 21
17.7005817276265
 31
0.0
  0
LINE
  5
E701
330
17
100
AcDbEntity
  8
R-SWTS-DET2
100
AcDbLine
 10
50.42679627583832
 20
17.58798172762652
 30
0.0
 11
50.35179627583832
 21
17.58798172762652
 31
0.0
  0
LINE
  5
E702
330
17
100
AcDbEntity
  8
R-SWTS-DET2
100
AcDbLine
 10
50.42679627583832
 20
17.7005817276265
 30
0.0
 11
50.47079627583832
 21
17.64428172762651
 31
0.0
  0
LINE
  5
E703
330
17
100
AcDbEntity
  8
R-SWTS-DET2
100
AcDbLine
 10
50.47079627583832
 20
17.64428172762651
 30
0.0
 11
50.42679627583832
 21
17.58798172762652
 31
0.0
  0
CIRCLE
  5
E709
330
17
100
AcDbEntity
  8
R-SWTS-DET2
100
AcDbCircle
 10
53.35436968663682
 20
17.14428172762651
 30
0.0
 40
0.1865
  0
LINE
  5
E70A
330
17
100
AcDbEntity
  8
R-SWTS-DET2
100
AcDbLine
 10
53.41066968663682
 20
17.2005817276265
 30
0.0
 11
53.29806968663682
 21
17.2005817276265
 31
0.0
  0
LINE
  5
E70B
330
17
100
AcDbEntity
  8
R-SWTS-DET2
100
AcDbLine
 10
53.41066968663682
 20
17.08798172762652
 30
0.0
 11
53.29806968663682
 21
17.08798172762652
 31
0.0
  0
LINE
  5
E70C
330
17
100
AcDbEntity
  8
R-SWTS-DET2
100
AcDbLine
 10
53.29806968663682
 20
17.2005817276265
 30
0.0
 11
53.29806968663682
 21
17.08798172762652
 31
0.0
  0
LINE
  5
E70D
330
17
100
AcDbEntity
  8
R-SWTS-DET2
100
AcDbLine
 10
53.41066968663682
 20
17.2005817276265
 30
0.0
 11
53.41066968663682
 21
17.08798172762652
 31
0.0
  0
CIRCLE
  5
E710
330
17
100
AcDbEntity
  8
R-SWTS-DET2
100
AcDbCircle
 10
53.35436968663682
 20
18.14428172762651
 30
0.0
 40
0.1865
  0
LINE
  5
E711
330
17
100
AcDbEntity
  8
R-SWTS-DET2
100
AcDbLine
 10
53.41066968663682
 20
18.2005817276265
 30
0.0
 11
53.29806968663682
 21
18.2005817276265
 31
0.0
  0
LINE
  5
E712
330
17
100
AcDbEntity
  8
R-SWTS-DET2
100
AcDbLine
 10
53.41066968663682
 20
18.08798172762652
 30
0.0
 11
53.29806968663682
 21
18.08798172762652
 31
0.0
  0
LINE
  5
E713
330
17
100
AcDbEntity
  8
R-SWTS-DET2
100
AcDbLine
 10
53.29806968663682
 20
18.2005817276265
 30
0.0
 11
53.29806968663682
 21
18.08798172762652
 31
0.0
  0
LINE
  5
E714
330
17
100
AcDbEntity
  8
R-SWTS-DET2
100
AcDbLine
 10
53.41066968663682
 20
18.2005817276265
 30
0.0
 11
53.41066968663682
 21
18.08798172762652
 31
0.0
  0
HATCH
  5
E782
330
17
100
AcDbEntity
  8
R-SWTS-DET3
100
AcDbHatch
 10
0.0
 20
0.0
 30
0.0
210
0.0
220
0.0
230
1.0
  2
ANSI31
 70
     0
 71
     0
 91
        1
 92
        1
 93
        4
 72
     1
 10
46.51928916171783
 20
15.51928172762651
 11
59.10436768663681
 21
15.51928172762651
 72
     1
 10
59.10436768663681
 20
15.51928172762651
 11
59.10436768663681
 21
16.14428172762651
 72
     1
 10
59.10436768663681
 20
16.14428172762651
 11
46.51928916171783
 21
16.14428172762651
 72
     1
 10
46.51928916171783
 20
16.14428172762651
 11
46.51928916171783
 21
15.51928172762651
 97
        0
 75
     0
 76
     1
 52
0.0
 41
4.0
 77
     0
 78
     1
 53
45.0
 43
0.0
 44
-24.0883251724355
 45
-0.3535533905932737
 46
0.3535533905932738
 79
     0
 98
        1
 10
0.0
 20
-24.0883251724355
1001
ACAD
1010
0.0
1020
0.0
1030
0.0
  0
DIMENSION
  5
E78A
330
17
100
AcDbEntity
  8
R-ANNO-DIMS
100
AcDbDimension
  2
*D17
 10
48.60436968663679
 20
26.85852242452362
 30
0.0
 11
48.37936968663679
 21
27.87518909119029
 31
0.0
 70
    32
 71
     5
 42
0.5
  3
EXT_ON-ON
100
AcDbAlignedDimension
 13
50.6043696866368
 23
26.35852242452362
 33
0.0
 14
50.6043696866368
 24
26.85852242452362
 34
0.0
 50
270.0
100
AcDbRotatedDimension
  0
DIMENSION
  5
E78B
330
17
100
AcDbEntity
  8
R-ANNO-DIMS
100
AcDbDimension
  2
*D18
 10
48.6043696866368
 20
24.35852242452362
 30
0.0
 11
48.37936968663679
 21
25.35852242452363
 31
0.0
 70
    32
 71
     5
 42
2.0
  3
EXT_ON-ON
100
AcDbAlignedDimension
 13
50.6043696866368
 23
26.35852242452362
 33
0.0
 14
50.6043696866368
 24
24.35852242452362
 34
0.0
 50
270.0
100
AcDbRotatedDimension
  0
DIMENSION
  5
E78C
330
17
100
AcDbEntity
  8
R-ANNO-DIMS
100
AcDbDimension
  2
*D19
 10
48.6043696866368
 20
23.10852242452362
 30
0.0
 11
48.34817155241593
 21
23.73352242452362
 31
0.0
 70
   160
  1
DLO
 71
     5
 42
1.25
  3
EXT_ON-ONNL
100
AcDbAlignedDimension
 13
50.6043696866368
 23
24.35852242452362
 33
0.0
 14
50.35436968663681
 24
23.10852242452362
 34
0.0
 50
270.0
100
AcDbRotatedDimension
1001
ACAD
1000
DSTYLE
1002
{
1070
    76
1070
     1
1002
}
  0
LINE
  5
E78D
330
17
100
AcDbEntity
  8
R-SWTS-DET1
100
AcDbLine
 10
51.35436968663682
 20
26.35852242452362
 30
0.0
 11
51.35436968663682
 21
23.10852242452362
 31
0.0
  0
LINE
  5
E78E
330
17
100
AcDbEntity
  8
R-SWTS-DET1
100
AcDbLine
 10
51.85436968663681
 20
26.35852242452362
 30
0.0
 11
51.85436968663681
 21
23.10852242452362
 31
0.0
  0
LINE
  5
E78F
330
17
100
AcDbEntity
  8
R-SWTS-DET1
100
AcDbLine
 10
52.60436968663682
 20
26.35852242452362
 30
0.0
 11
59.10436968663681
 21
26.35852242452362
 31
0.0
  0
LINE
  5
E790
330
17
100
AcDbEntity
  8
R-SWTS-DET1
100
AcDbLine
 10
52.60436968663682
 20
25.10852242452359
 30
0.0
 11
59.10436768663681
 21
25.10852242452359
 31
0.0
  0
LINE
  5
E791
330
17
100
AcDbEntity
  8
R-SWTS-DET1
100
AcDbLine
 10
52.60436968663682
 20
25.60852242452359
 30
0.0
 11
59.10436768663681
 21
25.60852242452361
 31
0.0
  0
LINE
  5
E792
330
17
100
AcDbEntity
  8
R-SWTS-DET1
100
AcDbLine
 10
52.60436968663682
 20
26.35852242452362
 30
0.0
 11
50.6043696866368
 21
26.35852242452362
 31
0.0
  0
LINE
  5
E793
330
17
100
AcDbEntity
  8
CENTER
100
AcDbLine
 10
57.3543696866368
 20
27.5583399954195
 30
0.0
 11
57.3543696866368
 21
26.46577489290872
 31
0.0
  0
LINE
  5
E794
330
17
100
AcDbEntity
  8
R-SWTS-DET3
100
AcDbLine
 10
46.51928916171783
 20
26.85852242452362
 30
0.0
 11
59.10436768663681
 21
26.85852242452362
 31
0.0
  0
LINE
  5
E795
330
17
100
AcDbEntity
  8
R-SWTS-DET1
100
AcDbLine
 10
52.60436968663682
 20
24.35852242452362
 30
0.0
 11
59.10436968663681
 21
24.35852242452362
 31
0.0
  0
LWPOLYLINE
  5
E796
330
17
100
AcDbEntity
  8
R-SWTS-DET2
100
AcDbPolyline
 90
       14
 70
     0
 43
0.0
 10
50.91686968663681
 20
26.35852242452362
 10
50.91686968663681
 20
26.54852242452362
 42
0.4142135623730974
 10
50.85686968663681
 20
26.60852242452362
 10
50.6643696866368
 20
26.60852242452362
 42
-0.4142135623730994
 10
50.6043696866368
 20
26.66852242452363
 10
50.6043696866368
 20
26.79852242452362
 42
-0.4142135623730994
 10
50.6643696866368
 20
26.85852242452362
 10
58.0443696866368
 20
26.85852242452362
 42
-0.4142135623730864
 10
58.1043696866368
 20
26.79852242452362
 10
58.1043696866368
 20
26.66852242452363
 42
-0.4142135623730864
 10
58.0443696866368
 20
26.60852242452362
 10
52.35186968663681
 20
26.60852242452362
 42
0.4142135623730951
 10
52.29186968663682
 20
26.54852242452362
 10
52.29186968663682
 20
26.35852242452362
  0
LWPOLYLINE
  5
E797
330
17
100
AcDbEntity
  8
R-SWTS-DET2
100
AcDbPolyline
 90
        6
 70
     0
 43
0.0
 10
52.16686968663681
 20
26.35852242452362
 10
52.16686968663681
 20
26.54852242452362
 42
0.4142135623730951
 10
52.10686968663681
 20
26.60852242452362
 10
51.10186968663681
 20
26.60852242452362
 42
0.414213562373093
 10
51.04186968663682
 20
26.54852242452362
 10
51.04186968663682
 20
26.35852242452362
  0
LWPOLYLINE
  5
E798
330
17
100
AcDbEntity
  8
R-SWTS-DET2
  6
HIDDEN
100
AcDbPolyline
 90
        7
 70
     0
 43
0.0
 10
51.04186968663682
 20
26.35852242452362
 10
51.04186968663682
 20
24.10852242452362
 10
51.15476306119287
 20
23.68719861484252
 42
-0.9999999999999927
 10
51.03402233290672
 20
23.65484623420472
 10
50.92112895835068
 20
24.0761700438858
 42
-0.0655434628152386
 10
50.91686968663681
 20
24.10852242452362
 10
50.91686968663681
 20
26.35852242452362
  0
LWPOLYLINE
  5
E799
330
17
100
AcDbEntity
  8
R-SWTS-DET2
  6
HIDDEN
100
AcDbPolyline
 90
        7
 70
     0
 43
0.0
 10
52.29186968663682
 20
26.35852242452362
 10
52.29186968663682
 20
24.10852242452362
 42
-0.0655434628152379
 10
52.28761041492294
 20
24.0761700438858
 10
52.1747170403669
 20
23.65484623420471
 42
-0.9999999999999927
 10
52.05397631208075
 20
23.68719861484252
 10
52.16686968663681
 20
24.10852242452362
 10
52.16686968663681
 20
26.35852242452362
  0
LWPOLYLINE
  5
E79A
330
17
100
AcDbEntity
  8
R-SWTS-DET1
100
AcDbPolyline
 90
        6
 70
     0
 43
0.0
 10
50.35436968663681
 20
23.10852242452362
 10
51.51061968663681
 20
23.10852242452362
 10
51.5636882683733
 20
22.89630723154141
 10
51.67123935637448
 20
23.32072197253159
 10
51.72430793811098
 20
23.10850677954938
 10
52.88055793811098
 20
23.10850677954938
  0
LWPOLYLINE
  5
E79B
330
17
100
AcDbEntity
  8
R-SWTS-DET1
100
AcDbPolyline
 90
        6
 70
     0
 43
0.0
 10
59.10436768663681
 20
27.23352242452362
 10
59.10436768663681
 20
25.57727242452362
 10
58.8921524936546
 20
25.52420384278712
 10
59.31656723464478
 20
25.41665275478594
 10
59.10435204166257
 20
25.36358417304946
 10
59.10435204166257
 20
23.95733417304946
  0
CIRCLE
  5
E79E
330
17
100
AcDbEntity
  8
R-SWTS-DET2
100
AcDbCircle
 10
53.35436968663682
 20
24.85852242452362
 30
0.0
 40
0.1865
  0
LINE
  5
E79F
330
17
100
AcDbEntity
  8
R-SWTS-DET2
100
AcDbLine
 10
53.41066968663682
 20
24.80222242452363
 30
0.0
 11
53.29806968663682
 21
24.80222242452363
 31
0.0
  0
LINE
  5
E7A0
330
17
100
AcDbEntity
  8
R-SWTS-DET2
100
AcDbLine
 10
53.41066968663682
 20
24.91482242452362
 30
0.0
 11
53.29806968663682
 21
24.91482242452362
 31
0.0
  0
LINE
  5
E7A1
330
17
100
AcDbEntity
  8
R-SWTS-DET2
100
AcDbLine
 10
53.29806968663682
 20
24.80222242452363
 30
0.0
 11
53.29806968663682
 21
24.91482242452362
 31
0.0
  0
LINE
  5
E7A2
330
17
100
AcDbEntity
  8
R-SWTS-DET2
100
AcDbLine
 10
53.41066968663682
 20
24.80222242452363
 30
0.0
 11
53.41066968663682
 21
24.91482242452362
 31
0.0
  0
CIRCLE
  5
E7A3
330
17
100
AcDbEntity
  8
R-SWTS-DET2
100
AcDbCircle
 10
53.35436968663682
 20
25.85852242452362
 30
0.0
 40
0.1865
  0
LINE
  5
E7A4
330
17
100
AcDbEntity
  8
R-SWTS-DET2
100
AcDbLine
 10
53.41066968663682
 20
25.80222242452363
 30
0.0
 11
53.29806968663682
 21
25.80222242452363
 31
0.0
  0
LINE
  5
E7A5
330
17
100
AcDbEntity
  8
R-SWTS-DET2
100
AcDbLine
 10
53.41066968663682
 20
25.91482242452361
 30
0.0
 11
53.29806968663682
 21
25.91482242452361
 31
0.0
  0
LINE
  5
E7A6
330
17
100
AcDbEntity
  8
R-SWTS-DET2
100
AcDbLine
 10
53.29806968663682
 20
25.80222242452363
 30
0.0
 11
53.29806968663682
 21
25.91482242452361
 31
0.0
  0
LINE
  5
E7A7
330
17
100
AcDbEntity
  8
R-SWTS-DET2
100
AcDbLine
 10
53.41066968663682
 20
25.80222242452363
 30
0.0
 11
53.41066968663682
 21
25.91482242452361
 31
0.0
  0
LINE
  5
E7A8
330
17
100
AcDbEntity
  8
R-SWTS-DET1
100
AcDbLine
 10
50.6043696866368
 20
26.35852242452362
 30
0.0
 11
50.6043696866368
 21
23.10852242452362
 31
0.0
  0
LINE
  5
E7A9
330
17
100
AcDbEntity
  8
R-SWTS-DET1
100
AcDbLine
 10
52.60436968663682
 20
26.35852242452362
 30
0.0
 11
52.60436968663682
 21
23.10852242452362
 31
0.0
  0
LINE
  5
E7AA
330
17
100
AcDbEntity
  8
CENTER
100
AcDbLine
 10
50.2213697866368
 20
25.35852242452362
 30
0.0
 11
50.9793696866368
 21
25.35852242452362
 31
0.0
  0
LWPOLYLINE
  5
E7AB
330
17
100
AcDbEntity
  8
R-SWTS-DET2
100
AcDbPolyline
 90
        6
 70
     0
 43
0.0
 10
50.4793696866368
 20
25.26352245452362
 10
50.7293681866358
 20
25.26352245452362
 10
50.8543696866368
 20
25.2935227845235
 10
50.8543696866368
 20
25.42352206452374
 10
50.7293681866358
 20
25.45352239452363
 10
50.4793696866368
 20
25.45352239452363
  0
LWPOLYLINE
  5
E7AC
330
17
100
AcDbEntity
  8
R-SWTS-DET2
100
AcDbPolyline
 90
        4
 70
     1
 43
0.0
 10
50.41286986724298
 20
25.17202242452363
 10
50.4793696866368
 20
25.17202242452363
 10
50.4793696866368
 20
25.54502242452362
 10
50.41286986724298
 20
25.54502242452362
 42
0.3565687968159385
  0
LINE
  5
E7AD
330
17
100
AcDbEntity
  8
R-SWTS-DET2
100
AcDbLine
 10
50.42679627583832
 20
25.30222242452363
 30
0.0
 11
50.35179627583832
 21
25.30222242452363
 31
0.0
  0
LINE
  5
E7AE
330
17
100
AcDbEntity
  8
R-SWTS-DET2
100
AcDbLine
 10
50.42679627583832
 20
25.41482242452361
 30
0.0
 11
50.35179627583832
 21
25.41482242452361
 31
0.0
  0
LINE
  5
E7AF
330
17
100
AcDbEntity
  8
R-SWTS-DET2
100
AcDbLine
 10
50.42679627583832
 20
25.30222242452363
 30
0.0
 11
50.47079627583832
 21
25.35852242452362
 31
0.0
  0
LINE
  5
E7B0
330
17
100
AcDbEntity
  8
R-SWTS-DET2
100
AcDbLine
 10
50.47079627583832
 20
25.35852242452362
 30
0.0
 11
50.42679627583832
 21
25.41482242452361
 31
0.0
  0
LINE
  5
E7B1
330
17
100
AcDbEntity
  8
CENTER
100
AcDbLine
 10
52.98736958663683
 20
25.35852242452362
 30
0.0
 11
52.22936968663683
 21
25.35852242452362
 31
0.0
  0
LWPOLYLINE
  5
E7B2
330
17
100
AcDbEntity
  8
R-SWTS-DET2
  6
HIDDEN
100
AcDbPolyline
 90
        6
 70
     0
 43
0.0
 10
52.72936968663683
 20
25.26352245452362
 10
52.47937118663783
 20
25.26352245452362
 10
52.35436968663683
 20
25.2935227845235
 10
52.35436968663683
 20
25.42352206452374
 10
52.47937118663783
 20
25.45352239452363
 10
52.72936968663683
 20
25.45352239452363
  0
LWPOLYLINE
  5
E7B3
330
17
100
AcDbEntity
  8
R-SWTS-DET2
100
AcDbPolyline
 90
        4
 70
     1
 43
0.0
 10
52.79586950603065
 20
25.17202242452363
 10
52.72936968663683
 20
25.17202242452363
 10
52.72936968663683
 20
25.54502242452362
 10
52.79586950603065
 20
25.54502242452362
 42
-0.3565687968159385
  0
LINE
  5
E7B4
330
17
100
AcDbEntity
  8
R-SWTS-DET2
100
AcDbLine
 10
52.78194309743531
 20
25.30222242452363
 30
0.0
 11
52.85694309743531
 21
25.30222242452363
 31
0.0
  0
LINE
  5
E7B5
330
17
100
AcDbEntity
  8
R-SWTS-DET2
100
AcDbLine
 10
52.78194309743531
 20
25.41482242452361
 30
0.0
 11
52.85694309743531
 21
25.41482242452361
 31
0.0
  0
LINE
  5
E7B6
330
17
100
AcDbEntity
  8
R-SWTS-DET2
100
AcDbLine
 10
52.78194309743531
 20
25.30222242452363
 30
0.0
 11
52.73794309743531
 21
25.35852242452362
 31
0.0
  0
LINE
  5
E7B7
330
17
100
AcDbEntity
  8
R-SWTS-DET2
100
AcDbLine
 10
52.73794309743531
 20
25.35852242452362
 30
0.0
 11
52.78194309743531
 21
25.41482242452361
 31
0.0
  0
LINE
  5
E7B8
330
17
100
AcDbEntity
  8
R-SWTS-DET3
  6
HIDDEN
100
AcDbLine
 10
52.60436968663682
 20
25.25802242452363
 30
0.0
 11
52.72936968663683
 21
25.25802242452363
 31
0.0
  0
LINE
  5
E7B9
330
17
100
AcDbEntity
  8
R-SWTS-DET3
  6
HIDDEN
100
AcDbLine
 10
52.60436968663682
 20
25.45902242452362
 30
0.0
 11
52.72936968663683
 21
25.45902242452362
 31
0.0
  0
LWPOLYLINE
  5
E7BA
330
17
100
AcDbEntity
  8
R-SWTS-DET2
  6
HIDDEN
100
AcDbPolyline
 90
       30
 70
     1
 43
0.0
 10
53.38679553737177
 20
26.04752242452362
 10
53.34636968663683
 20
26.04752242452362
 42
0.4204164661722894
 10
53.17440808766811
 20
25.87188807724787
 42
0.9999999999999491
 10
53.26188855225976
 20
25.87373694577478
 42
-2.488247546898235
 10
53.34458443341309
 20
25.79104128538044
 42
1.0
 10
53.34273576451032
 20
25.70355921128225
 42
0.3881118343108012
 10
53.51731674487062
 20
25.8564499153489
 10
53.5479380807515
 20
26.13092244936478
 42
0.3707340792558976
 10
53.49648701979401
 20
26.20629860633424
 10
53.34636968663683
 20
26.24652242452363
 10
52.60436968663682
 20
26.24652242452363
 10
52.60436968663682
 20
24.47052242452361
 10
53.34636968663683
 20
24.47052242452361
 10
53.49648701979401
 20
24.51074624271301
 42
0.3707340792558978
 10
53.5479380807515
 20
24.58612239968246
 10
53.51731674487062
 20
24.86059493369835
 42
0.388111834310801
 10
53.34273576451032
 20
25.01348563776499
 42
1.0
 10
53.34458443341309
 20
24.9260035636668
 42
-2.488247546898235
 10
53.26188855225977
 20
24.84330790327247
 42
0.9999999999999491
 10
53.17440808766811
 20
24.84515677179937
 42
0.4204164661722893
 10
53.34636968663683
 20
24.66952242452363
 10
53.38679553737177
 20
24.66952242452363
 42
-0.8769764629927207
 10
53.39426764066851
 20
24.61276616517678
 10
53.3299131244384
 20
24.59552242452362
 10
52.79936968663683
 20
24.59552242452362
 42
-0.4142135623730951
 10
52.72936968663683
 20
24.66552242452362
 10
52.72936968663683
 20
26.05152242452362
 42
-0.4142135623730951
 10
52.79936968663683
 20
26.12152242452363
 10
53.3299131244384
 20
26.12152242452363
 10
53.39426764066851
 20
26.10427868387047
 42
-0.8769764629927209
  0
LINE
  5
E7BB
330
17
100
AcDbEntity
  8
CENTER
100
AcDbLine
 10
54.10436968663681
 20
27.5583399954195
 30
0.0
 11
54.10436968663681
 21
26.46577489290872
 31
0.0
  0
HATCH
  5
E7BC
330
17
100
AcDbEntity
  8
R-SWTS-DET3
100
AcDbHatch
 10
0.0
 20
0.0
 30
0.0
210
0.0
220
0.0
230
1.0
  2
ANSI31
 70
     0
 71
     0
 91
        1
 92
        1
 93
        4
 72
     1
 10
46.51928916171783
 20
26.85852242452362
 11
59.10436768663681
 21
26.85852242452362
 72
     1
 10
59.10436768663681
 20
26.85852242452362
 11
59.10436768663681
 21
27.48352242452362
 72
     1
 10
59.10436768663681
 20
27.48352242452362
 11
46.51928916171783
 21
27.48352242452362
 72
     1
 10
46.51928916171783
 20
27.48352242452362
 11
46.51928916171783
 21
26.85852242452362
 97
        0
 75
     0
 76
     1
 52
0.0
 41
4.0
 77
     0
 78
     1
 53
45.00000000000001
 43
0.0
 44
-12.74908447553839
 45
-0.3535533905932737
 46
0.3535533905932738
 79
     0
 98
        1
 10
0.0
 20
-12.74908447553839
1001
ACAD
1010
0.0
1020
0.0
1030
0.0
  0
LINE
  5
110A7
330
17
100
AcDbEntity
  8
CENTER
100
AcDbLine
 10
14.52656754918075
 20
25.60698700325848
 30
0.0
 11
14.52656754918075
 21
25.10998700325847
 31
0.0
  0
LINE
  5
110A8
330
17
100
AcDbEntity
  8
CENTER
100
AcDbLine
 10
14.27806754918075
 20
25.35848700325848
 30
0.0
 11
14.77506754918076
 21
25.35848700325848
 31
0.0
  0
CIRCLE
  5
110A9
330
17
100
AcDbEntity
  8
R-SWTS-DET2
100
AcDbCircle
 10
14.52656754918075
 20
25.35848700325848
 30
0.0
 40
0.1865
  0
LWPOLYLINE
  5
110AA
330
17
100
AcDbEntity
  8
R-SWTS-DET2
100
AcDbPolyline
 90
        4
 70
     1
 43
0.0
 10
14.58286754918075
 20
25.30218700325848
 10
14.58286754918075
 20
25.41478700325847
 10
14.47026754918076
 20
25.41478700325847
 10
14.47026754918076
 20
25.30218700325848
  0
LINE
  5
110AB
330
17
100
AcDbEntity
  8
CENTER
100
AcDbLine
 10
15.67156754918076
 20
25.60698700325848
 30
0.0
 11
15.67156754918076
 21
25.10998700325847
 31
0.0
  0
LINE
  5
110AC
330
17
100
AcDbEntity
  8
CENTER
100
AcDbLine
 10
15.42306754918076
 20
25.35848700325848
 30
0.0
 11
15.92006754918077
 21
25.35848700325848
 31
0.0
  0
CIRCLE
  5
110AD
330
17
100
AcDbEntity
  8
R-SWTS-DET2
100
AcDbCircle
 10
15.67156754918076
 20
25.35848700325848
 30
0.0
 40
0.1865
  0
LWPOLYLINE
  5
110AE
330
17
100
AcDbEntity
  8
R-SWTS-DET2
100
AcDbPolyline
 90
        4
 70
     1
 43
0.0
 10
15.72786754918076
 20
25.30218700325848
 10
15.72786754918076
 20
25.41478700325847
 10
15.61526754918077
 20
25.41478700325847
 10
15.61526754918077
 20
25.30218700325848
  0
LWPOLYLINE
  5
110AF
330
17
100
AcDbEntity
  8
R-SWTS-DET1
100
AcDbPolyline
 90
        8
 70
     1
 43
0.0
 10
13.65156754918075
 20
25.22948700325847
 42
-0.4142135623730992
 10
13.62056754918075
 20
25.19848700325848
 10
13.24456754918074
 20
25.19848700325848
 42
-0.4142135623730992
 10
13.21356754918076
 20
25.22948700325847
 10
13.21356754918076
 20
25.48748700325847
 42
-0.4142135623730992
 10
13.24456754918074
 20
25.51848700325847
 10
13.62056754918075
 20
25.51848700325847
 42
-0.4142135623730992
 10
13.65156754918075
 20
25.48748700325847
  0
LWPOLYLINE
  5
110B0
330
17
100
AcDbEntity
  8
R-SWTS-DET1
100
AcDbPolyline
 90
       13
 70
     1
 43
0.0
 10
13.92856754918074
 20
24.53348700325847
 42
0.4142135623730951
 10
13.83856754918074
 20
24.62348700325846
 10
13.74156754918075
 20
24.62348700325847
 10
13.74156754918075
 20
24.63348700325848
 10
13.74156754918075
 20
24.68363473938622
 10
13.74156754918075
 20
26.08348700325847
 10
13.74156754918075
 20
26.09348700325848
 10
13.83856754918076
 20
26.09348700325848
 42
0.4142135623730951
 10
13.92856754918074
 20
26.18348700325848
 10
13.92856754918077
 20
26.26848700325847
 10
16.43656754918075
 20
26.26848700325849
 10
16.43656754918075
 20
24.44848700325848
 10
13.92856754918074
 20
24.44848700325848
  0
LWPOLYLINE
  5
110B1
330
17
100
AcDbEntity
  8
R-SWTS-DET1
100
AcDbPolyline
 90
      114
 70
     1
 43
0.0
 10
13.65156754918075
 20
24.35848700325847
 10
13.65156754918075
 20
24.40548700325847
 42
-0.4142135623730898
 10
13.67656754918076
 20
24.43048700325848
 10
13.69156754918074
 20
24.43048700325848
 10
13.69156754918074
 20
24.40848700325847
 10
13.78856754918075
 20
24.40848700325847
 42
0.4142135623730951
 10
13.83856754918076
 20
24.45848700325847
 10
13.83856754918074
 20
24.48348700325848
 42
0.4142135623730951
 10
13.78856754918075
 20
24.53348700325847
 10
13.69156754918074
 20
24.53348700325847
 10
13.69156754918074
 20
24.51148700325847
 10
13.67656754918076
 20
24.51148700325847
 42
-0.4142135623730898
 10
13.65156754918075
 20
24.53648700325847
 10
13.65156754918075
 20
24.58305530923246
 10
13.65156754918075
 20
25.10848700325848
 10
12.52656754918075
 20
25.10848700325848
 10
12.52656754918075
 20
25.23948700325848
 10
12.55156754918076
 20
25.23948700325848
 10
12.56686806454911
 20
25.26598827325847
 10
12.57656754911389
 20
25.26598827325847
 10
12.59186806461599
 20
25.23948700325848
 10
12.60156754918074
 20
25.23948700325848
 10
12.61686806454912
 20
25.26598827325847
 10
12.6265675491139
 20
25.26598827325847
 10
12.64186806461597
 20
25.23948700325848
 10
12.65156754918075
 20
25.23948700325848
 10
12.66686806454911
 20
25.26598827325847
 10
12.67656754911388
 20
25.26598827325847
 10
12.69186806461599
 20
25.23948700325848
 10
12.70156754918074
 20
25.23948700325848
 10
12.71686806454912
 20
25.26598827325847
 10
12.72656754911389
 20
25.26598827325847
 10
12.74186806461597
 20
25.23948700325848
 10
12.75156754918075
 20
25.23948700325848
 10
12.76686806454913
 20
25.26598827325847
 10
12.77656754911388
 20
25.26598827325847
 10
12.79186806461598
 20
25.23948700325848
 10
12.80156754918076
 20
25.23948700325848
 10
12.81686806454911
 20
25.26598827325847
 10
12.82656754911389
 20
25.26598827325847
 10
12.84186806461599
 20
25.23948700325848
 10
12.85156754918074
 20
25.23948700325848
 10
12.86686806454912
 20
25.26598827325847
 10
12.8765675491139
 20
25.26598827325847
 10
12.89186806461598
 20
25.23948700325848
 10
12.90156754918075
 20
25.23948700325848
 10
12.91686806454913
 20
25.26598827325847
 10
12.92656754911388
 20
25.26598827325849
 10
12.94186806461599
 20
25.23948700325848
 10
12.95156754918076
 20
25.23948700325848
 10
12.96686806454912
 20
25.26598827325849
 10
12.97656754911389
 20
25.26598827325849
 10
12.99186806461597
 20
25.23948700325848
 10
13.00156754918075
 20
25.23948700325848
 10
13.01686806454913
 20
25.26598827325847
 10
13.0265675491139
 20
25.26598827325847
 10
13.03150371606747
 20
25.25743858137494
 42
0.62713111363193
 10
13.01196137426564
 20
25.46898836634893
 10
13.0015675491139
 20
25.45098573325847
 10
12.99186806454912
 20
25.45098573325847
 10
12.97656754918074
 20
25.47748700325847
 10
12.96686806461599
 20
25.47748700325847
 10
12.95156754911389
 20
25.45098573325847
 10
12.94186806454911
 20
25.45098573325847
 10
12.92656754918076
 20
25.47748700325847
 10
12.91686806461598
 20
25.47748700325847
 10
12.90156754911388
 20
25.45098573325847
 10
12.89186806454913
 20
25.45098573325847
 10
12.87656754918075
 20
25.47748700325847
 10
12.86686806461597
 20
25.47748700325847
 10
12.85156754911389
 20
25.45098573325847
 10
12.84186806454912
 20
25.45098573325847
 10
12.82656754918076
 20
25.47748700325847
 10
12.81686806461599
 20
25.47748700325847
 10
12.80156754911388
 20
25.45098573325847
 10
12.79186806454913
 20
25.45098573325847
 10
12.77656754918075
 20
25.47748700325847
 10
12.76686806461597
 20
25.47748700325847
 10
12.7515675491139
 20
25.45098573325847
 10
12.74186806454912
 20
25.45098573325847
 10
12.72656754918077
 20
25.47748700325847
 10
12.71686806461599
 20
25.47748700325847
 10
12.70156754911389
 20
25.45098573325847
 10
12.69186806454911
 20
25.45098573325847
 10
12.67656754918076
 20
25.47748700325847
 10
12.66686806461598
 20
25.47748700325847
 10
12.6515675491139
 20
25.45098573325847
 10
12.64186806454913
 20
25.45098573325847
 10
12.62656754918075
 20
25.47748700325847
 10
12.61686806461597
 20
25.47748700325847
 10
12.60156754911389
 20
25.45098573325847
 10
12.59186806454912
 20
25.45098573325847
 10
12.57656754918076
 20
25.47748700325847
 10
12.56686806461599
 20
25.47748700325847
 10
12.55156754911388
 20
25.45098573325848
 10
12.54186806454913
 20
25.45098573325848
 10
12.52656754918075
 20
25.47748700325847
 10
12.52656754918075
 20
25.60848700325847
 10
13.65156754918075
 20
25.60848700325847
 10
13.65156754918075
 20
26.18048700325848
 42
-0.4142135623731056
 10
13.67656754918076
 20
26.20548700325848
 10
13.69156754918074
 20
26.20548700325848
 10
13.69156754918074
 20
26.18348700325846
 10
13.78856754918075
 20
26.18348700325846
 42
0.4142135623730925
 10
13.83856754918076
 20
26.23348700325847
 10
13.83856754918076
 20
26.25848700325848
 42
0.4142135623730925
 10
13.78856754918075
 20
26.30848700325846
 10
13.69156754918074
 20
26.30848700325846
 10
13.69156754918074
 20
26.28648700325847
 10
13.67656754918076
 20
26.28648700325847
 42
-0.4142135623730898
 10
13.65156754918075
 20
26.31148700325848
 10
13.65156754918075
 20
26.35848700325848
 10
16.52656754918075
 20
26.35848700325848
 10
16.52656754918075
 20
24.35848700325847
  0
LWPOLYLINE
  5
110B2
330
17
100
AcDbEntity
  8
R-SWTS-DET2
100
AcDbPolyline
 90
        4
 70
     1
 43
0.0
 10
13.92656754918076
 20
24.47048700325847
 10
16.11456754918075
 20
24.47048700325847
 10
16.11456754918075
 20
26.24648700325848
 10
13.92656754918076
 20
26.24648700325848
  0
LINE
  5
110B3
330
17
100
AcDbEntity
  8
R-SWTS-DET2
100
AcDbLine
 10
16.11456754918075
 20
25.70348700325848
 30
0.0
 11
13.92656754918076
 21
25.70348700325848
 31
0.0
  0
LINE
  5
110B4
330
17
100
AcDbEntity
  8
R-SWTS-DET2
100
AcDbLine
 10
16.11456754918075
 20
25.01348700325848
 30
0.0
 11
13.92656754918076
 21
25.01348700325848
 31
0.0
  0
CIRCLE
  5
110B5
330
17
100
AcDbEntity
  8
R-SWTS-DET2
100
AcDbCircle
 10
14.52656754918075
 20
25.35848700325848
 30
0.0
 40
0.1005
  0
CIRCLE
  5
110B6
330
17
100
AcDbEntity
  8
R-SWTS-DET2
100
AcDbCircle
 10
15.67156754918076
 20
25.35848700325848
 30
0.0
 40
0.1005
  0
CIRCLE
  5
110B7
330
17
100
AcDbEntity
  8
R-SWTS-DET2
100
AcDbCircle
 10
14.16679244639215
 20
25.35848700325848
 30
0.0
 40
0.0201632449501431
  0
ARC
  5
110B9
330
17
100
AcDbEntity
  8
R-SWTS-DET3
100
AcDbCircle
 10
12.20152186350734
 20
26.60855670439499
 30
0.0
 40
0.2500000000000041
100
AcDbArc
 50
270.0
 51
90.0
  0
ARC
  5
110BA
330
17
100
AcDbEntity
  8
R-SWTS-DET3
100
AcDbCircle
 10
12.07652186350734
 20
26.60855670439499
 30
0.0
 40
0.2500000000000041
100
AcDbArc
 50
90.0
 51
270.0
  0
ARC
  5
110BB
330
17
100
AcDbEntity
  8
R-SWTS-DET3
100
AcDbCircle
 10
11.12876432067651
 20
26.60848700325882
 30
0.0
 40
0.5233727246839511
100
AcDbArc
 50
331.4665950927012
 51
28.53340490729881
  0
LINE
  5
110BC
330
17
100
AcDbEntity
  8
R-SWTS-DET3
100
AcDbLine
 10
11.33774908034354
 20
26.85848700325847
 30
0.0
 11
16.77730341196493
 21
26.85852242452361
 31
0.0
  0
ARC
  5
110BF
330
17
100
AcDbEntity
  8
R-SWTS-DET3
100
AcDbCircle
 10
14.26452186350732
 20
26.60855670439499
 30
0.0
 40
0.2500000000000041
100
AcDbArc
 50
270.0
 51
90.0
  0
ARC
  5
110C0
330
17
100
AcDbEntity
  8
R-SWTS-DET3
100
AcDbCircle
 10
14.13952186350732
 20
26.60855670439499
 30
0.0
 40
0.2500000000000041
100
AcDbArc
 50
90.0
 51
270.0
  0
ARC
  5
110C1
330
17
100
AcDbEntity
  8
R-SWTS-DET3
100
AcDbCircle
 10
13.1917643206765
 20
26.60848700325882
 30
0.0
 40
0.5233727246839511
100
AcDbArc
 50
331.4665950927012
 51
28.53340490729881
  0
LWPOLYLINE
  5
110C2
330
17
100
AcDbEntity
  8
R-SWTS-DET2
100
AcDbPolyline
 90
        4
 70
     1
 43
0.0
 10
12.52656754918075
 20
25.60848700325847
 10
12.52656754918075
 20
25.10848700325848
 10
12.33856754918077
 20
25.10848700325848
 10
12.33856754918077
 20
25.60848700325847
  0
LINE
  5
110C5
330
17
100
AcDbEntity
  8
R-SWTS-DET1
100
AcDbLine
 10
11.58856754918076
 20
24.35848700325847
 30
0.0
 11
11.58856754918076
 21
22.35848700325847
 31
0.0
  0
LINE
  5
110C8
330
17
100
AcDbEntity
  8
R-SWTS-DET1
100
AcDbLine
 10
16.52656754918075
 20
24.35848700325847
 30
0.0
 11
16.52656754918075
 21
22.35848700325847
 31
0.0
  0
LWPOLYLINE
  5
110C9
330
17
100
AcDbEntity
  8
R-SWTS-DET1
100
AcDbPolyline
 90
        6
 70
     0
 43
0.0
 10
16.77656754918075
 20
22.35848700325847
 10
14.55659819580842
 20
22.35848700325847
 10
14.50367778114599
 20
22.14623481313559
 10
14.3977571175956
 20
22.57105939097103
 10
14.3447568687076
 20
22.35848700325847
 10
11.33856754918076
 20
22.35848700325847
  0
ARC
  5
110CA
330
17
100
AcDbEntity
  8
R-SWTS-DET3
  6
HIDDEN
100
AcDbCircle
 10
15.83536917221403
 20
26.60855670439499
 30
0.0
 40
0.2500000000000041
100
AcDbArc
 50
90.0
 51
270.0
  0
ARC
  5
110CB
330
17
100
AcDbEntity
  8
R-SWTS-DET3
  6
HIDDEN
100
AcDbCircle
 10
15.96036917221403
 20
26.60855670439499
 30
0.0
 40
0.2500000000000041
100
AcDbArc
 50
270.0
 51
90.0
  0
ARC
  5
110CC
330
17
100
AcDbEntity
  8
R-SWTS-DET3
  6
HIDDEN
100
AcDbCircle
 10
16.98637077768501
 20
26.60848700325882
 30
0.0
 40
0.5233727246839511
100
AcDbArc
 50
151.4665950927011
 51
208.5334049072984
  0
LWPOLYLINE
  5
110CD
330
17
100
AcDbEntity
  8
R-SWTS-DET1
100
AcDbPolyline
 90
       12
 70
     1
 43
0.0
 10
11.58856754918076
 20
26.35848700325848
 10
12.32362453072025
 20
26.3559211599336
 42
-0.9163311740175384
 10
12.32611506693189
 20
26.32626215521047
 10
12.24465528228825
 20
26.31219160719913
 42
-1.332393411880416
 10
12.15891022725049
 20
26.30143564816051
 10
11.64356754918074
 20
26.30323454076851
 10
11.64356754918074
 20
24.41373946574844
 10
12.15891022725049
 20
24.41553835835645
 42
-1.33239341188041
 10
12.24465528228825
 20
24.40478239931783
 10
12.32611506693189
 20
24.39071185130648
 42
-0.9163311740175378
 10
12.32362453072025
 20
24.36105284658335
 10
11.58856754918076
 20
24.35848700325847
  0
LINE
  5
110CE
330
17
100
AcDbEntity
  8
R-SWTS-DET3
100
AcDbLine
 10
11.71356754918076
 20
24.41398381283615
 30
0.0
 11
11.71356754918076
 21
24.35892333734368
 31
0.0
  0
LINE
  5
110CF
330
17
100
AcDbEntity
  8
R-SWTS-DET3
100
AcDbLine
 10
11.99481754918076
 20
24.41496556452786
 30
0.0
 11
11.99481754918076
 21
24.35990508903536
 31
0.0
  0
LWPOLYLINE
  5
110D0
330
17
100
AcDbEntity
  8
R-SWTS-DET2
100
AcDbPolyline
 90
        4
 70
     1
 43
0.0
 10
12.33856754918077
 20
24.53352407733225
 10
12.33856754918077
 20
24.73352407733223
 10
12.52656754918075
 20
24.73352407733223
 10
12.52656754918075
 20
24.53352407733225
  0
LWPOLYLINE
  5
110D1
330
17
100
AcDbEntity
  8
R-SWTS-DET2
100
AcDbPolyline
 90
        9
 70
     1
 43
0.0
 10
12.52656754918075
 20
24.53352407733225
 10
12.33856754918077
 20
24.53352407733225
 10
12.33856754918077
 20
24.44348700325849
 10
12.40356754918076
 20
24.44348700325849
 10
12.40356754918076
 20
24.42348700325847
 10
12.33856754918077
 20
24.39348700325847
 10
12.33856754918085
 20
24.36415710693096
 10
12.33292105032743
 20
24.36413149394386
 10
12.52656754918075
 20
24.29841296909923
  0
LINE
  5
110D2
330
17
100
AcDbEntity
  8
R-SWTS-DET2
100
AcDbLine
 10
12.33292105032743
 20
24.36413149394386
 30
0.0
 11
12.33292105032743
 21
22.35848700325847
 31
0.0
  0
LINE
  5
110D3
330
17
100
AcDbEntity
  8
R-SWTS-DET2
100
AcDbLine
 10
13.65156754918075
 20
24.35848700325847
 30
0.0
 11
13.65156754918075
 21
22.35848700325847
 31
0.0
  0
ARC
  5
110D4
330
17
100
AcDbEntity
  8
R-SWTS-DET2
100
AcDbCircle
 10
13.58904482730617
 20
24.35848700325847
 30
0.0
 40
0.062522721874602
100
AcDbArc
 50
182.1846510498394
 51
0.0
  0
ARC
  5
110D5
330
17
100
AcDbEntity
  8
R-SWTS-DET2
100
AcDbCircle
 10
13.58904482730617
 20
24.67048700325847
 30
0.0
 40
0.062522721874602
100
AcDbArc
 50
0.0
 51
177.8153489501569
  0
LINE
  5
110D6
330
17
100
AcDbEntity
  8
R-SWTS-DET3
100
AcDbLine
 10
12.77656754918075
 20
22.35848700325847
 30
0.0
 11
12.77656754918075
 21
24.85848700325848
 31
0.0
  0
LINE
  5
110D7
330
17
100
AcDbEntity
  8
R-SWTS-DET3
100
AcDbLine
 10
13.52656754918075
 20
24.85848700325848
 30
0.0
 11
12.52656754918075
 21
24.85848700325848
 31
0.0
  0
LINE
  5
110D8
330
17
100
AcDbEntity
  8
R-SWTS-DET3
100
AcDbLine
 10
13.27656754919664
 20
24.60848700325847
 30
0.0
 11
12.77656754918075
 21
24.60848700325847
 31
0.0
  0
LINE
  5
110D9
330
17
100
AcDbEntity
  8
R-SWTS-DET3
100
AcDbLine
 10
12.52656754918075
 20
24.85848700325848
 30
0.0
 11
12.52656754933969
 21
22.35848700325847
 31
0.0
  0
LINE
  5
110DA
330
17
100
AcDbEntity
  8
R-SWTS-DET3
100
AcDbLine
 10
13.52656754918075
 20
22.35848700325847
 30
0.0
 11
13.52656754918075
 21
24.85848700325848
 31
0.0
  0
LINE
  5
110DB
330
17
100
AcDbEntity
  8
R-SWTS-DET3
100
AcDbLine
 10
13.27656754918075
 20
24.85848700325848
 30
0.0
 11
13.27656754933969
 21
22.35848700325847
 31
0.0
  0
LWPOLYLINE
  5
110DC
330
17
100
AcDbEntity
  8
R-SWTS-DET3
  6
HIDDEN
100
AcDbPolyline
 90
        4
 70
     1
 43
0.0
 10
12.33856754918077
 20
25.92098700325847
 10
12.33856754918077
 20
25.60848700325847
 10
12.23856754918077
 20
25.60848700325847
 10
12.23856754918077
 20
25.92098700325847
  0
LWPOLYLINE
  5
110DD
330
17
100
AcDbEntity
  8
R-SWTS-DET1
100
AcDbPolyline
 90
       31
 70
     1
 43
0.0
 10
12.08805140160987
 20
26.14968286086283
 42
0.1040635034746243
 10
12.07555929041339
 20
26.14705445154532
 10
11.94505966037724
 20
26.0895950053072
 42
-0.5416234831226137
 10
11.90156754918075
 20
26.1179665959897
 10
11.90156754918075
 20
26.15948700325848
 42
-0.297333636841681
 10
11.92007543798428
 20
26.18785859394096
 10
12.15432716153015
 20
26.29100045197949
 42
0.9999999999999998
 10
12.25280793683137
 20
26.30836526974618
 10
12.33856754918077
 20
26.32348700325848
 10
12.40356754918076
 20
26.29348700325848
 10
12.40356754918076
 20
26.27348700325847
 10
12.33856754918077
 20
26.27348700325847
 10
12.33856754918077
 20
24.44348700325849
 10
12.40356754918076
 20
24.44348700325849
 10
12.40356754918076
 20
24.42348700325847
 10
12.33856754918077
 20
24.39348700325847
 10
12.25280793683137
 20
24.40860873677078
 42
0.9999999999999998
 10
12.15432716153015
 20
24.42597355453747
 10
11.92007543798431
 20
24.52911541257598
 42
-0.2973336368416833
 10
11.90156754918078
 20
24.55748700325847
 10
11.90156754918078
 20
24.59900741052725
 42
-0.5416234831226134
 10
11.94505966037724
 20
24.62737900120975
 10
12.07555929041339
 20
24.56991955497162
 42
0.1040635034746243
 10
12.08805140160987
 20
24.56729114565412
 10
12.20756754918076
 20
24.56729114565411
 42
0.4142135623730951
 10
12.23856754918077
 20
24.59829114565412
 10
12.23856754918077
 20
25.34348700325848
 10
12.25356754918076
 20
25.35848700325848
 10
12.23856754918077
 20
25.37348700325848
 10
12.23856754918074
 20
26.11868286086283
 42
0.4142135623730951
 10
12.20756754918076
 20
26.14968286086283
  0
LINE
  5
110DE
330
17
100
AcDbEntity
  8
R-SWTS-DET3
  6
HIDDEN
100
AcDbLine
 10
12.23856754918077
 20
25.22998700325847
 30
0.0
 11
12.33856754918077
 21
25.22998700325847
 31
0.0
  0
LINE
  5
110DF
330
17
100
AcDbEntity
  8
R-SWTS-DET3
  6
HIDDEN
100
AcDbLine
 10
12.23856754918077
 20
25.48698700325848
 30
0.0
 11
12.33856754918077
 21
25.48698700325848
 31
0.0
  0
LWPOLYLINE
  5
110E1
330
17
100
AcDbEntity
  8
R-SWTS-DET1
100
AcDbPolyline
 90
        8
 70
     1
 43
0.0
 10
13.65156754918075
 20
25.60848700325847
 10
13.65156754918075
 20
26.35848700325848
 10
12.65156754918075
 20
26.35848700325848
 10
12.65156754918075
 20
25.60848700325847
 10
12.75156754918075
 20
25.60848700325847
 10
12.75156754918075
 20
26.25848700325848
 10
13.55156754918076
 20
26.25848700325848
 10
13.55156754918076
 20
25.60848700325847
  0
LWPOLYLINE
  5
110E2
330
17
100
AcDbEntity
  8
R-SWTS-DET2
100
AcDbPolyline
 90
        4
 70
     1
 43
0.0
 10
12.33856754918077
 20
26.10100548330121
 10
12.33856754918077
 20
25.81856103741771
 10
12.65156754918075
 20
25.81856103741771
 10
12.65156754918075
 20
26.1010054833012
  0
LWPOLYLINE
  5
110E3
330
17
100
AcDbEntity
  8
R-SWTS-DET2
100
AcDbPolyline
 90
        9
 70
     1
 43
0.0
 10
12.65156754918075
 20
26.1010054833012
 10
12.33856754918077
 20
26.10100548330121
 10
12.33856754918077
 20
26.27348700325847
 10
12.40356754918076
 20
26.27348700325847
 10
12.40356754918076
 20
26.29348700325846
 10
12.33856754918077
 20
26.32348700325848
 10
12.33856754918085
 20
26.35281689958598
 10
12.33292105032743
 20
26.35284251257308
 10
12.65156754918075
 20
26.41856103741772
  0
LWPOLYLINE
  5
110E4
330
17
100
AcDbEntity
  8
R-SWTS-DET2
100
AcDbPolyline
 90
        4
 70
     0
 43
0.0
 10
13.75656754918074
 20
26.33223823201048
 10
13.75656754918074
 20
26.83223823201049
 10
16.42156754918076
 20
26.83223823201049
 10
16.42156754918076
 20
26.33223823201048
  0
LINE
  5
110E5
330
17
100
AcDbEntity
  8
R-SWTS-DET2
100
AcDbLine
 10
13.75656754918074
 20
26.58223823201048
 30
0.0
 11
16.42156754918076
 21
26.58223823201048
 31
0.0
  0
LINE
  5
110E6
330
17
100
AcDbEntity
  8
CENTER
100
AcDbLine
 10
14.52656754918075
 20
17.39588053155714
 30
0.0
 11
14.52656754918075
 21
17.89288053155712
 31
0.0
  0
LINE
  5
110E7
330
17
100
AcDbEntity
  8
CENTER
100
AcDbLine
 10
14.27806754918075
 20
17.64438053155713
 30
0.0
 11
14.77506754918076
 21
17.64438053155713
 31
0.0
  0
CIRCLE
  5
110E8
330
17
100
AcDbEntity
  8
R-SWTS-DET2
100
AcDbCircle
 10
14.52656754918075
 20
17.64438053155713
 30
0.0
 40
0.1865
  0
LWPOLYLINE
  5
110E9
330
17
100
AcDbEntity
  8
R-SWTS-DET2
100
AcDbPolyline
 90
        4
 70
     1
 43
0.0
 10
14.58286754918075
 20
17.58808053155712
 10
14.58286754918075
 20
17.70068053155714
 10
14.47026754918076
 20
17.70068053155714
 10
14.47026754918076
 20
17.58808053155712
  0
LINE
  5
110EA
330
17
100
AcDbEntity
  8
CENTER
100
AcDbLine
 10
15.67156754918076
 20
17.39588053155714
 30
0.0
 11
15.67156754918076
 21
17.89288053155712
 31
0.0
  0
LINE
  5
110EB
330
17
100
AcDbEntity
  8
CENTER
100
AcDbLine
 10
15.42306754918076
 20
17.64438053155713
 30
0.0
 11
15.92006754918077
 21
17.64438053155713
 31
0.0
  0
CIRCLE
  5
110EC
330
17
100
AcDbEntity
  8
R-SWTS-DET2
100
AcDbCircle
 10
15.67156754918076
 20
17.64438053155713
 30
0.0
 40
0.1865
  0
LWPOLYLINE
  5
110ED
330
17
100
AcDbEntity
  8
R-SWTS-DET2
100
AcDbPolyline
 90
        4
 70
     1
 43
0.0
 10
15.72786754918076
 20
17.58808053155712
 10
15.72786754918076
 20
17.70068053155714
 10
15.61526754918077
 20
17.70068053155714
 10
15.61526754918077
 20
17.58808053155712
  0
LWPOLYLINE
  5
110EE
330
17
100
AcDbEntity
  8
R-SWTS-DET1
100
AcDbPolyline
 90
        8
 70
     1
 43
0.0
 10
13.65156754918075
 20
17.77338053155714
 42
0.4142135623730992
 10
13.62056754918075
 20
17.80438053155714
 10
13.24456754918074
 20
17.80438053155713
 42
0.4142135623730992
 10
13.21356754918076
 20
17.77338053155714
 10
13.21356754918076
 20
17.51538053155712
 42
0.4142135623730992
 10
13.24456754918074
 20
17.48438053155713
 10
13.62056754918075
 20
17.48438053155713
 42
0.4142135623730992
 10
13.65156754918075
 20
17.51538053155712
  0
LWPOLYLINE
  5
110EF
330
17
100
AcDbEntity
  8
R-SWTS-DET1
100
AcDbPolyline
 90
       13
 70
     1
 43
0.0
 10
13.92856754918074
 20
18.46938053155713
 42
-0.4142135623730951
 10
13.83856754918074
 20
18.37938053155713
 10
13.74156754918075
 20
18.37938053155713
 10
13.74156754918075
 20
18.36938053155714
 10
13.74156754918075
 20
18.31923279542938
 10
13.74156754918075
 20
16.91938053155712
 10
13.74156754918075
 20
16.90938053155713
 10
13.83856754918076
 20
16.90938053155713
 42
-0.4142135623730951
 10
13.92856754918074
 20
16.81938053155713
 10
13.92856754918074
 20
16.73438053155713
 10
16.43656754918075
 20
16.73438053155712
 10
16.43656754918075
 20
18.55438053155713
 10
13.92856754918074
 20
18.55438053155713
  0
LWPOLYLINE
  5
110F0
330
17
100
AcDbEntity
  8
R-SWTS-DET1
100
AcDbPolyline
 90
      114
 70
     1
 43
0.0
 10
13.65156754918075
 20
18.64438053155713
 10
13.65156754918075
 20
18.59738053155713
 42
0.4142135623730898
 10
13.67656754918076
 20
18.57238053155713
 10
13.69156754918074
 20
18.57238053155713
 10
13.69156754918074
 20
18.59438053155713
 10
13.78856754918075
 20
18.59438053155713
 42
-0.4142135623730951
 10
13.83856754918076
 20
18.54438053155712
 10
13.83856754918076
 20
18.51938053155713
 42
-0.4142135623730951
 10
13.78856754918075
 20
18.46938053155713
 10
13.69156754918074
 20
18.46938053155713
 10
13.69156754918074
 20
18.49138053155712
 10
13.67656754918076
 20
18.49138053155712
 42
0.4142135623730898
 10
13.65156754918075
 20
18.46638053155713
 10
13.65156754918075
 20
18.41981222558314
 10
13.65156754918075
 20
17.89438053155713
 10
12.52656754918075
 20
17.89438053155713
 10
12.52656754918075
 20
17.76338053155713
 10
12.55156754918076
 20
17.76338053155713
 10
12.56686806454911
 20
17.73687926155713
 10
12.57656754911389
 20
17.73687926155713
 10
12.59186806461599
 20
17.76338053155713
 10
12.60156754918074
 20
17.76338053155713
 10
12.61686806454912
 20
17.73687926155713
 10
12.6265675491139
 20
17.73687926155713
 10
12.64186806461597
 20
17.76338053155713
 10
12.65156754918075
 20
17.76338053155713
 10
12.66686806454913
 20
17.73687926155713
 10
12.67656754911388
 20
17.73687926155713
 10
12.69186806461599
 20
17.76338053155713
 10
12.70156754918076
 20
17.76338053155713
 10
12.71686806454912
 20
17.73687926155713
 10
12.72656754911389
 20
17.73687926155713
 10
12.74186806461597
 20
17.76338053155713
 10
12.75156754918075
 20
17.76338053155713
 10
12.76686806454913
 20
17.73687926155713
 10
12.7765675491139
 20
17.73687926155713
 10
12.79186806461598
 20
17.76338053155713
 10
12.80156754918076
 20
17.76338053155713
 10
12.81686806454911
 20
17.73687926155713
 10
12.82656754911389
 20
17.73687926155713
 10
12.84186806461599
 20
17.76338053155713
 10
12.85156754918074
 20
17.76338053155713
 10
12.86686806454912
 20
17.73687926155713
 10
12.8765675491139
 20
17.73687926155713
 10
12.89186806461598
 20
17.76338053155713
 10
12.90156754918075
 20
17.76338053155713
 10
12.9168680645491
 20
17.73687926155713
 10
12.92656754911388
 20
17.73687926155713
 10
12.94186806461599
 20
17.76338053155713
 10
12.95156754918076
 20
17.76338053155713
 10
12.96686806454912
 20
17.73687926155713
 10
12.97656754911389
 20
17.73687926155713
 10
12.99186806461597
 20
17.76338053155713
 10
13.00156754918075
 20
17.76338053155713
 10
13.01686806454913
 20
17.73687926155713
 10
13.02656754911388
 20
17.73687926155713
 10
13.03150371606747
 20
17.74542895344066
 42
-0.62713111363193
 10
13.01196137426564
 20
17.53387916846668
 10
13.0015675491139
 20
17.55188180155713
 10
12.99186806454912
 20
17.55188180155713
 10
12.97656754918074
 20
17.52538053155713
 10
12.96686806461596
 20
17.52538053155713
 10
12.95156754911389
 20
17.55188180155713
 10
12.94186806454911
 20
17.55188180155713
 10
12.92656754918076
 20
17.52538053155713
 10
12.91686806461598
 20
17.52538053155713
 10
12.90156754911388
 20
17.55188180155713
 10
12.89186806454913
 20
17.55188180155713
 10
12.87656754918075
 20
17.52538053155713
 10
12.86686806461597
 20
17.52538053155713
 10
12.85156754911389
 20
17.55188180155713
 10
12.84186806454912
 20
17.55188180155713
 10
12.82656754918076
 20
17.52538053155713
 10
12.81686806461599
 20
17.52538053155713
 10
12.80156754911388
 20
17.55188180155713
 10
12.79186806454911
 20
17.55188180155713
 10
12.77656754918075
 20
17.52538053155713
 10
12.76686806461597
 20
17.52538053155713
 10
12.7515675491139
 20
17.55188180155713
 10
12.74186806454912
 20
17.55188180155713
 10
12.72656754918074
 20
17.52538053155713
 10
12.71686806461599
 20
17.52538053155713
 10
12.70156754911389
 20
17.55188180155713
 10
12.69186806454911
 20
17.55188180155713
 10
12.67656754918076
 20
17.52538053155713
 10
12.66686806461598
 20
17.52538053155713
 10
12.65156754911388
 20
17.55188180155713
 10
12.64186806454913
 20
17.55188180155713
 10
12.62656754918075
 20
17.52538053155713
 10
12.61686806461597
 20
17.52538053155713
 10
12.60156754911389
 20
17.55188180155713
 10
12.59186806454912
 20
17.55188180155713
 10
12.57656754918076
 20
17.52538053155713
 10
12.56686806461599
 20
17.52538053155713
 10
12.55156754911388
 20
17.55188180155713
 10
12.5418680645491
 20
17.55188180155713
 10
12.52656754918075
 20
17.52538053155713
 10
12.52656754918075
 20
17.39438053155713
 10
13.65156754918075
 20
17.39438053155713
 10
13.65156754918075
 20
16.82238053155713
 42
0.4142135623731056
 10
13.67656754918076
 20
16.79738053155714
 10
13.69156754918074
 20
16.79738053155714
 10
13.69156754918074
 20
16.81938053155713
 10
13.78856754918075
 20
16.81938053155713
 42
-0.4142135623730925
 10
13.83856754918076
 20
16.76938053155713
 10
13.83856754918076
 20
16.74438053155714
 42
-0.4142135623730925
 10
13.78856754918075
 20
16.69438053155713
 10
13.69156754918074
 20
16.69438053155713
 10
13.69156754918074
 20
16.71638053155713
 10
13.67656754918076
 20
16.71638053155713
 42
0.4142135623730898
 10
13.65156754918075
 20
16.69138053155713
 10
13.65156754918075
 20
16.64438053155713
 10
16.52656754918075
 20
16.64438053155713
 10
16.52656754918075
 20
18.64438053155713
  0
LWPOLYLINE
  5
110F1
330
17
100
AcDbEntity
  8
R-SWTS-DET2
100
AcDbPolyline
 90
        4
 70
     1
 43
0.0
 10
13.92656754918076
 20
18.53238053155712
 10
16.11456754918075
 20
18.53238053155712
 10
16.11456754918075
 20
16.75638053155714
 10
13.92656754918076
 20
16.75638053155714
  0
LINE
  5
110F2
330
17
100
AcDbEntity
  8
R-SWTS-DET2
100
AcDbLine
 10
16.11456754918075
 20
17.29938053155713
 30
0.0
 11
13.92656754918076
 21
17.29938053155713
 31
0.0
  0
LINE
  5
110F3
330
17
100
AcDbEntity
  8
R-SWTS-DET2
100
AcDbLine
 10
16.11456754918075
 20
17.98938053155713
 30
0.0
 11
13.92656754918076
 21
17.98938053155713
 31
0.0
  0
CIRCLE
  5
110F4
330
17
100
AcDbEntity
  8
R-SWTS-DET2
100
AcDbCircle
 10
14.52656754918075
 20
17.64438053155713
 30
0.0
 40
0.1005
  0
CIRCLE
  5
110F5
330
17
100
AcDbEntity
  8
R-SWTS-DET2
100
AcDbCircle
 10
15.67156754918076
 20
17.64438053155713
 30
0.0
 40
0.1005
  0
CIRCLE
  5
110F6
330
17
100
AcDbEntity
  8
R-SWTS-DET2
100
AcDbCircle
 10
14.16679244639215
 20
17.64438053155713
 30
0.0
 40
0.0201632449501431
  0
ARC
  5
110F8
330
17
100
AcDbEntity
  8
R-SWTS-DET3
100
AcDbCircle
 10
12.20152186350734
 20
16.39431083042062
 30
0.0
 40
0.2500000000000041
100
AcDbArc
 50
270.0
 51
90.0
  0
ARC
  5
110F9
330
17
100
AcDbEntity
  8
R-SWTS-DET3
100
AcDbCircle
 10
12.07652186350734
 20
16.39431083042062
 30
0.0
 40
0.2500000000000041
100
AcDbArc
 50
90.0
 51
270.0
  0
ARC
  5
110FB
330
17
100
AcDbEntity
  8
R-SWTS-DET3
100
AcDbCircle
 10
11.12876432067651
 20
16.3943805315568
 30
0.0
 40
0.5233727246839511
100
AcDbArc
 50
331.4665950927012
 51
28.53340490729882
  0
LINE
  5
110FC
330
17
100
AcDbEntity
  8
R-SWTS-DET3
100
AcDbLine
 10
11.33774908034354
 20
16.14438053155713
 30
0.0
 11
16.77730341196493
 21
16.14434511029199
 31
0.0
  0
ARC
  5
110FE
330
17
100
AcDbEntity
  8
R-SWTS-DET3
100
AcDbCircle
 10
14.26452186350732
 20
16.39431083042062
 30
0.0
 40
0.2500000000000041
100
AcDbArc
 50
270.0
 51
90.0
  0
ARC
  5
110FF
330
17
100
AcDbEntity
  8
R-SWTS-DET3
100
AcDbCircle
 10
14.13952186350732
 20
16.39431083042062
 30
0.0
 40
0.2500000000000041
100
AcDbArc
 50
90.0
 51
270.0
  0
ARC
  5
11100
330
17
100
AcDbEntity
  8
R-SWTS-DET3
100
AcDbCircle
 10
13.1917643206765
 20
16.3943805315568
 30
0.0
 40
0.5233727246839511
100
AcDbArc
 50
331.4665950927012
 51
28.53340490729882
  0
LWPOLYLINE
  5
11102
330
17
100
AcDbEntity
  8
R-SWTS-DET2
100
AcDbPolyline
 90
        4
 70
     1
 43
0.0
 10
12.33856754918077
 20
17.89438053155713
 10
12.33856754918077
 20
17.39438053155713
 10
12.52656754918075
 20
17.39438053155713
 10
12.52656754918075
 20
17.89438053155713
  0
LINE
  5
11104
330
17
100
AcDbEntity
  8
R-SWTS-DET1
100
AcDbLine
 10
11.58856754918076
 20
18.64438053155713
 30
0.0
 11
11.58856754918076
 21
20.64438053155713
 31
0.0
  0
LINE
  5
11106
330
17
100
AcDbEntity
  8
R-SWTS-DET1
100
AcDbLine
 10
16.52656754918075
 20
18.64438053155713
 30
0.0
 11
16.52656754918075
 21
20.64438053155715
 31
0.0
  0
LWPOLYLINE
  5
11108
330
17
100
AcDbEntity
  8
R-SWTS-DET1
100
AcDbPolyline
 90
        6
 70
     0
 43
0.0
 10
16.77656754918075
 20
20.64438053155713
 10
14.55659819580842
 20
20.64438053155713
 10
14.50367778114599
 20
20.85663272168
 10
14.3977571175956
 20
20.43180814384459
 10
14.3447568687076
 20
20.64438053155713
 10
11.33856754918076
 20
20.64438053155713
  0
LWPOLYLINE
  5
11112
330
17
100
AcDbEntity
  8
R-SWTS-DET3
  6
HIDDEN
100
AcDbPolyline
 90
        4
 70
     1
 43
0.0
 10
12.33856754918077
 20
18.20688053155712
 10
12.33856754918077
 20
17.89438053155712
 10
12.23856754918077
 20
17.89438053155712
 10
12.23856754918077
 20
18.20688053155712
  0
LWPOLYLINE
  5
11113
330
17
100
AcDbEntity
  8
R-SWTS-DET1
100
AcDbPolyline
 90
       31
 70
     1
 43
0.0
 10
12.08805140160987
 20
18.4355763891615
 42
0.1040635034746243
 10
12.07555929041339
 20
18.43294797984398
 10
11.94505966037724
 20
18.37548853360587
 42
-0.5416234831226137
 10
11.90156754918075
 20
18.40386012428836
 10
11.90156754918075
 20
18.44538053155713
 42
-0.297333636841681
 10
11.92007543798428
 20
18.47375212223963
 10
12.15432716153015
 20
18.57689398027814
 42
0.9999999999999998
 10
12.25280793683137
 20
18.59425879804483
 10
12.33856754918077
 20
18.60938053155712
 10
12.40356754918076
 20
18.57938053155712
 10
12.40356754918076
 20
18.55938053155712
 10
12.33856754918077
 20
18.55938053155712
 10
12.33856754918077
 20
16.72938053155712
 10
12.40356754918076
 20
16.72938053155712
 10
12.40356754918076
 20
16.70938053155713
 10
12.33856754918077
 20
16.67938053155713
 10
12.25280793683137
 20
16.69450226506941
 42
0.9999999999999998
 10
12.15432716153015
 20
16.71186708283612
 10
11.92007543798431
 20
16.81500894087463
 42
-0.2973336368416833
 10
11.90156754918078
 20
16.84338053155713
 10
11.90156754918078
 20
16.88490093882589
 42
-0.5416234831226134
 10
11.94505966037724
 20
16.91327252950839
 10
12.07555929041339
 20
16.85581308327028
 42
0.1040635034746243
 10
12.08805140160987
 20
16.85318467395276
 10
12.20756754918076
 20
16.85318467395276
 42
0.4142135623730951
 10
12.23856754918077
 20
16.88418467395277
 10
12.23856754918077
 20
17.62938053155713
 10
12.25356754918076
 20
17.64438053155713
 10
12.23856754918077
 20
17.65938053155713
 10
12.23856754918074
 20
18.40457638916149
 42
0.4142135623730951
 10
12.20756754918076
 20
18.4355763891615
  0
LINE
  5
11115
330
17
100
AcDbEntity
  8
R-SWTS-DET3
  6
HIDDEN
100
AcDbLine
 10
12.23856754918077
 20
17.51588053155713
 30
0.0
 11
12.33856754918077
 21
17.51588053155713
 31
0.0
  0
LWPOLYLINE
  5
11116
330
17
100
AcDbEntity
  8
R-SWTS-DET1
100
AcDbPolyline
 90
       12
 70
     1
 43
0.0
 10
11.58856754918076
 20
18.64438053155713
 10
12.32362453072025
 20
18.64181468823226
 42
-0.9163311740175384
 10
12.32611506693189
 20
18.61215568350913
 10
12.24465528228825
 20
18.59808513549778
 42
-1.332393411880416
 10
12.15891022725049
 20
18.58732917645916
 10
11.64356754918074
 20
18.58912806906715
 10
11.64356754918074
 20
16.69963299404711
 10
12.15891022725049
 20
16.7014318866551
 42
-1.33239341188041
 10
12.24465528228825
 20
16.69067592761648
 10
12.32611506693189
 20
16.67660537960513
 42
-0.9163311740175378
 10
12.32362453072025
 20
16.646946374882
 10
11.58856754918076
 20
16.64438053155713
  0
LINE
  5
11117
330
17
100
AcDbEntity
  8
R-SWTS-DET3
  6
HIDDEN
100
AcDbLine
 10
12.23856754918077
 20
17.77288053155712
 30
0.0
 11
12.33856754918077
 21
17.77288053155712
 31
0.0
  0
LINE
  5
11118
330
17
100
AcDbEntity
  8
R-SWTS-DET3
100
AcDbLine
 10
11.99481754918076
 20
16.7008590928265
 30
0.0
 11
11.99481754918076
 21
16.64579861733403
 31
0.0
  0
LINE
  5
11119
330
17
100
AcDbEntity
  8
R-SWTS-DET3
100
AcDbLine
 10
11.71356754918076
 20
16.69987734113481
 30
0.0
 11
11.71356754918076
 21
16.64481686564232
 31
0.0
  0
ARC
  5
1111A
330
17
100
AcDbEntity
  8
R-SWTS-DET3
  6
HIDDEN
100
AcDbCircle
 10
15.83536917221403
 20
16.39431083042062
 30
0.0
 40
0.2500000000000041
100
AcDbArc
 50
90.0
 51
270.0
  0
ARC
  5
1111B
330
17
100
AcDbEntity
  8
R-SWTS-DET3
  6
HIDDEN
100
AcDbCircle
 10
16.98637077768501
 20
16.3943805315568
 30
0.0
 40
0.5233727246839511
100
AcDbArc
 50
151.4665950927011
 51
208.5334049072986
  0
ARC
  5
1111C
330
17
100
AcDbEntity
  8
R-SWTS-DET3
  6
HIDDEN
100
AcDbCircle
 10
15.96036917221403
 20
16.39431083042062
 30
0.0
 40
0.2500000000000041
100
AcDbArc
 50
270.0
 51
90.0
  0
LWPOLYLINE
  5
1111D
330
17
100
AcDbEntity
  8
R-SWTS-DET2
100
AcDbPolyline
 90
        8
 70
     1
 43
0.0001
 10
12.88330667522672
 20
17.89438053155713
 10
12.88330667522672
 20
18.01938053155713
 10
13.13330667522672
 20
18.01938053155713
 10
13.13330667522672
 20
17.89438053155713
 10
13.53930667522672
 20
17.89438053155713
 10
13.53930667522672
 20
18.14438053155713
 10
12.47730667522674
 20
18.14438053155713
 10
12.47730667522674
 20
17.89438053155713
  0
LWPOLYLINE
  5
1111E
330
17
100
AcDbEntity
  8
R-SWTS-DET1
100
AcDbPolyline
 90
        8
 70
     1
 43
0.0
 10
13.55156754918076
 20
17.39438053155715
 10
13.55156754918076
 20
16.74438053155714
 10
12.75156754918075
 20
16.74438053155714
 10
12.75156754918075
 20
17.39438053155715
 10
12.65156754918075
 20
17.39438053155715
 10
12.65156754918075
 20
16.64438053155715
 10
13.65156754918075
 20
16.64438053155715
 10
13.65156754918075
 20
17.39438053155715
  0
LWPOLYLINE
  5
11120
330
17
100
AcDbEntity
  8
R-SWTS-DET2
100
AcDbPolyline
 90
        4
 70
     0
 43
0.0
 10
13.75656754918074
 20
16.64438053155713
 10
13.75656754918074
 20
16.14438053155713
 10
16.42156754918076
 20
16.14438053155713
 10
16.42156754918076
 20
16.64438053155713
  0
LINE
  5
11121
330
17
100
AcDbEntity
  8
R-SWTS-DET2
100
AcDbLine
 10
13.75656754918074
 20
16.39438053155713
 30
0.0
 11
16.42156754918076
 21
16.39438053155713
 31
0.0
  0
LWPOLYLINE
  5
11122
330
17
100
AcDbEntity
  8
R-SWTS-DET2
100
AcDbPolyline
 90
        4
 70
     1
 43
0.0
 10
12.33856754918077
 20
16.9018620515144
 10
12.33856754918077
 20
17.1843064973979
 10
12.65156754918075
 20
17.1843064973979
 10
12.65156754918075
 20
16.9018620515144
  0
LWPOLYLINE
  5
11123
330
17
100
AcDbEntity
  8
R-SWTS-DET2
100
AcDbPolyline
 90
        9
 70
     1
 43
0.0
 10
12.65156754918075
 20
16.9018620515144
 10
12.33856754918077
 20
16.9018620515144
 10
12.33856754918077
 20
16.72938053155714
 10
12.40356754918076
 20
16.72938053155715
 10
12.40356754918076
 20
16.70938053155714
 10
12.33856754918077
 20
16.67938053155714
 10
12.33856754918085
 20
16.65005063522963
 10
12.33292105032743
 20
16.65002502224253
 10
12.65156754918075
 20
16.5843064973979
  0
LWPOLYLINE
  5
11131
330
17
100
AcDbEntity
  8
R-SWTS-DET2
100
AcDbPolyline
 90
        4
 70
     0
 43
0.0
 10
12.23856754918077
 20
25.48348700325848
 10
12.98856754918077
 20
25.48348700325848
 10
12.98856754918077
 20
25.23348700325847
 10
12.23856754918077
 20
25.23348700325847
  0
LWPOLYLINE
  5
11132
330
17
100
AcDbEntity
  8
R-SWTS-DET2
100
AcDbPolyline
 90
        4
 70
     1
 43
0.0
 10
12.15106781125252
 20
25.60448700325848
 10
12.2385675491808
 20
25.60448700325848
 10
12.23856754918077
 20
25.11248700325848
 10
12.15106781125252
 20
25.11248700325848
 42
-0.3556913092439962
  0
LWPOLYLINE
  5
11133
330
17
100
AcDbEntity
  8
R-SWTS-DET2
100
AcDbPolyline
 90
        4
 70
     0
 43
0.0
 10
12.23856754918077
 20
17.76938053155715
 10
12.98856754918077
 20
17.76938053155715
 10
12.98856754918077
 20
17.51938053155714
 10
12.23856754918077
 20
17.51938053155714
  0
LWPOLYLINE
  5
11134
330
17
100
AcDbEntity
  8
R-SWTS-DET2
100
AcDbPolyline
 90
        4
 70
     1
 43
0.0
 10
12.15106781125252
 20
17.89038053155715
 10
12.2385675491808
 20
17.89038053155715
 10
12.23856754918077
 20
17.39838053155714
 10
12.15106781125252
 20
17.39838053155714
 42
-0.3556913092439962
  0
LINE
  5
11135
330
17
100
AcDbEntity
  8
R-SWTS-DET2
  6
HIDDEN
100
AcDbLine
 10
13.76756754795457
 20
25.78048739325847
 30
0.0
 11
13.76756754795457
 21
25.97048679325848
 31
0.0
  0
LWPOLYLINE
  5
11136
330
17
100
AcDbEntity
  8
R-SWTS-DET2
  6
HIDDEN
100
AcDbPolyline
 90
        4
 70
     0
 43
0.0
 10
13.76756754795457
 20
25.78048721325847
 10
13.65156753553137
 20
25.68298730350624
 10
13.65156756037774
 20
26.06798669325848
 10
13.76756764795456
 20
25.97048679325848
  0
LWPOLYLINE
  5
11137
330
17
100
AcDbEntity
  8
R-SWTS-DET2
  6
HIDDEN
100
AcDbPolyline
 90
        5
 70
     0
 43
0.0
 10
13.76756754795457
 20
25.78048709325847
 10
14.89556804795453
 20
25.7804870485101
 10
15.15156754795453
 20
25.87548662418446
 10
14.89556754795453
 20
25.9704872885101
 10
13.76756784795455
 20
25.97048697325848
  0
LINE
  5
11138
330
17
100
AcDbEntity
  8
R-SWTS-DET2
  6
HIDDEN
100
AcDbLine
 10
13.72656755158795
 20
25.93178700306486
 30
0.0
 11
13.65156755158793
 21
25.93178700306486
 31
0.0
  0
LINE
  5
11139
330
17
100
AcDbEntity
  8
R-SWTS-DET2
  6
HIDDEN
100
AcDbLine
 10
13.72656755158795
 20
25.81918700306487
 30
0.0
 11
13.65156755158793
 21
25.81918700306487
 31
0.0
  0
LINE
  5
1113A
330
17
100
AcDbEntity
  8
R-SWTS-DET2
  6
HIDDEN
100
AcDbLine
 10
13.72656755158795
 20
25.93178700306486
 30
0.0
 11
13.77056755158793
 21
25.87548700306486
 31
0.0
  0
LINE
  5
1113B
330
17
100
AcDbEntity
  8
R-SWTS-DET2
  6
HIDDEN
100
AcDbLine
 10
13.77056755158793
 20
25.87548700306486
 30
0.0
 11
13.72656755158795
 21
25.81918700306487
 31
0.0
  0
LINE
  5
1113C
330
17
100
AcDbEntity
  8
R-SWTS-DET2
  6
HIDDEN
100
AcDbLine
 10
13.76756754795457
 20
24.7464881514065
 30
0.0
 11
13.76756754795457
 21
24.9364875514065
 31
0.0
  0
LWPOLYLINE
  5
1113D
330
17
100
AcDbEntity
  8
R-SWTS-DET2
  6
HIDDEN
100
AcDbPolyline
 90
        4
 70
     0
 43
0.0
 10
13.76756754795457
 20
24.7464879714065
 10
13.65156753553137
 20
24.64898806165427
 10
13.65156756037774
 20
25.0339874514065
 10
13.76756764795456
 20
24.9364875514065
  0
LWPOLYLINE
  5
1113E
330
17
100
AcDbEntity
  8
R-SWTS-DET2
  6
HIDDEN
100
AcDbPolyline
 90
        5
 70
     0
 43
0.0
 10
13.76756754795457
 20
24.74648785140649
 10
14.89556804795453
 20
24.74648780665813
 10
15.15156754795453
 20
24.84148738233249
 10
14.89556754795453
 20
24.93648804665812
 10
13.76756784795455
 20
24.9364877314065
  0
LINE
  5
1113F
330
17
100
AcDbEntity
  8
R-SWTS-DET2
  6
HIDDEN
100
AcDbLine
 10
13.72656755158795
 20
24.89778776121288
 30
0.0
 11
13.65156755158793
 21
24.89778776121288
 31
0.0
  0
LINE
  5
11140
330
17
100
AcDbEntity
  8
R-SWTS-DET2
  6
HIDDEN
100
AcDbLine
 10
13.72656755158795
 20
24.7851877612129
 30
0.0
 11
13.65156755158793
 21
24.7851877612129
 31
0.0
  0
LINE
  5
11141
330
17
100
AcDbEntity
  8
R-SWTS-DET2
  6
HIDDEN
100
AcDbLine
 10
13.72656755158795
 20
24.89778776121288
 30
0.0
 11
13.77056755158793
 21
24.84148776121289
 31
0.0
  0
LINE
  5
11142
330
17
100
AcDbEntity
  8
R-SWTS-DET2
  6
HIDDEN
100
AcDbLine
 10
13.77056755158793
 20
24.84148776121289
 30
0.0
 11
13.72656755158795
 21
24.7851877612129
 31
0.0
  0
LINE
  5
11143
330
17
100
AcDbEntity
  8
R-SWTS-DET2
  6
HIDDEN
100
AcDbLine
 10
13.76756754795457
 20
18.06638092155714
 30
0.0
 11
13.76756754795457
 21
18.25638032155714
 31
0.0
  0
LWPOLYLINE
  5
11144
330
17
100
AcDbEntity
  8
R-SWTS-DET2
  6
HIDDEN
100
AcDbPolyline
 90
        4
 70
     0
 43
0.0
 10
13.76756754795457
 20
18.06638074155714
 10
13.65156753553137
 20
17.96888083180491
 10
13.65156756037774
 20
18.35388022155715
 10
13.76756764795456
 20
18.25638032155714
  0
LWPOLYLINE
  5
11145
330
17
100
AcDbEntity
  8
R-SWTS-DET2
  6
HIDDEN
100
AcDbPolyline
 90
        5
 70
     0
 43
0.0
 10
13.76756754795457
 20
18.06638062155713
 10
14.89556804795453
 20
18.06638057680877
 10
15.15156754795453
 20
18.16138015248313
 10
14.89556754795453
 20
18.25638081680876
 10
13.76756784795455
 20
18.25638050155714
  0
LINE
  5
11146
330
17
100
AcDbEntity
  8
R-SWTS-DET2
  6
HIDDEN
100
AcDbLine
 10
13.72656755158795
 20
18.21768053136352
 30
0.0
 11
13.65156755158793
 21
18.21768053136352
 31
0.0
  0
LINE
  5
11147
330
17
100
AcDbEntity
  8
R-SWTS-DET2
  6
HIDDEN
100
AcDbLine
 10
13.72656755158795
 20
18.10508053136354
 30
0.0
 11
13.65156755158793
 21
18.10508053136354
 31
0.0
  0
LINE
  5
11148
330
17
100
AcDbEntity
  8
R-SWTS-DET2
  6
HIDDEN
100
AcDbLine
 10
13.72656755158795
 20
18.21768053136352
 30
0.0
 11
13.77056755158793
 21
18.16138053136353
 31
0.0
  0
LINE
  5
11149
330
17
100
AcDbEntity
  8
R-SWTS-DET2
  6
HIDDEN
100
AcDbLine
 10
13.77056755158793
 20
18.16138053136353
 30
0.0
 11
13.72656755158795
 21
18.10508053136354
 31
0.0
  0
LINE
  5
1114A
330
17
100
AcDbEntity
  8
R-SWTS-DET2
  6
HIDDEN
100
AcDbLine
 10
13.76756754795457
 20
17.03238167970515
 30
0.0
 11
13.76756754795457
 21
17.22238107970516
 31
0.0
  0
LWPOLYLINE
  5
1114B
330
17
100
AcDbEntity
  8
R-SWTS-DET2
  6
HIDDEN
100
AcDbPolyline
 90
        4
 70
     0
 43
0.0
 10
13.76756754795457
 20
17.03238149970515
 10
13.65156753553137
 20
16.93488158995292
 10
13.65156756037774
 20
17.31988097970516
 10
13.76756764795456
 20
17.22238107970516
  0
LWPOLYLINE
  5
1114C
330
17
100
AcDbEntity
  8
R-SWTS-DET2
  6
HIDDEN
100
AcDbPolyline
 90
        5
 70
     0
 43
0.0
 10
13.76756754795457
 20
17.03238137970515
 10
14.89556804795453
 20
17.03238133495678
 10
15.15156754795453
 20
17.12738091063114
 10
14.89556754795453
 20
17.22238157495678
 10
13.76756784795455
 20
17.22238125970516
  0
LINE
  5
1114D
330
17
100
AcDbEntity
  8
R-SWTS-DET2
  6
HIDDEN
100
AcDbLine
 10
13.72656755158795
 20
17.18368128951154
 30
0.0
 11
13.65156755158793
 21
17.18368128951154
 31
0.0
  0
LINE
  5
1114E
330
17
100
AcDbEntity
  8
R-SWTS-DET2
  6
HIDDEN
100
AcDbLine
 10
13.72656755158795
 20
17.07108128951155
 30
0.0
 11
13.65156755158793
 21
17.07108128951155
 31
0.0
  0
LINE
  5
1114F
330
17
100
AcDbEntity
  8
R-SWTS-DET2
  6
HIDDEN
100
AcDbLine
 10
13.72656755158795
 20
17.18368128951154
 30
0.0
 11
13.77056755158793
 21
17.12738128951154
 31
0.0
  0
LINE
  5
11150
330
17
100
AcDbEntity
  8
R-SWTS-DET2
  6
HIDDEN
100
AcDbLine
 10
13.77056755158793
 20
17.12738128951154
 30
0.0
 11
13.72656755158795
 21
17.07108128951155
 31
0.0
  0
LWPOLYLINE
  5
11151
330
17
100
AcDbEntity
  8
R-SWTS-DET2
  6
HIDDEN
100
AcDbPolyline
 90
        6
 70
     1
 43
0.0
 10
13.75656754918074
 20
23.58223823201048
 10
13.75656754918074
 20
26.33223823201048
 10
13.75656754918074
 20
23.58223823201048
 10
16.42156754918076
 20
23.58223823201048
 10
16.42156754918076
 20
26.33223823201048
 10
16.42156754918076
 20
23.58223823201048
  0
LWPOLYLINE
  5
11152
330
17
100
AcDbEntity
  8
R-SWTS-DET2
  6
HIDDEN
100
AcDbPolyline
 90
        6
 70
     1
 43
0.0
 10
13.75656754918074
 20
19.39438053155713
 10
13.75656754918074
 20
16.64438053155713
 10
13.75656754918074
 20
19.39438053155713
 10
16.42156754918076
 20
19.39438053155713
 10
16.42156754918076
 20
16.64438053155713
 10
16.42156754918076
 20
19.39438053155713
  0
SOLID
  5
11153
330
17
100
AcDbEntity
  8
R-SWTS-DET3
100
AcDbTrace
 10
11.85293277134354
 20
24.02684405601814
 30
0.0
 11
11.79043277134354
 21
24.02684405601814
 31
0.0
 12
11.82168277134354
 22
23.83934405601813
 32
0.0
 13
11.82168277134354
 23
23.83934405601813
 33
0.0
  0
LWPOLYLINE
  5
11154
330
17
100
AcDbEntity
  8
R-SWTS-DET3
  6
HIDDEN
100
AcDbPolyline
 90
        3
 70
     0
 43
0.0
 10
12.43192784931966
 20
25.76473700325847
 10
11.82168277134352
 20
25.76473700325847
 10
11.82168277134354
 20
24.02684405601814
  0
SOLID
  5
11155
330
17
100
AcDbEntity
  8
R-SWTS-DET3
100
AcDbTrace
 10
11.85293277134352
 20
16.59399758431679
 30
0.0
 11
11.79043277134351
 21
16.59399758431679
 31
0.0
 12
11.82168277134352
 22
16.40649758431679
 32
0.0
 13
11.82168277134352
 23
16.40649758431679
 33
0.0
  0
LWPOLYLINE
  5
11156
330
17
100
AcDbEntity
  8
R-SWTS-DET3
  6
HIDDEN
100
AcDbPolyline
 90
        3
 70
     0
 43
0.0
 10
12.43192784931963
 20
18.05063053155712
 10
11.82168277134349
 20
18.05063053155712
 10
11.82168277134352
 20
16.59399758431679
  0
LINE
  5
1128A
330
17
100
AcDbEntity
  8
CENTER
 62
     4
100
AcDbLine
 10
15.08906754918075
 20
26.08223823201047
 30
0.0
 11
15.08906754918075
 21
27.08223823201049
 31
0.0
  0
LINE
  5
1128B
330
17
100
AcDbEntity
  8
CENTER
 62
     4
100
AcDbLine
 10
15.08906754918075
 20
15.89438053155712
 30
0.0
 11
15.08906754918075
 21
16.89438053155714
 31
0.0
  0
LWPOLYLINE
  5
1156B
330
17
100
AcDbEntity
  8
R-SWTS-DET2
100
AcDbPolyline
 90
        4
 70
     1
 43
0.0
 10
12.33856754918077
 20
18.46934345748336
 10
12.33856754918077
 20
18.26934345748337
 10
12.52656754918075
 20
18.26934345748337
 10
12.52656754918075
 20
18.46934345748336
  0
LWPOLYLINE
  5
1156C
330
17
100
AcDbEntity
  8
R-SWTS-DET2
100
AcDbPolyline
 90
        9
 70
     1
 43
0.0
 10
12.52656754918075
 20
18.46934345748336
 10
12.33856754918077
 20
18.46934345748336
 10
12.33856754918077
 20
18.55938053155712
 10
12.40356754918076
 20
18.55938053155712
 10
12.40356754918076
 20
18.57938053155713
 10
12.33856754918077
 20
18.60938053155713
 10
12.33856754918085
 20
18.63871042788465
 10
12.33292105032743
 20
18.63873604087175
 10
12.52656754918075
 20
18.70445456571637
  0
LINE
  5
1156D
330
17
100
AcDbEntity
  8
R-SWTS-DET2
100
AcDbLine
 10
12.33292105032743
 20
18.63873604087175
 30
0.0
 11
12.33292105032743
 21
20.64438053155713
 31
0.0
  0
LINE
  5
1156E
330
17
100
AcDbEntity
  8
R-SWTS-DET2
100
AcDbLine
 10
13.65156754918075
 20
18.64438053155713
 30
0.0
 11
13.65156754918075
 21
20.64438053155713
 31
0.0
  0
ARC
  5
1156F
330
17
100
AcDbEntity
  8
R-SWTS-DET2
100
AcDbCircle
 10
13.58904482730617
 20
18.64438053155713
 30
0.0
 40
0.062522721874602
100
AcDbArc
 50
0.0
 51
177.8153489501606
  0
ARC
  5
11570
330
17
100
AcDbEntity
  8
R-SWTS-DET2
100
AcDbCircle
 10
13.58904482730617
 20
18.33238053155713
 30
0.0
 40
0.062522721874602
100
AcDbArc
 50
182.184651049843
 51
0.0
  0
LINE
  5
11571
330
17
100
AcDbEntity
  8
R-SWTS-DET3
100
AcDbLine
 10
12.77656754918075
 20
20.64438053155713
 30
0.0
 11
12.77656754918075
 21
18.14438053155713
 31
0.0
  0
LINE
  5
11572
330
17
100
AcDbEntity
  8
R-SWTS-DET3
100
AcDbLine
 10
13.52656754918075
 20
18.14438053155713
 30
0.0
 11
12.52656754918075
 21
18.14438053155713
 31
0.0
  0
LINE
  5
11573
330
17
100
AcDbEntity
  8
R-SWTS-DET3
100
AcDbLine
 10
13.27656754919664
 20
18.39438053155713
 30
0.0
 11
12.77656754918075
 21
18.39438053155713
 31
0.0
  0
LINE
  5
11574
330
17
100
AcDbEntity
  8
R-SWTS-DET3
100
AcDbLine
 10
12.52656754918075
 20
18.14438053155713
 30
0.0
 11
12.52656754933969
 21
20.64438053155713
 31
0.0
  0
LINE
  5
11575
330
17
100
AcDbEntity
  8
R-SWTS-DET3
100
AcDbLine
 10
13.52656754918075
 20
20.64438053155713
 30
0.0
 11
13.52656754918075
 21
18.14438053155713
 31
0.0
  0
LINE
  5
11576
330
17
100
AcDbEntity
  8
R-SWTS-DET3
100
AcDbLine
 10
13.27656754918075
 20
18.14438053155713
 30
0.0
 11
13.27656754933969
 21
20.64438053155713
 31
0.0
  0
HATCH
  5
11585
330
17
100
AcDbEntity
  8
R-SWTS-DET3
100
AcDbHatch
 10
0.0
 20
0.0
 30
0.0
210
0.0
220
0.0
230
1.0
  2
ANSI31
 70
     0
 71
     0
 91
        1
 92
        1
 93
        4
 72
     1
 10
11.33774908034354
 20
26.85848700325847
 11
16.77730341196493
 21
26.85848700325847
 72
     1
 10
16.77730341196493
 20
26.85848700325847
 11
16.77730341196493
 21
27.35852242452362
 72
     1
 10
16.77730341196493
 20
27.35852242452362
 11
11.33774908034354
 21
27.35852242452362
 72
     1
 10
11.33774908034354
 20
27.35852242452362
 11
11.33774908034354
 21
26.85848700325847
 97
        0
 75
     0
 76
     1
 52
0.0
 41
4.0
 77
     0
 78
     1
 53
45.0
 43
0.0
 44
0.0
 45
-0.3535533905932737
 46
0.3535533905932738
 79
     0
 98
        1
 10
0.0
 20
0.0
1001
ACAD
1010
0.0
1020
0.0
1030
0.0
  0
HATCH
  5
1158E
330
17
100
AcDbEntity
  8
R-SWTS-DET3
100
AcDbHatch
 10
0.0
 20
0.0
 30
0.0
210
0.0
220
0.0
230
1.0
  2
ANSI31
 70
     0
 71
     0
 91
        1
 92
        1
 93
        4
 72
     1
 10
11.33774908034354
 20
15.64438053155713
 11
16.77730341196493
 21
15.64438053155713
 72
     1
 10
16.77730341196493
 20
15.64438053155713
 11
16.77730341196493
 21
16.14434511029199
 72
     1
 10
16.77730341196493
 20
16.14434511029199
 11
11.33774908034354
 21
16.14434511029199
 72
     1
 10
11.33774908034354
 20
16.14434511029199
 11
11.33774908034354
 21
15.64438053155713
 97
        0
 75
     0
 76
     1
 52
0.0
 41
4.0
 77
     0
 78
     1
 53
45.0
 43
0.0
 44
0.0
 45
-0.3535533905932737
 46
0.3535533905932738
 79
     0
 98
        1
 10
0.0
 20
0.0
1001
ACAD
1010
0.0
1020
0.0
1030
0.0
  0
MTEXT
  5
11650
102
{ACAD_XDICTIONARY
360
11651
102
}
330
17
100
AcDbEntity
  8
TEXT
100
AcDbMText
 10
1.000000084398437
 20
2.0
 30
0.0
 40
0.375
 41
15.4571868900598
 71
     1
 72
     5
  1
ENGINEERING CHANGE:  97910-095 (MARCH 2017)\PFILE NAME:  KCDD090 SHEET 07 OF 07.DWG
 73
     1
 44
1.0
1001
ACAD
1000
ACAD_MTEXT_COLUMN_INFO_BEGIN
1070
    75
1070
     2
1070
    79
1070
     0
1070
    76
1070
     1
1070
    78
1070
     0
1070
    48
1040
15.4571868900598
1070
    49
1040
1.25
1070
    50
1070
     1
1040
0.0
1000
ACAD_MTEXT_COLUMN_INFO_END
1000
MTEXTBEGIN
1070
    73
1070
     1
1070
    44
1040
1.0
1070
    74
1070
     0
1000
MTEXTEND
  0
INSERT
  5
1192E
330
17
100
AcDbEntity
  8
0
100
AcDbBlockReference
  2
Kawneer Logo English
 10
1.0
 20
2.5
 30
0.0
 41
5.337
 42
5.337
 43
5.337
  0
ENDSEC
  0
SECTION
  2
OBJECTS
  0
DICTIONARY
  5
C
330
0
100
AcDbDictionary
281
     1
  3
ACAD_CIP_PREVIOUS_PRODUCT_INFO
350
1162A
  3
ACAD_COLOR
350
BCFC
  3
ACAD_FIELDLIST
350
1164E
  3
ACAD_GROUP
350
D
  3
ACAD_LAYOUT
350
B2FC
  3
ACAD_MATERIAL
350
BCD2
  3
ACAD_MLEADERSTYLE
350
BD21
  3
ACAD_MLINESTYLE
350
1A
  3
ACAD_PLOTSETTINGS
350
B2FD
  3
ACAD_PLOTSTYLENAME
350
B2FA
  3
ACAD_SCALELIST
350
BCFF
  3
ACAD_TABLESTYLE
350
BCFD
  3
ACAD_VISUALSTYLE
350
BCEB
  3
ACDB_RECOMPOSE_DATA
350
11989
  3
ACDBVARIABLEDICTIONARY
350
3E
  3
DWGPROPS
350
1198A
  0
DICTIONARY
  5
115B1
330
8
100
AcDbDictionary
280
     1
281
     1
  0
DICTIONARY
  5
CC78
330
2
100
AcDbDictionary
280
     1
281
     1
  3
ACAD_LAYERFILTERS
360
FCDF
  3
ACAD_LAYERSTATES
360
CC79
  3
ACLYDICTIONARY
360
FCDE
  0
DICTIONARY
  5
BD27
330
E
100
AcDbDictionary
280
     1
281
     1
  3
ADSK_XREC_LAYER_RECONCILED
360
BD28
  0
DICTIONARY
  5
BD2B
330
98AD
100
AcDbDictionary
280
     1
281
     1
  3
ADSK_XREC_LAYER_RECONCILED
360
BD2C
  0
DICTIONARY
  5
BD2D
330
A48F
100
AcDbDictionary
280
     1
281
     1
  3
ADSK_XREC_LAYER_RECONCILED
360
BD2E
  0
DICTIONARY
  5
BD2F
330
A491
100
AcDbDictionary
280
     1
281
     1
  3
ADSK_XREC_LAYER_RECONCILED
360
BD30
  0
DICTIONARY
  5
BD31
330
A492
100
AcDbDictionary
280
     1
281
     1
  3
ADSK_XREC_LAYER_RECONCILED
360
BD32
  0
DICTIONARY
  5
BD33
330
A840
100
AcDbDictionary
280
     1
281
     1
  3
ADSK_XREC_LAYER_RECONCILED
360
BD34
  0
DICTIONARY
  5
BD35
330
AB2C
100
AcDbDictionary
280
     1
281
     1
  3
ADSK_XREC_LAYER_RECONCILED
360
BD36
  0
DICTIONARY
  5
1163F
330
1163E
100
AcDbDictionary
280
     1
281
     1
  0
DICTIONARY
  5
B78D
330
17
100
AcDbDictionary
280
     1
281
     1
  3
ACAD_LAYOUTSELFREF
360
BCCE
  3
ACAD_SORTENTS
360
D982
  0
DICTIONARY
  5
B78B
330
14
100
AcDbDictionary
280
     1
281
     1
  3
ACAD_LAYOUTSELFREF
360
BCCD
  0
DICTIONARY
  5
1192A
330
11920
100
AcDbDictionary
280
     1
281
     1
  3
ACAD_SORTENTS
360
1192B
  0
DICTIONARY
  5
11987
330
11921
100
AcDbDictionary
280
     1
281
     1
  3
ACAD_MTEXT_2008_RT
360
11988
  0
DICTIONARY
  5
11651
330
11650
100
AcDbDictionary
280
     1
281
     1
  0
XRECORD
  5
1162A
102
{ACAD_REACTORS
330
C
102
}
330
C
100
AcDbXrecord
280
     1
300
ACD
300
2012
300
85730ACD_2012_0F
  0
DICTIONARY
  5
BCFC
102
{ACAD_REACTORS
330
C
102
}
330
C
100
AcDbDictionary
281
     1
  0
FIELDLIST
  5
1164E
102
{ACAD_REACTORS
330
C
102
}
330
C
100
AcDbIdSet
 90
        0
100
AcDbFieldList
  0
DICTIONARY
  5
D
102
{ACAD_REACTORS
330
C
102
}
330
C
100
AcDbDictionary
281
     1
  0
DICTIONARY
  5
B2FC
102
{ACAD_REACTORS
330
C
102
}
330
C
100
AcDbDictionary
281
     1
  3
Layout1
350
B2FF
  3
Model
350
B2FE
  0
DICTIONARY
  5
BCD2
102
{ACAD_REACTORS
330
C
102
}
330
C
100
AcDbDictionary
281
     1
  3
ByBlock
350
BCDB
  3
ByLayer
350
BCD3
  3
Global
350
BCE3
  0
DICTIONARY
  5
BD21
102
{ACAD_REACTORS
330
C
102
}
330
C
100
AcDbDictionary
281
     1
  3
Standard
350
BD22
  0
DICTIONARY
  5
1A
102
{ACAD_REACTORS
330
C
102
}
330
C
100
AcDbDictionary
281
     1
  3
STANDARD
350
1B
  0
DICTIONARY
  5
B2FD
102
{ACAD_REACTORS
330
C
102
}
330
C
100
AcDbDictionary
281
     1
  0
ACDBDICTIONARYWDFLT
  5
B2FA
102
{ACAD_REACTORS
330
C
102
}
330
C
100
AcDbDictionary
281
     1
  3
Normal
350
B2FB
100
AcDbDictionaryWithDefault
340
B2FB
  0
DICTIONARY
  5
BCFF
102
{ACAD_REACTORS
330
C
102
}
330
C
100
AcDbDictionary
281
     1
  3
A0
350
BD00
  3
A1
350
11903
  3
A2
350
11904
  3
A3
350
11905
  3
A4
350
11906
  3
A5
350
11907
  3
A6
350
11908
  3
A7
350
11909
  3
A8
350
1190A
  3
A9
350
1190B
  3
B0
350
1190C
  3
B1
350
1190D
  3
B2
350
1190E
  3
B3
350
1190F
  3
B4
350
11910
  3
B5
350
11911
  3
B6
350
11912
  0
DICTIONARY
  5
BCFD
102
{ACAD_REACTORS
330
C
102
}
330
C
100
AcDbDictionary
281
     1
  3
Standard
350
BCFE
  0
DICTIONARY
  5
BCEB
102
{ACAD_REACTORS
330
C
102
}
330
C
100
AcDbDictionary
281
     1
  3
2dWireframe
350
BCF1
  3
3D Hidden
350
BCF3
  3
3dWireframe
350
BCF2
  3
Basic
350
BCF0
  3
Brighten
350
BCF7
  3
ColorChange
350
BCFB
  3
Conceptual
350
BCF4
  3
Dim
350
BCF6
  3
EdgeColorOff
350
11626
  3
Facepattern
350
BCFA
  3
Flat
350
BCEC
  3
FlatWithEdges
350
BCED
  3
Gouraud
350
BCEE
  3
GouraudWithEdges
350
BCEF
  3
Hidden
350
1161E
  3
JitterOff
350
11624
  3
Linepattern
350
BCF9
  3
OverhangOff
350
11625
  3
Realistic
350
BCF5
  3
Shaded
350
11623
  3
Shaded with edges
350
11622
  3
Shades of Gray
350
1161F
  3
Sketchy
350
11620
  3
Thicken
350
BCF8
  3
Wireframe
350
1161D
  3
X-Ray
350
11621
  0
XRECORD
  5
11989
102
{ACAD_REACTORS
330
C
102
}
330
C
100
AcDbXrecord
280
     1
 90
        1
330
BCFE
330
11650
330
11921
  0
DICTIONARY
  5
3E
102
{ACAD_REACTORS
330
C
102
}
330
C
100
AcDbDictionary
281
     1
  3
CANNOSCALE
350
DFE8
  3
CMLEADERSTYLE
350
DFE6
  3
CTABLESTYLE
350
DFE5
  3
DIMADEC
350
3F
  3
DIMASSOC
350
11727
  3
INDEXCTL
350
11725
  3
LAYEREVAL
350
11979
  3
LAYERNOTIFY
350
1197A
  3
LIGHTINGUNITS
350
DFE9
  3
MSLTSCALE
350
DFE7
  3
SORTENTS
350
11724
  3
XCLIPFRAME
350
11985
  0
XRECORD
  5
1198A
102
{ACAD_REACTORS
330
C
102
}
330
C
100
AcDbXrecord
280
     1
  1
DWGPROPS COOKIE
  2

  3

  4

  6

  7

  8
quadiss
  9

300
=
301
=
302
=
303
=
304
=
305
=
306
=
307
=
308
=
309
=
 40
0.9714667361111111
 41
2450777.537570949
 42
2457809.464724699
  1

 90
        0
  0
DICTIONARY
  5
FCDF
102
{ACAD_REACTORS
330
CC78
102
}
330
CC78
100
AcDbDictionary
281
     1
  0
DICTIONARY
  5
CC79
102
{ACAD_REACTORS
330
CC78
102
}
330
CC78
100
AcDbDictionary
281
     1
  0
DICTIONARY
  5
FCDE
102
{ACAD_REACTORS
330
CC78
102
}
330
CC78
100
AcDbDictionary
281
     1
1001
ACAD
1000
<All
  0
XRECORD
  5
BD28
102
{ACAD_REACTORS
330
BD27
102
}
330
BD27
100
AcDbXrecord
280
     1
290
     1
  0
XRECORD
  5
BD2C
102
{ACAD_REACTORS
330
BD2B
102
}
330
BD2B
100
AcDbXrecord
280
     1
290
     1
  0
XRECORD
  5
BD2E
102
{ACAD_REACTORS
330
BD2D
102
}
330
BD2D
100
AcDbXrecord
280
     1
290
     1
  0
XRECORD
  5
BD30
102
{ACAD_REACTORS
330
BD2F
102
}
330
BD2F
100
AcDbXrecord
280
     1
290
     1
  0
XRECORD
  5
BD32
102
{ACAD_REACTORS
330
BD31
102
}
330
BD31
100
AcDbXrecord
280
     1
290
     1
  0
XRECORD
  5
BD34
102
{ACAD_REACTORS
330
BD33
102
}
330
BD33
100
AcDbXrecord
280
     1
290
     1
  0
XRECORD
  5
BD36
102
{ACAD_REACTORS
330
BD35
102
}
330
BD35
100
AcDbXrecord
280
     1
290
     1
  0
XRECORD
  5
BCCE
102
{ACAD_REACTORS
330
B78D
102
}
330
B78D
100
AcDbXrecord
280
     1
340
17
  0
SORTENTSTABLE
  5
D982
102
{ACAD_REACTORS
330
B78D
102
}
330
B78D
100
AcDbSortentsTable
330
17
331
110F4
  5
110F4
331
110F0
  5
110F0
331
11137
  5
11137
331
110EC
  5
110EC
331
11133
  5
11133
331
110E8
  5
110E8
331
B2A8
  5
DCAF
331
E7BA
  5
EBF4
331
110B5
  5
110B5
331
E39E
  5
E712
331
E7B6
  5
EBF0
331
DCC1
  5
DD08
331
B2A0
  5
DCAE
331
110B1
  5
110B1
331
E39A
  5
E70E
331
E7B2
  5
EA08
331
E56D
  5
E7A6
331
E396
  5
E70A
331
E569
  5
E7A2
331
E357
  5
E3B2
331
E713
  5
E7B4
331
E353
  5
E3AB
331
DFC2
  5
E37C
331
11576
  5
11576
331
11572
  5
11572
331
11123
  5
11123
331
110E4
  5
110E4
331
110DC
  5
110DC
331
1111B
  5
1111B
331
110D8
  5
110D8
331
1128A
  5
1128A
331
110AD
  5
110AD
331
E7AE
  5
E918
331
110A9
  5
110A9
331
E7AA
  5
E910
331
B21C
  5
DCAC
331
E565
  5
E79E
331
E38E
  5
E702
331
E7A6
  5
E90C
331
E34F
  5
E3A7
331
DFBE
  5
E374
331
E70B
  5
E7B8
331
E38A
  5
E6FE
331
E7A2
  5
E908
331
E34B
  5
E568
331
E386
  5
E6FA
331
1156E
  5
1156E
331
E382
  5
E6F4
331
E347
  5
E3AC
331
E703
  5
E8C5
331
E149
  5
E38F
331
11117
  5
11117
331
11113
  5
11113
331
110D4
  5
110D4
331
11156
  5
11156
331
110D0
  5
110D0
331
11152
  5
11152
331
110CC
  5
110CC
331
1114E
  5
1114E
331
110C8
  5
110C8
331
1114A
  5
1114A
331
E79E
  5
E904
331
E79A
  5
E902
331
B174
  5
B4B4
331
E6FF
  5
E8C1
331
E37E
  5
E581
331
E796
  5
E8DE
331
E145
  5
E38B
331
E6FB
  5
E8CB
331
E37A
  5
E57B
331
E792
  5
E8DA
331
E141
  5
E387
331
E6F7
  5
E8C7
331
E3B1
  5
E799
331
E372
  5
E56E
331
E13D
  5
E383
331
E6F3
  5
E8CD
331
E184
  5
E3A4
331
11146
  5
11146
331
110C0
  5
110C0
331
11142
  5
11142
331
110FF
  5
110FF
331
110BC
  5
110BC
331
1113E
  5
1113E
331
110FB
  5
110FB
331
1113A
  5
1113A
331
E78E
  5
E8D6
331
AF10
  5
B2AA
331
E78A
  5
E8D2
331
E3AD
  5
E795
331
E36E
  5
E3A2
331
E3A9
  5
E791
331
E57C
  5
E7AC
331
E782
  5
E8D1
331
E3A5
  5
E78D
331
E3A1
  5
E781
331
E168
  5
E39E
331
E574
  5
E7A8
331
E35A
  5
E566
331
E164
  5
E39D
331
E160
  5
E399
331
11585
  5
11583
331
20CF
  5
20CF
331
110F3
  5
110F3
331
110EF
  5
110EF
331
11136
  5
11136
331
110EB
  5
110EB
331
11132
  5
11132
331
E7B9
  5
EBF3
331
110B4
  5
110B4
331
E39D
  5
E711
331
E7B5
  5
EBEF
331
DCC0
  5
DD07
331
110B0
  5
110B0
331
E399
  5
E70D
331
E7B1
  5
EA07
331
E56C
  5
E7A5
331
E395
  5
E709
331
E568
  5
E7A1
331
E356
  5
E3B1
331
E712
  5
E7B3
331
E352
  5
E3AA
331
DFC1
  5
E37B
331
11575
  5
11575
331
11571
  5
11571
331
110E7
  5
110E7
331
11122
  5
11122
331
110E3
  5
110E3
331
110DF
  5
110DF
331
1111E
  5
1111E
331
B257
  5
DCAD
331
110DB
  5
110DB
331
1111A
  5
1111A
331
110AC
  5
110AC
331
E7AD
  5
E917
331
110A8
  5
110A8
331
E7A9
  5
E90F
331
B21B
  5
DCAB
331
E564
  5
E79B
331
E38D
  5
E701
331
E7A5
  5
E90B
331
E34E
  5
E3A6
331
DFBD
  5
E373
331
E70A
  5
E7B7
331
E389
  5
E6FD
331
E7A1
  5
E907
331
E34A
  5
E567
331
E385
  5
E6F9
331
1156D
  5
1156D
331
E381
  5
E6F3
331
E702
  5
E8C4
331
E148
  5
E38E
331
11116
  5
11116
331
110D7
  5
110D7
331
11112
  5
11112
331
110D3
  5
110D3
331
11155
  5
11155
331
110CF
  5
110CF
331
11151
  5
11151
331
110CB
  5
110CB
331
1114D
  5
1114D
331
11149
  5
11149
331
E799
  5
E901
331
E6FE
  5
E8C0
331
E37D
  5
E57E
331
E795
  5
E8DD
331
E6FA
  5
E8CA
331
E144
  5
E38A
331
E593
  5
E7BB
331
E379
  5
E57A
331
E791
  5
E8D9
331
E140
  5
E386
331
E6F6
  5
E8C6
331
E3B0
  5
E798
331
E371
  5
E56D
331
11106
  5
11106
331
11145
  5
11145
331
11102
  5
11102
331
110BF
  5
110BF
331
11141
  5
11141
331
110FE
  5
110FE
331
110BB
  5
110BB
331
1113D
  5
1113D
331
11139
  5
11139
331
E78D
  5
E8D5
331
B2C2
  5
DCB2
331
E3AC
  5
E794
331
E57B
  5
E7AB
331
E369
  5
E3A1
331
E3A8
  5
E790
331
E3A4
  5
E78C
331
E3A0
  5
E714
331
E359
  5
E565
331
E163
  5
E39C
331
110F6
  5
110F6
331
110F2
  5
110F2
331
20CE
  5
20CE
331
110EE
  5
110EE
331
11135
  5
11135
331
110EA
  5
110EA
331
11131
  5
11131
331
AB25
  5
B2A8
331
E7BC
  5
EBF6
331
B2AA
  5
DCB1
331
110B7
  5
110B7
331
E7B8
  5
EBF2
331
110B3
  5
110B3
331
E39C
  5
E710
331
E7B4
  5
EBEE
331
E398
  5
E70C
331
E7B0
  5
E91A
331
E56B
  5
E7A4
331
E15F
  5
E398
331
DFC8
  5
E380
331
E394
  5
E708
331
E390
  5
E707
331
E355
  5
E3B0
331
DFC4
  5
E37E
331
E711
  5
E7B2
331
E351
  5
E3A9
331
DFC0
  5
E37A
331
11574
  5
11574
331
11570
  5
11570
331
110E6
  5
110E6
331
11121
  5
11121
331
110E2
  5
110E2
331
110DE
  5
110DE
331
1111D
  5
1111D
331
110DA
  5
110DA
331
11119
  5
11119
331
110AF
  5
110AF
331
110AB
  5
110AB
331
E7AC
  5
E916
331
110A7
  5
110A7
331
E567
  5
E7A0
331
E7A8
  5
E90E
331
E70D
  5
E7BA
331
E38C
  5
E700
331
E7A4
  5
E90A
331
E34D
  5
E3A5
331
E709
  5
E7B6
331
E388
  5
E6FC
331
E7A0
  5
E906
331
E384
  5
E6F6
331
E349
  5
E3AE
331
E5A6
  5
E8D0
331
1156C
  5
1156C
331
E380
  5
E5A6
331
E14B
  5
E394
331
E701
  5
E8C3
331
11115
  5
11115
331
110D6
  5
110D6
331
110D2
  5
110D2
331
11154
  5
11154
331
110CE
  5
110CE
331
11150
  5
11150
331
110CA
  5
110CA
331
1114C
  5
1114C
331
11148
  5
11148
331
E798
  5
E900
331
E147
  5
E38D
331
E6FD
  5
E8BF
331
E37C
  5
E57D
331
E794
  5
E8DC
331
E143
  5
E389
331
E6F9
  5
E8C9
331
E790
  5
E8D8
331
E374
  5
E579
331
E13F
  5
E385
331
E6F5
  5
E8CF
331
E582
  5
E7B0
331
E370
  5
E56C
331
E182
  5
E3A3
331
110C2
  5
110C2
331
11144
  5
11144
331
11140
  5
11140
331
110F9
  5
110F9
331
110BA
  5
110BA
331
1113C
  5
1113C
331
11138
  5
11138
331
E78C
  5
E8D4
331
E3AF
  5
E797
331
E3AB
  5
E793
331
E57E
  5
E7AE
331
E3A7
  5
E78F
331
E57A
  5
E7AA
331
E16A
  5
E3A0
331
E3A3
  5
E78B
331
E358
  5
E564
331
E162
  5
E39B
331
110F5
  5
110F5
331
110F1
  5
110F1
331
110ED
  5
110ED
331
11134
  5
11134
331
20C5
  5
20C5
331
110E9
  5
110E9
331
B2A9
  5
DCB0
331
E7BB
  5
EBF5
331
110B6
  5
110B6
331
E39F
  5
E713
331
E7B7
  5
EBF1
331
110B2
  5
110B2
331
E39B
  5
E70F
331
E7B3
  5
EA09
331
E56E
  5
E7A7
331
E397
  5
E70B
331
E56A
  5
E7A3
331
E15E
  5
E397
331
DFC7
  5
E37F
331
E714
  5
E7B5
331
E354
  5
E3AF
331
DFC3
  5
E37D
331
E710
  5
E7B1
331
11573
  5
11573
331
E350
  5
E3A8
331
110E5
  5
110E5
331
11120
  5
11120
331
110E1
  5
110E1
331
110DD
  5
110DD
331
1111C
  5
1111C
331
110D9
  5
110D9
331
DC6E
  5
DCB8
331
1128B
  5
1128B
331
11118
  5
11118
331
110AE
  5
110AE
331
E7AF
  5
E919
331
110AA
  5
110AA
331
E7AB
  5
E911
331
E566
  5
E79F
331
E38F
  5
E703
331
E7A7
  5
E90D
331
E156
  5
E396
331
DFBF
  5
E379
331
E70C
  5
E7B9
331
E38B
  5
E6FF
331
E7A3
  5
E909
331
1156F
  5
1156F
331
E34C
  5
E569
331
E152
  5
E395
331
E387
  5
E6FB
331
1156B
  5
1156B
331
E348
  5
E3AD
331
DF8F
  5
E372
331
E383
  5
E6F5
331
E14A
  5
E390
331
E700
  5
E8C2
331
110D5
  5
110D5
331
110D1
  5
110D1
331
11153
  5
11153
331
110CD
  5
110CD
331
1114F
  5
1114F
331
110C9
  5
110C9
331
1114B
  5
1114B
331
11108
  5
11108
331
E79F
  5
E905
331
B181
  5
DCAA
331
E79B
  5
E903
331
E37F
  5
E582
331
E797
  5
E8FF
331
E6FC
  5
E8CC
331
E146
  5
E38C
331
E595
  5
E7BC
331
E37B
  5
E57C
331
E793
  5
E8DB
331
E33C
  5
E56A
331
E142
  5
E388
331
E6F8
  5
E8C8
331
E3B2
  5
E79A
331
E373
  5
E574
331
E13E
  5
E384
331
E6F4
  5
E8CE
331
E581
  5
E7AF
331
11104
  5
11104
331
110C5
  5
110C5
331
11147
  5
11147
331
11100
  5
11100
331
110C1
  5
110C1
331
11143
  5
11143
331
110FC
  5
110FC
331
1113F
  5
1113F
331
110B9
  5
110B9
331
2E0C
  5
2E0C
331
1113B
  5
1113B
331
110F8
  5
110F8
331
E78F
  5
E8D7
331
AF11
  5
B2C2
331
E78B
  5
E8D3
331
E3AE
  5
E796
331
E36F
  5
E56B
331
E3AA
  5
E792
331
E57D
  5
E7AD
331
E3A6
  5
E78E
331
E579
  5
E7A9
331
1158E
  5
1158D
331
E169
  5
E39F
331
E3A2
  5
E78A
331
E161
  5
E39A
  0
XRECORD
  5
BCCD
102
{ACAD_REACTORS
330
B78B
102
}
330
B78B
100
AcDbXrecord
280
     1
340
14
  0
SORTENTSTABLE
  5
1192B
102
{ACAD_REACTORS
330
1192A
102
}
330
1192A
100
AcDbSortentsTable
330
11920
  0
XRECORD
  5
11988
102
{ACAD_REACTORS
330
11987
102
}
330
11987
100
AcDbXrecord
280
     1
 40
102645.0
  1
\pxqr;{\fArial TUR|b0|i0|c0|p34;\T1.05;AN ARCONIC COMPANY}
  0
LAYOUT
  5
B2FF
102
{ACAD_XDICTIONARY
360
1198D
102
}
102
{ACAD_REACTORS
330
B2FC
102
}
330
B2FC
100
AcDbPlotSettings
  1

  2
\\NOAKCI-SRV7\Marketing Communications - HP4550hdn
  4

  6

 40
0.0
 41
0.0
 42
0.0
 43
0.0
 44
0.0
 45
0.0
 46
0.0
 47
0.0
 48
0.0
 49
0.0
140
0.0
141
0.0
142
1.0
143
1.0
 70
   688
 72
     0
 73
     0
 74
     5
  7

 75
    16
147
1.0
148
0.0
149
0.0
100
AcDbLayout
  1
Layout1
 70
     1
 71
     1
 10
0.0
 20
0.0
 11
12.0
 21
9.0
 12
0.0
 22
0.0
 32
0.0
 14
1.000000000000000E+20
 24
1.000000000000000E+20
 34
1.000000000000000E+20
 15
-1.000000000000000E+20
 25
-1.000000000000000E+20
 35
-1.000000000000000E+20
146
0.0
 13
0.0
 23
0.0
 33
0.0
 16
1.0
 26
0.0
 36
0.0
 17
0.0
 27
1.0
 37
0.0
 76
     0
330
14
  0
LAYOUT
  5
B2FE
102
{ACAD_XDICTIONARY
360
1198B
102
}
102
{ACAD_REACTORS
330
B2FC
102
}
330
B2FC
100
AcDbPlotSettings
  1

  2
Estimating Sharp 11x17.pc3
  4
ANSI_B_(11.00_x_17.00_Inches)
  6

 40
5.027082920074462
 41
5.027082920074462
 42
9.26043701171875
 43
5.027069091796875
 44
279.3999938964844
 45
431.7999877929687
 46
22.02049028328834
 47
0.0
 48
0.0
 49
0.0
140
0.0
141
0.0
142
1.0
143
3.672789898222799
 70
  3764
 72
     0
 73
     1
 74
     1
  7
monochrome.ctb
 75
     0
147
0.2722725850677936
148
0.0472647442475619
149
0.0247753189467048
100
AcDbLayout
  1
Model
 70
     1
 71
     0
 10
0.0
 20
0.0
 11
12.0
 21
9.0
 12
0.0
 22
0.0
 32
0.0
 14
0.0
 24
0.0
 34
0.0
 15
0.0
 25
0.0
 35
0.0
146
0.0
 13
0.0
 23
0.0
 33
0.0
 16
1.0
 26
0.0
 36
0.0
 17
0.0
 27
1.0
 37
0.0
 76
     0
330
17
331
BCA9
1001
ACAD_PSEXT
1000
Estimating Sharp 11x17.pc3
1000
LaserJet 4V
1000
\\noakso-hub21
1000

1070
     0
  0
MATERIAL
  5
BCDB
102
{ACAD_XDICTIONARY
360
BCDC
102
}
102
{ACAD_REACTORS
330
BCD2
102
}
330
BCD2
100
AcDbMaterial
  1
ByBlock
 72
     0
 43
0.0208333333333333
 43
0.0
 43
0.0
 43
0.0
 43
0.0
 43
0.0208333333333333
 43
0.0
 43
0.0
 43
0.0
 43
0.0
 43
1.0
 43
0.0
 43
0.0
 43
0.0
 43
0.0
 43
1.0
 77
     0
 47
0.0208333333333333
 47
0.0
 47
0.0
 47
0.0
 47
0.0
 47
0.0208333333333333
 47
0.0
 47
0.0
 47
0.0
 47
0.0
 47
1.0
 47
0.0
 47
0.0
 47
0.0
 47
0.0
 47
1.0
171
     0
 49
0.0208333333333333
 49
0.0
 49
0.0
 49
0.0
 49
0.0
 49
0.0208333333333333
 49
0.0
 49
0.0
 49
0.0
 49
0.0
 49
1.0
 49
0.0
 49
0.0
 49
0.0
 49
0.0
 49
1.0
175
     0
142
0.0208333333333333
142
0.0
142
0.0
142
0.0
142
0.0
142
0.0208333333333333
142
0.0
142
0.0
142
0.0
142
0.0
142
1.0
142
0.0
142
0.0
142
0.0
142
0.0
142
1.0
179
     0
144
0.0208333333333333
144
0.0
144
0.0
144
0.0
144
0.0
144
0.0208333333333333
144
0.0
144
0.0
144
0.0
144
0.0
144
1.0
144
0.0
144
0.0
144
0.0
144
0.0
144
1.0
147
0.0208333333333333
147
0.0
147
0.0
147
0.0
147
0.0
147
0.0208333333333333
147
0.0
147
0.0
147
0.0
147
0.0
147
1.0
147
0.0
147
0.0
147
0.0
147
0.0
147
1.0
  0
MATERIAL
  5
BCD3
102
{ACAD_XDICTIONARY
360
BCD4
102
}
102
{ACAD_REACTORS
330
BCD2
102
}
330
BCD2
100
AcDbMaterial
  1
ByLayer
 72
     0
 43
0.0208333333333333
 43
0.0
 43
0.0
 43
0.0
 43
0.0
 43
0.0208333333333333
 43
0.0
 43
0.0
 43
0.0
 43
0.0
 43
1.0
 43
0.0
 43
0.0
 43
0.0
 43
0.0
 43
1.0
 77
     0
 47
0.0208333333333333
 47
0.0
 47
0.0
 47
0.0
 47
0.0
 47
0.0208333333333333
 47
0.0
 47
0.0
 47
0.0
 47
0.0
 47
1.0
 47
0.0
 47
0.0
 47
0.0
 47
0.0
 47
1.0
171
     0
 49
0.0208333333333333
 49
0.0
 49
0.0
 49
0.0
 49
0.0
 49
0.0208333333333333
 49
0.0
 49
0.0
 49
0.0
 49
0.0
 49
1.0
 49
0.0
 49
0.0
 49
0.0
 49
0.0
 49
1.0
175
     0
142
0.0208333333333333
142
0.0
142
0.0
142
0.0
142
0.0
142
0.0208333333333333
142
0.0
142
0.0
142
0.0
142
0.0
142
1.0
142
0.0
142
0.0
142
0.0
142
0.0
142
1.0
179
     0
144
0.0208333333333333
144
0.0
144
0.0
144
0.0
144
0.0
144
0.0208333333333333
144
0.0
144
0.0
144
0.0
144
0.0
144
1.0
144
0.0
144
0.0
144
0.0
144
0.0
144
1.0
147
0.0208333333333333
147
0.0
147
0.0
147
0.0
147
0.0
147
0.0208333333333333
147
0.0
147
0.0
147
0.0
147
0.0
147
1.0
147
0.0
147
0.0
147
0.0
147
0.0
147
1.0
  0
MATERIAL
  5
BCE3
102
{ACAD_XDICTIONARY
360
BCE4
102
}
102
{ACAD_REACTORS
330
BCD2
102
}
330
BCD2
100
AcDbMaterial
  1
Global
 72
     0
 43
0.0208333333333333
 43
0.0
 43
0.0
 43
0.0
 43
0.0
 43
0.0208333333333333
 43
0.0
 43
0.0
 43
0.0
 43
0.0
 43
1.0
 43
0.0
 43
0.0
 43
0.0
 43
0.0
 43
1.0
 77
     0
 47
0.0208333333333333
 47
0.0
 47
0.0
 47
0.0
 47
0.0
 47
0.0208333333333333
 47
0.0
 47
0.0
 47
0.0
 47
0.0
 47
1.0
 47
0.0
 47
0.0
 47
0.0
 47
0.0
 47
1.0
171
     0
 49
0.0208333333333333
 49
0.0
 49
0.0
 49
0.0
 49
0.0
 49
0.0208333333333333
 49
0.0
 49
0.0
 49
0.0
 49
0.0
 49
1.0
 49
0.0
 49
0.0
 49
0.0
 49
0.0
 49
1.0
175
     0
142
0.0208333333333333
142
0.0
142
0.0
142
0.0
142
0.0
142
0.0208333333333333
142
0.0
142
0.0
142
0.0
142
0.0
142
1.0
142
0.0
142
0.0
142
0.0
142
0.0
142
1.0
179
     0
144
0.0208333333333333
144
0.0
144
0.0
144
0.0
144
0.0
144
0.0208333333333333
144
0.0
144
0.0
144
0.0
144
0.0
144
1.0
144
0.0
144
0.0
144
0.0
144
0.0
144
1.0
147
0.0208333333333333
147
0.0
147
0.0
147
0.0
147
0.0
147
0.0208333333333333
147
0.0
147
0.0
147
0.0
147
0.0
147
1.0
147
0.0
147
0.0
147
0.0
147
0.0
147
1.0
  0
MLEADERSTYLE
  5
BD22
102
{ACAD_REACTORS
330
BD21
102
}
330
BD21
100
AcDbMLeaderStyle
170
     2
171
     1
172
     0
 90
        2
 40
0.0
 41
0.0
173
     1
 91
-1056964608
340
11
 92
       -2
290
     1
 42
0.09
291
     1
 43
0.36
  3
Standard
 44
0.18
300

342
F
174
     1
178
     6
175
     1
176
     0
 93
-1056964608
 45
0.18
292
     0
297
     0
 46
0.18
 94
-1056964608
 47
1.0
 49
1.0
140
1.0
293
     1
141
0.0
294
     1
177
     0
142
1.0
295
     0
296
     0
143
0.125
1001
ACAD_MLEADERVER
1070
     2
  0
MLINESTYLE
  5
1B
102
{ACAD_REACTORS
330
1A
102
}
330
1A
100
AcDbMlineStyle
  2
STANDARD
 70
     0
  3

 62
   256
 51
90.0
 52
90.0
 71
     2
 49
0.5
 62
   256
  6
BYLAYER
 49
-0.5
 62
   256
  6
BYLAYER
  0
ACDBPLACEHOLDER
  5
B2FB
102
{ACAD_REACTORS
330
B2FA
102
}
330
B2FA
  0
SCALE
  5
BD00
102
{ACAD_REACTORS
330
BCFF
102
}
330
BCFF
100
AcDbScale
 70
     0
300
1:1
140
1.0
141
1.0
290
     1
  0
SCALE
  5
11903
102
{ACAD_REACTORS
330
BCFF
102
}
330
BCFF
100
AcDbScale
 70
     0
300
1/128" = 1'-0"
140
0.0078125
141
12.0
290
     0
  0
SCALE
  5
11904
102
{ACAD_REACTORS
330
BCFF
102
}
330
BCFF
100
AcDbScale
 70
     0
300
1/64" = 1'-0"
140
0.015625
141
12.0
290
     0
  0
SCALE
  5
11905
102
{ACAD_REACTORS
330
BCFF
102
}
330
BCFF
100
AcDbScale
 70
     0
300
1/32" = 1'-0"
140
0.03125
141
12.0
290
     0
  0
SCALE
  5
11906
102
{ACAD_REACTORS
330
BCFF
102
}
330
BCFF
100
AcDbScale
 70
     0
300
1/16" = 1'-0"
140
0.0625
141
12.0
290
     0
  0
SCALE
  5
11907
102
{ACAD_REACTORS
330
BCFF
102
}
330
BCFF
100
AcDbScale
 70
     0
300
3/32" = 1'-0"
140
0.09375
141
12.0
290
     0
  0
SCALE
  5
11908
102
{ACAD_REACTORS
330
BCFF
102
}
330
BCFF
100
AcDbScale
 70
     0
300
1/8" = 1'-0"
140
0.125
141
12.0
290
     0
  0
SCALE
  5
11909
102
{ACAD_REACTORS
330
BCFF
102
}
330
BCFF
100
AcDbScale
 70
     0
300
3/16" = 1'-0"
140
0.1875
141
12.0
290
     0
  0
SCALE
  5
1190A
102
{ACAD_REACTORS
330
BCFF
102
}
330
BCFF
100
AcDbScale
 70
     0
300
1/4" = 1'-0"
140
0.25
141
12.0
290
     0
  0
SCALE
  5
1190B
102
{ACAD_REACTORS
330
BCFF
102
}
330
BCFF
100
AcDbScale
 70
     0
300
3/8" = 1'-0"
140
0.375
141
12.0
290
     0
  0
SCALE
  5
1190C
102
{ACAD_REACTORS
330
BCFF
102
}
330
BCFF
100
AcDbScale
 70
     0
300
1/2" = 1'-0"
140
0.5
141
12.0
290
     0
  0
SCALE
  5
1190D
102
{ACAD_REACTORS
330
BCFF
102
}
330
BCFF
100
AcDbScale
 70
     0
300
3/4" = 1'-0"
140
0.75
141
12.0
290
     0
  0
SCALE
  5
1190E
102
{ACAD_REACTORS
330
BCFF
102
}
330
BCFF
100
AcDbScale
 70
     0
300
1" = 1'-0"
140
1.0
141
12.0
290
     0
  0
SCALE
  5
1190F
102
{ACAD_REACTORS
330
BCFF
102
}
330
BCFF
100
AcDbScale
 70
     0
300
1-1/2" = 1'-0"
140
1.5
141
12.0
290
     0
  0
SCALE
  5
11910
102
{ACAD_REACTORS
330
BCFF
102
}
330
BCFF
100
AcDbScale
 70
     0
300
3" = 1'-0"
140
3.0
141
12.0
290
     0
  0
SCALE
  5
11911
102
{ACAD_REACTORS
330
BCFF
102
}
330
BCFF
100
AcDbScale
 70
     0
300
6" = 1'-0"
140
6.0
141
12.0
290
     0
  0
SCALE
  5
11912
102
{ACAD_REACTORS
330
BCFF
102
}
330
BCFF
100
AcDbScale
 70
     0
300
1'-0" = 1'-0"
140
12.0
141
12.0
290
     0
  0
TABLESTYLE
  5
BCFE
102
{ACAD_XDICTIONARY
360
DFE2
102
}
102
{ACAD_REACTORS
330
BCFD
102
}
330
BCFD
100
AcDbTableStyle
  3
Standard
 70
     0
 71
     0
 40
0.06
 41
0.06
280
     0
281
     0
  7
STANDARD
140
0.18
170
     2
 62
     0
 63
     7
283
     0
274
    -2
284
     1
 64
     0
275
    -2
285
     1
 65
     0
276
    -2
286
     1
 66
     0
277
    -2
287
     1
 67
     0
278
    -2
288
     1
 68
     0
279
    -2
289
     1
 69
     0
  7
STANDARD
140
0.25
170
     5
 62
     0
 63
     7
283
     0
274
    -2
284
     1
 64
     0
275
    -2
285
     1
 65
     0
276
    -2
286
     1
 66
     0
277
    -2
287
     1
 67
     0
278
    -2
288
     1
 68
     0
279
    -2
289
     1
 69
     0
  7
STANDARD
140
0.18
170
     5
 62
     0
 63
     7
283
     0
274
    -2
284
     1
 64
     0
275
    -2
285
     1
 65
     0
276
    -2
286
     1
 66
     0
277
    -2
287
     1
 67
     0
278
    -2
288
     1
 68
     0
279
    -2
289
     1
 69
     0
  0
VISUALSTYLE
  5
BCF1
102
{ACAD_XDICTIONARY
360
1199C
102
}
102
{ACAD_REACTORS
330
BCEB
102
}
330
BCEB
100
AcDbVisualStyle
  2
2dWireframe
 70
     4
 71
     0
 72
     2
 73
     0
 90
        0
 40
-0.6
 41
-30.0
 62
     5
 63
     7
 74
     1
 91
        4
 64
     7
 65
   257
 75
     1
175
     1
 42
1.0
 92
        0
 66
   257
 43
1.0
 76
     1
 77
     6
 78
     2
 67
     7
 79
     5
170
     0
171
     0
290
     0
174
     0
 93
        1
 44
0.0
173
     0
291
     0
 45
0.0
1001
ACAD
1000
AcDbSavedByObjectVersion
1070
     0
  0
VISUALSTYLE
  5
BCF3
102
{ACAD_XDICTIONARY
360
119A0
102
}
102
{ACAD_REACTORS
330
BCEB
102
}
330
BCEB
100
AcDbVisualStyle
  2
3D Hidden
 70
     6
 71
     1
 72
     2
 73
     2
 90
        0
 40
-0.6
 41
-30.0
 62
     5
 63
     7
 74
     2
 91
        2
 64
     7
 65
   257
 75
     2
175
     1
 42
40.0
 92
        0
 66
   257
 43
1.0
 76
     1
 77
     6
 78
     2
 67
     7
 79
     3
170
     0
171
     0
290
     0
174
     0
 93
        1
 44
0.0
173
     0
291
     0
 45
0.0
1001
ACAD
1000
AcDbSavedByObjectVersion
1070
     0
  0
VISUALSTYLE
  5
BCF2
102
{ACAD_XDICTIONARY
360
1199E
102
}
102
{ACAD_REACTORS
330
BCEB
102
}
330
BCEB
100
AcDbVisualStyle
  2
3dWireframe
 70
     5
 71
     0
 72
     2
 73
     0
 90
        0
 40
-0.6
 41
-30.0
 62
     5
 63
     7
 74
     1
 91
        4
 64
     7
 65
   257
 75
     1
175
     1
 42
1.0
 92
        0
 66
   257
 43
1.0
 76
     1
 77
     6
 78
     2
 67
     7
 79
     5
170
     0
171
     0
290
     0
174
     0
 93
        1
 44
0.0
173
     0
291
     0
 45
0.0
1001
ACAD
1000
AcDbSavedByObjectVersion
1070
     0
  0
VISUALSTYLE
  5
BCF0
102
{ACAD_XDICTIONARY
360
1199A
102
}
102
{ACAD_REACTORS
330
BCEB
102
}
330
BCEB
100
AcDbVisualStyle
  2
Basic
 70
     7
 71
     1
 72
     0
 73
     1
 90
        0
 40
-0.6
 41
-30.0
 62
     5
 63
     7
 74
     0
 91
        4
 64
     7
 65
   257
 75
     1
175
     1
 42
1.0
 92
        8
 66
     7
 43
1.0
 76
     1
 77
     6
 78
     2
 67
     7
 79
     5
170
     0
171
     0
290
     0
174
     0
 93
        1
 44
0.0
173
     0
291
     1
 45
0.0
1001
ACAD
1000
AcDbSavedByObjectVersion
1070
     0
  0
VISUALSTYLE
  5
BCF7
102
{ACAD_XDICTIONARY
360
119A8
102
}
102
{ACAD_REACTORS
330
BCEB
102
}
330
BCEB
100
AcDbVisualStyle
  2
Brighten
 70
    12
 71
     2
 72
     2
 73
     0
 90
        0
 40
-0.6
 41
-30.0
 62
     5
 63
     7
 74
     1
 91
        4
 64
     7
 65
   257
 75
     1
175
     1
 42
1.0
 92
        8
 66
     7
 43
1.0
 76
     1
 77
     6
 78
     2
 67
     7
 79
     5
170
     0
171
     0
290
     0
174
     0
 93
        1
 44
50.0
173
     0
291
     1
 45
0.0
1001
ACAD
1000
AcDbSavedByObjectVersion
1070
     0
  0
VISUALSTYLE
  5
BCFB
102
{ACAD_XDICTIONARY
360
119B0
102
}
102
{ACAD_REACTORS
330
BCEB
102
}
330
BCEB
100
AcDbVisualStyle
  2
ColorChange
 70
    16
 71
     2
 72
     2
 73
     3
 90
        0
 40
-0.6
 41
-30.0
 62
     5
 63
     8
 74
     1
 91
        4
 64
     7
 65
   257
 75
     1
175
     1
 42
1.0
 92
        8
 66
     8
 43
1.0
 76
     1
 77
     6
 78
     2
 67
     7
 79
     5
170
     0
171
     0
290
     0
174
     0
 93
        1
 44
0.0
173
     0
291
     1
 45
0.0
1001
ACAD
1000
AcDbSavedByObjectVersion
1070
     0
  0
VISUALSTYLE
  5
BCF4
102
{ACAD_XDICTIONARY
360
119A2
102
}
102
{ACAD_REACTORS
330
BCEB
102
}
330
BCEB
100
AcDbVisualStyle
  2
Conceptual
 70
     9
 71
     3
 72
     2
 73
     0
 90
        0
 40
-0.6
 41
-30.0
 62
     5
 63
     7
 74
     2
 91
        2
 64
     7
 65
   257
 75
     1
175
     1
 42
40.0
 92
        8
 66
     7
 43
1.0
 76
     1
 77
     6
 78
     2
 67
     7
 79
     3
170
     0
171
     0
290
     0
174
     0
 93
        1
 44
0.0
173
     0
291
     0
 45
0.0
1001
ACAD
1000
AcDbSavedByObjectVersion
1070
     0
  0
VISUALSTYLE
  5
BCF6
102
{ACAD_XDICTIONARY
360
119A6
102
}
102
{ACAD_REACTORS
330
BCEB
102
}
330
BCEB
100
AcDbVisualStyle
  2
Dim
 70
    11
 71
     2
 72
     2
 73
     0
 90
        0
 40
-0.6
 41
-30.0
 62
     5
 63
     7
 74
     1
 91
        4
 64
     7
 65
   257
 75
     1
175
     1
 42
1.0
 92
        8
 66
     7
 43
1.0
 76
     1
 77
     6
 78
     2
 67
     7
 79
     5
170
     0
171
     0
290
     0
174
     0
 93
        1
 44
-50.0
173
     0
291
     1
 45
0.0
1001
ACAD
1000
AcDbSavedByObjectVersion
1070
     0
  0
VISUALSTYLE
  5
11626
102
{ACAD_XDICTIONARY
360
119C5
102
}
102
{ACAD_REACTORS
330
BCEB
102
}
330
BCEB
100
AcDbVisualStyle
  2
EdgeColorOff
 70
    22
 71
     2
 72
     2
 73
     0
 90
        0
 40
-0.6
 41
-30.0
 62
     5
 63
     7
 74
     1
 91
        4
 64
     7
 65
   257
 75
     1
175
     1
 42
1.0
 92
        8
 66
     7
 43
1.0
 76
     1
 77
     6
 78
     2
 67
     7
 79
     5
170
     0
171
     0
290
     0
174
     0
 93
        1
 44
0.0
173
     0
291
     1
 45
0.0
1001
ACAD
1000
AcDbSavedByObjectVersion
1070
     0
  0
VISUALSTYLE
  5
BCFA
102
{ACAD_XDICTIONARY
360
119AE
102
}
102
{ACAD_REACTORS
330
BCEB
102
}
330
BCEB
100
AcDbVisualStyle
  2
Facepattern
 70
    15
 71
     2
 72
     2
 73
     0
 90
        0
 40
-0.6
 41
-30.0
 62
     5
 63
     7
 74
     1
 91
        4
 64
     7
 65
   257
 75
     1
175
     1
 42
1.0
 92
        8
 66
     7
 43
1.0
 76
     1
 77
     6
 78
     2
 67
     7
 79
     5
170
     0
171
     0
290
     0
174
     0
 93
        1
 44
0.0
173
     0
291
     1
 45
0.0
1001
ACAD
1000
AcDbSavedByObjectVersion
1070
     0
  0
VISUALSTYLE
  5
BCEC
102
{ACAD_XDICTIONARY
360
11992
102
}
102
{ACAD_REACTORS
330
BCEB
102
}
330
BCEB
100
AcDbVisualStyle
  2
Flat
 70
     0
 71
     2
 72
     1
 73
     1
 90
        2
 40
-0.6
 41
30.0
 62
     5
 63
     7
 74
     0
 91
        4
 64
     7
 65
   257
 75
     1
175
     1
 42
1.0
 92
        8
 66
     7
 43
1.0
 76
     1
 77
     6
 78
     2
 67
     7
 79
     5
170
     0
171
     0
290
     0
174
     0
 93
       13
 44
0.0
173
     0
291
     1
 45
0.0
1001
ACAD
1000
AcDbSavedByObjectVersion
1070
     0
  0
VISUALSTYLE
  5
BCED
102
{ACAD_XDICTIONARY
360
11994
102
}
102
{ACAD_REACTORS
330
BCEB
102
}
330
BCEB
100
AcDbVisualStyle
  2
FlatWithEdges
 70
     1
 71
     2
 72
     1
 73
     1
 90
        2
 40
-0.6
 41
30.0
 62
     5
 63
     7
 74
     1
 91
        4
 64
     7
 65
   257
 75
     1
175
     1
 42
1.0
 92
        0
 66
   257
 43
1.0
 76
     1
 77
     6
 78
     2
 67
     7
 79
     5
170
     0
171
     0
290
     0
174
     0
 93
       13
 44
0.0
173
     0
291
     1
 45
0.0
1001
ACAD
1000
AcDbSavedByObjectVersion
1070
     0
  0
VISUALSTYLE
  5
BCEE
102
{ACAD_XDICTIONARY
360
11996
102
}
102
{ACAD_REACTORS
330
BCEB
102
}
330
BCEB
100
AcDbVisualStyle
  2
Gouraud
 70
     2
 71
     2
 72
     2
 73
     1
 90
        2
 40
-0.6
 41
30.0
 62
     5
 63
     7
 74
     0
 91
        4
 64
     7
 65
   257
 75
     1
175
     1
 42
1.0
 92
        0
 66
     7
 43
1.0
 76
     1
 77
     6
 78
     2
 67
     7
 79
     5
170
     0
171
     0
290
     0
174
     0
 93
       13
 44
0.0
173
     0
291
     1
 45
0.0
1001
ACAD
1000
AcDbSavedByObjectVersion
1070
     0
  0
VISUALSTYLE
  5
BCEF
102
{ACAD_XDICTIONARY
360
11998
102
}
102
{ACAD_REACTORS
330
BCEB
102
}
330
BCEB
100
AcDbVisualStyle
  2
GouraudWithEdges
 70
     3
 71
     2
 72
     2
 73
     1
 90
        2
 40
-0.6
 41
30.0
 62
     5
 63
     7
 74
     1
 91
        4
 64
     7
 65
   257
 75
     1
175
     1
 42
1.0
 92
        0
 66
   257
 43
1.0
 76
     1
 77
     6
 78
     2
 67
     7
 79
     5
170
     0
171
     0
290
     0
174
     0
 93
       13
 44
0.0
173
     0
291
     1
 45
0.0
1001
ACAD
1000
AcDbSavedByObjectVersion
1070
     0
  0
VISUALSTYLE
  5
1161E
102
{ACAD_XDICTIONARY
360
119B5
102
}
102
{ACAD_REACTORS
330
BCEB
102
}
330
BCEB
100
AcDbVisualStyle
  2
Hidden
 70
     6
 71
     1
 72
     2
 73
     2
 90
        0
 40
-0.6
 41
-30.0
 62
     5
 63
     7
 74
     2
 91
        2
 64
     7
 65
   257
 75
     2
175
     1
 42
40.0
 92
        0
 66
   257
 43
1.0
 76
     1
 77
     6
 78
     2
 67
     7
 79
     3
170
     0
171
     0
290
     0
174
     0
 93
        1
 44
0.0
173
     0
291
     0
 45
0.0
1001
ACAD
1000
AcDbSavedByObjectVersion
1070
     0
  0
VISUALSTYLE
  5
11624
102
{ACAD_XDICTIONARY
360
119C1
102
}
102
{ACAD_REACTORS
330
BCEB
102
}
330
BCEB
100
AcDbVisualStyle
  2
JitterOff
 70
    20
 71
     2
 72
     2
 73
     0
 90
        0
 40
-0.6
 41
-30.0
 62
     5
 63
     7
 74
     1
 91
        4
 64
     7
 65
   257
 75
     1
175
     1
 42
1.0
 92
       10
 66
     7
 43
1.0
 76
     1
 77
     6
 78
     2
 67
     7
 79
     5
170
     0
171
     0
290
     0
174
     0
 93
        1
 44
0.0
173
     0
291
     1
 45
0.0
1001
ACAD
1000
AcDbSavedByObjectVersion
1070
     0
  0
VISUALSTYLE
  5
BCF9
102
{ACAD_XDICTIONARY
360
119AC
102
}
102
{ACAD_REACTORS
330
BCEB
102
}
330
BCEB
100
AcDbVisualStyle
  2
Linepattern
 70
    14
 71
     2
 72
     2
 73
     0
 90
        0
 40
-0.6
 41
-30.0
 62
     5
 63
     7
 74
     1
 91
        4
 64
     7
 65
   257
 75
     7
175
     7
 42
1.0
 92
        8
 66
     7
 43
1.0
 76
     1
 77
     6
 78
     2
 67
     7
 79
     5
170
     0
171
     0
290
     0
174
     0
 93
        1
 44
0.0
173
     0
291
     1
 45
0.0
1001
ACAD
1000
AcDbSavedByObjectVersion
1070
     0
  0
VISUALSTYLE
  5
11625
102
{ACAD_XDICTIONARY
360
119C3
102
}
102
{ACAD_REACTORS
330
BCEB
102
}
330
BCEB
100
AcDbVisualStyle
  2
OverhangOff
 70
    21
 71
     2
 72
     2
 73
     0
 90
        0
 40
-0.6
 41
-30.0
 62
     5
 63
     7
 74
     1
 91
        4
 64
     7
 65
   257
 75
     1
175
     1
 42
1.0
 92
        9
 66
     7
 43
1.0
 76
     1
 77
     6
 78
     2
 67
     7
 79
     5
170
     0
171
     0
290
     0
174
     0
 93
        1
 44
0.0
173
     0
291
     1
 45
0.0
1001
ACAD
1000
AcDbSavedByObjectVersion
1070
     0
  0
VISUALSTYLE
  5
BCF5
102
{ACAD_XDICTIONARY
360
119A4
102
}
102
{ACAD_REACTORS
330
BCEB
102
}
330
BCEB
100
AcDbVisualStyle
  2
Realistic
 70
     8
 71
     2
 72
     2
 73
     0
 90
        0
 40
-0.6
 41
-30.0
 62
     5
 63
     7
 74
     1
 91
        0
 64
     7
 65
   257
 75
     1
175
     1
 42
1.0
 92
        8
 66
     8
 43
1.0
 76
     1
 77
     6
 78
     2
 67
     7
 79
     5
170
     0
171
     0
290
     0
174
     0
 93
       13
 44
0.0
173
     0
291
     0
 45
0.0
1001
ACAD
1000
AcDbSavedByObjectVersion
1070
     0
  0
VISUALSTYLE
  5
11623
102
{ACAD_XDICTIONARY
360
119BF
102
}
102
{ACAD_REACTORS
330
BCEB
102
}
330
BCEB
100
AcDbVisualStyle
  2
Shaded
 70
    27
 71
     2
 72
     2
 73
     1
 90
        2
 40
-0.6
 41
30.0
 62
     5
 63
     7
 74
     0
 91
        4
 64
     7
 65
   257
 75
     1
175
     1
 42
1.0
 92
        8
 66
   257
 43
1.0
 76
     1
 77
     6
 78
     2
 67
     8
 79
     3
170
     0
171
     0
290
     0
174
     0
 93
        5
 44
0.0
173
     0
291
     0
 45
0.0
1001
ACAD
1000
AcDbSavedByObjectVersion
1070
     0
  0
VISUALSTYLE
  5
11622
102
{ACAD_XDICTIONARY
360
119BD
102
}
102
{ACAD_REACTORS
330
BCEB
102
}
330
BCEB
100
AcDbVisualStyle
  2
Shaded with edges
 70
    26
 71
     2
 72
     2
 73
     1
 90
        2
 40
-0.6
 41
30.0
 62
     5
 63
     7
 74
     1
 91
       10
 64
     7
 65
   257
 75
     2
175
     1
 42
1.0
 92
        8
 66
   257
 43
1.0
 76
     1
 77
     6
 78
     2
 67
     7
 79
     3
170
     0
171
     0
290
     0
174
     0
 93
        5
 44
0.0
173
     0
291
     0
 45
0.0
1001
ACAD
1000
AcDbSavedByObjectVersion
1070
     0
  0
VISUALSTYLE
  5
1161F
102
{ACAD_XDICTIONARY
360
119B7
102
}
102
{ACAD_REACTORS
330
BCEB
102
}
330
BCEB
100
AcDbVisualStyle
  2
Shades of Gray
 70
    23
 71
     2
 72
     2
 73
     3
 90
        0
 40
-0.6
 41
-30.0
 62
     5
 63
     7
 74
     2
 91
        2
 64
     7
 65
     7
 75
     1
175
     1
 42
40.0
 92
        8
 66
     7
 43
1.0
 76
     1
 77
     6
 78
     2
 67
     7
 79
     3
170
     0
171
     0
290
     0
174
     0
 93
        1
 44
0.0
173
     0
291
     0
 45
0.0
1001
ACAD
1000
AcDbSavedByObjectVersion
1070
     0
  0
VISUALSTYLE
  5
11620
102
{ACAD_XDICTIONARY
360
119B9
102
}
102
{ACAD_REACTORS
330
BCEB
102
}
330
BCEB
100
AcDbVisualStyle
  2
Sketchy
 70
    24
 71
     1
 72
     2
 73
     2
 90
        0
 40
-0.6
 41
-30.0
 62
     5
 63
     7
 74
     2
 91
        2
 64
     7
 65
     7
 75
     1
175
     1
 42
40.0
 92
       11
 66
     7
 43
1.0
 76
     1
 77
     6
 78
     2
 67
     7
 79
     6
170
     0
171
     0
290
     0
174
     0
 93
        1
 44
0.0
173
     0
291
     0
 45
0.0
1001
ACAD
1000
AcDbSavedByObjectVersion
1070
     0
  0
VISUALSTYLE
  5
BCF8
102
{ACAD_XDICTIONARY
360
119AA
102
}
102
{ACAD_REACTORS
330
BCEB
102
}
330
BCEB
100
AcDbVisualStyle
  2
Thicken
 70
    13
 71
     2
 72
     2
 73
     0
 90
        0
 40
-0.6
 41
-30.0
 62
     5
 63
     7
 74
     1
 91
        4
 64
     7
 65
   257
 75
     1
175
     1
 42
1.0
 92
       12
 66
     7
 43
1.0
 76
     1
 77
     6
 78
     2
 67
     7
 79
     5
170
     0
171
     0
290
     0
174
     0
 93
        1
 44
0.0
173
     0
291
     1
 45
0.0
1001
ACAD
1000
AcDbSavedByObjectVersion
1070
     0
  0
VISUALSTYLE
  5
1161D
102
{ACAD_XDICTIONARY
360
119B3
102
}
102
{ACAD_REACTORS
330
BCEB
102
}
330
BCEB
100
AcDbVisualStyle
  2
Wireframe
 70
     5
 71
     0
 72
     2
 73
     0
 90
        0
 40
-0.6
 41
-30.0
 62
     5
 63
     7
 74
     1
 91
        4
 64
     7
 65
   257
 75
     1
175
     1
 42
1.0
 92
        0
 66
   257
 43
1.0
 76
     1
 77
     6
 78
     2
 67
     7
 79
     3
170
     0
171
     0
290
     0
174
     0
 93
        1
 44
0.0
173
     0
291
     0
 45
0.0
1001
ACAD
1000
AcDbSavedByObjectVersion
1070
     0
  0
VISUALSTYLE
  5
11621
102
{ACAD_XDICTIONARY
360
119BB
102
}
102
{ACAD_REACTORS
330
BCEB
102
}
330
BCEB
100
AcDbVisualStyle
  2
X-Ray
 70
    25
 71
     2
 72
     2
 73
     1
 90
        1
 40
0.5
 41
-30.0
 62
     5
 63
     7
 74
     1
 91
        0
 64
     7
 65
   257
 75
     1
175
     1
 42
1.0
 92
        8
 66
     7
 43
1.0
 76
     1
 77
     6
 78
     2
 67
     7
 79
     3
170
     0
171
     0
290
     0
174
     0
 93
       13
 44
0.0
173
     0
291
     0
 45
0.0
1001
ACAD
1000
AcDbSavedByObjectVersion
1070
     0
  0
DICTIONARYVAR
  5
DFE8
102
{ACAD_REACTORS
330
3E
102
}
330
3E
100
DictionaryVariables
280
     0
  1
1:1
  0
DICTIONARYVAR
  5
DFE6
102
{ACAD_REACTORS
330
3E
102
}
330
3E
100
DictionaryVariables
280
     0
  1
STANDARD
  0
DICTIONARYVAR
  5
DFE5
102
{ACAD_REACTORS
330
3E
102
}
330
3E
100
DictionaryVariables
280
     0
  1
STANDARD
  0
DICTIONARYVAR
  5
3F
102
{ACAD_REACTORS
330
3E
102
}
330
3E
100
DictionaryVariables
280
     0
  1
0
  0
DICTIONARYVAR
  5
11727
102
{ACAD_REACTORS
330
3E
102
}
330
3E
100
DictionaryVariables
280
     0
  1
1
  0
DICTIONARYVAR
  5
11725
102
{ACAD_REACTORS
330
3E
102
}
330
3E
100
DictionaryVariables
280
     0
  1
0
  0
DICTIONARYVAR
  5
11979
102
{ACAD_REACTORS
330
3E
102
}
330
3E
100
DictionaryVariables
280
     0
  1
1
  0
DICTIONARYVAR
  5
1197A
102
{ACAD_REACTORS
330
3E
102
}
330
3E
100
DictionaryVariables
280
     0
  1
15
  0
DICTIONARYVAR
  5
DFE9
102
{ACAD_REACTORS
330
3E
102
}
330
3E
100
DictionaryVariables
280
     0
  1
0
  0
DICTIONARYVAR
  5
DFE7
102
{ACAD_REACTORS
330
3E
102
}
330
3E
100
DictionaryVariables
280
     0
  1
0
  0
DICTIONARYVAR
  5
11724
102
{ACAD_REACTORS
330
3E
102
}
330
3E
100
DictionaryVariables
280
     0
  1
127
  0
DICTIONARYVAR
  5
11985
102
{ACAD_REACTORS
330
3E
102
}
330
3E
100
DictionaryVariables
280
     0
  1
2
  0
DICTIONARY
  5
1198D
330
B2FF
100
AcDbDictionary
280
     1
281
     1
  3
ACAD_XREC_ROUNDTRIP
360
1198E
  0
DICTIONARY
  5
1198B
330
B2FE
100
AcDbDictionary
280
     1
281
     1
  3
ACAD_XREC_ROUNDTRIP
360
1198C
  0
DICTIONARY
  5
BCDC
330
BCDB
100
AcDbDictionary
280
     1
281
     1
  3
ACAD_XREC_ROUNDTRIP
360
11990
  3
BUMPTILE
360
BCDE
  3
DIFFUSETILE
360
BCDD
  3
OPACITYTILE
360
BCE1
  3
REFLECTIONTILE
360
BCE0
  3
REFRACTIONTILE
360
BCE2
  3
SPECULARTILE
360
BCDF
  0
DICTIONARY
  5
BCD4
330
BCD3
100
AcDbDictionary
280
     1
281
     1
  3
ACAD_XREC_ROUNDTRIP
360
1198F
  3
BUMPTILE
360
BCD6
  3
DIFFUSETILE
360
BCD5
  3
OPACITYTILE
360
BCD9
  3
REFLECTIONTILE
360
BCD8
  3
REFRACTIONTILE
360
BCDA
  3
SPECULARTILE
360
BCD7
  0
DICTIONARY
  5
BCE4
330
BCE3
100
AcDbDictionary
280
     1
281
     1
  3
ACAD_XREC_ROUNDTRIP
360
11991
  3
BUMPTILE
360
BCE6
  3
DIFFUSETILE
360
BCE5
  3
OPACITYTILE
360
BCE9
  3
REFLECTIONTILE
360
BCE8
  3
REFRACTIONTILE
360
BCEA
  3
SPECULARTILE
360
BCE7
  0
DICTIONARY
  5
DFE2
330
BCFE
100
AcDbDictionary
280
     1
281
     1
  3
ACAD_ROUNDTRIP_2008_TABLESTYLE_CELLSTYLEMAP
360
11986
  3
ACAD_XREC_ROUNDTRIP
360
119B2
  0
DICTIONARY
  5
1199C
330
BCF1
100
AcDbDictionary
280
     1
281
     1
  3
ACAD_XREC_ROUNDTRIP
360
1199D
  0
DICTIONARY
  5
119A0
330
BCF3
100
AcDbDictionary
280
     1
281
     1
  3
ACAD_XREC_ROUNDTRIP
360
119A1
  0
DICTIONARY
  5
1199E
330
BCF2
100
AcDbDictionary
280
     1
281
     1
  3
ACAD_XREC_ROUNDTRIP
360
1199F
  0
DICTIONARY
  5
1199A
330
BCF0
100
AcDbDictionary
280
     1
281
     1
  3
ACAD_XREC_ROUNDTRIP
360
1199B
  0
DICTIONARY
  5
119A8
330
BCF7
100
AcDbDictionary
280
     1
281
     1
  3
ACAD_XREC_ROUNDTRIP
360
119A9
  0
DICTIONARY
  5
119B0
330
BCFB
100
AcDbDictionary
280
     1
281
     1
  3
ACAD_XREC_ROUNDTRIP
360
119B1
  0
DICTIONARY
  5
119A2
330
BCF4
100
AcDbDictionary
280
     1
281
     1
  3
ACAD_XREC_ROUNDTRIP
360
119A3
  0
DICTIONARY
  5
119A6
330
BCF6
100
AcDbDictionary
280
     1
281
     1
  3
ACAD_XREC_ROUNDTRIP
360
119A7
  0
DICTIONARY
  5
119C5
330
11626
100
AcDbDictionary
280
     1
281
     1
  3
ACAD_XREC_ROUNDTRIP
360
119C6
  0
DICTIONARY
  5
119AE
330
BCFA
100
AcDbDictionary
280
     1
281
     1
  3
ACAD_XREC_ROUNDTRIP
360
119AF
  0
DICTIONARY
  5
11992
330
BCEC
100
AcDbDictionary
280
     1
281
     1
  3
ACAD_XREC_ROUNDTRIP
360
11993
  0
DICTIONARY
  5
11994
330
BCED
100
AcDbDictionary
280
     1
281
     1
  3
ACAD_XREC_ROUNDTRIP
360
11995
  0
DICTIONARY
  5
11996
330
BCEE
100
AcDbDictionary
280
     1
281
     1
  3
ACAD_XREC_ROUNDTRIP
360
11997
  0
DICTIONARY
  5
11998
330
BCEF
100
AcDbDictionary
280
     1
281
     1
  3
ACAD_XREC_ROUNDTRIP
360
11999
  0
DICTIONARY
  5
119B5
330
1161E
100
AcDbDictionary
280
     1
281
     1
  3
ACAD_XREC_ROUNDTRIP
360
119B6
  0
DICTIONARY
  5
119C1
330
11624
100
AcDbDictionary
280
     1
281
     1
  3
ACAD_XREC_ROUNDTRIP
360
119C2
  0
DICTIONARY
  5
119AC
330
BCF9
100
AcDbDictionary
280
     1
281
     1
  3
ACAD_XREC_ROUNDTRIP
360
119AD
  0
DICTIONARY
  5
119C3
330
11625
100
AcDbDictionary
280
     1
281
     1
  3
ACAD_XREC_ROUNDTRIP
360
119C4
  0
DICTIONARY
  5
119A4
330
BCF5
100
AcDbDictionary
280
     1
281
     1
  3
ACAD_XREC_ROUNDTRIP
360
119A5
  0
DICTIONARY
  5
119BF
330
11623
100
AcDbDictionary
280
     1
281
     1
  3
ACAD_XREC_ROUNDTRIP
360
119C0
  0
DICTIONARY
  5
119BD
330
11622
100
AcDbDictionary
280
     1
281
     1
  3
ACAD_XREC_ROUNDTRIP
360
119BE
  0
DICTIONARY
  5
119B7
330
1161F
100
AcDbDictionary
280
     1
281
     1
  3
ACAD_XREC_ROUNDTRIP
360
119B8
  0
DICTIONARY
  5
119B9
330
11620
100
AcDbDictionary
280
     1
281
     1
  3
ACAD_XREC_ROUNDTRIP
360
119BA
  0
DICTIONARY
  5
119AA
330
BCF8
100
AcDbDictionary
280
     1
281
     1
  3
ACAD_XREC_ROUNDTRIP
360
119AB
  0
DICTIONARY
  5
119B3
330
1161D
100
AcDbDictionary
280
     1
281
     1
  3
ACAD_XREC_ROUNDTRIP
360
119B4
  0
DICTIONARY
  5
119BB
330
11621
100
AcDbDictionary
280
     1
281
     1
  3
ACAD_XREC_ROUNDTRIP
360
119BC
  0
XRECORD
  5
1198E
102
{ACAD_REACTORS
330
1198D
102
}
330
1198D
100
AcDbXrecord
280
     1
102
SHADEPLOT
 70
     0
102
SHADEPLOTRESLEVEL
 70
     2
102
SHADEPLOTCUSTOMDPI
 70
   300
  0
XRECORD
  5
1198C
102
{ACAD_REACTORS
330
1198B
102
}
330
1198B
100
AcDbXrecord
280
     1
102
SHADEPLOT
 70
     1
102
SHADEPLOTRESLEVEL
 70
     2
102
SHADEPLOTCUSTOMDPI
 70
   300
  0
XRECORD
  5
11990
102
{ACAD_REACTORS
330
BCDC
102
}
330
BCDC
100
AcDbXrecord
280
     1
102
MATERIAL
148
0.0
149
0.0
149
0.0
 93
        0
 94
      127
282
     0
 72
     0
 77
     0
171
     0
175
     0
179
     0
273
     0
  0
XRECORD
  5
BCDE
102
{ACAD_REACTORS
330
BCDC
102
}
330
BCDC
100
AcDbXrecord
280
     1
270
     1
271
     1
  0
XRECORD
  5
BCDD
102
{ACAD_REACTORS
330
BCDC
102
}
330
BCDC
100
AcDbXrecord
280
     1
270
     1
271
     1
  0
XRECORD
  5
BCE1
102
{ACAD_REACTORS
330
BCDC
102
}
330
BCDC
100
AcDbXrecord
280
     1
270
     1
271
     1
  0
XRECORD
  5
BCE0
102
{ACAD_REACTORS
330
BCDC
102
}
330
BCDC
100
AcDbXrecord
280
     1
270
     1
271
     1
  0
XRECORD
  5
BCE2
102
{ACAD_REACTORS
330
BCDC
102
}
330
BCDC
100
AcDbXrecord
280
     1
270
     1
271
     1
  0
XRECORD
  5
BCDF
102
{ACAD_REACTORS
330
BCDC
102
}
330
BCDC
100
AcDbXrecord
280
     1
270
     1
271
     1
  0
XRECORD
  5
1198F
102
{ACAD_REACTORS
330
BCD4
102
}
330
BCD4
100
AcDbXrecord
280
     1
102
MATERIAL
148
0.0
149
0.0
149
0.0
 93
        0
 94
      127
282
     0
 72
     0
 77
     0
171
     0
175
     0
179
     0
273
     0
  0
XRECORD
  5
BCD6
102
{ACAD_REACTORS
330
BCD4
102
}
330
BCD4
100
AcDbXrecord
280
     1
270
     1
271
     1
  0
XRECORD
  5
BCD5
102
{ACAD_REACTORS
330
BCD4
102
}
330
BCD4
100
AcDbXrecord
280
     1
270
     1
271
     1
  0
XRECORD
  5
BCD9
102
{ACAD_REACTORS
330
BCD4
102
}
330
BCD4
100
AcDbXrecord
280
     1
270
     1
271
     1
  0
XRECORD
  5
BCD8
102
{ACAD_REACTORS
330
BCD4
102
}
330
BCD4
100
AcDbXrecord
280
     1
270
     1
271
     1
  0
XRECORD
  5
BCDA
102
{ACAD_REACTORS
330
BCD4
102
}
330
BCD4
100
AcDbXrecord
280
     1
270
     1
271
     1
  0
XRECORD
  5
BCD7
102
{ACAD_REACTORS
330
BCD4
102
}
330
BCD4
100
AcDbXrecord
280
     1
270
     1
271
     1
  0
XRECORD
  5
11991
102
{ACAD_REACTORS
330
BCE4
102
}
330
BCE4
100
AcDbXrecord
280
     1
102
MATERIAL
148
0.0
149
0.0
149
0.0
 93
        0
 94
      127
282
     0
 72
     0
 77
     0
171
     0
175
     0
179
     0
273
     0
  0
XRECORD
  5
BCE6
102
{ACAD_REACTORS
330
BCE4
102
}
330
BCE4
100
AcDbXrecord
280
     1
270
     1
271
     1
  0
XRECORD
  5
BCE5
102
{ACAD_REACTORS
330
BCE4
102
}
330
BCE4
100
AcDbXrecord
280
     1
270
     1
271
     1
  0
XRECORD
  5
BCE9
102
{ACAD_REACTORS
330
BCE4
102
}
330
BCE4
100
AcDbXrecord
280
     1
270
     1
271
     1
  0
XRECORD
  5
BCE8
102
{ACAD_REACTORS
330
BCE4
102
}
330
BCE4
100
AcDbXrecord
280
     1
270
     1
271
     1
  0
XRECORD
  5
BCEA
102
{ACAD_REACTORS
330
BCE4
102
}
330
BCE4
100
AcDbXrecord
280
     1
270
     1
271
     1
  0
XRECORD
  5
BCE7
102
{ACAD_REACTORS
330
BCE4
102
}
330
BCE4
100
AcDbXrecord
280
     1
270
     1
271
     1
  0
CELLSTYLEMAP
  5
11986
102
{ACAD_REACTORS
330
DFE2
102
}
330
DFE2
100
AcDbCellStyleMap
 90
        3
300
CELLSTYLE
  1
TABLEFORMAT_BEGIN
 90
        5
170
     1
 91
        0
 92
    32768
 62
   257
 93
        1
300
CONTENTFORMAT
  1
CONTENTFORMAT_BEGIN
 90
        0
 91
        0
 92
      512
 93
        0
300

 40
0.0
140
1.0
 94
        5
 62
     0
340
F
144
0.25
309
CONTENTFORMAT_END
171
     0
 94
        0
309
TABLEFORMAT_END
  1
CELLSTYLE_BEGIN
 90
        1
 91
        1
300
_TITLE
309
CELLSTYLE_END
300
CELLSTYLE
  1
TABLEFORMAT_BEGIN
 90
        5
170
     1
 91
        0
 92
        0
 62
   257
 93
        1
300
CONTENTFORMAT
  1
CONTENTFORMAT_BEGIN
 90
        0
 91
        0
 92
      512
 93
        0
300

 40
0.0
140
1.0
 94
        5
 62
     0
340
F
144
0.18
309
CONTENTFORMAT_END
171
     0
 94
        0
309
TABLEFORMAT_END
  1
CELLSTYLE_BEGIN
 90
        2
 91
        1
300
_HEADER
309
CELLSTYLE_END
300
CELLSTYLE
  1
TABLEFORMAT_BEGIN
 90
        5
170
     1
 91
        0
 92
        0
 62
   257
 93
        1
300
CONTENTFORMAT
  1
CONTENTFORMAT_BEGIN
 90
        0
 91
        0
 92
      512
 93
        0
300

 40
0.0
140
1.0
 94
        2
 62
     0
340
F
144
0.18
309
CONTENTFORMAT_END
171
     0
 94
        0
309
TABLEFORMAT_END
  1
CELLSTYLE_BEGIN
 90
        3
 91
        2
300
_DATA
309
CELLSTYLE_END
  0
XRECORD
  5
119B2
102
{ACAD_REACTORS
330
DFE2
102
}
330
DFE2
100
AcDbXrecord
280
     1
102
ACAD_ROUNDTRIP_PRE2007_TABLESTYLE
 90
      512
 91
        0
  1

 92
      512
 93
        0
  2

 94
      512
 95
        0
  3

  0
XRECORD
  5
1199D
102
{ACAD_REACTORS
330
1199C
102
}
330
1199C
100
AcDbXrecord
280
     1
102
RTVSPropertyOp0
 70
     1
102
RTVSPropertyOp1
 70
     1
102
RTVSPropertyOp2
 70
     1
102
RTVSPropertyOp3
 70
     1
102
RTVSPropertyOp4
 70
     1
102
RTVSPropertyOp5
 70
     1
102
RTVSPropertyOp6
 70
     1
102
RTVSPropertyOp7
 70
     1
102
RTVSPropertyOp8
 70
     1
102
RTVSPropertyOp9
 70
     1
102
RTVSPropertyOp10
 70
     1
102
RTVSPropertyOp11
 70
     1
102
RTVSPropertyOp12
 70
     1
102
RTVSPropertyOp13
 70
     1
102
RTVSPropertyOp14
 70
     1
102
RTVSPropertyOp15
 70
     1
102
RTVSPropertyOp16
 70
     1
102
RTVSPropertyOp17
 70
     1
102
RTVSPropertyOp18
 70
     1
102
RTVSPropertyOp19
 70
     1
102
RTVSPropertyOp20
 70
     1
102
RTVSPropertyOp21
 70
     1
102
RTVSPropertyOp22
 70
     1
102
RTVSPropertyOp23
 70
     1
102
RTVSPropertyOp24
 70
     1
102
RTVSPropertyOp25
 70
     1
102
RTVSPropertyOp26
 70
     1
102
RTVSPropertyOp27
 70
     1
102
RTVSPropertyOp28
 70
     1
102
RTVSPropertyOp29
 70
     1
102
RTVSPropertyOp30
 70
     1
102
RTVSPropertyOp31
 70
     1
102
RTVSPropertyOp32
 70
     1
  0
XRECORD
  5
119A1
102
{ACAD_REACTORS
330
119A0
102
}
330
119A0
100
AcDbXrecord
280
     1
102
RTVSPropertyOp0
 70
     1
102
RTVSPropertyOp1
 70
     1
102
RTVSPropertyOp2
 70
     1
102
RTVSPropertyOp3
 70
     1
102
RTVSPropertyOp4
 70
     1
102
RTVSPropertyOp5
 70
     1
102
RTVSPropertyOp6
 70
     1
102
RTVSPropertyOp7
 70
     1
102
RTVSPropertyOp8
 70
     1
102
RTVSPropertyOp9
 70
     1
102
RTVSPropertyOp10
 70
     1
102
RTVSPropertyOp11
 70
     1
102
RTVSPropertyOp12
 70
     1
102
RTVSPropertyOp13
 70
     1
102
RTVSPropertyOp14
 70
     1
102
RTVSPropertyOp15
 70
     1
102
RTVSPropertyOp16
 70
     1
102
RTVSPropertyOp17
 70
     1
102
RTVSPropertyOp18
 70
     1
102
RTVSPropertyOp19
 70
     1
102
RTVSPropertyOp20
 70
     1
102
RTVSPropertyOp21
 70
     1
102
RTVSPropertyOp22
 70
     1
102
RTVSPropertyOp23
 70
     1
102
RTVSPropertyOp24
 70
     1
102
RTVSPropertyOp25
 70
     1
102
RTVSPropertyOp26
 70
     1
102
RTVSPropertyOp27
 70
     1
102
RTVSPropertyOp28
 70
     1
102
RTVSPropertyOp29
 70
     1
102
RTVSPropertyOp30
 70
     1
102
RTVSPropertyOp31
 70
     1
102
RTVSPropertyOp32
 70
     1
  0
XRECORD
  5
1199F
102
{ACAD_REACTORS
330
1199E
102
}
330
1199E
100
AcDbXrecord
280
     1
102
RTVSPropertyOp0
 70
     1
102
RTVSPropertyOp1
 70
     1
102
RTVSPropertyOp2
 70
     1
102
RTVSPropertyOp3
 70
     1
102
RTVSPropertyOp4
 70
     1
102
RTVSPropertyOp5
 70
     1
102
RTVSPropertyOp6
 70
     1
102
RTVSPropertyOp7
 70
     1
102
RTVSPropertyOp8
 70
     1
102
RTVSPropertyOp9
 70
     1
102
RTVSPropertyOp10
 70
     1
102
RTVSPropertyOp11
 70
     1
102
RTVSPropertyOp12
 70
     1
102
RTVSPropertyOp13
 70
     1
102
RTVSPropertyOp14
 70
     1
102
RTVSPropertyOp15
 70
     1
102
RTVSPropertyOp16
 70
     1
102
RTVSPropertyOp17
 70
     1
102
RTVSPropertyOp18
 70
     1
102
RTVSPropertyOp19
 70
     1
102
RTVSPropertyOp20
 70
     1
102
RTVSPropertyOp21
 70
     1
102
RTVSPropertyOp22
 70
     1
102
RTVSPropertyOp23
 70
     1
102
RTVSPropertyOp24
 70
     1
102
RTVSPropertyOp25
 70
     1
102
RTVSPropertyOp26
 70
     1
102
RTVSPropertyOp27
 70
     1
102
RTVSPropertyOp28
 70
     1
102
RTVSPropertyOp29
 70
     1
102
RTVSPropertyOp30
 70
     1
102
RTVSPropertyOp31
 70
     1
102
RTVSPropertyOp32
 70
     1
  0
XRECORD
  5
1199B
102
{ACAD_REACTORS
330
1199A
102
}
330
1199A
100
AcDbXrecord
280
     1
102
RTVSPropertyOp0
 70
     1
102
RTVSPropertyOp1
 70
     1
102
RTVSPropertyOp2
 70
     1
102
RTVSPropertyOp3
 70
     1
102
RTVSPropertyOp4
 70
     1
102
RTVSPropertyOp5
 70
     1
102
RTVSPropertyOp6
 70
     1
102
RTVSPropertyOp7
 70
     1
102
RTVSPropertyOp8
 70
     1
102
RTVSPropertyOp9
 70
     1
102
RTVSPropertyOp10
 70
     1
102
RTVSPropertyOp11
 70
     1
102
RTVSPropertyOp12
 70
     1
102
RTVSPropertyOp13
 70
     1
102
RTVSPropertyOp14
 70
     1
102
RTVSPropertyOp15
 70
     1
102
RTVSPropertyOp16
 70
     1
102
RTVSPropertyOp17
 70
     1
102
RTVSPropertyOp18
 70
     1
102
RTVSPropertyOp19
 70
     1
102
RTVSPropertyOp20
 70
     1
102
RTVSPropertyOp21
 70
     1
102
RTVSPropertyOp22
 70
     1
102
RTVSPropertyOp23
 70
     1
102
RTVSPropertyOp24
 70
     1
102
RTVSPropertyOp25
 70
     1
102
RTVSPropertyOp26
 70
     1
102
RTVSPropertyOp27
 70
     1
102
RTVSPropertyOp28
 70
     1
102
RTVSPropertyOp29
 70
     1
102
RTVSPropertyOp30
 70
     1
102
RTVSPropertyOp31
 70
     1
102
RTVSPropertyOp32
 70
     1
  0
XRECORD
  5
119A9
102
{ACAD_REACTORS
330
119A8
102
}
330
119A8
100
AcDbXrecord
280
     1
102
RTVSPropertyOp0
 70
     1
102
RTVSPropertyOp1
 70
     1
102
RTVSPropertyOp2
 70
     1
102
RTVSPropertyOp3
 70
     1
102
RTVSPropertyOp4
 70
     1
102
RTVSPropertyOp5
 70
     1
102
RTVSPropertyOp6
 70
     1
102
RTVSPropertyOp7
 70
     1
102
RTVSPropertyOp8
 70
     1
102
RTVSPropertyOp9
 70
     1
102
RTVSPropertyOp10
 70
     1
102
RTVSPropertyOp11
 70
     1
102
RTVSPropertyOp12
 70
     1
102
RTVSPropertyOp13
 70
     1
102
RTVSPropertyOp14
 70
     1
102
RTVSPropertyOp15
 70
     1
102
RTVSPropertyOp16
 70
     1
102
RTVSPropertyOp17
 70
     1
102
RTVSPropertyOp18
 70
     1
102
RTVSPropertyOp19
 70
     1
102
RTVSPropertyOp20
 70
     1
102
RTVSPropertyOp21
 70
     1
102
RTVSPropertyOp22
 70
     1
102
RTVSPropertyOp23
 70
     1
102
RTVSPropertyOp24
 70
     1
102
RTVSPropertyOp25
 70
     1
102
RTVSPropertyOp26
 70
     1
102
RTVSPropertyOp27
 70
     1
102
RTVSPropertyOp28
 70
     1
102
RTVSPropertyOp29
 70
     1
102
RTVSPropertyOp30
 70
     1
102
RTVSPropertyOp31
 70
     1
102
RTVSPropertyOp32
 70
     1
  0
XRECORD
  5
119B1
102
{ACAD_REACTORS
330
119B0
102
}
330
119B0
100
AcDbXrecord
280
     1
102
RTVSPropertyOp0
 70
     1
102
RTVSPropertyOp1
 70
     1
102
RTVSPropertyOp2
 70
     1
102
RTVSPropertyOp3
 70
     1
102
RTVSPropertyOp4
 70
     1
102
RTVSPropertyOp5
 70
     1
102
RTVSPropertyOp6
 70
     1
102
RTVSPropertyOp7
 70
     1
102
RTVSPropertyOp8
 70
     1
102
RTVSPropertyOp9
 70
     1
102
RTVSPropertyOp10
 70
     1
102
RTVSPropertyOp11
 70
     1
102
RTVSPropertyOp12
 70
     1
102
RTVSPropertyOp13
 70
     1
102
RTVSPropertyOp14
 70
     1
102
RTVSPropertyOp15
 70
     1
102
RTVSPropertyOp16
 70
     1
102
RTVSPropertyOp17
 70
     1
102
RTVSPropertyOp18
 70
     1
102
RTVSPropertyOp19
 70
     1
102
RTVSPropertyOp20
 70
     1
102
RTVSPropertyOp21
 70
     1
102
RTVSPropertyOp22
 70
     1
102
RTVSPropertyOp23
 70
     1
102
RTVSPropertyOp24
 70
     1
102
RTVSPropertyOp25
 70
     1
102
RTVSPropertyOp26
 70
     1
102
RTVSPropertyOp27
 70
     1
102
RTVSPropertyOp28
 70
     1
102
RTVSPropertyOp29
 70
     1
102
RTVSPropertyOp30
 70
     1
102
RTVSPropertyOp31
 70
     1
102
RTVSPropertyOp32
 70
     1
  0
XRECORD
  5
119A3
102
{ACAD_REACTORS
330
119A2
102
}
330
119A2
100
AcDbXrecord
280
     1
102
RTVSPropertyOp0
 70
     1
102
RTVSPropertyOp1
 70
     1
102
RTVSPropertyOp2
 70
     1
102
RTVSPropertyOp3
 70
     1
102
RTVSPropertyOp4
 70
     1
102
RTVSPropertyOp5
 70
     1
102
RTVSPropertyOp6
 70
     1
102
RTVSPropertyOp7
 70
     1
102
RTVSPropertyOp8
 70
     1
102
RTVSPropertyOp9
 70
     1
102
RTVSPropertyOp10
 70
     1
102
RTVSPropertyOp11
 70
     1
102
RTVSPropertyOp12
 70
     1
102
RTVSPropertyOp13
 70
     1
102
RTVSPropertyOp14
 70
     1
102
RTVSPropertyOp15
 70
     1
102
RTVSPropertyOp16
 70
     1
102
RTVSPropertyOp17
 70
     1
102
RTVSPropertyOp18
 70
     1
102
RTVSPropertyOp19
 70
     1
102
RTVSPropertyOp20
 70
     1
102
RTVSPropertyOp21
 70
     1
102
RTVSPropertyOp22
 70
     1
102
RTVSPropertyOp23
 70
     1
102
RTVSPropertyOp24
 70
     1
102
RTVSPropertyOp25
 70
     1
102
RTVSPropertyOp26
 70
     1
102
RTVSPropertyOp27
 70
     1
102
RTVSPropertyOp28
 70
     1
102
RTVSPropertyOp29
 70
     1
102
RTVSPropertyOp30
 70
     1
102
RTVSPropertyOp31
 70
     1
102
RTVSPropertyOp32
 70
     1
  0
XRECORD
  5
119A7
102
{ACAD_REACTORS
330
119A6
102
}
330
119A6
100
AcDbXrecord
280
     1
102
RTVSPropertyOp0
 70
     1
102
RTVSPropertyOp1
 70
     1
102
RTVSPropertyOp2
 70
     1
102
RTVSPropertyOp3
 70
     1
102
RTVSPropertyOp4
 70
     1
102
RTVSPropertyOp5
 70
     1
102
RTVSPropertyOp6
 70
     1
102
RTVSPropertyOp7
 70
     1
102
RTVSPropertyOp8
 70
     1
102
RTVSPropertyOp9
 70
     1
102
RTVSPropertyOp10
 70
     1
102
RTVSPropertyOp11
 70
     1
102
RTVSPropertyOp12
 70
     1
102
RTVSPropertyOp13
 70
     1
102
RTVSPropertyOp14
 70
     1
102
RTVSPropertyOp15
 70
     1
102
RTVSPropertyOp16
 70
     1
102
RTVSPropertyOp17
 70
     1
102
RTVSPropertyOp18
 70
     1
102
RTVSPropertyOp19
 70
     1
102
RTVSPropertyOp20
 70
     1
102
RTVSPropertyOp21
 70
     1
102
RTVSPropertyOp22
 70
     1
102
RTVSPropertyOp23
 70
     1
102
RTVSPropertyOp24
 70
     1
102
RTVSPropertyOp25
 70
     1
102
RTVSPropertyOp26
 70
     1
102
RTVSPropertyOp27
 70
     1
102
RTVSPropertyOp28
 70
     1
102
RTVSPropertyOp29
 70
     1
102
RTVSPropertyOp30
 70
     1
102
RTVSPropertyOp31
 70
     1
102
RTVSPropertyOp32
 70
     1
  0
XRECORD
  5
119C6
102
{ACAD_REACTORS
330
119C5
102
}
330
119C5
100
AcDbXrecord
280
     1
102
RTVSPropertyOp0
 70
     0
102
RTVSPropertyOp1
 70
     0
102
RTVSPropertyOp2
 70
     0
102
RTVSPropertyOp3
 70
     0
102
RTVSPropertyOp4
 70
     0
102
RTVSPropertyOp5
 70
     0
102
RTVSPropertyOp6
 70
     0
102
RTVSPropertyOp7
 70
     0
102
RTVSPropertyOp8
 70
     0
102
RTVSPropertyOp9
 70
     0
102
RTVSPropertyOp10
 70
     0
102
RTVSPropertyOp11
 70
     0
102
RTVSPropertyOp12
 70
     0
102
RTVSPropertyOp13
 70
     0
102
RTVSPropertyOp14
 70
     2
102
RTVSPropertyOp15
 70
     0
102
RTVSPropertyOp16
 70
     0
102
RTVSPropertyOp17
 70
     0
102
RTVSPropertyOp18
 70
     0
102
RTVSPropertyOp19
 70
     0
102
RTVSPropertyOp20
 70
     0
102
RTVSPropertyOp21
 70
     0
102
RTVSPropertyOp22
 70
     0
102
RTVSPropertyOp23
 70
     0
102
RTVSPropertyOp24
 70
     0
102
RTVSPropertyOp25
 70
     0
102
RTVSPropertyOp26
 70
     0
102
RTVSPropertyOp27
 70
     0
102
RTVSPropertyOp28
 70
     1
102
RTVSPropertyOp29
 70
     1
102
RTVSPropertyOp30
 70
     1
102
RTVSPropertyOp31
 70
     1
102
RTVSPropertyOp32
 70
     1
  0
XRECORD
  5
119AF
102
{ACAD_REACTORS
330
119AE
102
}
330
119AE
100
AcDbXrecord
280
     1
102
RTVSPropertyOp0
 70
     1
102
RTVSPropertyOp1
 70
     1
102
RTVSPropertyOp2
 70
     1
102
RTVSPropertyOp3
 70
     1
102
RTVSPropertyOp4
 70
     1
102
RTVSPropertyOp5
 70
     1
102
RTVSPropertyOp6
 70
     1
102
RTVSPropertyOp7
 70
     1
102
RTVSPropertyOp8
 70
     1
102
RTVSPropertyOp9
 70
     1
102
RTVSPropertyOp10
 70
     1
102
RTVSPropertyOp11
 70
     1
102
RTVSPropertyOp12
 70
     1
102
RTVSPropertyOp13
 70
     1
102
RTVSPropertyOp14
 70
     1
102
RTVSPropertyOp15
 70
     1
102
RTVSPropertyOp16
 70
     1
102
RTVSPropertyOp17
 70
     1
102
RTVSPropertyOp18
 70
     1
102
RTVSPropertyOp19
 70
     1
102
RTVSPropertyOp20
 70
     1
102
RTVSPropertyOp21
 70
     1
102
RTVSPropertyOp22
 70
     1
102
RTVSPropertyOp23
 70
     1
102
RTVSPropertyOp24
 70
     1
102
RTVSPropertyOp25
 70
     1
102
RTVSPropertyOp26
 70
     1
102
RTVSPropertyOp27
 70
     1
102
RTVSPropertyOp28
 70
     1
102
RTVSPropertyOp29
 70
     1
102
RTVSPropertyOp30
 70
     1
102
RTVSPropertyOp31
 70
     1
102
RTVSPropertyOp32
 70
     1
  0
XRECORD
  5
11993
102
{ACAD_REACTORS
330
11992
102
}
330
11992
100
AcDbXrecord
280
     1
102
RTVSPropertyOp0
 70
     1
102
RTVSPropertyOp1
 70
     1
102
RTVSPropertyOp2
 70
     1
102
RTVSPropertyOp3
 70
     1
102
RTVSPropertyOp4
 70
     1
102
RTVSPropertyOp5
 70
     1
102
RTVSPropertyOp6
 70
     1
102
RTVSPropertyOp7
 70
     1
102
RTVSPropertyOp8
 70
     1
102
RTVSPropertyOp9
 70
     1
102
RTVSPropertyOp10
 70
     1
102
RTVSPropertyOp11
 70
     1
102
RTVSPropertyOp12
 70
     1
102
RTVSPropertyOp13
 70
     1
102
RTVSPropertyOp14
 70
     1
102
RTVSPropertyOp15
 70
     1
102
RTVSPropertyOp16
 70
     1
102
RTVSPropertyOp17
 70
     1
102
RTVSPropertyOp18
 70
     1
102
RTVSPropertyOp19
 70
     1
102
RTVSPropertyOp20
 70
     1
102
RTVSPropertyOp21
 70
     1
102
RTVSPropertyOp22
 70
     1
102
RTVSPropertyOp23
 70
     1
102
RTVSPropertyOp24
 70
     1
102
RTVSPropertyOp25
 70
     1
102
RTVSPropertyOp26
 70
     1
102
RTVSPropertyOp27
 70
     1
102
RTVSPropertyOp28
 70
     1
102
RTVSPropertyOp29
 70
     1
102
RTVSPropertyOp30
 70
     1
102
RTVSPropertyOp31
 70
     1
102
RTVSPropertyOp32
 70
     1
  0
XRECORD
  5
11995
102
{ACAD_REACTORS
330
11994
102
}
330
11994
100
AcDbXrecord
280
     1
102
RTVSPropertyOp0
 70
     1
102
RTVSPropertyOp1
 70
     1
102
RTVSPropertyOp2
 70
     1
102
RTVSPropertyOp3
 70
     1
102
RTVSPropertyOp4
 70
     1
102
RTVSPropertyOp5
 70
     1
102
RTVSPropertyOp6
 70
     1
102
RTVSPropertyOp7
 70
     1
102
RTVSPropertyOp8
 70
     1
102
RTVSPropertyOp9
 70
     1
102
RTVSPropertyOp10
 70
     1
102
RTVSPropertyOp11
 70
     1
102
RTVSPropertyOp12
 70
     1
102
RTVSPropertyOp13
 70
     1
102
RTVSPropertyOp14
 70
     1
102
RTVSPropertyOp15
 70
     1
102
RTVSPropertyOp16
 70
     1
102
RTVSPropertyOp17
 70
     1
102
RTVSPropertyOp18
 70
     1
102
RTVSPropertyOp19
 70
     1
102
RTVSPropertyOp20
 70
     1
102
RTVSPropertyOp21
 70
     1
102
RTVSPropertyOp22
 70
     1
102
RTVSPropertyOp23
 70
     1
102
RTVSPropertyOp24
 70
     1
102
RTVSPropertyOp25
 70
     1
102
RTVSPropertyOp26
 70
     1
102
RTVSPropertyOp27
 70
     1
102
RTVSPropertyOp28
 70
     1
102
RTVSPropertyOp29
 70
     1
102
RTVSPropertyOp30
 70
     1
102
RTVSPropertyOp31
 70
     1
102
RTVSPropertyOp32
 70
     1
  0
XRECORD
  5
11997
102
{ACAD_REACTORS
330
11996
102
}
330
11996
100
AcDbXrecord
280
     1
102
RTVSPropertyOp0
 70
     1
102
RTVSPropertyOp1
 70
     1
102
RTVSPropertyOp2
 70
     1
102
RTVSPropertyOp3
 70
     1
102
RTVSPropertyOp4
 70
     1
102
RTVSPropertyOp5
 70
     1
102
RTVSPropertyOp6
 70
     1
102
RTVSPropertyOp7
 70
     1
102
RTVSPropertyOp8
 70
     1
102
RTVSPropertyOp9
 70
     1
102
RTVSPropertyOp10
 70
     1
102
RTVSPropertyOp11
 70
     1
102
RTVSPropertyOp12
 70
     1
102
RTVSPropertyOp13
 70
     1
102
RTVSPropertyOp14
 70
     1
102
RTVSPropertyOp15
 70
     1
102
RTVSPropertyOp16
 70
     1
102
RTVSPropertyOp17
 70
     1
102
RTVSPropertyOp18
 70
     1
102
RTVSPropertyOp19
 70
     1
102
RTVSPropertyOp20
 70
     1
102
RTVSPropertyOp21
 70
     1
102
RTVSPropertyOp22
 70
     1
102
RTVSPropertyOp23
 70
     1
102
RTVSPropertyOp24
 70
     1
102
RTVSPropertyOp25
 70
     1
102
RTVSPropertyOp26
 70
     1
102
RTVSPropertyOp27
 70
     1
102
RTVSPropertyOp28
 70
     1
102
RTVSPropertyOp29
 70
     1
102
RTVSPropertyOp30
 70
     1
102
RTVSPropertyOp31
 70
     1
102
RTVSPropertyOp32
 70
     1
  0
XRECORD
  5
11999
102
{ACAD_REACTORS
330
11998
102
}
330
11998
100
AcDbXrecord
280
     1
102
RTVSPropertyOp0
 70
     1
102
RTVSPropertyOp1
 70
     1
102
RTVSPropertyOp2
 70
     1
102
RTVSPropertyOp3
 70
     1
102
RTVSPropertyOp4
 70
     1
102
RTVSPropertyOp5
 70
     1
102
RTVSPropertyOp6
 70
     1
102
RTVSPropertyOp7
 70
     1
102
RTVSPropertyOp8
 70
     1
102
RTVSPropertyOp9
 70
     1
102
RTVSPropertyOp10
 70
     1
102
RTVSPropertyOp11
 70
     1
102
RTVSPropertyOp12
 70
     1
102
RTVSPropertyOp13
 70
     1
102
RTVSPropertyOp14
 70
     1
102
RTVSPropertyOp15
 70
     1
102
RTVSPropertyOp16
 70
     1
102
RTVSPropertyOp17
 70
     1
102
RTVSPropertyOp18
 70
     1
102
RTVSPropertyOp19
 70
     1
102
RTVSPropertyOp20
 70
     1
102
RTVSPropertyOp21
 70
     1
102
RTVSPropertyOp22
 70
     1
102
RTVSPropertyOp23
 70
     1
102
RTVSPropertyOp24
 70
     1
102
RTVSPropertyOp25
 70
     1
102
RTVSPropertyOp26
 70
     1
102
RTVSPropertyOp27
 70
     1
102
RTVSPropertyOp28
 70
     1
102
RTVSPropertyOp29
 70
     1
102
RTVSPropertyOp30
 70
     1
102
RTVSPropertyOp31
 70
     1
102
RTVSPropertyOp32
 70
     1
  0
XRECORD
  5
119B6
102
{ACAD_REACTORS
330
119B5
102
}
330
119B5
100
AcDbXrecord
280
     1
102
RTVSPropertyOp0
 70
     1
102
RTVSPropertyOp1
 70
     1
102
RTVSPropertyOp2
 70
     1
102
RTVSPropertyOp3
 70
     1
102
RTVSPropertyOp4
 70
     1
102
RTVSPropertyOp5
 70
     1
102
RTVSPropertyOp6
 70
     1
102
RTVSPropertyOp7
 70
     1
102
RTVSPropertyOp8
 70
     1
102
RTVSPropertyOp9
 70
     1
102
RTVSPropertyOp10
 70
     1
102
RTVSPropertyOp11
 70
     1
102
RTVSPropertyOp12
 70
     1
102
RTVSPropertyOp13
 70
     1
102
RTVSPropertyOp14
 70
     1
102
RTVSPropertyOp15
 70
     1
102
RTVSPropertyOp16
 70
     1
102
RTVSPropertyOp17
 70
     1
102
RTVSPropertyOp18
 70
     1
102
RTVSPropertyOp19
 70
     1
102
RTVSPropertyOp20
 70
     1
102
RTVSPropertyOp21
 70
     1
102
RTVSPropertyOp22
 70
     1
102
RTVSPropertyOp23
 70
     1
102
RTVSPropertyOp24
 70
     1
102
RTVSPropertyOp25
 70
     1
102
RTVSPropertyOp26
 70
     1
102
RTVSPropertyOp27
 70
     1
102
RTVSPropertyOp28
 70
     1
102
RTVSPropertyOp29
 70
     1
102
RTVSPropertyOp30
 70
     1
102
RTVSPropertyOp31
 70
     1
102
RTVSPropertyOp32
 70
     1
  0
XRECORD
  5
119C2
102
{ACAD_REACTORS
330
119C1
102
}
330
119C1
100
AcDbXrecord
280
     1
102
RTVSPropertyOp0
 70
     0
102
RTVSPropertyOp1
 70
     0
102
RTVSPropertyOp2
 70
     0
102
RTVSPropertyOp3
 70
     0
102
RTVSPropertyOp4
 70
     0
102
RTVSPropertyOp5
 70
     0
102
RTVSPropertyOp6
 70
     0
102
RTVSPropertyOp7
 70
     0
102
RTVSPropertyOp8
 70
     0
102
RTVSPropertyOp9
 70
     0
102
RTVSPropertyOp10
 70
     0
102
RTVSPropertyOp11
 70
     0
102
RTVSPropertyOp12
 70
     0
102
RTVSPropertyOp13
 70
     0
102
RTVSPropertyOp14
 70
     2
102
RTVSPropertyOp15
 70
     0
102
RTVSPropertyOp16
 70
     0
102
RTVSPropertyOp17
 70
     0
102
RTVSPropertyOp18
 70
     0
102
RTVSPropertyOp19
 70
     0
102
RTVSPropertyOp20
 70
     0
102
RTVSPropertyOp21
 70
     0
102
RTVSPropertyOp22
 70
     0
102
RTVSPropertyOp23
 70
     0
102
RTVSPropertyOp24
 70
     0
102
RTVSPropertyOp25
 70
     0
102
RTVSPropertyOp26
 70
     0
102
RTVSPropertyOp27
 70
     0
102
RTVSPropertyOp28
 70
     1
102
RTVSPropertyOp29
 70
     1
102
RTVSPropertyOp30
 70
     1
102
RTVSPropertyOp31
 70
     1
102
RTVSPropertyOp32
 70
     1
  0
XRECORD
  5
119AD
102
{ACAD_REACTORS
330
119AC
102
}
330
119AC
100
AcDbXrecord
280
     1
102
RTVSPropertyOp0
 70
     1
102
RTVSPropertyOp1
 70
     1
102
RTVSPropertyOp2
 70
     1
102
RTVSPropertyOp3
 70
     1
102
RTVSPropertyOp4
 70
     1
102
RTVSPropertyOp5
 70
     1
102
RTVSPropertyOp6
 70
     1
102
RTVSPropertyOp7
 70
     1
102
RTVSPropertyOp8
 70
     1
102
RTVSPropertyOp9
 70
     1
102
RTVSPropertyOp10
 70
     1
102
RTVSPropertyOp11
 70
     1
102
RTVSPropertyOp12
 70
     1
102
RTVSPropertyOp13
 70
     1
102
RTVSPropertyOp14
 70
     1
102
RTVSPropertyOp15
 70
     1
102
RTVSPropertyOp16
 70
     1
102
RTVSPropertyOp17
 70
     1
102
RTVSPropertyOp18
 70
     1
102
RTVSPropertyOp19
 70
     1
102
RTVSPropertyOp20
 70
     1
102
RTVSPropertyOp21
 70
     1
102
RTVSPropertyOp22
 70
     1
102
RTVSPropertyOp23
 70
     1
102
RTVSPropertyOp24
 70
     1
102
RTVSPropertyOp25
 70
     1
102
RTVSPropertyOp26
 70
     1
102
RTVSPropertyOp27
 70
     1
102
RTVSPropertyOp28
 70
     1
102
RTVSPropertyOp29
 70
     1
102
RTVSPropertyOp30
 70
     1
102
RTVSPropertyOp31
 70
     1
102
RTVSPropertyOp32
 70
     1
  0
XRECORD
  5
119C4
102
{ACAD_REACTORS
330
119C3
102
}
330
119C3
100
AcDbXrecord
280
     1
102
RTVSPropertyOp0
 70
     0
102
RTVSPropertyOp1
 70
     0
102
RTVSPropertyOp2
 70
     0
102
RTVSPropertyOp3
 70
     0
102
RTVSPropertyOp4
 70
     0
102
RTVSPropertyOp5
 70
     0
102
RTVSPropertyOp6
 70
     0
102
RTVSPropertyOp7
 70
     0
102
RTVSPropertyOp8
 70
     0
102
RTVSPropertyOp9
 70
     0
102
RTVSPropertyOp10
 70
     0
102
RTVSPropertyOp11
 70
     0
102
RTVSPropertyOp12
 70
     0
102
RTVSPropertyOp13
 70
     0
102
RTVSPropertyOp14
 70
     2
102
RTVSPropertyOp15
 70
     0
102
RTVSPropertyOp16
 70
     0
102
RTVSPropertyOp17
 70
     0
102
RTVSPropertyOp18
 70
     0
102
RTVSPropertyOp19
 70
     0
102
RTVSPropertyOp20
 70
     0
102
RTVSPropertyOp21
 70
     0
102
RTVSPropertyOp22
 70
     0
102
RTVSPropertyOp23
 70
     0
102
RTVSPropertyOp24
 70
     0
102
RTVSPropertyOp25
 70
     0
102
RTVSPropertyOp26
 70
     0
102
RTVSPropertyOp27
 70
     0
102
RTVSPropertyOp28
 70
     1
102
RTVSPropertyOp29
 70
     1
102
RTVSPropertyOp30
 70
     1
102
RTVSPropertyOp31
 70
     1
102
RTVSPropertyOp32
 70
     1
  0
XRECORD
  5
119A5
102
{ACAD_REACTORS
330
119A4
102
}
330
119A4
100
AcDbXrecord
280
     1
102
RTVSPropertyOp0
 70
     1
102
RTVSPropertyOp1
 70
     1
102
RTVSPropertyOp2
 70
     1
102
RTVSPropertyOp3
 70
     1
102
RTVSPropertyOp4
 70
     1
102
RTVSPropertyOp5
 70
     1
102
RTVSPropertyOp6
 70
     1
102
RTVSPropertyOp7
 70
     1
102
RTVSPropertyOp8
 70
     1
102
RTVSPropertyOp9
 70
     1
102
RTVSPropertyOp10
 70
     1
102
RTVSPropertyOp11
 70
     1
102
RTVSPropertyOp12
 70
     1
102
RTVSPropertyOp13
 70
     1
102
RTVSPropertyOp14
 70
     1
102
RTVSPropertyOp15
 70
     1
102
RTVSPropertyOp16
 70
     1
102
RTVSPropertyOp17
 70
     1
102
RTVSPropertyOp18
 70
     1
102
RTVSPropertyOp19
 70
     1
102
RTVSPropertyOp20
 70
     1
102
RTVSPropertyOp21
 70
     1
102
RTVSPropertyOp22
 70
     1
102
RTVSPropertyOp23
 70
     1
102
RTVSPropertyOp24
 70
     1
102
RTVSPropertyOp25
 70
     1
102
RTVSPropertyOp26
 70
     1
102
RTVSPropertyOp27
 70
     1
102
RTVSPropertyOp28
 70
     1
102
RTVSPropertyOp29
 70
     1
102
RTVSPropertyOp30
 70
     1
102
RTVSPropertyOp31
 70
     1
102
RTVSPropertyOp32
 70
     1
  0
XRECORD
  5
119C0
102
{ACAD_REACTORS
330
119BF
102
}
330
119BF
100
AcDbXrecord
280
     1
102
RTVSPropertyOp0
 70
     1
102
RTVSPropertyOp1
 70
     1
102
RTVSPropertyOp2
 70
     1
102
RTVSPropertyOp3
 70
     1
102
RTVSPropertyOp4
 70
     1
102
RTVSPropertyOp5
 70
     1
102
RTVSPropertyOp6
 70
     1
102
RTVSPropertyOp7
 70
     1
102
RTVSPropertyOp8
 70
     1
102
RTVSPropertyOp9
 70
     1
102
RTVSPropertyOp10
 70
     1
102
RTVSPropertyOp11
 70
     1
102
RTVSPropertyOp12
 70
     1
102
RTVSPropertyOp13
 70
     1
102
RTVSPropertyOp14
 70
     1
102
RTVSPropertyOp15
 70
     1
102
RTVSPropertyOp16
 70
     1
102
RTVSPropertyOp17
 70
     1
102
RTVSPropertyOp18
 70
     1
102
RTVSPropertyOp19
 70
     1
102
RTVSPropertyOp20
 70
     1
102
RTVSPropertyOp21
 70
     1
102
RTVSPropertyOp22
 70
     1
102
RTVSPropertyOp23
 70
     1
102
RTVSPropertyOp24
 70
     1
102
RTVSPropertyOp25
 70
     1
102
RTVSPropertyOp26
 70
     1
102
RTVSPropertyOp27
 70
     1
102
RTVSPropertyOp28
 70
     1
102
RTVSPropertyOp29
 70
     1
102
RTVSPropertyOp30
 70
     1
102
RTVSPropertyOp31
 70
     1
102
RTVSPropertyOp32
 70
     1
  0
XRECORD
  5
119BE
102
{ACAD_REACTORS
330
119BD
102
}
330
119BD
100
AcDbXrecord
280
     1
102
RTVSPropertyOp0
 70
     1
102
RTVSPropertyOp1
 70
     1
102
RTVSPropertyOp2
 70
     1
102
RTVSPropertyOp3
 70
     1
102
RTVSPropertyOp4
 70
     1
102
RTVSPropertyOp5
 70
     1
102
RTVSPropertyOp6
 70
     1
102
RTVSPropertyOp7
 70
     1
102
RTVSPropertyOp8
 70
     1
102
RTVSPropertyOp9
 70
     1
102
RTVSPropertyOp10
 70
     1
102
RTVSPropertyOp11
 70
     1
102
RTVSPropertyOp12
 70
     1
102
RTVSPropertyOp13
 70
     1
102
RTVSPropertyOp14
 70
     1
102
RTVSPropertyOp15
 70
     1
102
RTVSPropertyOp16
 70
     1
102
RTVSPropertyOp17
 70
     1
102
RTVSPropertyOp18
 70
     1
102
RTVSPropertyOp19
 70
     1
102
RTVSPropertyOp20
 70
     1
102
RTVSPropertyOp21
 70
     1
102
RTVSPropertyOp22
 70
     1
102
RTVSPropertyOp23
 70
     1
102
RTVSPropertyOp24
 70
     1
102
RTVSPropertyOp25
 70
     1
102
RTVSPropertyOp26
 70
     1
102
RTVSPropertyOp27
 70
     1
102
RTVSPropertyOp28
 70
     1
102
RTVSPropertyOp29
 70
     1
102
RTVSPropertyOp30
 70
     1
102
RTVSPropertyOp31
 70
     1
102
RTVSPropertyOp32
 70
     1
  0
XRECORD
  5
119B8
102
{ACAD_REACTORS
330
119B7
102
}
330
119B7
100
AcDbXrecord
280
     1
102
RTVSPropertyOp0
 70
     1
102
RTVSPropertyOp1
 70
     1
102
RTVSPropertyOp2
 70
     1
102
RTVSPropertyOp3
 70
     1
102
RTVSPropertyOp4
 70
     1
102
RTVSPropertyOp5
 70
     1
102
RTVSPropertyOp6
 70
     1
102
RTVSPropertyOp7
 70
     1
102
RTVSPropertyOp8
 70
     1
102
RTVSPropertyOp9
 70
     1
102
RTVSPropertyOp10
 70
     1
102
RTVSPropertyOp11
 70
     1
102
RTVSPropertyOp12
 70
     1
102
RTVSPropertyOp13
 70
     1
102
RTVSPropertyOp14
 70
     1
102
RTVSPropertyOp15
 70
     1
102
RTVSPropertyOp16
 70
     1
102
RTVSPropertyOp17
 70
     1
102
RTVSPropertyOp18
 70
     1
102
RTVSPropertyOp19
 70
     1
102
RTVSPropertyOp20
 70
     1
102
RTVSPropertyOp21
 70
     1
102
RTVSPropertyOp22
 70
     1
102
RTVSPropertyOp23
 70
     1
102
RTVSPropertyOp24
 70
     1
102
RTVSPropertyOp25
 70
     1
102
RTVSPropertyOp26
 70
     1
102
RTVSPropertyOp27
 70
     1
102
RTVSPropertyOp28
 70
     1
102
RTVSPropertyOp29
 70
     1
102
RTVSPropertyOp30
 70
     1
102
RTVSPropertyOp31
 70
     1
102
RTVSPropertyOp32
 70
     1
  0
XRECORD
  5
119BA
102
{ACAD_REACTORS
330
119B9
102
}
330
119B9
100
AcDbXrecord
280
     1
102
RTVSPropertyOp0
 70
     1
102
RTVSPropertyOp1
 70
     1
102
RTVSPropertyOp2
 70
     1
102
RTVSPropertyOp3
 70
     1
102
RTVSPropertyOp4
 70
     1
102
RTVSPropertyOp5
 70
     1
102
RTVSPropertyOp6
 70
     1
102
RTVSPropertyOp7
 70
     1
102
RTVSPropertyOp8
 70
     1
102
RTVSPropertyOp9
 70
     1
102
RTVSPropertyOp10
 70
     1
102
RTVSPropertyOp11
 70
     1
102
RTVSPropertyOp12
 70
     1
102
RTVSPropertyOp13
 70
     1
102
RTVSPropertyOp14
 70
     1
102
RTVSPropertyOp15
 70
     1
102
RTVSPropertyOp16
 70
     1
102
RTVSPropertyOp17
 70
     1
102
RTVSPropertyOp18
 70
     1
102
RTVSPropertyOp19
 70
     1
102
RTVSPropertyOp20
 70
     1
102
RTVSPropertyOp21
 70
     1
102
RTVSPropertyOp22
 70
     1
102
RTVSPropertyOp23
 70
     1
102
RTVSPropertyOp24
 70
     1
102
RTVSPropertyOp25
 70
     1
102
RTVSPropertyOp26
 70
     1
102
RTVSPropertyOp27
 70
     1
102
RTVSPropertyOp28
 70
     1
102
RTVSPropertyOp29
 70
     1
102
RTVSPropertyOp30
 70
     1
102
RTVSPropertyOp31
 70
     1
102
RTVSPropertyOp32
 70
     1
  0
XRECORD
  5
119AB
102
{ACAD_REACTORS
330
119AA
102
}
330
119AA
100
AcDbXrecord
280
     1
102
RTVSPropertyOp0
 70
     1
102
RTVSPropertyOp1
 70
     1
102
RTVSPropertyOp2
 70
     1
102
RTVSPropertyOp3
 70
     1
102
RTVSPropertyOp4
 70
     1
102
RTVSPropertyOp5
 70
     1
102
RTVSPropertyOp6
 70
     1
102
RTVSPropertyOp7
 70
     1
102
RTVSPropertyOp8
 70
     1
102
RTVSPropertyOp9
 70
     1
102
RTVSPropertyOp10
 70
     1
102
RTVSPropertyOp11
 70
     1
102
RTVSPropertyOp12
 70
     1
102
RTVSPropertyOp13
 70
     1
102
RTVSPropertyOp14
 70
     1
102
RTVSPropertyOp15
 70
     1
102
RTVSPropertyOp16
 70
     1
102
RTVSPropertyOp17
 70
     1
102
RTVSPropertyOp18
 70
     1
102
RTVSPropertyOp19
 70
     1
102
RTVSPropertyOp20
 70
     1
102
RTVSPropertyOp21
 70
     1
102
RTVSPropertyOp22
 70
     1
102
RTVSPropertyOp23
 70
     1
102
RTVSPropertyOp24
 70
     1
102
RTVSPropertyOp25
 70
     1
102
RTVSPropertyOp26
 70
     1
102
RTVSPropertyOp27
 70
     1
102
RTVSPropertyOp28
 70
     1
102
RTVSPropertyOp29
 70
     1
102
RTVSPropertyOp30
 70
     1
102
RTVSPropertyOp31
 70
     1
102
RTVSPropertyOp32
 70
     1
  0
XRECORD
  5
119B4
102
{ACAD_REACTORS
330
119B3
102
}
330
119B3
100
AcDbXrecord
280
     1
102
RTVSPropertyOp0
 70
     1
102
RTVSPropertyOp1
 70
     1
102
RTVSPropertyOp2
 70
     1
102
RTVSPropertyOp3
 70
     1
102
RTVSPropertyOp4
 70
     1
102
RTVSPropertyOp5
 70
     1
102
RTVSPropertyOp6
 70
     1
102
RTVSPropertyOp7
 70
     1
102
RTVSPropertyOp8
 70
     1
102
RTVSPropertyOp9
 70
     1
102
RTVSPropertyOp10
 70
     1
102
RTVSPropertyOp11
 70
     1
102
RTVSPropertyOp12
 70
     1
102
RTVSPropertyOp13
 70
     1
102
RTVSPropertyOp14
 70
     1
102
RTVSPropertyOp15
 70
     1
102
RTVSPropertyOp16
 70
     1
102
RTVSPropertyOp17
 70
     1
102
RTVSPropertyOp18
 70
     1
102
RTVSPropertyOp19
 70
     1
102
RTVSPropertyOp20
 70
     1
102
RTVSPropertyOp21
 70
     1
102
RTVSPropertyOp22
 70
     1
102
RTVSPropertyOp23
 70
     1
102
RTVSPropertyOp24
 70
     1
102
RTVSPropertyOp25
 70
     1
102
RTVSPropertyOp26
 70
     1
102
RTVSPropertyOp27
 70
     1
102
RTVSPropertyOp28
 70
     1
102
RTVSPropertyOp29
 70
     1
102
RTVSPropertyOp30
 70
     1
102
RTVSPropertyOp31
 70
     1
102
RTVSPropertyOp32
 70
     1
  0
XRECORD
  5
119BC
102
{ACAD_REACTORS
330
119BB
102
}
330
119BB
100
AcDbXrecord
280
     1
102
RTVSPropertyOp0
 70
     1
102
RTVSPropertyOp1
 70
     1
102
RTVSPropertyOp2
 70
     1
102
RTVSPropertyOp3
 70
     1
102
RTVSPropertyOp4
 70
     1
102
RTVSPropertyOp5
 70
     1
102
RTVSPropertyOp6
 70
     1
102
RTVSPropertyOp7
 70
     1
102
RTVSPropertyOp8
 70
     1
102
RTVSPropertyOp9
 70
     1
102
RTVSPropertyOp10
 70
     1
102
RTVSPropertyOp11
 70
     1
102
RTVSPropertyOp12
 70
     1
102
RTVSPropertyOp13
 70
     1
102
RTVSPropertyOp14
 70
     1
102
RTVSPropertyOp15
 70
     1
102
RTVSPropertyOp16
 70
     1
102
RTVSPropertyOp17
 70
     1
102
RTVSPropertyOp18
 70
     1
102
RTVSPropertyOp19
 70
     1
102
RTVSPropertyOp20
 70
     1
102
RTVSPropertyOp21
 70
     1
102
RTVSPropertyOp22
 70
     1
102
RTVSPropertyOp23
 70
     1
102
RTVSPropertyOp24
 70
     1
102
RTVSPropertyOp25
 70
     1
102
RTVSPropertyOp26
 70
     1
102
RTVSPropertyOp27
 70
     1
102
RTVSPropertyOp28
 70
     1
102
RTVSPropertyOp29
 70
     1
102
RTVSPropertyOp30
 70
     1
102
RTVSPropertyOp31
 70
     1
102
RTVSPropertyOp32
 70
     1
  0
ENDSEC
  0
EOF
