  0
SECTION
  2
HEADER
  9
$ACADVER
  1
AC1015
  9
$ACADMAINTVER
 70
    20
  9
$DWGCODEPAGE
  3
ANSI_1252
  9
$INSBASE
 10
0.0
 20
0.0
 30
0.0
  9
$EXTMIN
 10
-0.0000000638497113
 20
-0.0000000081277562
 30
0.0
  9
$EXTMAX
 10
77.42215070352099
 20
48.67769627977955
 30
0.0
  9
$LIMMIN
 10
0.0
 20
0.0
  9
$LIMMAX
 10
12.0
 20
9.0
  9
$ORTHOMODE
 70
     0
  9
$REGENMODE
 70
     1
  9
$FILLMODE
 70
     1
  9
$QTEXTMODE
 70
     0
  9
$MIRRTEXT
 70
     0
  9
$LTSCALE
 40
1.0
  9
$ATTMODE
 70
     1
  9
$TEXTSIZE
 40
0.2
  9
$TRACEWID
 40
0.05
  9
$TEXTSTYLE
  7
Standard
  9
$CLAYER
  8
0
  9
$CELTYPE
  6
ByLayer
  9
$CECOLOR
 62
   256
  9
$CELTSCALE
 40
1.0
  9
$DISPSILH
 70
     0
  9
$DIMSCALE
 40
1.0
  9
$DIMASZ
 40
0.18
  9
$DIMEXO
 40
0.0625
  9
$DIMDLI
 40
0.38
  9
$DIMRND
 40
0.0
  9
$DIMDLE
 40
0.0
  9
$DIMEXE
 40
0.18
  9
$DIMTP
 40
0.0
  9
$DIMTM
 40
0.0
  9
$DIMTXT
 40
0.18
  9
$DIMCEN
 40
0.09
  9
$DIMTSZ
 40
0.0
  9
$DIMTOL
 70
     0
  9
$DIMLIM
 70
     0
  9
$DIMTIH
 70
     1
  9
$DIMTOH
 70
     1
  9
$DIMSE1
 70
     0
  9
$DIMSE2
 70
     0
  9
$DIMTAD
 70
     0
  9
$DIMZIN
 70
     0
  9
$DIMBLK
  1

  9
$DIMASO
 70
     1
  9
$DIMSHO
 70
     1
  9
$DIMPOST
  1

  9
$DIMAPOST
  1

  9
$DIMALT
 70
     0
  9
$DIMALTD
 70
     2
  9
$DIMALTF
 40
25.4
  9
$DIMLFAC
 40
1.0
  9
$DIMTOFL
 70
     0
  9
$DIMTVP
 40
0.0
  9
$DIMTIX
 70
     0
  9
$DIMSOXD
 70
     0
  9
$DIMSAH
 70
     0
  9
$DIMBLK1
  1

  9
$DIMBLK2
  1

  9
$DIMSTYLE
  2
Standard
  9
$DIMCLRD
 70
     0
  9
$DIMCLRE
 70
     0
  9
$DIMCLRT
 70
     0
  9
$DIMTFAC
 40
1.0
  9
$DIMGAP
 40
0.09
  9
$DIMJUST
 70
     0
  9
$DIMSD1
 70
     0
  9
$DIMSD2
 70
     0
  9
$DIMTOLJ
 70
     1
  9
$DIMTZIN
 70
     0
  9
$DIMALTZ
 70
     0
  9
$DIMALTTZ
 70
     0
  9
$DIMUPT
 70
     0
  9
$DIMDEC
 70
     4
  9
$DIMTDEC
 70
     4
  9
$DIMALTU
 70
     2
  9
$DIMALTTD
 70
     2
  9
$DIMTXSTY
  7
Standard
  9
$DIMAUNIT
 70
     0
  9
$DIMADEC
 70
     0
  9
$DIMALTRND
 40
0.0
  9
$DIMAZIN
 70
     0
  9
$DIMDSEP
 70
    46
  9
$DIMATFIT
 70
     3
  9
$DIMFRAC
 70
     0
  9
$DIMLDRBLK
  1

  9
$DIMLUNIT
 70
     2
  9
$DIMLWD
 70
    -2
  9
$DIMLWE
 70
    -2
  9
$DIMTMOVE
 70
     0
  9
$LUNITS
 70
     2
  9
$LUPREC
 70
     5
  9
$SKETCHINC
 40
0.1
  9
$FILLETRAD
 40
0.0
  9
$AUNITS
 70
     0
  9
$AUPREC
 70
     0
  9
$MENU
  1
.
  9
$ELEVATION
 40
0.0
  9
$PELEVATION
 40
0.0
  9
$THICKNESS
 40
0.0
  9
$LIMCHECK
 70
     0
  9
$CHAMFERA
 40
0.0
  9
$CHAMFERB
 40
0.0
  9
$CHAMFERC
 40
0.0
  9
$CHAMFERD
 40
0.0
  9
$SKPOLY
 70
     0
  9
$TDCREATE
 40
2454727.556173148
  9
$TDUCREATE
 40
2454727.764506482
  9
$TDUPDATE
 40
2457799.483055880
  9
$TDUUPDATE
 40
2457799.691389213
  9
$TDINDWG
 40
0.0796698958
  9
$TDUSRTIMER
 40
0.0796698958
  9
$USRTIMER
 70
     1
  9
$ANGBASE
 50
0.0
  9
$ANGDIR
 70
     0
  9
$PDMODE
 70
     0
  9
$PDSIZE
 40
0.0
  9
$PLINEWID
 40
0.0
  9
$SPLFRAME
 70
     0
  9
$SPLINETYPE
 70
     6
  9
$SPLINESEGS
 70
     8
  9
$HANDSEED
  5
1297
  9
$SURFTAB1
 70
     6
  9
$SURFTAB2
 70
     6
  9
$SURFTYPE
 70
     6
  9
$SURFU
 70
     6
  9
$SURFV
 70
     6
  9
$UCSBASE
  2

  9
$UCSNAME
  2

  9
$UCSORG
 10
0.0
 20
0.0
 30
0.0
  9
$UCSXDIR
 10
1.0
 20
0.0
 30
0.0
  9
$UCSYDIR
 10
0.0
 20
1.0
 30
0.0
  9
$UCSORTHOREF
  2

  9
$UCSORTHOVIEW
 70
     0
  9
$UCSORGTOP
 10
0.0
 20
0.0
 30
0.0
  9
$UCSORGBOTTOM
 10
0.0
 20
0.0
 30
0.0
  9
$UCSORGLEFT
 10
0.0
 20
0.0
 30
0.0
  9
$UCSORGRIGHT
 10
0.0
 20
0.0
 30
0.0
  9
$UCSORGFRONT
 10
0.0
 20
0.0
 30
0.0
  9
$UCSORGBACK
 10
0.0
 20
0.0
 30
0.0
  9
$PUCSBASE
  2

  9
$PUCSNAME
  2

  9
$PUCSORG
 10
0.0
 20
0.0
 30
0.0
  9
$PUCSXDIR
 10
1.0
 20
0.0
 30
0.0
  9
$PUCSYDIR
 10
0.0
 20
1.0
 30
0.0
  9
$PUCSORTHOREF
  2

  9
$PUCSORTHOVIEW
 70
     0
  9
$PUCSORGTOP
 10
0.0
 20
0.0
 30
0.0
  9
$PUCSORGBOTTOM
 10
0.0
 20
0.0
 30
0.0
  9
$PUCSORGLEFT
 10
0.0
 20
0.0
 30
0.0
  9
$PUCSORGRIGHT
 10
0.0
 20
0.0
 30
0.0
  9
$PUCSORGFRONT
 10
0.0
 20
0.0
 30
0.0
  9
$PUCSORGBACK
 10
0.0
 20
0.0
 30
0.0
  9
$USERI1
 70
     0
  9
$USERI2
 70
     0
  9
$USERI3
 70
     0
  9
$USERI4
 70
     0
  9
$USERI5
 70
     0
  9
$USERR1
 40
0.0
  9
$USERR2
 40
0.0
  9
$USERR3
 40
0.0
  9
$USERR4
 40
0.0
  9
$USERR5
 40
0.0
  9
$WORLDVIEW
 70
     1
  9
$SHADEDGE
 70
     3
  9
$SHADEDIF
 70
    70
  9
$TILEMODE
 70
     1
  9
$MAXACTVP
 70
    64
  9
$PINSBASE
 10
0.0
 20
0.0
 30
0.0
  9
$PLIMCHECK
 70
     0
  9
$PEXTMIN
 10
0.0
 20
0.0
 30
0.0
  9
$PEXTMAX
 10
0.0
 20
0.0
 30
0.0
  9
$PLIMMIN
 10
0.0
 20
0.0
  9
$PLIMMAX
 10
12.0
 20
9.0
  9
$UNITMODE
 70
     0
  9
$VISRETAIN
 70
     1
  9
$PLINEGEN
 70
     0
  9
$PSLTSCALE
 70
     1
  9
$TREEDEPTH
 70
  3020
  9
$CMLSTYLE
  2
Standard
  9
$CMLJUST
 70
     0
  9
$CMLSCALE
 40
1.0
  9
$PROXYGRAPHICS
 70
     1
  9
$MEASUREMENT
 70
     0
  9
$CELWEIGHT
370
    -1
  9
$ENDCAPS
280
     0
  9
$JOINSTYLE
280
     0
  9
$LWDISPLAY
290
     0
  9
$INSUNITS
 70
     1
  9
$HYPERLINKBASE
  1

  9
$STYLESHEET
  1
monochrome2.ctb
  9
$XEDIT
290
     1
  9
$CEPSNTYPE
380
     0
  9
$PSTYLEMODE
290
     1
  9
$FINGERPRINTGUID
  2
{1B3E3B14-330C-4DEF-875F-B5ED672A35E5}
  9
$VERSIONGUID
  2
{C5E12E07-3A2D-4623-8867-D48C49B936F1}
  9
$EXTNAMES
290
     1
  9
$PSVPSCALE
 40
0.0
  9
$OLESTARTUP
290
     0
  0
ENDSEC
  0
SECTION
  2
CLASSES
  0
CLASS
  1
ACDBDICTIONARYWDFLT
  2
AcDbDictionaryWithDefault
  3
ObjectDBX Classes
 90
        0
280
     0
281
     0
  0
CLASS
  1
ACDBPLACEHOLDER
  2
AcDbPlaceHolder
  3
ObjectDBX Classes
 90
        0
280
     0
281
     0
  0
CLASS
  1
LAYOUT
  2
AcDbLayout
  3
ObjectDBX Classes
 90
        0
280
     0
281
     0
  0
CLASS
  1
DICTIONARYVAR
  2
AcDbDictionaryVar
  3
ObjectDBX Classes
 90
        0
280
     0
281
     0
  0
CLASS
  1
TABLESTYLE
  2
AcDbTableStyle
  3
ObjectDBX Classes
 90
     4095
280
     0
281
     0
  0
CLASS
  1
MATERIAL
  2
AcDbMaterial
  3
ObjectDBX Classes
 90
     1153
280
     0
281
     0
  0
CLASS
  1
SORTENTSTABLE
  2
AcDbSortentsTable
  3
ObjectDBX Classes
 90
        0
280
     0
281
     0
  0
CLASS
  1
VISUALSTYLE
  2
AcDbVisualStyle
  3
ObjectDBX Classes
 90
     4095
280
     0
281
     0
  0
CLASS
  1
SCALE
  2
AcDbScale
  3
ObjectDBX Classes
 90
     1153
280
     0
281
     0
  0
CLASS
  1
MLEADERSTYLE
  2
AcDbMLeaderStyle
  3
ACDB_MLEADERSTYLE_CLASS
 90
     4095
280
     0
281
     0
  0
CLASS
  1
EXACXREFPANELOBJECT
  2
ExAcXREFPanelObject
  3
EXAC_ESW
 90
     1025
280
     0
281
     0
  0
CLASS
  1
NPOCOLLECTION
  2
AcDbImpNonPersistentObjectsCollection
  3
ObjectDBX Classes
 90
     1153
280
     0
281
     0
  0
CLASS
  1
CELLSTYLEMAP
  2
AcDbCellStyleMap
  3
ObjectDBX Classes
 90
     1152
280
     0
281
     0
  0
CLASS
  1
ACAD_EVALUATION_GRAPH
  2
AcDbEvalGraph
  3
ObjectDBX Classes
 90
    33921
280
     0
281
     0
  0
CLASS
  1
ACAECUSTOBJ
  2
AcAeEditorObj
  3
AcAeEditorObj
 90
    33792
280
     0
281
     0
  0
CLASS
  1
ACDB_DYNAMICBLOCKPURGEPREVENTER_VERSION
  2
AcDbDynamicBlockPurgePreventer
  3
ObjectDBX Classes
 90
    33921
280
     0
281
     0
  0
ENDSEC
  0
SECTION
  2
TABLES
  0
TABLE
  2
VPORT
  5
8
102
{ACAD_XDICTIONARY
360
303
102
}
330
0
100
AcDbSymbolTable
 70
     1
  0
VPORT
  5
143
330
8
100
AcDbSymbolTableRecord
100
AcDbViewportTableRecord
  2
*Active
 70
     0
 10
0.0
 20
0.0
 11
1.0
 21
1.0
 12
38.71107550009812
 22
34.95692523439732
 13
0.0
 23
0.0
 14
0.5
 24
0.5
 15
0.5
 25
0.5
 16
0.0
 26
0.0
 36
1.0
 17
0.0
 27
0.0
 37
0.0
 40
70.24949101764422
 41
1.481327800829875
 42
50.0
 43
0.0
 44
0.0
 50
0.0
 51
0.0
 71
     0
 72
  1000
 73
     1
 74
     3
 75
     0
 76
     0
 77
     0
 78
     0
281
     0
 65
     1
110
0.0
120
0.0
130
0.0
111
1.0
121
0.0
131
0.0
112
0.0
122
1.0
132
0.0
 79
     0
146
0.0
1001
ACAD_NAV_VCDISPLAY
1070
     3
  0
ENDTAB
  0
TABLE
  2
LTYPE
  5
5
330
0
100
AcDbSymbolTable
 70
     5
  0
LTYPE
  5
14
330
5
100
AcDbSymbolTableRecord
100
AcDbLinetypeTableRecord
  2
ByBlock
 70
     0
  3

 72
    65
 73
     0
 40
0.0
  0
LTYPE
  5
15
330
5
100
AcDbSymbolTableRecord
100
AcDbLinetypeTableRecord
  2
ByLayer
 70
     0
  3

 72
    65
 73
     0
 40
0.0
  0
LTYPE
  5
16
330
5
100
AcDbSymbolTableRecord
100
AcDbLinetypeTableRecord
  2
Continuous
 70
     0
  3
Solid line
 72
    65
 73
     0
 40
0.0
  0
LTYPE
  5
621
330
5
100
AcDbSymbolTableRecord
100
AcDbLinetypeTableRecord
  2
HIDDEN
 70
     0
  3
__ __ __ __ __ __ __ __ __ __ __ __ __ __ __ __
 72
    65
 73
     2
 40
0.375
 49
0.25
 74
     0
 49
-0.125
 74
     0
  0
LTYPE
  5
622
330
5
100
AcDbSymbolTableRecord
100
AcDbLinetypeTableRecord
  2
CENTER
 70
     0
  3
Center ____ _ ____ _ ____ _ ____ _ ____ _ ____
 72
    65
 73
     4
 40
2.0
 49
1.25
 74
     0
 49
-0.25
 74
     0
 49
0.25
 74
     0
 49
-0.25
 74
     0
  0
LTYPE
  5
1197
330
5
100
AcDbSymbolTableRecord
100
AcDbLinetypeTableRecord
  2
DASHED
 70
     0
  3
Dashed __ __ __ __ __ __ __ __ __ __ __ __ __ _
 72
    65
 73
     2
 40
0.75
 49
0.5
 74
     0
 49
-0.25
 74
     0
  0
LTYPE
  5
1198
330
5
100
AcDbSymbolTableRecord
100
AcDbLinetypeTableRecord
  2
DOT
 70
     0
  3
Dot . . . . . . . . . . . . . . . . . . . . . .
 72
    65
 73
     2
 40
0.25
 49
0.0
 74
     0
 49
-0.25
 74
     0
  0
ENDTAB
  0
TABLE
  2
LAYER
  5
2
102
{ACAD_XDICTIONARY
360
C3
102
}
330
0
100
AcDbSymbolTable
 70
     9
  0
LAYER
  5
10
102
{ACAD_XDICTIONARY
360
2DE
102
}
330
2
100
AcDbSymbolTableRecord
100
AcDbLayerTableRecord
  2
0
 70
     0
 62
     4
  6
Continuous
370
    -3
390
F
  0
LAYER
  5
20B
102
{ACAD_XDICTIONARY
360
2E0
102
}
330
2
100
AcDbSymbolTableRecord
100
AcDbLayerTableRecord
  2
TEXT
 70
     0
 62
     3
  6
Continuous
370
    -3
390
F
1001
AcAecLayerStandard
1000

1000

1001
AcCmTransparency
1071
        0
  0
LAYER
  5
2DA
102
{ACAD_XDICTIONARY
360
2E2
102
}
330
2
100
AcDbSymbolTableRecord
100
AcDbLayerTableRecord
  2
FORMAT
 70
     0
 62
     7
  6
Continuous
370
    -3
390
F
1001
AcAecLayerStandard
1000

1000

1001
AcCmTransparency
1071
        0
  0
LAYER
  5
384
330
2
100
AcDbSymbolTableRecord
100
AcDbLayerTableRecord
  2
Defpoints
 70
     0
 62
    -7
  6
Continuous
290
     0
370
    -3
390
F
  0
LAYER
  5
623
102
{ACAD_XDICTIONARY
360
624
102
}
330
2
100
AcDbSymbolTableRecord
100
AcDbLayerTableRecord
  2
CENTER
 70
     0
 62
     1
  6
CENTER
370
    -3
390
F
  0
LAYER
  5
625
102
{ACAD_XDICTIONARY
360
626
102
}
330
2
100
AcDbSymbolTableRecord
100
AcDbLayerTableRecord
  2
DIME
 70
     0
 62
     2
  6
Continuous
370
    -3
390
F
  0
LAYER
  5
627
102
{ACAD_XDICTIONARY
360
628
102
}
330
2
100
AcDbSymbolTableRecord
100
AcDbLayerTableRecord
  2
HIDDEN
 70
     0
 62
     3
  6
HIDDEN
370
    -3
390
F
  0
LAYER
  5
E92
102
{ACAD_XDICTIONARY
360
E93
102
}
330
2
100
AcDbSymbolTableRecord
100
AcDbLayerTableRecord
  2
P_ATTR
 70
     0
 62
     3
  6
Continuous
370
    -3
390
F
  0
LAYER
  5
1199
330
2
100
AcDbSymbolTableRecord
100
AcDbLayerTableRecord
  2
Kawneer Logo-English
 70
     0
 62
     7
  6
Continuous
370
    -3
390
F
1001
AcAecLayerStandard
1000

1000

1001
AcCmTransparency
1071
        0
  0
ENDTAB
  0
TABLE
  2
STYLE
  5
3
330
0
100
AcDbSymbolTable
 70
     1
  0
STYLE
  5
11
330
3
100
AcDbSymbolTableRecord
100
AcDbTextStyleTableRecord
  2
Standard
 70
     0
 40
0.0
 41
1.0
 50
0.0
 71
     0
 42
0.2
  3
arial.ttf
  4

1001
ACAD
1000
Arial
1071
       34
  0
ENDTAB
  0
TABLE
  2
VIEW
  5
6
330
0
100
AcDbSymbolTable
 70
     0
  0
ENDTAB
  0
TABLE
  2
UCS
  5
7
330
0
100
AcDbSymbolTable
 70
     0
  0
ENDTAB
  0
TABLE
  2
APPID
  5
9
330
0
100
AcDbSymbolTable
 70
    15
  0
APPID
  5
12
330
9
100
AcDbSymbolTableRecord
100
AcDbRegAppTableRecord
  2
ACAD
 70
     0
  0
APPID
  5
20D
330
9
100
AcDbSymbolTableRecord
100
AcDbRegAppTableRecord
  2
AcDbDynamicBlockGUID
 70
     0
  0
APPID
  5
20F
330
9
100
AcDbSymbolTableRecord
100
AcDbRegAppTableRecord
  2
AcAecLayerStandard
 70
     0
  0
APPID
  5
210
330
9
100
AcDbSymbolTableRecord
100
AcDbRegAppTableRecord
  2
AcCmTransparency
 70
     0
  0
APPID
  5
2FC
330
9
100
AcDbSymbolTableRecord
100
AcDbRegAppTableRecord
  2
ACAD_NAV_VCDISPLAY
 70
     0
  0
APPID
  5
62D
330
9
100
AcDbSymbolTableRecord
100
AcDbRegAppTableRecord
  2
ACAD_DSTYLE_DIMJAG
 70
     0
  0
APPID
  5
62E
330
9
100
AcDbSymbolTableRecord
100
AcDbRegAppTableRecord
  2
ACAD_DSTYLE_DIMTALN
 70
     0
  0
APPID
  5
AE6
330
9
100
AcDbSymbolTableRecord
100
AcDbRegAppTableRecord
  2
ACAD_PSEXT
 70
     0
  0
APPID
  5
119A
330
9
100
AcDbSymbolTableRecord
100
AcDbRegAppTableRecord
  2
ACAD_EXEMPT_FROM_CAD_STANDARDS
 70
     0
  0
APPID
  5
119B
330
9
100
AcDbSymbolTableRecord
100
AcDbRegAppTableRecord
  2
GradientColor1ACI
 70
     0
  0
APPID
  5
119C
330
9
100
AcDbSymbolTableRecord
100
AcDbRegAppTableRecord
  2
GradientColor2ACI
 70
     0
  0
APPID
  5
119D
330
9
100
AcDbSymbolTableRecord
100
AcDbRegAppTableRecord
  2
ACAD_MLEADERVER
 70
     0
  0
APPID
  5
119E
330
9
100
AcDbSymbolTableRecord
100
AcDbRegAppTableRecord
  2
ACAD_DSTYLE_DIMBREAK
 70
     0
  0
APPID
  5
119F
330
9
100
AcDbSymbolTableRecord
100
AcDbRegAppTableRecord
  2
ACAUTHENVIRON
 70
     0
  0
APPID
  5
11A0
330
9
100
AcDbSymbolTableRecord
100
AcDbRegAppTableRecord
  2
AcDbDynamicBlockTrueName
 70
     0
  0
ENDTAB
  0
TABLE
  2
DIMSTYLE
  5
A
330
0
100
AcDbSymbolTable
 70
     3
100
AcDbDimStyleTable
 71
     1
340
27
  0
DIMSTYLE
105
27
102
{ACAD_REACTORS
330
F64
330
FDD
102
}
330
A
100
AcDbSymbolTableRecord
100
AcDbDimStyleTableRecord
  2
Standard
 70
     0
340
11
  0
DIMSTYLE
105
62B
102
{ACAD_REACTORS
330
F55
330
F56
330
F61
330
FCE
330
FCF
330
FDA
102
}
330
A
100
AcDbSymbolTableRecord
100
AcDbDimStyleTableRecord
  2
EXT_ON-OFF
 70
     0
  3
"
  4
mm
 40
2.0
 41
0.125
 42
0.1875
 43
0.1875
 44
0.09
 73
     0
 74
     0
 76
     1
 77
     3
 78
     3
140
0.125
141
0.0
147
0.05
171
     3
179
     2
273
     5
274
     3
276
     2
277
     5
284
     3
285
     3
286
     3
289
     0
340
11
1001
ACAD_DSTYLE_DIMJAG
1070
   388
1040
1.5
1001
ACAD_DSTYLE_DIMTALN
1070
   392
1070
     0
  0
DIMSTYLE
105
62C
102
{ACAD_REACTORS
330
F54
330
F60
330
FCD
330
FD9
102
}
330
A
100
AcDbSymbolTableRecord
100
AcDbDimStyleTableRecord
  2
EXT_ON-ON
 70
     0
  3
"
  4
mm
 40
2.0
 41
0.125
 42
0.1875
 43
0.1875
 44
0.09
 73
     0
 74
     0
 77
     3
 78
     3
140
0.125
141
0.0
147
0.05
171
     3
179
     2
273
     5
274
     3
276
     2
277
     5
284
     3
285
     3
286
     3
289
     0
340
11
1001
ACAD_DSTYLE_DIMJAG
1070
   388
1040
1.5
1001
ACAD_DSTYLE_DIMTALN
1070
   392
1070
     0
  0
ENDTAB
  0
TABLE
  2
BLOCK_RECORD
  5
1
330
0
100
AcDbSymbolTable
 70
    40
  0
BLOCK_RECORD
  5
1F
102
{ACAD_XDICTIONARY
360
2DC
102
}
330
1
100
AcDbSymbolTableRecord
100
AcDbBlockTableRecord
  2
*Model_Space
340
22
  0
BLOCK_RECORD
  5
58
330
1
100
AcDbSymbolTableRecord
100
AcDbBlockTableRecord
  2
*Paper_Space
340
59
  0
BLOCK_RECORD
  5
5D
330
1
100
AcDbSymbolTableRecord
100
AcDbBlockTableRecord
  2
*Paper_Space0
340
5E
  0
BLOCK_RECORD
  5
1A4
330
1
100
AcDbSymbolTableRecord
100
AcDbBlockTableRecord
  2
B175171
340
0
102
{BLKREFS
331
406
331
40F
331
418
102
}
  0
BLOCK_RECORD
  5
1A8
330
1
100
AcDbSymbolTableRecord
100
AcDbBlockTableRecord
  2
B175171$0$DPS171
340
0
102
{BLKREFS
331
1A6
102
}
  0
BLOCK_RECORD
  5
1F5
330
1
100
AcDbSymbolTableRecord
100
AcDbBlockTableRecord
  2
B175173
340
0
102
{BLKREFS
331
420
331
426
102
}
  0
BLOCK_RECORD
  5
1F9
102
{ACAD_XDICTIONARY
360
1FA
102
}
330
1
100
AcDbSymbolTableRecord
100
AcDbBlockTableRecord
  2
B175175
340
0
102
{BLKREFS
331
434
102
}
1001
AcDbDynamicBlockGUID
1000
{7E77A15D-142C-4B4D-917C-9DD819FC7D81}
  0
BLOCK_RECORD
  5
1FE
330
1
100
AcDbSymbolTableRecord
100
AcDbBlockTableRecord
  2
B175172
340
0
102
{BLKREFS
331
3F7
102
}
  0
BLOCK_RECORD
  5
202
330
1
100
AcDbSymbolTableRecord
100
AcDbBlockTableRecord
  2
B175302
340
0
102
{BLKREFS
331
3F8
331
3FC
102
}
  0
BLOCK_RECORD
  5
206
330
1
100
AcDbSymbolTableRecord
100
AcDbBlockTableRecord
  2
B175176
340
0
102
{BLKREFS
331
3FB
102
}
  0
BLOCK_RECORD
  5
34D
330
1
100
AcDbSymbolTableRecord
100
AcDbBlockTableRecord
  2
B027077-M1
340
0
102
{BLKREFS
331
403
331
404
331
363
331
365
102
}
1001
ACAD
1000
DesignCenter Data
1002
{
1070
     1
1070
     1
1002
}
  0
BLOCK_RECORD
  5
351
330
1
100
AcDbSymbolTableRecord
100
AcDbBlockTableRecord
  2
B027074-M1
340
0
102
{BLKREFS
331
F69
331
F6A
331
F6B
331
F6C
331
FDE
331
FDF
331
FE0
331
FE1
331
40C
331
40D
331
41D
331
41F
331
42E
331
430
331
5BC
331
5BD
331
371
331
372
102
}
1001
ACAD
1000
DesignCenter Data
1002
{
1070
     1
1070
     1
1002
}
  0
BLOCK_RECORD
  5
355
330
1
100
AcDbSymbolTableRecord
100
AcDbBlockTableRecord
  2
B027076-M1
340
0
102
{BLKREFS
331
416
331
417
331
425
331
428
331
380
331
382
102
}
1001
ACAD
1000
DesignCenter Data
1002
{
1070
     1
1070
     1
1002
}
  0
BLOCK_RECORD
  5
359
102
{ACAD_XDICTIONARY
360
35A
102
}
330
1
100
AcDbSymbolTableRecord
100
AcDbBlockTableRecord
  2
S175GT875
340
0
102
{BLKREFS
331
436
102
}
  0
BLOCK_RECORD
  5
368
330
1
100
AcDbSymbolTableRecord
100
AcDbBlockTableRecord
  2
S175GT100
340
0
102
{BLKREFS
331
FE4
331
FE5
331
438
102
}
1001
ACAD
1000
DesignCenter Data
1002
{
1070
     1
1070
     1
1002
}
  0
BLOCK_RECORD
  5
375
102
{ACAD_XDICTIONARY
360
376
102
}
330
1
100
AcDbSymbolTableRecord
100
AcDbBlockTableRecord
  2
S175GT1125
340
0
102
{BLKREFS
331
43A
102
}
  0
BLOCK_RECORD
  5
586
330
1
100
AcDbSymbolTableRecord
100
AcDbBlockTableRecord
  2
B175310
340
0
102
{BLKREFS
331
F52
331
F5E
331
FCB
331
FD7
102
}
  0
BLOCK_RECORD
  5
58D
330
1
100
AcDbSymbolTableRecord
100
AcDbBlockTableRecord
  2
B175155
340
0
102
{BLKREFS
331
F53
331
F5F
331
FCC
331
FD8
102
}
  0
BLOCK_RECORD
  5
592
330
1
100
AcDbSymbolTableRecord
100
AcDbBlockTableRecord
  2
445109
340
0
102
{BLKREFS
331
F5B
331
F62
331
FD4
331
FDB
102
}
  0
BLOCK_RECORD
  5
5AF
330
1
100
AcDbSymbolTableRecord
100
AcDbBlockTableRecord
  2
B175029
340
0
102
{BLKREFS
331
F65
331
F66
102
}
1001
ACAD
1000
DesignCenter Data
1002
{
1070
     1
1070
     1
1002
}
  0
BLOCK_RECORD
  5
5B4
102
{ACAD_XDICTIONARY
360
5B5
102
}
330
1
100
AcDbSymbolTableRecord
100
AcDbBlockTableRecord
  2
S175GT250A
340
0
102
{BLKREFS
331
F67
331
F68
102
}
  0
BLOCK_RECORD
  5
603
330
1
100
AcDbSymbolTableRecord
100
AcDbBlockTableRecord
  2
B175309B
340
0
102
{BLKREFS
331
F6D
331
FC0
331
1038
102
}
  0
BLOCK_RECORD
  5
60E
330
1
100
AcDbSymbolTableRecord
100
AcDbBlockTableRecord
  2
028400
340
0
102
{BLKREFS
331
61C
331
61D
331
61E
331
6B5
331
6B6
102
}
  0
BLOCK_RECORD
  5
61A
330
1
100
AcDbSymbolTableRecord
100
AcDbBlockTableRecord
  2
B175502A
340
0
102
{BLKREFS
331
F6E
331
F6F
102
}
1001
ACAD
1000
DesignCenter Data
1002
{
1070
     1
1070
     1
1002
}
  0
BLOCK_RECORD
  5
6A6
330
1
100
AcDbSymbolTableRecord
100
AcDbBlockTableRecord
  2
B175009
340
0
102
{BLKREFS
331
FE2
331
FE3
102
}
1001
ACAD
1000
DesignCenter Data
1002
{
1070
     1
1070
     1
1002
}
  0
BLOCK_RECORD
  5
6AB
102
{ACAD_XDICTIONARY
360
6AC
102
}
330
1
100
AcDbSymbolTableRecord
100
AcDbBlockTableRecord
  2
B175309A
340
0
102
{BLKREFS
331
FE6
102
}
1001
ACAD
1000
DesignCenter Data
1002
{
1070
     1
1070
     1
1002
}
  0
BLOCK_RECORD
  5
6B1
102
{ACAD_XDICTIONARY
360
6B2
102
}
330
1
100
AcDbSymbolTableRecord
100
AcDbBlockTableRecord
  2
B175501A
340
0
102
{BLKREFS
331
FE7
331
FE8
102
}
1001
ACAD
1000
DesignCenter Data
1002
{
1070
     1
1070
     1
1002
}
  0
BLOCK_RECORD
  5
E94
102
{ACAD_XDICTIONARY
360
FBD
102
}
330
1
100
AcDbSymbolTableRecord
100
AcDbBlockTableRecord
  2
S175HI25
340
0
102
{BLKREFS
331
EC3
102
}
1001
AcDbDynamicBlockGUID
1000
{6CB7B81B-643B-4396-A894-81EB638E2C74}
1001
ACAD
1000
DesignCenter Data
1002
{
1070
     1
1070
     1
1002
}
  0
BLOCK_RECORD
  5
F14
102
{ACAD_XDICTIONARY
360
1035
102
}
330
1
100
AcDbSymbolTableRecord
100
AcDbBlockTableRecord
  2
S175HI26
340
0
102
{BLKREFS
331
F43
102
}
1001
AcDbDynamicBlockGUID
1000
{72E5E2CC-7D42-41F0-8E96-A518BDB9CAE5}
1001
ACAD
1000
DesignCenter Data
1002
{
1070
     1
1070
     1
1002
}
  0
BLOCK_RECORD
  5
F79
330
1
100
AcDbSymbolTableRecord
100
AcDbBlockTableRecord
  2
*D27
340
0
  0
BLOCK_RECORD
  5
F85
330
1
100
AcDbSymbolTableRecord
100
AcDbBlockTableRecord
  2
*D28
340
0
  0
BLOCK_RECORD
  5
F90
330
1
100
AcDbSymbolTableRecord
100
AcDbBlockTableRecord
  2
*D29
340
0
  0
BLOCK_RECORD
  5
F9B
330
1
100
AcDbSymbolTableRecord
100
AcDbBlockTableRecord
  2
*D30
340
0
  0
BLOCK_RECORD
  5
FA7
330
1
100
AcDbSymbolTableRecord
100
AcDbBlockTableRecord
  2
*D31
340
0
  0
BLOCK_RECORD
  5
FB2
330
1
100
AcDbSymbolTableRecord
100
AcDbBlockTableRecord
  2
*D32
340
0
  0
BLOCK_RECORD
  5
FF2
330
1
100
AcDbSymbolTableRecord
100
AcDbBlockTableRecord
  2
*D33
340
0
  0
BLOCK_RECORD
  5
FFE
330
1
100
AcDbSymbolTableRecord
100
AcDbBlockTableRecord
  2
*D34
340
0
  0
BLOCK_RECORD
  5
1009
330
1
100
AcDbSymbolTableRecord
100
AcDbBlockTableRecord
  2
*D35
340
0
  0
BLOCK_RECORD
  5
1014
330
1
100
AcDbSymbolTableRecord
100
AcDbBlockTableRecord
  2
*D36
340
0
  0
BLOCK_RECORD
  5
1020
330
1
100
AcDbSymbolTableRecord
100
AcDbBlockTableRecord
  2
*D37
340
0
  0
BLOCK_RECORD
  5
102B
330
1
100
AcDbSymbolTableRecord
100
AcDbBlockTableRecord
  2
*D38
340
0
  0
BLOCK_RECORD
  5
11A3
102
{ACAD_XDICTIONARY
360
11AD
102
}
330
1
100
AcDbSymbolTableRecord
100
AcDbBlockTableRecord
  2
Kawneer Logo English
340
0
102
{BLKREFS
331
11B1
102
}
1001
ACAD
1000
DesignCenter Data
1002
{
1070
     1
1070
     1
1002
}
  0
ENDTAB
  0
ENDSEC
  0
SECTION
  2
BLOCKS
  0
BLOCK
  5
20
330
1F
100
AcDbEntity
  8
0
100
AcDbBlockBegin
  2
*Model_Space
 70
     0
 10
0.0
 20
0.0
 30
0.0
  3
*Model_Space
  1

  0
ENDBLK
  5
21
330
1F
100
AcDbEntity
  8
0
100
AcDbBlockEnd
  0
BLOCK
  5
5A
330
58
100
AcDbEntity
 67
     1
  8
0
100
AcDbBlockBegin
  2
*Paper_Space
 70
     0
 10
0.0
 20
0.0
 30
0.0
  3
*Paper_Space
  1

  0
ENDBLK
  5
5B
330
58
100
AcDbEntity
 67
     1
  8
0
100
AcDbBlockEnd
  0
BLOCK
  5
5F
330
5D
100
AcDbEntity
 67
     1
  8
0
100
AcDbBlockBegin
  2
*Paper_Space0
 70
     0
 10
0.0
 20
0.0
 30
0.0
  3
*Paper_Space0
  1

  0
ENDBLK
  5
60
330
5D
100
AcDbEntity
 67
     1
  8
0
100
AcDbBlockEnd
  0
BLOCK
  5
1A5
330
1A4
100
AcDbEntity
  8
0
  6
Continuous
 62
     7
100
AcDbBlockBegin
  2
B175171
 70
     0
 10
11.11191362629281
 20
5.126177544989857
 30
0.0
  3
B175171
  1
G:\USER\KMTJ\ENCORE\WBLOCKS\B175171.DWG
  0
INSERT
  5
1A6
330
1A4
100
AcDbEntity
  8
0
100
AcDbBlockReference
  2
B175171$0$DPS171
 10
12.4791347646995
 20
6.001061067306713
 30
0.0
  0
ENDBLK
  5
1A7
330
1A4
100
AcDbEntity
  8
0
  6
Continuous
 62
     7
100
AcDbBlockEnd
  0
BLOCK
  5
1A9
330
1A8
100
AcDbEntity
  8
0
100
AcDbBlockBegin
  2
B175171$0$DPS171
 70
     0
 10
0.0
 20
0.0
 30
0.0
  3
B175171$0$DPS171
  1

  0
LWPOLYLINE
  5
1AA
330
1A8
100
AcDbEntity
  8
0
100
AcDbPolyline
 90
       38
 70
     1
 43
0.0
 10
-0.0570926958341715
 20
-0.3650083688979171
 42
0.4400105308918417
 10
-0.0462211384066986
 20
-0.3550464219169997
 10
-0.0462211384066933
 20
-0.3490000000000011
 42
-0.4142135623731211
 10
-0.0362211384066953
 20
-0.3390000000000013
 10
-0.0332211384066952
 20
-0.3390000000000013
 42
-0.4142135623730951
 10
-0.0022211384066964
 20
-0.3700000000000001
 10
-0.0022211384066946
 20
-0.4090869149893086
 42
-0.4400105308918321
 10
-0.0130926958341746
 20
-0.419048861970226
 10
-0.8500187204920539
 20
-0.345827322602843
 10
-0.9127716419898366
 20
-0.3229871270644047
 42
-0.315298788878976
 10
-0.9292211384066941
 20
-0.2994948115447569
 10
-0.9292211384066977
 20
-0.0970000000000004
 42
-0.4142135623730951
 10
-0.9092211384066981
 20
-0.0770000000000009
 10
-0.8802211384066946
 20
-0.077
 42
-0.4142135623731015
 10
-0.8602211384066951
 20
-0.0970000000000004
 10
-0.8602211384066951
 20
-0.1090000000000009
 10
-0.889221138406695
 20
-0.1090000000000009
 10
-0.889221138406695
 20
-0.1860000000000008
 42
1.0
 10
-0.7312211384066974
 20
-0.1860000000000008
 10
-0.7312211384066974
 20
-0.1090000000000009
 10
-0.7602211384066937
 20
-0.1090000000000009
 10
-0.7312211384066956
 20
-0.0264999999999978
 10
-0.6782220133727695
 20
-0.0364999999999975
 10
-0.664823411133968
 20
0.0
 10
0.0
 20
0.0
 42
-0.5150338432752228
 10
0.0141827786339892
 20
-0.0198835223168565
 10
-0.0117220053280036
 20
-0.0951164776831446
 42
0.5150338432752437
 10
0.0024607733059838
 20
-0.1149999999999993
 10
0.0077788615933017
 20
-0.1150000000000011
 42
-0.4142135623730431
 10
0.0127788615933007
 20
-0.1200000000000001
 10
0.0127788615933042
 20
-0.160000000000001
 42
-0.4142135623731211
 10
0.0077788615933017
 20
-0.165
 10
-0.0133124812724717
 20
-0.1650000000000018
 42
-0.1898559321066579
 10
-0.0235424566734093
 20
-0.1609703055242884
 10
-0.1157024788823051
 20
-0.0750296944757123
 42
0.1898559321066614
 10
-0.1259324542832374
 20
-0.0710000000000024
 10
-0.5270144099212289
 20
-0.0710000000000006
 42
0.9572917422548044
 10
-0.5380140510821328
 20
-0.3229332022661984
  0
ENDBLK
  5
1AB
330
1A8
100
AcDbEntity
  8
0
100
AcDbBlockEnd
  0
BLOCK
  5
1F6
330
1F5
100
AcDbEntity
  8
0
  6
Continuous
 62
     7
100
AcDbBlockBegin
  2
B175173
 70
     0
 10
9.961701319866181
 20
5.369274836603536
 30
0.0
  3
B175173
  1
M:/PRODUCTS/SFRONT/ENCORE/WBLOCKS/B175173.DWG
  0
LWPOLYLINE
  5
1F7
330
1F5
100
AcDbEntity
  8
0
100
AcDbPolyline
 90
       38
 70
     1
 43
0.0
 10
10.81870131986618
 20
6.13515835892039
 10
10.84970131986618
 20
6.223158358920391
 10
10.90317859259345
 20
6.213158358920392
 10
10.9140990471389
 20
6.244158358920392
 10
11.32892245827287
 20
6.244158358920392
 42
-0.5150338432752228
 10
11.34310523690686
 20
6.224274836603536
 10
11.31720045294487
 20
6.149041881237247
 42
0.5150338432752346
 10
11.33138323157886
 20
6.129158358920392
 10
11.33670131986618
 20
6.12915835892039
 42
-0.4142135623730951
 10
11.34170131986617
 20
6.124158358920391
 10
11.34170131986618
 20
6.08415835892039
 42
-0.4142135623730951
 10
11.33670131986618
 20
6.079158358920391
 10
11.3156099770004
 20
6.079158358920389
 42
-0.1898559321066579
 10
11.30538000159946
 20
6.083188053396104
 10
11.21321997939057
 20
6.169128664444679
 42
0.1898559321066614
 10
11.20299000398964
 20
6.17315835892039
 10
11.07201837416949
 20
6.173158358920391
 42
0.9572917422548067
 10
11.05999088167031
 20
5.897683490583729
 10
11.2718297624387
 20
5.879149990022475
 42
0.4400105308918417
 10
11.28270131986617
 20
5.889111937003392
 10
11.28270131986618
 20
5.895158358920391
 42
-0.4142135623731471
 10
11.29270131986618
 20
5.905158358920391
 10
11.29570131986618
 20
5.905158358920391
 42
-0.4142135623730951
 10
11.32670131986618
 20
5.874158358920392
 10
11.32670131986618
 20
5.835071443931084
 42
-0.4400105308918321
 10
11.3158297624387
 20
5.825109496950166
 10
10.80801268461918
 20
5.869537734404237
 10
10.66615081628304
 20
5.921171231855987
 42
-0.3152987888789826
 10
10.64970131986618
 20
5.944663547375635
 10
10.64970131986618
 20
6.147158358920391
 42
-0.4142135623730951
 10
10.66970131986618
 20
6.16715835892039
 10
10.69870131986618
 20
6.167158358920392
 42
-0.414213562373108
 10
10.71870131986618
 20
6.147158358920391
 10
10.71870131986618
 20
6.13515835892039
 10
10.68970131986618
 20
6.13515835892039
 10
10.68970131986618
 20
6.05815835892039
 42
1.0
 10
10.84770131986618
 20
6.05815835892039
 10
10.84770131986618
 20
6.13515835892039
  0
ENDBLK
  5
1F8
330
1F5
100
AcDbEntity
  8
0
  6
Continuous
 62
     7
100
AcDbBlockEnd
  0
BLOCK
  5
1FB
330
1F9
100
AcDbEntity
  8
0
  6
Continuous
 62
     7
100
AcDbBlockBegin
  2
B175175
 70
     0
 10
11.18687947329933
 20
3.95098309649361
 30
0.0
  3
B175175
  1
M:/PRODUCTS/SFRONT/ENCORE/WBLOCKS/B175175
  0
LWPOLYLINE
  5
1FC
330
1F9
100
AcDbEntity
  8
0
100
AcDbPolyline
 90
       42
 70
     1
 43
0.0
 10
12.56687947329932
 20
4.705866618810466
 10
12.56687947329933
 20
4.665866618810465
 42
-0.4142135623731992
 10
12.56187947329932
 20
4.660866618810468
 10
12.54078813043355
 20
4.660866618810464
 42
-0.1898559321066606
 10
12.53055815503262
 20
4.66489631328618
 10
12.43983857224596
 20
4.749493692842847
 42
0.1898559321066273
 10
12.42619860504471
 20
4.754866618810463
 10
12.39287947329932
 20
4.754866618810465
 42
0.414213562373134
 10
12.37287947329932
 20
4.734866618810465
 10
12.37287947329932
 20
4.639866618810465
 42
-0.2633505108947505
 10
12.31028940231133
 20
4.529274027157043
 42
0.6310477826561045
 10
12.31374511246992
 20
4.493334036500495
 10
12.3732151480324
 20
4.471688713724999
 10
12.49700791587185
 20
4.460858249912549
 42
0.4400105308918896
 10
12.50787947329933
 20
4.470820196893466
 10
12.50787947329933
 20
4.476866618810465
 42
-0.414213562373147
 10
12.51787947329933
 20
4.486866618810465
 10
12.52087947329933
 20
4.486866618810465
 42
-0.4142135623730951
 10
12.55187947329933
 20
4.455866618810466
 10
12.55187947329933
 20
4.42769278883185
 42
-0.4400105308918632
 10
12.53013635844437
 20
4.407768894870014
 10
12.36229978489068
 20
4.422452692380998
 10
12.13803907043282
 20
4.50407691715894
 42
-0.3152987888789634
 10
12.12487947329933
 20
4.522870769574657
 10
12.12487947329933
 20
4.728866618810465
 42
-0.4142135623730977
 10
12.14487947329932
 20
4.748866618810465
 10
12.17387947329933
 20
4.748866618810467
 42
-0.414213562373069
 10
12.19387947329933
 20
4.728866618810465
 10
12.19387947329933
 20
4.716866618810465
 10
12.16487947329933
 20
4.716866618810465
 10
12.16487947329933
 20
4.639866618810465
 42
1.0
 10
12.32287947329932
 20
4.639866618810465
 10
12.32287947329932
 20
4.716866618810465
 10
12.29387947329933
 20
4.716866618810465
 10
12.32487947329933
 20
4.80486661881047
 10
12.3783567460266
 20
4.794866618810465
 10
12.38927720057205
 20
4.825866618810466
 10
12.55410061170602
 20
4.825866618810467
 42
-0.5150338432753275
 10
12.56828339034001
 20
4.80598309649361
 10
12.54237860637802
 20
4.730750141127321
 42
0.5150338432752526
 10
12.55656138501201
 20
4.710866618810466
 10
12.56187947329932
 20
4.710866618810465
 42
-0.4142135623730951
  0
ENDBLK
  5
1FD
330
1F9
100
AcDbEntity
  8
0
  6
Continuous
 62
     7
100
AcDbBlockEnd
  0
BLOCK
  5
1FF
330
1FE
100
AcDbEntity
  8
0
  6
Continuous
 62
     7
100
AcDbBlockBegin
  2
B175172
 70
     0
 10
11.66084371681072
 20
3.474226472884692
 30
0.0
  3
B175172
  1
M:/PRODUCTS/SFRONT/ENCORE/WBLOCKS/B175172
  0
LWPOLYLINE
  5
200
330
1FE
100
AcDbEntity
  8
0
100
AcDbPolyline
 90
       27
 70
     1
 43
0.0
 10
12.25599638928233
 20
4.065690449308299
 10
12.25599638928233
 20
4.242690072050344
 10
12.16684170946563
 20
4.320191026187029
 10
12.16684170946563
 20
4.349226472884637
 10
12.91084371681072
 20
4.349226472884644
 10
12.91084371681073
 20
4.269226472884644
 10
12.39799638928233
 20
4.269226472884638
 42
0.4142135623730992
 10
12.33599638928233
 20
4.207226472884637
 10
12.33599638928233
 20
3.979155617083947
 42
0.2076120415813105
 10
12.35564503246221
 20
3.933874687593767
 42
-0.2076120415813004
 10
12.39684380042002
 20
3.838930803178883
 10
12.39684380042002
 20
3.75322647288463
 42
0.4142135623730824
 10
12.45884380042002
 20
3.691226472884631
 10
12.91084371681076
 20
3.691226472884633
 10
12.91084371681076
 20
3.611226472884626
 10
12.16684371681077
 20
3.611226472884628
 10
12.16684371681076
 20
3.716930887343745
 42
-0.6693769040950036
 10
12.19248538736435
 20
3.727502303891626
 42
0.1997732211537822
 10
12.2563354106859
 20
3.700930803178895
 10
12.26684380042002
 20
3.700930803178895
 42
0.4142135623731002
 10
12.31684380042002
 20
3.750930803178897
 10
12.31684380042002
 20
3.838930803178896
 42
0.4142135623730795
 10
12.26684380042002
 20
3.888930803178894
 10
12.256335410686
 20
3.888930803178894
 42
0.1997725987882944
 10
12.19248553920753
 20
3.862359455317994
 42
-0.6693741651639423
 10
12.16684389396127
 20
3.872930819763429
 10
12.16684329785365
 20
3.988190789537802
  0
ENDBLK
  5
201
330
1FE
100
AcDbEntity
  8
0
  6
Continuous
 62
     7
100
AcDbBlockEnd
  0
BLOCK
  5
203
330
202
100
AcDbEntity
  8
0
  6
Continuous
 62
     7
100
AcDbBlockBegin
  2
B175302
 70
     0
 10
16.50905211688177
 20
7.872745778404301
 30
0.0
  3
B175302
  1
M:/PRODUCTS/SFRONT/ENCORE/WBLOCKS/B175302
  0
LWPOLYLINE
  5
204
330
202
100
AcDbEntity
  8
0
100
AcDbPolyline
 90
       13
 70
     1
 43
0.0
 10
16.26268620364495
 20
9.207072352082782
 42
0.999999999999934
 10
16.26941549881762
 20
9.2321864235663
 10
16.18905085123128
 20
9.253720065987071
 10
16.10868620364495
 20
9.2321864235663
 42
0.999999999999934
 10
16.11541549881762
 20
9.207072352082782
 10
16.15905085123128
 20
9.218764409523473
 10
16.13905085123129
 20
9.123720065987058
 10
16.00905085123129
 20
9.123720065987058
 10
16.00905085123129
 20
8.873720065987058
 10
16.30204702019314
 20
8.873720065987054
 10
16.30204702019314
 20
9.123720065987061
 10
16.23905085123128
 20
9.123720065987061
 10
16.21905085123129
 20
9.218764409523473
  0
ENDBLK
  5
205
330
202
100
AcDbEntity
  8
0
  6
Continuous
 62
     7
100
AcDbBlockEnd
  0
BLOCK
  5
207
330
206
100
AcDbEntity
  8
0
  6
Continuous
 62
     7
100
AcDbBlockBegin
  2
B175176
 70
     0
 10
15.14738157797182
 20
2.913684289119512
 30
0.0
  3
B175176
  1
M:/PRODUCTS/SFRONT/ENCORE/WBLOCKS/B175176
  0
LWPOLYLINE
  5
208
330
206
100
AcDbEntity
  8
0
100
AcDbPolyline
 90
       27
 70
     1
 43
0.0
 10
14.89410574696489
 20
3.695325959673143
 42
0.1997732211537822
 10
14.92067724767762
 20
3.759175982994687
 10
14.92067724767762
 20
3.769684372728811
 42
0.4142135623731002
 10
14.87067724767762
 20
3.819684372728811
 10
14.78267724767762
 20
3.819684372728811
 42
0.4142135623730795
 10
14.73267724767762
 20
3.769684372728811
 10
14.73267724767762
 20
3.75917598299479
 42
0.1997725987882944
 10
14.75924859553852
 20
3.695326111516321
 42
-0.6693741651639423
 10
14.74867723109309
 20
3.669684466270064
 10
14.63341726131871
 20
3.669683870162437
 10
14.55591760154822
 20
3.758836961591125
 10
14.37891797880617
 20
3.758836961591123
 10
14.30141702466948
 20
3.669682281774415
 10
14.27238157797188
 20
3.669682281774415
 10
14.27238157797187
 20
4.163684289119512
 10
14.35238157797187
 20
4.163684289119519
 10
14.35238157797188
 20
3.900836961591124
 42
0.4142135623730992
 10
14.41438157797188
 20
3.838836961591123
 10
14.64245243377257
 20
3.838836961591123
 42
0.2076120415813105
 10
14.68773336326275
 20
3.858485604771001
 42
-0.2076120415813004
 10
14.78267724767763
 20
3.89968437272881
 10
14.86838157797189
 20
3.89968437272881
 42
0.4142135623730824
 10
14.93038157797188
 20
3.961684372728814
 10
14.93038157797188
 20
4.163684289119554
 10
15.01038157797189
 20
4.163684289119554
 10
15.01038157797189
 20
3.669684289119555
 10
14.90467716351277
 20
3.669684289119549
 42
-0.6693769040950036
  0
POINT
  5
209
330
206
100
AcDbEntity
  8
0
100
AcDbPoint
 10
15.14738157797182
 20
2.913684289119512
 30
0.0
  0
ENDBLK
  5
20A
330
206
100
AcDbEntity
  8
0
  6
Continuous
 62
     7
100
AcDbBlockEnd
  0
BLOCK
  5
34E
330
34D
100
AcDbEntity
  8
0
100
AcDbBlockBegin
  2
B027077-M1
 70
     0
 10
0.0
 20
0.0
 30
0.0
  3
B027077-M1
  1

  0
LWPOLYLINE
  5
34F
330
34D
100
AcDbEntity
  8
0
100
AcDbPolyline
 90
       33
 70
     1
 43
0.0
 10
-0.2841762659679592
 20
0.0694957008738513
 10
-0.3443514144471749
 20
0.2411566627934629
 42
0.8886355728344963
 10
-0.369499999999995
 20
0.2390952318940736
 10
-0.369499999999995
 20
0.1048496115014155
 42
0.0478763377237494
 10
-0.3339149948705611
 20
-0.0360527673198305
 42
0.3240657223004379
 10
-0.2183475886808068
 20
-0.0926290317424528
 42
0.1551026458462412
 10
-0.1698849381403491
 20
-0.048181808227632
 42
0.0709582928436798
 10
-0.1406745737085657
 20
0.0208108981169266
 42
0.0904992847190249
 10
-0.1239500000000007
 20
0.1048496115014146
 10
-0.1239500000000007
 20
0.2005524218350487
 10
-0.0506032420234117
 20
0.2005524218350487
 10
-0.0286624472059423
 20
0.1469351221345354
 10
-0.0676683051194189
 20
0.1420608232558465
 10
-0.0335381789274063
 20
0.1055035739289352
 10
-0.065230439258686
 20
0.0835692246766442
 10
-0.0042837865277381
 20
0.0299519266954072
 10
0.0517871324108654
 20
0.095754974452281
 10
0.0274084717326613
 20
0.1055035739289352
 10
0.0615385958537953
 20
0.1444979718355528
 10
0.03472206931486
 20
0.149372272433518
 10
0.0688521934359923
 20
0.2566068701152684
 10
0.1297988440960616
 20
0.2614811689939573
 10
0.2053537144548425
 20
0.2585000000000051
 10
0.1952631728965244
 20
0.2895095426212411
 42
0.1257100272134179
 10
-0.0367282291255311
 20
0.3412518702148946
 42
-0.1744390301052186
 10
-0.2388860304102369
 20
0.3951761551896151
 10
-0.34356570798181
 20
0.5019103470193472
 42
0.6449762263124333
 10
-0.369499999999995
 20
0.4901690045456873
 10
-0.3679202629719427
 20
0.3609320689163038
 42
0.1518691569180708
 10
-0.3515674863756111
 20
0.3164969145670433
 10
-0.2985606338515243
 20
0.2501590908688795
 42
-0.0293454671788447
 10
-0.2811657446486251
 20
0.1982764476762586
 10
-0.2639354550651003
 20
0.0764824378392151
 42
-0.6538117075652882
  0
ENDBLK
  5
350
330
34D
100
AcDbEntity
  8
0
100
AcDbBlockEnd
  0
BLOCK
  5
352
330
351
100
AcDbEntity
  8
0
100
AcDbBlockBegin
  2
B027074-M1
 70
     0
 10
0.0
 20
0.0
 30
0.0
  3
B027074-M1
  1

  0
LWPOLYLINE
  5
353
330
351
100
AcDbEntity
  8
0
100
AcDbPolyline
 90
       31
 70
     1
 43
0.0
 10
0.0615385958537953
 20
0.1444979718355528
 10
0.03472206931486
 20
0.149372272433518
 10
0.0688521934359923
 20
0.2566068701152684
 10
0.1297988440960616
 20
0.2614811689939573
 10
0.2053537144548425
 20
0.2585000000000051
 10
0.1952631728965244
 20
0.2895095426212411
 42
0.1257100272134179
 10
-0.0367282291255311
 20
0.3412518702148946
 42
-0.2260837189018228
 10
-0.1903137895571367
 20
0.3909697288589946
 10
-0.2810657079818108
 20
0.5019103470193472
 42
0.6449762263124317
 10
-0.3069999999999959
 20
0.4901690045456873
 10
-0.3054202629719427
 20
0.3609320689163038
 42
0.1518691569180708
 10
-0.2890674863756111
 20
0.3164969145670433
 10
-0.2553676893153787
 20
0.2565711352985671
 42
-0.0293454671788447
 10
-0.2379728001124803
 20
0.2046884921059462
 10
-0.2207425105289547
 20
0.0828944822689026
 42
-0.6538117075652882
 10
-0.2409833214318127
 20
0.0759077453035388
 10
-0.2850750686541392
 20
0.2411566627934629
 42
1.01822084272421
 10
-0.306999999999995
 20
0.2390952318940736
 10
-0.306999999999995
 20
0.1048496115014146
 42
0.0644318946909982
 10
-0.2677911922975342
 20
-0.083766645205869
 42
0.6282770417724476
 10
-0.1651824619094269
 20
-0.0837666452058708
 42
0.0703560868358924
 10
-0.1239500000000007
 20
0.1048496115014146
 10
-0.1239500000000007
 20
0.2005524218350487
 10
-0.0506032420234126
 20
0.2005524218350487
 10
-0.0286624472059423
 20
0.1469351221345354
 10
-0.0676683051194189
 20
0.1420608232558465
 10
-0.0335381789274063
 20
0.1055035739289352
 10
-0.065230439258686
 20
0.0835692246766442
 10
-0.0042837865277381
 20
0.0299519266954072
 10
0.0517871324108654
 20
0.095754974452281
 10
0.0274084717326622
 20
0.1055035739289352
  0
ENDBLK
  5
354
330
351
100
AcDbEntity
  8
0
100
AcDbBlockEnd
  0
BLOCK
  5
356
330
355
100
AcDbEntity
  8
0
100
AcDbBlockBegin
  2
B027076-M1
 70
     0
 10
0.0
 20
0.0
 30
0.0
  3
B027076-M1
  1

  0
LWPOLYLINE
  5
357
330
355
100
AcDbEntity
  8
0
100
AcDbPolyline
 90
       31
 70
     1
 43
0.0
 10
-0.2139054539439726
 20
0.501910347019348
 10
-0.1317154237689113
 20
0.3909697288589946
 42
0.1953169903594563
 10
-0.0367282291255311
 20
0.3412518702148946
 42
-0.125710027213418
 10
0.1952631728965244
 20
0.2895095426212411
 10
0.2053537144548425
 20
0.2585000000000051
 10
0.1297988440960616
 20
0.2614811689939573
 10
0.0688521934359923
 20
0.2566068701152684
 10
0.03472206931486
 20
0.149372272433518
 10
0.0615385958537953
 20
0.1444979718355528
 10
0.0274084717326622
 20
0.1055035739289352
 10
0.0517871324108654
 20
0.095754974452281
 10
-0.0042837865277381
 20
0.0299519266954072
 10
-0.065230439258686
 20
0.0835692246766442
 10
-0.0335381789274063
 20
0.1055035739289352
 10
-0.0676683051194189
 20
0.1420608232558465
 10
-0.0286624472059423
 20
0.1469351221345354
 10
-0.0506032420234126
 20
0.2005524218350487
 10
-0.1239500000000007
 20
0.2005524218350487
 10
-0.1239500000000007
 20
0.1048496115014146
 42
-0.0759340772284539
 10
-0.1457084762864298
 20
-0.0727100352027339
 42
-0.6904351324619129
 10
-0.2065175380905746
 20
-0.083766645205869
 42
-0.0648057428424364
 10
-0.2398397459621577
 20
0.1048496115014155
 10
-0.2398397459621577
 20
0.2390952318940736
 42
-0.934999644321866
 10
-0.2238014144471796
 20
0.2411566627934629
 10
-0.2044253262430518
 20
0.1544113738559361
 42
0.6538117075652849
 10
-0.1841845153401937
 20
0.1613981108212998
 10
-0.1899396783364313
 20
0.2046884921059462
 42
0.0300253162701424
 10
-0.2029210567290267
 20
0.2565711352985671
 10
-0.2325972234036699
 20
0.3164969145670433
 42
-0.147342577074427
 10
-0.238844324709544
 20
0.3609320689163038
 10
-0.2398397459621577
 20
0.4901690045456873
 42
-0.6449762263124317
  0
ENDBLK
  5
358
330
355
100
AcDbEntity
  8
0
100
AcDbBlockEnd
  0
BLOCK
  5
35C
330
359
100
AcDbEntity
  8
0
100
AcDbBlockBegin
  2
S175GT875
 70
     0
 10
0.0
 20
0.0
 30
0.0
  3
S175GT875
  1

  0
LINE
  5
35D
330
359
100
AcDbEntity
  8
0
100
AcDbLine
 10
1.512633601162409
 20
0.8749999999999076
 30
0.0
 11
1.512633601162404
 21
2.874990000000006
 31
0.0
  0
LINE
  5
35E
330
359
100
AcDbEntity
  8
0
100
AcDbLine
 10
0.2514787503439333
 20
0.5004999999999038
 30
0.0
 11
0.2514787503439381
 21
2.874990000000005
 31
0.0
  0
LINE
  5
35F
330
359
100
AcDbEntity
  8
0
100
AcDbLine
 10
0.7514787503439333
 20
0.5004999999999038
 30
0.0
 11
0.7514787503439237
 21
2.874990000000005
 31
0.0
  0
LINE
  5
360
330
359
100
AcDbEntity
  8
0
100
AcDbLine
 10
0.0625521764972614
 20
0.5004999999999012
 30
0.0
 11
0.0625521764972518
 21
2.874990000000006
 31
0.0
  0
LINE
  5
361
330
359
100
AcDbEntity
  8
0
100
AcDbLine
 10
0.9375521764972614
 20
0.500499999999903
 30
0.0
 11
0.9375521764972516
 21
2.874990000000006
 31
0.0
  0
LINE
  5
362
330
359
100
AcDbEntity
  8
0
100
AcDbLine
 10
0.7514787503439298
 20
0.6869999999998955
 30
0.0
 11
0.2514787503439297
 21
0.6869999999998964
 31
0.0
  0
INSERT
  5
363
330
359
100
AcDbEntity
  8
0
100
AcDbBlockReference
  2
B027077-M1
 10
1.307279886707567
 20
0.6164999999999026
 30
0.0
  0
LINE
  5
364
330
359
100
AcDbEntity
  8
0
100
AcDbLine
 10
-0.5125292481678958
 20
0.8749999999999076
 30
0.0
 11
-0.5125292481678907
 21
2.874990000000006
 31
0.0
  0
INSERT
  5
365
330
359
100
AcDbEntity
  8
0
100
AcDbBlockReference
  2
B027077-M1
 10
-0.3071755337130533
 20
0.6164999999999026
 30
0.0
 41
-1.0
  0
LINE
  5
366
330
359
100
AcDbEntity
  8
0
100
AcDbLine
 10
0.0625521764972614
 20
0.500499999999903
 30
0.0
 11
0.9375521764972614
 21
0.5004999999999065
 31
0.0
  0
ENDBLK
  5
367
330
359
100
AcDbEntity
  8
0
100
AcDbBlockEnd
  0
BLOCK
  5
369
330
368
100
AcDbEntity
  8
0
100
AcDbBlockBegin
  2
S175GT100
 70
     0
 10
0.0
 20
0.0
 30
0.0
  3
S175GT100
  1

  0
LINE
  5
36A
330
368
100
AcDbEntity
  8
0
100
AcDbLine
 10
0.7502798867075811
 20
0.6874999999999006
 30
0.0
 11
0.2502798867075811
 21
0.6874999999999006
 31
0.0
  0
LINE
  5
36B
330
368
100
AcDbEntity
  8
0
100
AcDbLine
 10
-0.5120738277474813
 20
0.8749999999999008
 30
0.0
 11
-0.5120738277474813
 21
2.87499
 31
0.0
  0
LINE
  5
36C
330
368
100
AcDbEntity
  8
0
100
AcDbLine
 10
0.0002798867075811
 20
0.5004999999998994
 30
0.0
 11
0.0002798867075811
 21
2.874990000000001
 31
0.0
  0
LINE
  5
36D
330
368
100
AcDbEntity
  8
0
100
AcDbLine
 10
0.2502798867075811
 20
0.5004999999998994
 30
0.0
 11
0.2502798867075811
 21
2.874990000000001
 31
0.0
  0
LINE
  5
36E
330
368
100
AcDbEntity
  8
0
100
AcDbLine
 10
1.512633601162418
 20
0.8749999999999076
 30
0.0
 11
1.512633601162408
 21
2.87499
 31
0.0
  0
LINE
  5
36F
330
368
100
AcDbEntity
  8
0
100
AcDbLine
 10
1.000279886707581
 20
0.5004999999998994
 30
0.0
 11
1.000279886707581
 21
2.874990000000001
 31
0.0
  0
LINE
  5
370
330
368
100
AcDbEntity
  8
0
100
AcDbLine
 10
0.7502798867075811
 20
0.5004999999998994
 30
0.0
 11
0.7502798867075811
 21
2.874990000000001
 31
0.0
  0
INSERT
  5
371
330
368
100
AcDbEntity
  8
0
100
AcDbBlockReference
  2
B027074-M1
 10
1.307279886707576
 20
0.6164999999999026
 30
0.0
  0
INSERT
  5
372
330
368
100
AcDbEntity
  8
0
100
AcDbBlockReference
  2
B027074-M1
 10
-0.306720113292414
 20
0.6164999999999026
 30
0.0
 41
-1.0
  0
LINE
  5
373
330
368
100
AcDbEntity
  8
0
100
AcDbLine
 10
0.0002798867075811
 20
0.5004999999998994
 30
0.0
 11
1.000279886707581
 21
0.5004999999998994
 31
0.0
  0
ENDBLK
  5
374
330
368
100
AcDbEntity
  8
0
100
AcDbBlockEnd
  0
BLOCK
  5
378
330
375
100
AcDbEntity
  8
0
100
AcDbBlockBegin
  2
S175GT1125
 70
     0
 10
0.0
 20
0.0
 30
0.0
  3
S175GT1125
  1

  0
LINE
  5
379
330
375
100
AcDbEntity
  8
0
100
AcDbLine
 10
0.1877798867075757
 20
0.5004999999998994
 30
0.0
 11
0.1877798867075757
 21
2.249999999999893
 31
0.0
  0
LINE
  5
37A
330
375
100
AcDbEntity
  8
0
100
AcDbLine
 10
-0.0622201132924243
 20
0.5004999999998994
 30
0.0
 11
-0.0622201132924243
 21
2.249999999999893
 31
0.0
  0
LINE
  5
37B
330
375
100
AcDbEntity
  8
0
100
AcDbLine
 10
0.8127798867075757
 20
0.5004999999998994
 30
0.0
 11
0.8127798867075757
 21
2.249999999999893
 31
0.0
  0
LINE
  5
37C
330
375
100
AcDbEntity
  8
0
100
AcDbLine
 10
1.062779886707575
 20
0.5004999999998994
 30
0.0
 11
1.062779886707575
 21
2.249999999999893
 31
0.0
  0
LINE
  5
37D
330
375
100
AcDbEntity
  8
0
100
AcDbLine
 10
1.512633601162413
 20
0.8749999999999111
 30
0.0
 11
1.512633601162406
 21
2.249999999999889
 31
0.0
  0
LINE
  5
37E
330
375
100
AcDbEntity
  8
0
100
AcDbLine
 10
1.062779886707575
 20
0.5004999999998994
 30
0.0
 11
-0.0622201132924243
 21
0.5004999999998994
 31
0.0
  0
LINE
  5
37F
330
375
100
AcDbEntity
  8
0
100
AcDbLine
 10
0.8127798867075757
 20
0.6874999999999006
 30
0.0
 11
0.1877798867075757
 21
0.6874999999999006
 31
0.0
  0
INSERT
  5
380
330
375
100
AcDbEntity
  8
0
100
AcDbBlockReference
  2
B027076-M1
 10
1.30727988670757
 20
0.6164999999999026
 30
0.0
  0
LINE
  5
381
330
375
100
AcDbEntity
  8
0
100
AcDbLine
 10
-0.5120738277472619
 20
0.8749999999999111
 30
0.0
 11
-0.5120738277472548
 21
2.249999999999889
 31
0.0
  0
INSERT
  5
382
330
375
100
AcDbEntity
  8
0
100
AcDbBlockReference
  2
B027076-M1
 10
-0.3067201132924193
 20
0.6164999999999026
 30
0.0
 41
-1.0
  0
ENDBLK
  5
383
330
375
100
AcDbEntity
  8
0
100
AcDbBlockEnd
  0
BLOCK
  5
587
330
586
100
AcDbEntity
  8
0
  6
Continuous
 62
     7
100
AcDbBlockBegin
  2
B175310
 70
     0
 10
14.39954331594512
 20
6.103638012940372
 30
0.0
  3
B175310
  1
M:\PRODUCTS\SFRONT\ENCORE\WBLOCKS\B175310.DWG
  0
LWPOLYLINE
  5
588
330
586
100
AcDbEntity
  8
0
100
AcDbPolyline
 90
       49
 70
     1
 43
0.0
 10
13.9011621979816
 20
6.149087725376844
 10
13.80329770655387
 20
6.149087725376848
 42
-0.8390996311772736
 10
13.79474720297073
 20
6.197580040896497
 10
13.89552610973363
 20
6.234260563200077
 42
0.3178372451958491
 10
13.93500234595173
 20
6.291195849043365
 42
0.5176380902049651
 10
13.91487268259744
 20
6.30515280620612
 10
13.78011796832192
 20
6.256106101282785
 42
0.315298788878987
 10
13.67747311068072
 20
6.109514052440182
 10
13.67747311068072
 20
6.09866139831351
 42
0.315298788878986
 10
13.78011796832192
 20
5.95206934947091
 10
13.91487268259737
 20
5.903022644547597
 42
0.5176380902051414
 10
13.9350023459517
 20
5.916979601710359
 42
0.3178372451957014
 10
13.89552610973363
 20
5.973914887553615
 10
13.79474720297072
 20
6.010595409857199
 42
-0.8390996311772754
 10
13.80329770655386
 20
6.059087725376848
 10
13.9011621979816
 20
6.059087725376848
 42
-0.304694561002323
 10
13.98448032320793
 20
6.003118446920339
 42
0.234468587772891
 10
14.07785162946786
 20
5.920825509196404
 10
14.2576898137849
 20
5.872638012940377
 10
14.33848745106992
 20
5.872638012940377
 42
0.4142135623730951
 10
14.41348745106992
 20
5.94763801294038
 10
14.41348745106992
 20
5.968773076868963
 42
0.2679491924310998
 10
14.37598745106993
 20
6.033724982152794
 10
14.35796821318346
 20
6.044128393997141
 42
0.1316524975874127
 10
14.35046821318346
 20
6.046138012940375
 10
14.31205143631702
 20
6.046138012940375
 42
0.466307658155023
 10
14.29727932002184
 20
6.028533290275369
 10
14.30267308630053
 20
5.997943721639707
 42
-0.5486187866266593
 10
14.26536428235709
 20
5.963756501521025
 10
14.10114534352709
 20
6.007758833562423
 42
-0.3394542588633731
 10
14.06408629578221
 20
6.056055124876877
 10
14.06408629578221
 20
6.152120325876818
 42
-0.3394542588633806
 10
14.10114534352709
 20
6.200416617191272
 10
14.26553073978901
 20
6.244463551367125
 42
-0.5486187866267027
 10
14.30283954373246
 20
6.210276331248444
 10
14.29727932002183
 20
6.178742735605379
 42
0.4663076581549861
 10
14.31205143631701
 20
6.161138012940376
 10
14.35046821318346
 20
6.161138012940376
 42
0.1316524975873938
 10
14.35796821318346
 20
6.16314763188361
 10
14.37598745106992
 20
6.173551043727954
 42
0.2713314781362632
 10
14.41348148615623
 20
6.239448835618944
 42
-0.4179124203606424
 10
14.42848029317349
 20
6.254638012940375
 10
14.62594322397313
 20
6.254638012940375
 42
0.4142135623730777
 10
14.65594322397313
 20
6.284638012940376
 10
14.65594322397313
 20
6.304638012940372
 42
0.4142135623731124
 10
14.62594322397313
 20
6.334638012940377
 10
14.25433311446149
 20
6.334638012940377
 10
14.07785162946786
 20
6.287349941557287
 42
0.2344685877728889
 10
13.98448032320793
 20
6.205057003833356
 42
-0.3046945610023244
1001
ACAD
1000
ASC_BOUNDS
1002
{
1070
    19
1002
}
  0
POINT
  5
589
330
586
100
AcDbEntity
  8
0
 62
     4
100
AcDbPoint
 10
14.39954331594512
 20
6.103638012940372
 30
0.0
  0
POINT
  5
58A
330
586
100
AcDbEntity
  8
0
100
AcDbPoint
 10
14.39954331594512
 20
6.103638012940372
 30
0.0
  0
POINT
  5
58B
330
586
100
AcDbEntity
  8
0
100
AcDbPoint
 10
14.39954331594512
 20
6.103638012940372
 30
0.0
  0
ENDBLK
  5
58C
330
586
100
AcDbEntity
  8
0
  6
Continuous
 62
     7
100
AcDbBlockEnd
  0
BLOCK
  5
58E
330
58D
100
AcDbEntity
  8
0
  6
Continuous
 62
     7
100
AcDbBlockBegin
  2
B175155
 70
     0
 10
12.09225198202223
 20
3.651648163025951
 30
0.0
  3
B175155
  1
M:\PRODUCTS\SFRONT\ENCORE\WBLOCKS\B175155.DWG
  0
POINT
  5
58F
330
58D
100
AcDbEntity
  8
0
 62
     4
100
AcDbPoint
 10
12.09225198202223
 20
3.651648163025951
 30
0.0
  0
LWPOLYLINE
  5
590
330
58D
100
AcDbEntity
  8
0
100
AcDbPolyline
 90
       56
 70
     1
 43
0.0
 10
11.90453186872981
 20
3.065148163025853
 10
11.90453186872981
 20
2.847148163025851
 10
11.85553186872982
 20
2.847148163025851
 42
-0.4142135623730951
 10
11.83553186872982
 20
2.86714816302585
 10
11.83553186872982
 20
2.879148163025854
 10
11.86453186872982
 20
2.879148163025854
 10
11.86453186872982
 20
2.956148163025853
 42
1.0
 10
11.70653186872982
 20
2.956148163025853
 10
11.70653186872982
 20
2.879148163025854
 10
11.73553186872982
 20
2.879148163025854
 10
11.70653186872982
 20
2.796648163025849
 10
11.65353274369589
 20
2.806648163025849
 10
11.64253186872981
 20
2.776648163025851
 10
11.28053186872981
 20
2.776648163025851
 10
11.28053186872981
 20
4.526648163025852
 10
11.64253186872982
 20
4.526648163025849
 10
11.65353274369589
 20
4.496648163025851
 10
11.70653186872982
 20
4.50664816302585
 10
11.73553186872982
 20
4.424148163025847
 10
11.70653186872982
 20
4.424148163025847
 10
11.70653186872982
 20
4.347148163025849
 42
1.0
 10
11.86453186872982
 20
4.347148163025849
 10
11.86453186872982
 20
4.424148163025847
 10
11.83553186872982
 20
4.424148163025847
 10
11.83553186872982
 20
4.436148163025851
 42
-0.4142135623730951
 10
11.85553186872982
 20
4.456148163025851
 10
11.90453186872981
 20
4.456148163025851
 10
11.90453186872981
 20
4.238148163025851
 42
-0.4142135623730431
 10
11.88453186872981
 20
4.218148163025849
 10
11.78553186872982
 20
4.218148163025851
 42
-0.3770804301294552
 10
11.65759416975121
 20
4.33062711039428
 42
0.3770804301294248
 10
11.50287881284683
 20
4.46664816302585
 10
11.37053186872982
 20
4.466648163025853
 42
0.4142135623730951
 10
11.34053186872982
 20
4.436648163025852
 10
11.34053186872981
 20
3.900934604650396
 10
11.76635546679295
 20
3.900934604650396
 42
-0.8769746978767273
 10
11.77412015379693
 20
3.841956860850542
 10
11.64060332908421
 20
3.806180564365161
 42
-0.5773515995314433
 10
11.62835584181999
 20
3.818428002749471
 10
11.6336929640825
 20
3.838346414199374
 42
0.4931454260313212
 10
11.62403370581961
 20
3.850934604650398
 10
11.34053186872981
 20
3.850934604650399
 10
11.34053186872981
 20
3.452361721401506
 10
11.62403370581961
 20
3.45236172140151
 42
0.4931454260313071
 10
11.6336929640825
 20
3.464949911852536
 10
11.62835584181999
 20
3.484868323302437
 42
-0.5773515995314308
 10
11.64060332908421
 20
3.497115761686749
 10
11.77412015379693
 20
3.461339465201367
 42
-0.8769746978767225
 10
11.76635546679295
 20
3.402361721401516
 10
11.34053186872981
 20
3.402361721401509
 10
11.34053186872982
 20
2.866648163025851
 42
0.4142135623730908
 10
11.37053186872982
 20
2.83664816302585
 10
11.50287881284683
 20
2.83664816302585
 42
0.3770804301294404
 10
11.65759416975121
 20
2.972669215657426
 42
-0.3770804301294486
 10
11.78553186872982
 20
3.085148163025852
 10
11.88453186872981
 20
3.085148163025852
 42
-0.4142135623730951
  0
ENDBLK
  5
591
330
58D
100
AcDbEntity
  8
0
  6
Continuous
 62
     7
100
AcDbBlockEnd
  0
BLOCK
  5
593
330
592
100
AcDbEntity
  8
0
  6
Continuous
 62
     7
100
AcDbBlockBegin
  2
445109
 70
     0
 10
6.892389984766333
 20
9.430263529550666
 30
0.0
  3
445109
  1
M:/PRODUCTS/SFRONT/ENCORE/WBLOCKS/445109.DWG
  0
ARC
  5
594
330
592
100
AcDbEntity
  8
0
100
AcDbCircle
 10
6.939373844766333
 20
9.383263565050665
 30
0.0
 40
0.016
100
AcDbArc
 50
359.99997
 51
165.5222
  0
LINE
  5
595
330
592
100
AcDbEntity
  8
0
100
AcDbLine
 10
6.892389984766333
 20
9.469263484050667
 30
0.0
 11
6.892389984766333
 21
9.391263575050665
 31
0.0
  0
LINE
  5
596
330
592
100
AcDbEntity
  8
0
100
AcDbLine
 10
6.861389984766333
 20
9.471263484050666
 30
0.0
 11
6.861389984766333
 21
9.389263605050665
 31
0.0
  0
ARC
  5
597
330
592
100
AcDbEntity
  8
0
100
AcDbCircle
 10
6.892389984766333
 20
9.389263605050665
 30
0.0
 40
0.031
100
AcDbArc
 50
180.0
 51
270.1467098
  0
LINE
  5
598
330
592
100
AcDbEntity
  8
0
100
AcDbLine
 10
6.962389884766334
 20
9.358263585050664
 30
0.0
 11
7.071389884766333
 21
9.358263585050664
 31
0.0
  0
LINE
  5
599
330
592
100
AcDbEntity
  8
0
100
AcDbLine
 10
6.955373814766334
 20
9.383263565050665
 30
0.0
 11
7.173389884766333
 21
9.383263565050665
 31
0.0
  0
ARC
  5
59A
330
592
100
AcDbEntity
  8
0
100
AcDbCircle
 10
6.908389984766333
 20
9.391263575050665
 30
0.0
 40
0.016
100
AcDbArc
 50
180.0
 51
345.522639999999
  0
LINE
  5
59B
330
592
100
AcDbEntity
  8
0
100
AcDbLine
 10
6.962389784766333
 20
9.358263585050664
 30
0.0
 11
6.954389864766334
 21
9.305263685050665
 31
0.0
  0
LINE
  5
59C
330
592
100
AcDbEntity
  8
0
100
AcDbLine
 10
6.954389864766334
 20
9.305263685050665
 30
0.0
 11
6.946389904766334
 21
9.358263585050664
 31
0.0
  0
LINE
  5
59D
330
592
100
AcDbEntity
  8
0
100
AcDbLine
 10
6.892389984766333
 20
9.358263585050664
 30
0.0
 11
6.946389904766334
 21
9.358263585050664
 31
0.0
  0
LINE
  5
59E
330
592
100
AcDbEntity
  8
0
100
AcDbLine
 10
7.087389784766333
 20
9.358263585050664
 30
0.0
 11
7.079389784766334
 21
9.305263685050665
 31
0.0
  0
LINE
  5
59F
330
592
100
AcDbEntity
  8
0
100
AcDbLine
 10
7.079389784766334
 20
9.305263685050665
 30
0.0
 11
7.071389784766335
 21
9.358263585050664
 31
0.0
  0
ARC
  5
5A0
330
592
100
AcDbEntity
  8
0
100
AcDbCircle
 10
7.148389884766334
 20
9.383263625050666
 30
0.0
 40
0.02500004
100
AcDbArc
 50
270.1769387000001
 51
359.99997
  0
LINE
  5
5A1
330
592
100
AcDbEntity
  8
0
100
AcDbLine
 10
7.087389884766334
 20
9.358263585050664
 30
0.0
 11
7.148389884766334
 21
9.358263585050664
 31
0.0
  0
ARC
  5
5A2
330
592
100
AcDbEntity
  8
0
100
AcDbCircle
 10
6.892389984766333
 20
9.471263484050666
 30
0.0
 40
0.031
100
AcDbArc
 50
89.95569999999998
 51
180.0
  0
LINE
  5
5A3
330
592
100
AcDbEntity
  8
0
100
AcDbLine
 10
7.071389884766333
 20
9.502263485050665
 30
0.0
 11
6.962389884766334
 21
9.502263485050665
 31
0.0
  0
LINE
  5
5A4
330
592
100
AcDbEntity
  8
0
100
AcDbLine
 10
7.173389884766333
 20
9.477263485050666
 30
0.0
 11
6.955373814766334
 21
9.477263485050666
 31
0.0
  0
LINE
  5
5A5
330
592
100
AcDbEntity
  8
0
100
AcDbLine
 10
6.946389904766334
 20
9.502263485050665
 30
0.0
 11
6.954389924766335
 21
9.555263375050664
 31
0.0
  0
LINE
  5
5A6
330
592
100
AcDbEntity
  8
0
100
AcDbLine
 10
6.954389924766335
 20
9.555263375050664
 30
0.0
 11
6.962389884766334
 21
9.502263475050664
 31
0.0
  0
ARC
  5
5A7
330
592
100
AcDbEntity
  8
0
100
AcDbCircle
 10
6.908389984766333
 20
9.469263484050667
 30
0.0
 40
0.0160000000000003
100
AcDbArc
 50
14.4775000000008
 51
180.0
  0
LINE
  5
5A8
330
592
100
AcDbEntity
  8
0
100
AcDbLine
 10
6.946389904766334
 20
9.502263485050665
 30
0.0
 11
6.892389984766333
 21
9.502263485050665
 31
0.0
  0
ARC
  5
5A9
330
592
100
AcDbEntity
  8
0
100
AcDbCircle
 10
6.939373844766333
 20
9.477263486153351
 30
0.0
 40
0.016
100
AcDbArc
 50
194.4775
 51
359.99991
  0
LINE
  5
5AA
330
592
100
AcDbEntity
  8
0
100
AcDbLine
 10
7.071389884766333
 20
9.502263495050666
 30
0.0
 11
7.079389884766333
 21
9.555263315050666
 31
0.0
  0
LINE
  5
5AB
330
592
100
AcDbEntity
  8
0
100
AcDbLine
 10
7.079389884766333
 20
9.555263375050664
 30
0.0
 11
7.087389884766334
 21
9.502263475050664
 31
0.0
  0
ARC
  5
5AC
330
592
100
AcDbEntity
  8
0
100
AcDbCircle
 10
7.148389884766334
 20
9.477263483560548
 30
0.0
 40
0.02500004
100
AcDbArc
 50
359.99997
 51
89.89160000000001
  0
LINE
  5
5AD
330
592
100
AcDbEntity
  8
0
100
AcDbLine
 10
7.148389884766334
 20
9.502263485050665
 30
0.0
 11
7.087389884766334
 21
9.502263485050665
 31
0.0
  0
ENDBLK
  5
5AE
330
592
100
AcDbEntity
  8
0
  6
Continuous
 62
     7
100
AcDbBlockEnd
  0
BLOCK
  5
5B0
330
5AF
100
AcDbEntity
  8
0
100
AcDbBlockBegin
  2
B175029
 70
     0
 10
0.0
 20
0.0
 30
0.0
  3
B175029
  1

  0
LWPOLYLINE
  5
5B1
330
5AF
100
AcDbEntity
  8
0
100
AcDbPolyline
 90
       53
 70
     1
 43
0.0
 10
2.225099380733279
 20
0.6388863636363773
 42
-0.6446448688013791
 10
2.213818431568867
 20
0.6140000000000044
 10
2.165894785395217
 20
0.6139999999999973
 42
-0.2822912805812102
 10
2.152523080558715
 20
0.6222031249999987
 42
-0.2537092197527079
 10
2.156158367258825
 20
0.758499999999998
 42
0.5773502691897037
 10
2.129311579741511
 20
0.8050000000000032
 10
1.180688420258505
 20
0.8050000000000032
 42
0.5773502691896267
 10
1.153841632741176
 20
0.758499999999998
 42
-0.2537092197527111
 10
1.157476919441272
 20
0.6222031250000022
 42
-0.2822912805812033
 10
1.144105214604778
 20
0.6139999999999973
 10
1.09618156843112
 20
0.6139999999999973
 42
-0.6446448688014004
 10
1.084900619266711
 20
0.6388863636363809
 42
2.206052281035934
 10
0.9750993807332797
 20
0.6388863636363773
 42
-0.6446448688013255
 10
0.9638184315688675
 20
0.6140000000000044
 10
0.915894785395217
 20
0.6139999999999973
 42
-0.2822912805812102
 10
0.9025230805587156
 20
0.6222031249999987
 42
-0.2537092197527079
 10
0.9061583672588255
 20
0.758499999999998
 42
0.5773502691897037
 10
0.8793115797415111
 20
0.8050000000000032
 10
0.8109999999999963
 20
0.8050000000000032
 42
0.4142135623730978
 10
0.7169999999999988
 20
0.7110000000000021
 10
0.7169999999999988
 20
-0.7109999999999915
 42
0.4142135623730965
 10
0.8109999999999963
 20
-0.8049999999999926
 10
0.8793115797415467
 20
-0.8049999999999926
 42
0.577350269189734
 10
0.9061583672588611
 20
-0.7584999999999838
 42
-0.2537092197527396
 10
0.9025230805587156
 20
-0.622203124999988
 42
-0.282291280581203
 10
0.915894785395217
 20
-0.6139999999999901
 10
0.963818431568967
 20
-0.6139999999999937
 42
-0.6446448688012955
 10
0.9750993807332797
 20
-0.6388863636363667
 42
2.206052281038198
 10
1.084900619266676
 20
-0.638886363636324
 42
-0.6446448688016464
 10
1.09618156843102
 20
-0.6139999999999901
 10
1.144105214604778
 20
-0.6139999999999901
 42
-0.2822912805812033
 10
1.157476919441272
 20
-0.6222031249999916
 42
-0.2537092197527584
 10
1.153841632741126
 20
-0.7584999999999873
 42
0.5773502691896953
 10
1.180688420258441
 20
-0.8049999999999926
 10
2.129311579741546
 20
-0.8049999999999926
 42
0.577350269189734
 10
2.156158367258861
 20
-0.7584999999999838
 42
-0.2537092197527396
 10
2.152523080558715
 20
-0.622203124999988
 42
-0.2822912805812102
 10
2.165894785395217
 20
-0.6139999999999901
 10
2.213818431568967
 20
-0.6139999999999937
 42
-0.6446448688012955
 10
2.225099380733279
 20
-0.6388863636363667
 42
2.206052281038203
 10
2.334900619266676
 20
-0.638886363636324
 42
-0.6446448688016464
 10
2.34618156843102
 20
-0.6139999999999866
 10
2.414999999999995
 20
-0.6139999999999901
 10
2.414999999999995
 20
-0.3369999999999962
 42
-0.4142135623730736
 10
2.499999999999992
 20
-0.2519999999999989
 10
2.679999999999996
 20
-0.2519999999999918
 10
2.679999999999992
 20
0.8050000000000068
 10
2.430688420258498
 20
0.8050000000000068
 42
0.5773502691896335
 10
2.403841632741176
 20
0.758499999999998
 42
-0.2537092197527111
 10
2.407476919441272
 20
0.6222031250000022
 42
-0.2822912805812033
 10
2.394105214604778
 20
0.6139999999999973
 10
2.34618156843112
 20
0.6139999999999973
 42
-0.6446448688014004
 10
2.334900619266711
 20
0.6388863636363809
 42
2.206052281035921
  0
LWPOLYLINE
  5
5B2
330
5AF
100
AcDbEntity
  8
0
100
AcDbPolyline
 90
       66
 70
     1
 43
0.0
 10
-0.2687087915240518
 20
0.0408408733825638
 42
0.3271555718464479
 10
-0.2982680216299052
 20
0.0625
 10
-0.3044059382469726
 20
0.0625
 42
0.4142135623730951
 10
-0.3194059382469732
 20
0.0474999999999994
 10
-0.3194059382469696
 20
-0.0474999999999959
 42
0.4142135623730951
 10
-0.304405938246969
 20
-0.0624999999999965
 10
-0.2982680216299052
 20
-0.0624999999999965
 42
0.3271555718464121
 10
-0.2687087915239985
 20
-0.040840873382578
 42
-0.5004340286156099
 10
-0.2460448512270332
 20
-0.0329070479797871
 10
-0.1062870290114688
 20
-0.1239235561906362
 42
0.6302003646969859
 10
-0.0985190265095462
 20
-0.1193365765313814
 10
-0.1028354176532211
 20
-0.0699999999999896
 10
0.0261645823467802
 20
-0.0699999999999967
 10
0.0261645823467802
 20
-0.0624999999999965
 10
0.6269999999999954
 20
-0.0625000000000213
 10
0.6269999999998248
 20
-0.7405348572236186
 42
-1.118619944064283
 10
0.5474999999999888
 20
-0.7405348572236186
 10
0.5474999999999853
 20
-0.6954999999999956
 42
0.3099784510129123
 10
0.4521656314601082
 20
-0.5565000000000211
 10
0.3044999999999831
 20
-0.5565000000000211
 42
0.4142135623729286
 10
0.2794999999999916
 20
-0.5814999999999984
 10
0.2794999999999845
 20
-0.8044999999999973
 10
0.3284999999999911
 20
-0.8044999999999973
 42
0.4142135623730951
 10
0.3484999999999871
 20
-0.7845000000000013
 10
0.3484999999999871
 20
-0.7724999999999938
 10
0.3194999999999908
 20
-0.7724999999999938
 10
0.3194999999999837
 20
-0.6954999999999956
 42
-1.0
 10
0.477499999999985
 20
-0.6954999999999956
 10
0.477499999999985
 20
-0.7724999999999938
 10
0.4484999999999886
 20
-0.7724999999999938
 10
0.4774999999999921
 20
-0.8549999999999968
 10
0.5304991250339129
 20
-0.8449999999999988
 10
0.5410445795793635
 20
-0.8749999999999928
 10
2.296999999999965
 20
-0.8750000000000532
 42
0.414213562373106
 10
2.484999999999999
 20
-0.6870000000000261
 10
2.484999999999995
 20
-0.3369999999999962
 42
-0.4142135623730778
 10
2.499999999999996
 20
-0.3219999999999956
 10
2.672999999999998
 20
-0.3219999999999956
 42
-0.4142135623731297
 10
2.687999999999995
 20
-0.3369999999999962
 10
2.687999999999995
 20
-0.8749999999999964
 10
2.749999999999996
 20
-0.8749999999999928
 10
2.749999999999996
 20
0.875
 10
0.6995445795793743
 20
0.8750000000000035
 10
0.6889991250339236
 20
0.8450000000000059
 10
0.6359999999999957
 20
0.8550000000000075
 10
0.6069999999999994
 20
0.7725000000000044
 10
0.6359999999999957
 20
0.7725000000000044
 10
0.6359999999999957
 20
0.6955000000000063
 42
-1.0
 10
0.4779999999999945
 20
0.6955000000000063
 10
0.4780000000000016
 20
0.7725000000000044
 10
0.5069999999999979
 20
0.7725000000000044
 10
0.5069999999999979
 20
0.784500000000012
 42
0.4142135623730951
 10
0.4870000000000019
 20
0.8045000000000079
 10
0.4379999999999953
 20
0.8045000000000079
 10
0.4380000000000024
 20
0.581500000000009
 42
0.3224291363344798
 10
0.4550604879702292
 20
0.557794216977122
 10
0.5649999999999978
 20
0.5174299516908292
 10
0.5649999999999978
 20
0.5390000000000051
 10
0.6269999999999954
 20
0.5390000000000051
 10
0.6269999999999989
 20
0.0625000000000036
 10
0.0261446660114189
 20
0.0625000000000036
 10
0.0261446660114189
 20
0.0700000000000038
 10
-0.1028553339885825
 20
0.0700000000000038
 10
-0.0985190265095462
 20
0.1195642212862644
 42
0.6309963913484796
 10
-0.1062964789493321
 20
0.1241448408275794
 10
-0.2460165015304554
 20
0.0329261282543385
 42
-0.5011464070124468
  0
ENDBLK
  5
5B3
330
5AF
100
AcDbEntity
  8
0
100
AcDbBlockEnd
  0
BLOCK
  5
5B7
330
5B4
100
AcDbEntity
  8
0
100
AcDbBlockBegin
  2
S175GT250A
 70
     0
 10
0.0
 20
0.0
 30
0.0
  3
S175GT250A
  1

  0
LINE
  5
5B8
330
5B4
100
AcDbEntity
  8
0
100
AcDbLine
 10
0.7623537144548394
 20
0.8750000000000106
 30
0.0
 11
0.7623537144548376
 21
2.874990000000103
 31
0.0
  0
LINE
  5
5B9
330
5B4
100
AcDbEntity
  8
0
100
AcDbLine
 10
0.0000000000000018
 20
0.5005000000000024
 30
0.0
 11
0.0000000000000018
 21
2.874990000000103
 31
0.0
  0
LINE
  5
5BA
330
5B4
100
AcDbEntity
  8
0
100
AcDbLine
 10
0.2500000000000018
 20
0.5005000000000024
 30
0.0
 11
0.2499999999999982
 21
2.874990000000103
 31
0.0
  0
LINE
  5
5BB
330
5B4
100
AcDbEntity
  8
0
100
AcDbLine
 10
0.2500000000000018
 20
0.5005000000000024
 30
0.0
 11
0.0000000000000018
 21
0.5005000000000024
 31
0.0
  0
INSERT
  5
5BC
330
5B4
100
AcDbEntity
  8
0
100
AcDbBlockReference
  2
B027074-M1
 10
0.5569999999999969
 20
0.6165000000000056
 30
0.0
  0
INSERT
  5
5BD
330
5B4
100
AcDbEntity
  8
0
100
AcDbBlockReference
  2
B027074-M1
 10
-0.3069999999999933
 20
0.6165000000000056
 30
0.0
 41
-1.0
  0
LINE
  5
5BE
330
5B4
100
AcDbEntity
  8
0
100
AcDbLine
 10
-0.5123537144548358
 20
0.8750000000000106
 30
0.0
 11
-0.5123537144548358
 21
2.874990000000103
 31
0.0
  0
ENDBLK
  5
5BF
330
5B4
100
AcDbEntity
  8
0
100
AcDbBlockEnd
  0
BLOCK
  5
604
330
603
100
AcDbEntity
  8
0
  6
Continuous
 62
     7
100
AcDbBlockBegin
  2
B175309B
 70
     0
 10
10.39605341995168
 20
17.50813853709001
 30
0.0
  3
B175309B
  1
M:/PRODUCTS/SFRONT/ENCORE/WBLOCKS/B175309B
  0
POINT
  5
605
330
603
100
AcDbEntity
  8
0
100
AcDbPoint
 10
10.39605341995168
 20
17.50813853709001
 30
0.0
  0
POINT
  5
606
330
603
100
AcDbEntity
  8
0
100
AcDbPoint
 10
10.39605341995168
 20
17.50813853709001
 30
0.0
  0
POINT
  5
607
330
603
100
AcDbEntity
  8
0
100
AcDbPoint
 10
10.39605341995168
 20
17.50813853709001
 30
0.0
  0
POINT
  5
608
330
603
100
AcDbEntity
  8
0
100
AcDbPoint
 10
10.39605341995168
 20
17.50813853709001
 30
0.0
  0
POINT
  5
609
330
603
100
AcDbEntity
  8
0
100
AcDbPoint
 10
10.39605341995168
 20
17.50813853709001
 30
0.0
  0
POINT
  5
60A
330
603
100
AcDbEntity
  8
0
100
AcDbPoint
 10
10.39605341995168
 20
17.50813853709001
 30
0.0
  0
POINT
  5
60B
330
603
100
AcDbEntity
  8
0
100
AcDbPoint
 10
10.39605341995168
 20
17.50813853709001
 30
0.0
  0
LWPOLYLINE
  5
60C
330
603
100
AcDbEntity
  8
0
100
AcDbPolyline
 90
       11
 70
     1
 43
0.0
 10
10.95433975210656
 20
17.57063853709001
 10
10.95433975210656
 20
17.88463853709001
 10
11.0151949330124
 20
17.88463853709001
 10
11.01683975210656
 20
17.94663853709001
 10
10.95483975210656
 20
18.00863853709001
 10
10.32933975210656
 20
18.00863853709001
 10
10.32933975210656
 20
17.57063853709001
 10
10.39133975210656
 20
17.57063853709001
 10
10.39133975210656
 20
17.63263853709001
 10
10.54733975210656
 20
17.63263853709001
 10
10.54733975210656
 20
17.57063853709001
  0
ENDBLK
  5
60D
330
603
100
AcDbEntity
  8
0
  6
Continuous
 62
     7
100
AcDbBlockEnd
  0
BLOCK
  5
60F
330
60E
100
AcDbEntity
  8
0
100
AcDbBlockBegin
  2
028400
 70
     0
 10
0.0
 20
0.0
 30
0.0
  3
028400
  1

  0
LINE
  5
610
330
60E
100
AcDbEntity
  8
0
100
AcDbLine
 10
-0.06649989
 20
0.1865000000000001
 30
0.0
 11
0.0
 21
0.1865000000000001
 31
0.0
  0
LINE
  5
611
330
60E
100
AcDbEntity
  8
0
100
AcDbLine
 10
-0.06649989
 20
-0.1864999999999999
 30
0.0
 11
0.0
 21
-0.1864999999999999
 31
0.0
  0
LINE
  5
612
330
60E
100
AcDbEntity
  8
0
100
AcDbLine
 10
1.468749499999999
 20
-0.09499973
 30
0.0
 11
1.593749499999999
 21
-0.0649997599999999
 31
0.0
  0
LINE
  5
613
330
60E
100
AcDbEntity
  8
0
100
AcDbLine
 10
0.0
 20
0.0949999700000002
 30
0.0
 11
1.4687489
 21
0.0949999700000002
 31
0.0
  0
LINE
  5
614
330
60E
100
AcDbEntity
  8
0
100
AcDbLine
 10
0.0
 20
-0.09499997
 30
0.0
 11
1.4687489
 21
-0.09499997
 31
0.0
  0
LINE
  5
615
330
60E
100
AcDbEntity
  8
0
100
AcDbLine
 10
1.59375
 20
0.0650000000000001
 30
0.0
 11
1.59375
 21
-0.0649999999999999
 31
0.0
  0
LINE
  5
616
330
60E
100
AcDbEntity
  8
0
100
AcDbLine
 10
1.468749499999999
 20
0.0949997300000002
 30
0.0
 11
1.593749499999999
 21
0.0649997600000001
 31
0.0
  0
LINE
  5
617
330
60E
100
AcDbEntity
  8
CENTER
100
AcDbLine
 10
-0.2029999
 20
0.0000000000000001
 30
0.0
 11
1.66375
 21
0.0000000000000001
 31
0.0
  0
ARC
  5
618
330
60E
100
AcDbEntity
  8
0
100
AcDbCircle
 10
0.1617705
 20
0.0000000000000001
 30
0.0
 40
0.2947704
100
AcDbArc
 50
140.7507
 51
219.2493
  0
ENDBLK
  5
619
330
60E
100
AcDbEntity
  8
0
100
AcDbBlockEnd
  0
BLOCK
  5
61B
330
61A
100
AcDbEntity
  8
0
100
AcDbBlockBegin
  2
B175502A
 70
     0
 10
0.0
 20
0.0
 30
0.0
  3
B175502A
  1

  0
INSERT
  5
61C
330
61A
100
AcDbEntity
  8
HIDDEN
100
AcDbBlockReference
  2
028400
 10
-2.124999999999993
 20
2.279999999999993
 30
0.0
 43
-1.0
210
0.0
220
0.0
230
-1.0
  0
INSERT
  5
61D
330
61A
100
AcDbEntity
  8
HIDDEN
100
AcDbBlockReference
  2
028400
 10
-2.124999999999993
 20
1.528999999999995
 30
0.0
 43
-1.0
210
0.0
220
0.0
230
-1.0
  0
INSERT
  5
61E
330
61A
100
AcDbEntity
  8
HIDDEN
100
AcDbBlockReference
  2
028400
 10
-2.124999999999993
 20
1.029999999999992
 30
0.0
 43
-1.0
210
0.0
220
0.0
230
-1.0
  0
LWPOLYLINE
  5
61F
330
61A
100
AcDbEntity
  8
HIDDEN
100
AcDbPolyline
 90
        4
 70
     1
 43
0.0
 10
2.124999999999993
 20
2.591999999999993
 10
0.8749999999999937
 20
2.591999999999993
 10
0.8749999999999937
 20
0.7169999999999935
 10
2.124999999999993
 20
0.7169999999999935
  0
ENDBLK
  5
620
330
61A
100
AcDbEntity
  8
0
100
AcDbBlockEnd
  0
BLOCK
  5
6A7
330
6A6
100
AcDbEntity
  8
0
100
AcDbBlockBegin
  2
B175009
 70
     0
 10
0.0
 20
0.0
 30
0.0
  3
B175009
  1

  0
LWPOLYLINE
  5
6A8
330
6A6
100
AcDbEntity
  8
0
100
AcDbPolyline
 90
       55
 70
     1
 43
0.0
 10
1.725099380733283
 20
0.6388863636363738
 42
-0.644644868801449
 10
1.713818431568881
 20
0.6140000000000044
 10
1.665894785395153
 20
0.6139999999999973
 42
-0.2822912805813455
 10
1.652523080558651
 20
0.6222031250000022
 42
-0.2537092197526383
 10
1.656158367258811
 20
0.7584999999999873
 42
0.5773502691896269
 10
1.629311579741468
 20
0.8050000000000032
 10
1.591999999999984
 20
0.8050000000000032
 42
0.414213562373091
 10
1.466999999999998
 20
0.6799999999999998
 10
1.466999999999998
 20
-0.6799999999999962
 42
0.4142135623730857
 10
1.591999999999998
 20
-0.8049999999999926
 10
1.629311579741496
 20
-0.8049999999999926
 42
0.5773502691897184
 10
1.656158367258811
 20
-0.7584999999999873
 42
-0.253709219752613
 10
1.652523080558694
 20
-0.6222031250000271
 42
-0.2822912805813981
 10
1.665894785395138
 20
-0.6139999999999866
 10
1.71381843156891
 20
-0.6139999999999937
 42
-0.6446448688015824
 10
1.725099380733297
 20
-0.6388863636363596
 42
2.206052281037877
 10
1.83490061926669
 20
-0.6388863636363525
 42
-0.6446448688016338
 10
1.846181568431077
 20
-0.6139999999999901
 10
1.894105214604735
 20
-0.6139999999999901
 42
-0.2822912805812672
 10
1.907476919441236
 20
-0.6222031249999916
 42
-0.2537092197528032
 10
1.903841632741119
 20
-0.7584999999999944
 42
0.5773502691897984
 10
1.93068842025842
 20
-0.8049999999999926
 10
2.129311579741496
 20
-0.8049999999999926
 42
0.5773502691896767
 10
2.156158367258839
 20
-0.7584999999999625
 42
-0.253709219752613
 10
2.152523080558637
 20
-0.6222031249999987
 42
-0.2822912805814421
 10
2.165894785395138
 20
-0.6139999999999901
 10
2.21381843156891
 20
-0.6139999999999937
 42
-0.6446448688014907
 10
2.225099380733283
 20
-0.6388863636363525
 42
2.206052281037877
 10
2.33490061926669
 20
-0.6388863636363596
 42
-0.6446448688016242
 10
2.346181568431077
 20
-0.6139999999999901
 10
2.414999999999992
 20
-0.6139999999999901
 10
2.414999999999992
 20
-0.3369999999999997
 42
-0.4142135623730829
 10
2.499999999999985
 20
-0.2519999999999989
 10
2.664999999999992
 20
-0.2519999999999918
 42
0.4142135623731297
 10
2.679999999999992
 20
-0.2369999999999948
 10
2.679999999999992
 20
0.7900000000000027
 42
0.4142135623730777
 10
2.664999999999992
 20
0.8050000000000032
 10
2.430688420258434
 20
0.8049999999999997
 42
0.5773502691896953
 10
2.403841632741119
 20
0.7584999999999944
 42
-0.2537092197528237
 10
2.407476919441251
 20
0.6222031249999703
 42
-0.282291280581169
 10
2.394105214604707
 20
0.6139999999999973
 10
2.346181568431106
 20
0.6139999999999973
 42
-0.6446448688014311
 10
2.334900619266718
 20
0.6388863636363596
 42
2.206052281036208
 10
2.225099380733283
 20
0.6388863636363738
 42
-0.644644868801449
 10
2.213818431568881
 20
0.6140000000000044
 10
2.165894785395153
 20
0.6139999999999973
 42
-0.2822912805813455
 10
2.152523080558651
 20
0.6222031250000022
 42
-0.2537092197526368
 10
2.156158367258811
 20
0.7584999999999873
 42
0.5773502691896184
 10
2.129311579741468
 20
0.8050000000000032
 10
1.930688420258533
 20
0.8050000000000032
 42
0.5773502691895894
 10
1.903841632741205
 20
0.7585000000000015
 42
-0.253709219752632
 10
1.907476919441293
 20
0.6222031250000271
 42
-0.2822912805813047
 10
1.894105214604834
 20
0.6139999999999973
 10
1.846181568431106
 20
0.6139999999999973
 42
-0.6446448688014311
 10
1.834900619266718
 20
0.6388863636363596
 42
2.206052281036208
  0
LWPOLYLINE
  5
6A9
330
6A6
100
AcDbEntity
  8
0
100
AcDbPolyline
 90
       76
 70
     1
 43
0.0
 10
0.3284999999999911
 20
-0.8044999999999973
 42
0.4142135623730951
 10
0.3484999999999871
 20
-0.7845000000000013
 10
0.3484999999999871
 20
-0.7724999999999938
 10
0.3194999999999908
 20
-0.7724999999999938
 10
0.3194999999999908
 20
-0.6954999999999956
 42
-1.0
 10
0.4774999999999779
 20
-0.6954999999999956
 10
0.4774999999999779
 20
-0.7724999999999938
 10
0.4484999999999815
 20
-0.7724999999999938
 10
0.4774999999999921
 20
-0.8549999999999968
 10
0.5304991250339129
 20
-0.8449999999999988
 10
0.5410445795793635
 20
-0.8749999999999928
 10
0.6769999999999925
 20
-0.875
 42
0.4142135623730919
 10
0.7169999999999988
 20
-0.8349999999999972
 10
0.7169999999999988
 20
-0.0774999999999899
 42
-0.4142135623730863
 10
0.7319999999999994
 20
-0.0624999999999894
 10
1.361999999999994
 20
-0.0624999999999894
 42
-0.4142135623730951
 10
1.376999999999995
 20
-0.0774999999999899
 10
1.376999999999995
 20
-0.8599999999999923
 42
0.4142135623730778
 10
1.391999999999995
 20
-0.8749999999999928
 10
2.469999999999998
 20
-0.8749999999999928
 42
0.4142135623730951
 10
2.484999999999999
 20
-0.8599999999999923
 10
2.484999999999999
 20
-0.3369999999999962
 42
-0.4142135623730778
 10
2.5
 20
-0.3219999999999956
 10
2.673000000000001
 20
-0.3219999999999956
 42
-0.4142135623731297
 10
2.688000000000002
 20
-0.3369999999999962
 10
2.688000000000002
 20
-0.8599999999999958
 42
0.4142135623730951
 10
2.703000000000002
 20
-0.8749999999999964
 10
2.75
 20
-0.8749999999999928
 10
2.75
 20
0.875
 10
1.449544579579381
 20
0.8750000000000035
 10
1.43899912503393
 20
0.8450000000000059
 10
1.385999999999995
 20
0.8550000000000075
 10
1.356999999999999
 20
0.7725000000000044
 10
1.385999999999995
 20
0.7725000000000044
 10
1.385999999999995
 20
0.6955000000000063
 42
-1.0
 10
1.227999999999994
 20
0.6955000000000063
 10
1.227999999999994
 20
0.7725000000000044
 10
1.25699999999999
 20
0.7725000000000044
 10
1.25699999999999
 20
0.784500000000012
 42
0.4142135623730951
 10
1.236999999999994
 20
0.8045000000000079
 10
1.188000000000002
 20
0.8045000000000079
 10
1.188000000000002
 20
0.581500000000009
 42
0.3224291363344798
 10
1.205060487970229
 20
0.557794216977122
 10
1.314999999999997
 20
0.5174299516908292
 10
1.314999999999997
 20
0.5390000000000051
 10
1.376999999999995
 20
0.5390000000000051
 10
1.376999999999995
 20
0.0775000000000077
 42
-0.4142135623730951
 10
1.361999999999994
 20
0.0625000000000071
 10
0.0261446660114189
 20
0.0625000000000036
 10
0.0261446660114189
 20
0.0700000000000038
 10
-0.102855333988586
 20
0.0700000000000038
 10
-0.0985190265095497
 20
0.1195642212862644
 42
0.6309963913485585
 10
-0.1062964789493321
 20
0.1241448408275794
 10
-0.2460165015304625
 20
0.0329261282543385
 42
-0.5011464070124507
 10
-0.2687087915240482
 20
0.0408408733825638
 42
0.3271555718464477
 10
-0.2982680216299087
 20
0.0624999999999965
 10
-0.3044059382469726
 20
0.0625
 10
-0.3194059382469732
 20
0.0474999999999994
 10
-0.3194059382469732
 20
-0.0474999999999959
 42
0.4142135623730951
 10
-0.3044059382469726
 20
-0.0624999999999965
 10
-0.2982680216299087
 20
-0.0624999999999965
 42
0.3271555718464205
 10
-0.2687087915239914
 20
-0.040840873382578
 42
-0.5004340286155843
 10
-0.2460448512270403
 20
-0.0329070479797871
 10
-0.1062870290114688
 20
-0.1239235561906362
 42
0.6302003646969661
 10
-0.0985190265095497
 20
-0.1193365765313814
 10
-0.1028354176532247
 20
-0.0699999999999896
 10
0.0261645823467802
 20
-0.0699999999999967
 10
0.0261645823467802
 20
-0.0624999999999965
 10
0.6119999999999948
 20
-0.0625000000000213
 42
-0.4142135623731556
 10
0.6269999999999954
 20
-0.0775000000000254
 10
0.6269999999998391
 20
-0.681761368333774
 42
-0.9642683062440703
 10
0.5471058201056991
 20
-0.6846690152472484
 42
0.2901515120140965
 10
0.4521656314601046
 20
-0.5565000000000211
 10
0.304499999999976
 20
-0.5565000000000211
 42
0.4142135623729286
 10
0.2794999999999845
 20
-0.5814999999999984
 10
0.2794999999999845
 20
-0.8044999999999973
  0
ENDBLK
  5
6AA
330
6A6
100
AcDbEntity
  8
0
100
AcDbBlockEnd
  0
BLOCK
  5
6AE
330
6AB
100
AcDbEntity
  8
0
100
AcDbBlockBegin
  2
B175309A
 70
     0
 10
0.0
 20
0.0
 30
0.0
  3
B175309A
  1

  0
LWPOLYLINE
  5
6AF
330
6AB
100
AcDbEntity
  8
0
100
AcDbPolyline
 90
       19
 70
     1
 43
0.0
 10
0.5890000000000147
 20
0.0625
 10
0.5890000000000147
 20
0.3765000000000001
 10
0.7140000000000182
 20
0.3765000000000001
 10
0.7140000000000182
 20
0.0625
 10
1.121000000000018
 20
0.0625
 10
1.121000000000018
 20
0.1244999999999976
 10
1.277000000000018
 20
0.1244999999999976
 10
1.277000000000018
 20
0.0625
 10
1.339000000000018
 20
0.0625
 10
1.339000000000014
 20
0.5005000000000024
 10
0.7135000000000158
 20
0.5005000000000024
 10
0.6515000000000147
 20
0.4384999999999977
 10
0.589500000000017
 20
0.5005000000000024
 10
-0.0359999999999854
 20
0.5005000000000024
 10
-0.0359999999999854
 20
0.0625
 10
0.0260000000000158
 20
0.0625
 10
0.0260000000000158
 20
0.1244999999999976
 10
0.1820000000000146
 20
0.1244999999999976
 10
0.1820000000000146
 20
0.0625
  0
ENDBLK
  5
6B0
330
6AB
100
AcDbEntity
  8
0
100
AcDbBlockEnd
  0
BLOCK
  5
6B4
330
6B1
100
AcDbEntity
  8
0
100
AcDbBlockBegin
  2
B175501A
 70
     0
 10
0.0
 20
0.0
 30
0.0
  3
B175501A
  1

  0
INSERT
  5
6B5
330
6B1
100
AcDbEntity
  8
HIDDEN
100
AcDbBlockReference
  2
028400
 10
2.280000315741605
 20
2.124999999999977
 30
0.0
 50
270.0
  0
INSERT
  5
6B6
330
6B1
100
AcDbEntity
  8
HIDDEN
100
AcDbBlockReference
  2
028400
 10
1.781000315741602
 20
2.124999999999988
 30
0.0
 50
270.0
  0
LWPOLYLINE
  5
6B7
330
6B1
100
AcDbEntity
  8
HIDDEN
100
AcDbPolyline
 90
        4
 70
     1
 43
0.0
 10
1.46699999999998
 20
2.124999999999996
 10
1.466999999999979
 20
0.8749999999999962
 10
2.593000315741584
 20
0.8749999999999701
 10
2.593000315741584
 20
2.12499999999997
  0
ENDBLK
  5
6B8
330
6B1
100
AcDbEntity
  8
0
100
AcDbBlockEnd
  0
BLOCK
  5
EC1
330
E94
100
AcDbEntity
  8
0
100
AcDbBlockBegin
  2
S175HI25
 70
     2
 10
0.0
 20
0.0
 30
0.0
  3
S175HI25
  1

  0
LINE
  5
F4D
330
E94
100
AcDbEntity
  8
0
100
AcDbLine
 10
2.750999999999997
 20
0.875
 30
0.0
 11
2.750999999999997
 21
2.875
 31
0.0
  0
LINE
  5
F4E
330
E94
100
AcDbEntity
  8
0
100
AcDbLine
 10
-0.8120000000000011
 20
0.875
 30
0.0
 11
-0.8120000000000011
 21
2.875
 31
0.0
  0
LINE
  5
F4F
330
E94
100
AcDbEntity
  8
0
100
AcDbLine
 10
2.750999999999997
 20
0.875
 30
0.0
 11
2.750999999999997
 21
2.875
 31
0.0
  0
LINE
  5
F50
330
E94
100
AcDbEntity
  8
0
100
AcDbLine
 10
-0.8120000000000011
 20
-0.875
 30
0.0
 11
-0.8120000000000011
 21
-3.874956982316234
 31
0.0
  0
LWPOLYLINE
  5
F51
330
E94
100
AcDbEntity
  8
0
100
AcDbPolyline
 90
        6
 70
     0
 43
0.0
 10
-1.062999999999998
 20
2.87499
 10
0.8682845795793738
 20
2.87499
 10
0.9183045795793773
 20
2.675009999999996
 10
1.018284579579379
 20
3.074990000000003
 10
1.068284579579376
 20
2.87499
 10
3.000089159158758
 20
2.874989999999996
  0
INSERT
  5
F52
330
E94
100
AcDbEntity
  8
0
100
AcDbBlockReference
  2
B175310
 10
0.0
 20
0.0
 30
0.0
 41
-1.0
 50
180.0
  0
INSERT
  5
F53
330
E94
100
AcDbEntity
  8
0
100
AcDbBlockReference
  2
B175155
 10
0.0
 20
0.0
 30
0.0
  0
DIMENSION
  5
F54
330
E94
100
AcDbEntity
  8
DIME
100
AcDbDimension
  2
*D27
 10
-2.561999999999997
 20
0.8749999999999008
 30
0.0
 11
-2.791348567530693
 21
-0.0000000000000994
 31
0.0
 70
    32
 71
     5
 42
1.75
  3
EXT_ON-ON
100
AcDbAlignedDimension
 13
-0.8117201132924201
 23
-0.8750000000000994
 33
0.0
 14
-0.8117201132924201
 24
0.8749999999999005
 34
0.0
 50
90.0
100
AcDbRotatedDimension
  0
DIMENSION
  5
F55
330
E94
100
AcDbEntity
  8
DIME
100
AcDbDimension
  2
*D28
 10
-2.561999999999997
 20
-3.874956982316234
 30
0.0
 11
-2.791263301500678
 21
-2.374978491158117
 31
0.0
 70
    32
  1
VARIES
 71
     5
 42
2.999956982316234
  3
EXT_ON-OFF
100
AcDbAlignedDimension
 13
-0.8005645849216413
 23
-0.875
 33
0.0
 14
-0.8117201132924201
 24
-3.874956982316234
 34
0.0
 50
90.0
100
AcDbRotatedDimension
  0
DIMENSION
  5
F56
330
E94
100
AcDbEntity
  8
DIME
100
AcDbDimension
  2
*D29
 10
-2.561999999999997
 20
2.87499
 30
0.0
 11
-2.791348567530693
 21
1.87499499999995
 31
0.0
 70
    32
  1
{DLO}
 71
     5
 42
1.999990000000099
  3
EXT_ON-OFF
100
AcDbAlignedDimension
 13
-0.8117201132924201
 23
0.8749999999999005
 33
0.0
 14
-1.062999999999998
 24
2.87499
 34
0.0
 50
90.0
100
AcDbRotatedDimension
  0
LWPOLYLINE
  5
F57
330
E94
100
AcDbEntity
  8
0
100
AcDbPolyline
 90
        5
 70
     0
 43
0.0
 10
0.0009465367187431
 20
-4.249964951916167
 10
0.0008633529068227
 20
-0.4999920313511766
 10
0.0908633529068261
 20
-0.4999910024242169
 10
0.0909165338007476
 20
-4.249965980500116
 10
0.0008633529068227
 20
-4.249964950965166
  0
LINE
  5
F58
330
E94
100
AcDbEntity
  8
0
100
AcDbLine
 10
-0.5120738277472548
 20
-0.875000000000103
 30
0.0
 11
-0.5120738277472548
 21
-2.875000000000103
 31
0.0
  0
LINE
  5
F59
330
E94
100
AcDbEntity
  8
0
100
AcDbLine
 10
-0.5120738277472619
 20
-0.8750000000001065
 30
0.0
 11
-0.5120738277472619
 21
-3.874956982316138
 31
0.0
  0
LWPOLYLINE
  5
F5A
330
E94
100
AcDbEntity
  8
0
100
AcDbPolyline
 90
        4
 70
     1
 43
0.0
 10
2.541483567008732
 20
-0.3847554800879713
 10
2.631483567008736
 20
-0.3847554800879713
 10
2.63148356700875
 20
-4.369022704642524
 10
2.541483567008747
 20
-4.369022704642524
  0
INSERT
  5
F5B
330
E94
100
AcDbEntity
  8
0
100
AcDbBlockReference
  2
445109
 10
2.586491759050289
 20
-0.3695003032480564
 30
0.0
 50
270.0
  0
LINE
  5
F5C
330
E94
100
AcDbEntity
  8
0
100
AcDbLine
 10
-0.8120000000000011
 20
-5.624956982316334
 30
0.0
 11
-0.8120000000000011
 21
-7.624956982316335
 31
0.0
  0
LWPOLYLINE
  5
F5D
330
E94
100
AcDbEntity
  8
0
100
AcDbPolyline
 90
        6
 70
     0
 43
0.0
 10
-1.062999999999998
 20
-7.624946982316336
 10
0.8682845795793738
 20
-7.624946982316336
 10
0.9183045795793773
 20
-7.424966982316332
 10
1.018284579579379
 20
-7.824946982316339
 10
1.068284579579376
 20
-7.624946982316336
 10
3.000089159158758
 20
-7.624946982316332
  0
INSERT
  5
F5E
330
E94
100
AcDbEntity
  8
0
100
AcDbBlockReference
  2
B175310
 10
0.0
 20
-4.749956982316334
 30
0.0
 41
-1.0
 50
180.0
  0
INSERT
  5
F5F
330
E94
100
AcDbEntity
  8
0
100
AcDbBlockReference
  2
B175155
 10
0.0
 20
-4.749956982316334
 30
0.0
 41
-1.0
 50
180.0
  0
DIMENSION
  5
F60
330
E94
100
AcDbEntity
  8
DIME
100
AcDbDimension
  2
*D30
 10
-2.561999999999997
 20
-5.624956982316233
 30
0.0
 11
-2.791348567530692
 21
-4.749956982316234
 31
0.0
 70
    32
 71
     5
 42
1.75
  3
EXT_ON-ON
100
AcDbAlignedDimension
 13
-0.8117201132924201
 23
-3.874956982316234
 33
0.0
 14
-0.8117201132924201
 24
-5.624956982316234
 34
0.0
 50
270.0
100
AcDbRotatedDimension
  0
DIMENSION
  5
F61
330
E94
100
AcDbEntity
  8
DIME
100
AcDbDimension
  2
*D31
 10
-2.561999999999997
 20
-7.624946982316335
 30
0.0
 11
-2.791348567530691
 21
-6.624951982316285
 31
0.0
 70
    32
  1
{DLO}
 71
     5
 42
1.999990000000101
  3
EXT_ON-OFF
100
AcDbAlignedDimension
 13
-0.8117201132924201
 23
-5.624956982316234
 33
0.0
 14
-1.062999999999998
 24
-7.624946982316336
 34
0.0
 50
270.0
100
AcDbRotatedDimension
  0
INSERT
  5
F62
330
E94
100
AcDbEntity
  8
0
100
AcDbBlockReference
  2
445109
 10
2.586491759050289
 20
-4.380456679068281
 30
0.0
 41
-1.0
 50
270.0
  0
LINE
  5
F63
330
E94
100
AcDbEntity
  8
0
100
AcDbLine
 10
2.749999999999996
 20
-5.624956982316334
 30
0.0
 11
2.75
 21
-7.624946982316332
 31
0.0
  0
DIMENSION
  5
F64
330
E94
100
AcDbEntity
  8
DIME
100
AcDbDimension
  2
*D32
 10
-3.765163520989858
 20
2.87499
 30
0.0
 11
-4.01942682249054
 21
-2.374978491158167
 31
0.0
 70
    32
  1
M.L./F.H.
 71
     5
 42
10.49993698231634
  3
Standard
100
AcDbAlignedDimension
 13
-1.062999999999998
 23
-7.624946982316336
 33
0.0
 14
-1.062999999999998
 24
2.87499
 34
0.0
 50
90.0
100
AcDbRotatedDimension
1001
ACAD
1000
DSTYLE
1002
{
1070
    76
1070
     1
1070
    75
1070
     1
1070
    41
1040
0.2
1070
    42
1040
0.125
1070
    43
1040
0.375
1070
    44
1040
0.125
1070
    73
1070
     0
1070
    74
1070
     0
1070
    77
1070
     1
1070
    78
1070
     3
1070
   140
1040
0.25
1070
   141
1040
0.0
1070
   147
1040
0.125
1070
   271
1070
     5
1070
   272
1070
     5
1070
   273
1070
     4
1070
   276
1070
     2
1070
   277
1070
     4
1070
   284
1070
     3
1070
   285
1070
     3
1070
   286
1070
     3
1070
   289
1070
     0
1002
}
  0
INSERT
  5
F65
330
E94
100
AcDbEntity
  8
0
100
AcDbBlockReference
  2
B175029
 10
0.0
 20
0.0
 30
0.0
  0
INSERT
  5
F66
330
E94
100
AcDbEntity
  8
0
100
AcDbBlockReference
  2
B175029
 10
0.0
 20
-4.749956982316334
 30
0.0
 41
-1.0
 50
180.0
  0
INSERT
  5
F67
330
E94
100
AcDbEntity
  8
0
100
AcDbBlockReference
  2
S175GT250A
 10
0.0
 20
0.0
 30
0.0
  0
INSERT
  5
F68
330
E94
100
AcDbEntity
  8
0
100
AcDbBlockReference
  2
S175GT250A
 10
0.0
 20
-4.749956982316335
 30
0.0
 41
-1.0
 50
180.0
  0
INSERT
  5
F69
330
E94
100
AcDbEntity
  8
0
100
AcDbBlockReference
  2
B027074-M1
 10
0.3984999999999843
 20
-0.616499999999995
 30
0.0
 41
-1.0
 50
180.0
  0
INSERT
  5
F6A
330
E94
100
AcDbEntity
  8
0
100
AcDbBlockReference
  2
B027074-M1
 10
-0.3067201132924175
 20
-0.6165000000001016
 30
0.0
 50
180.0
  0
INSERT
  5
F6B
330
E94
100
AcDbEntity
  8
0
100
AcDbBlockReference
  2
B027074-M1
 10
0.3984999999999843
 20
-4.133456982316339
 30
0.0
  0
INSERT
  5
F6C
330
E94
100
AcDbEntity
  8
0
100
AcDbBlockReference
  2
B027074-M1
 10
-0.3066137513970801
 20
-4.133456910715867
 30
0.0
 41
-1.0
  0
INSERT
  5
F6D
330
E94
100
AcDbEntity
  8
0
100
AcDbBlockReference
  2
B175309B
 10
0.0
 20
0.0
 30
0.0
  0
INSERT
  5
F6E
330
E94
100
AcDbEntity
  8
0
100
AcDbBlockReference
  2
B175502A
 10
0.0
 20
0.0
 30
0.0
 41
-1.0
 50
270.0
  0
INSERT
  5
F6F
330
E94
100
AcDbEntity
  8
0
100
AcDbBlockReference
  2
B175502A
 10
0.0
 20
-4.749956982316334
 30
0.0
 50
270.0
  0
INSERT
  5
FC0
330
E94
100
AcDbEntity
  8
0
100
AcDbBlockReference
  2
B175309B
 10
0.0
 20
-4.749956982316334
 30
0.0
  0
ENDBLK
  5
EC2
330
E94
100
AcDbEntity
  8
0
100
AcDbBlockEnd
  0
BLOCK
  5
F41
330
F14
100
AcDbEntity
  8
0
100
AcDbBlockBegin
  2
S175HI26
 70
     2
 10
0.0
 20
0.0
 30
0.0
  3
S175HI26
  1

  0
LINE
  5
FC6
330
F14
100
AcDbEntity
  8
0
100
AcDbLine
 10
2.750999999999997
 20
0.875
 30
0.0
 11
2.750999999999997
 21
2.875
 31
0.0
  0
LINE
  5
FC7
330
F14
100
AcDbEntity
  8
0
100
AcDbLine
 10
-0.8120000000000011
 20
0.875
 30
0.0
 11
-0.8120000000000011
 21
2.875
 31
0.0
  0
LINE
  5
FC8
330
F14
100
AcDbEntity
  8
0
100
AcDbLine
 10
2.750999999999997
 20
0.875
 30
0.0
 11
2.750999999999997
 21
2.875
 31
0.0
  0
LINE
  5
FC9
330
F14
100
AcDbEntity
  8
0
100
AcDbLine
 10
-0.8120000000000011
 20
-0.875
 30
0.0
 11
-0.8120000000000011
 21
-3.874956982316234
 31
0.0
  0
LWPOLYLINE
  5
FCA
330
F14
100
AcDbEntity
  8
0
100
AcDbPolyline
 90
        6
 70
     0
 43
0.0
 10
-1.062999999999998
 20
2.87499
 10
0.8682845795793738
 20
2.87499
 10
0.9183045795793773
 20
2.675009999999996
 10
1.018284579579379
 20
3.074990000000003
 10
1.068284579579376
 20
2.87499
 10
3.000089159158758
 20
2.874989999999996
  0
INSERT
  5
FCB
330
F14
100
AcDbEntity
  8
0
100
AcDbBlockReference
  2
B175310
 10
0.0
 20
0.0
 30
0.0
 41
-1.0
 50
180.0
  0
INSERT
  5
FCC
330
F14
100
AcDbEntity
  8
0
100
AcDbBlockReference
  2
B175155
 10
0.0
 20
0.0
 30
0.0
  0
DIMENSION
  5
FCD
330
F14
100
AcDbEntity
  8
DIME
100
AcDbDimension
  2
*D33
 10
-2.561999999999997
 20
0.8749999999999008
 30
0.0
 11
-2.791348567530693
 21
-0.0000000000000994
 31
0.0
 70
    32
 71
     5
 42
1.75
  3
EXT_ON-ON
100
AcDbAlignedDimension
 13
-0.8117201132924201
 23
-0.8750000000000994
 33
0.0
 14
-0.8117201132924201
 24
0.8749999999999005
 34
0.0
 50
90.0
100
AcDbRotatedDimension
  0
DIMENSION
  5
FCE
330
F14
100
AcDbEntity
  8
DIME
100
AcDbDimension
  2
*D34
 10
-2.561999999999997
 20
-3.874956982316234
 30
0.0
 11
-2.791263301500678
 21
-2.374978491158117
 31
0.0
 70
    32
  1
VARIES
 71
     5
 42
2.999956982316234
  3
EXT_ON-OFF
100
AcDbAlignedDimension
 13
-0.8005645849216413
 23
-0.875
 33
0.0
 14
-0.8117201132924201
 24
-3.874956982316234
 34
0.0
 50
90.0
100
AcDbRotatedDimension
  0
DIMENSION
  5
FCF
330
F14
100
AcDbEntity
  8
DIME
100
AcDbDimension
  2
*D35
 10
-2.561999999999997
 20
2.87499
 30
0.0
 11
-2.791348567530693
 21
1.87499499999995
 31
0.0
 70
    32
  1
{DLO}
 71
     5
 42
1.999990000000099
  3
EXT_ON-OFF
100
AcDbAlignedDimension
 13
-0.8117201132924201
 23
0.8749999999999005
 33
0.0
 14
-1.062999999999998
 24
2.87499
 34
0.0
 50
90.0
100
AcDbRotatedDimension
  0
LWPOLYLINE
  5
FD0
330
F14
100
AcDbEntity
  8
0
100
AcDbPolyline
 90
        5
 70
     0
 43
0.0
 10
0.0009465367187431
 20
-4.249964951916167
 10
0.0008633529068227
 20
-0.4999920313511766
 10
0.0908633529068261
 20
-0.4999910024242169
 10
0.0909165338007476
 20
-4.249965980500116
 10
0.0008633529068227
 20
-4.249964950965166
  0
LINE
  5
FD1
330
F14
100
AcDbEntity
  8
0
100
AcDbLine
 10
-0.5120738277472548
 20
-0.875000000000103
 30
0.0
 11
-0.5120738277472548
 21
-2.875000000000103
 31
0.0
  0
LINE
  5
FD2
330
F14
100
AcDbEntity
  8
0
100
AcDbLine
 10
-0.5120738277472619
 20
-0.8750000000001065
 30
0.0
 11
-0.5120738277472619
 21
-3.874956982316138
 31
0.0
  0
LWPOLYLINE
  5
FD3
330
F14
100
AcDbEntity
  8
0
100
AcDbPolyline
 90
        4
 70
     1
 43
0.0
 10
2.541483567008732
 20
-0.3847554800879713
 10
2.631483567008736
 20
-0.3847554800879713
 10
2.63148356700875
 20
-4.369022704642524
 10
2.541483567008747
 20
-4.369022704642524
  0
INSERT
  5
FD4
330
F14
100
AcDbEntity
  8
0
100
AcDbBlockReference
  2
445109
 10
2.586491759050289
 20
-0.3695003032480564
 30
0.0
 50
270.0
  0
LINE
  5
FD5
330
F14
100
AcDbEntity
  8
0
100
AcDbLine
 10
-0.8120000000000011
 20
-5.624956982316334
 30
0.0
 11
-0.8120000000000011
 21
-7.624956982316335
 31
0.0
  0
LWPOLYLINE
  5
FD6
330
F14
100
AcDbEntity
  8
0
100
AcDbPolyline
 90
        6
 70
     0
 43
0.0
 10
-1.062999999999998
 20
-7.624946982316336
 10
0.8682845795793738
 20
-7.624946982316336
 10
0.9183045795793773
 20
-7.424966982316332
 10
1.018284579579379
 20
-7.824946982316339
 10
1.068284579579376
 20
-7.624946982316336
 10
3.000089159158758
 20
-7.624946982316332
  0
INSERT
  5
FD7
330
F14
100
AcDbEntity
  8
0
100
AcDbBlockReference
  2
B175310
 10
0.0
 20
-4.749956982316334
 30
0.0
 41
-1.0
 50
180.0
  0
INSERT
  5
FD8
330
F14
100
AcDbEntity
  8
0
100
AcDbBlockReference
  2
B175155
 10
0.0
 20
-4.749956982316334
 30
0.0
 41
-1.0
 50
180.0
  0
DIMENSION
  5
FD9
330
F14
100
AcDbEntity
  8
DIME
100
AcDbDimension
  2
*D36
 10
-2.561999999999997
 20
-5.624956982316233
 30
0.0
 11
-2.791348567530692
 21
-4.749956982316234
 31
0.0
 70
    32
 71
     5
 42
1.75
  3
EXT_ON-ON
100
AcDbAlignedDimension
 13
-0.8117201132924201
 23
-3.874956982316234
 33
0.0
 14
-0.8117201132924201
 24
-5.624956982316234
 34
0.0
 50
270.0
100
AcDbRotatedDimension
  0
DIMENSION
  5
FDA
330
F14
100
AcDbEntity
  8
DIME
100
AcDbDimension
  2
*D37
 10
-2.561999999999997
 20
-7.624946982316335
 30
0.0
 11
-2.791348567530691
 21
-6.624951982316285
 31
0.0
 70
    32
  1
{DLO}
 71
     5
 42
1.999990000000101
  3
EXT_ON-OFF
100
AcDbAlignedDimension
 13
-0.8117201132924201
 23
-5.624956982316234
 33
0.0
 14
-1.062999999999998
 24
-7.624946982316336
 34
0.0
 50
270.0
100
AcDbRotatedDimension
  0
INSERT
  5
FDB
330
F14
100
AcDbEntity
  8
0
100
AcDbBlockReference
  2
445109
 10
2.586491759050289
 20
-4.380456679068281
 30
0.0
 41
-1.0
 50
270.0
  0
LINE
  5
FDC
330
F14
100
AcDbEntity
  8
0
100
AcDbLine
 10
2.749999999999996
 20
-5.624956982316334
 30
0.0
 11
2.75
 21
-7.624946982316332
 31
0.0
  0
DIMENSION
  5
FDD
330
F14
100
AcDbEntity
  8
DIME
100
AcDbDimension
  2
*D38
 10
-3.765163520989858
 20
2.87499
 30
0.0
 11
-4.01942682249054
 21
-2.374978491158167
 31
0.0
 70
    32
  1
M.L./F.H.
 71
     5
 42
10.49993698231634
  3
Standard
100
AcDbAlignedDimension
 13
-1.062999999999998
 23
-7.624946982316336
 33
0.0
 14
-1.062999999999998
 24
2.87499
 34
0.0
 50
90.0
100
AcDbRotatedDimension
1001
ACAD
1000
DSTYLE
1002
{
1070
    76
1070
     1
1070
    75
1070
     1
1070
    41
1040
0.2
1070
    42
1040
0.125
1070
    43
1040
0.375
1070
    44
1040
0.125
1070
    73
1070
     0
1070
    74
1070
     0
1070
    77
1070
     1
1070
    78
1070
     3
1070
   140
1040
0.25
1070
   141
1040
0.0
1070
   147
1040
0.125
1070
   271
1070
     5
1070
   272
1070
     5
1070
   273
1070
     4
1070
   276
1070
     2
1070
   277
1070
     4
1070
   284
1070
     3
1070
   285
1070
     3
1070
   286
1070
     3
1070
   289
1070
     0
1002
}
  0
INSERT
  5
FDE
330
F14
100
AcDbEntity
  8
0
100
AcDbBlockReference
  2
B027074-M1
 10
0.3984999999999843
 20
-0.616499999999995
 30
0.0
 41
-1.0
 50
180.0
  0
INSERT
  5
FDF
330
F14
100
AcDbEntity
  8
0
100
AcDbBlockReference
  2
B027074-M1
 10
-0.3067201132924175
 20
-0.6165000000001016
 30
0.0
 50
180.0
  0
INSERT
  5
FE0
330
F14
100
AcDbEntity
  8
0
100
AcDbBlockReference
  2
B027074-M1
 10
0.3984999999999843
 20
-4.133456982316339
 30
0.0
  0
INSERT
  5
FE1
330
F14
100
AcDbEntity
  8
0
100
AcDbBlockReference
  2
B027074-M1
 10
-0.3066137513970801
 20
-4.133456910715867
 30
0.0
 41
-1.0
  0
INSERT
  5
FE2
330
F14
100
AcDbEntity
  8
0
100
AcDbBlockReference
  2
B175009
 10
0.0
 20
0.0000000000000004
 30
0.0
  0
INSERT
  5
FE3
330
F14
100
AcDbEntity
  8
0
100
AcDbBlockReference
  2
B175009
 10
0.0
 20
-4.749956982924331
 30
0.0
 41
-1.0
 50
180.0
  0
INSERT
  5
FE4
330
F14
100
AcDbEntity
  8
0
100
AcDbBlockReference
  2
S175GT100
 10
0.0
 20
0.0000000000000004
 30
0.0
  0
INSERT
  5
FE5
330
F14
100
AcDbEntity
  8
0
100
AcDbBlockReference
  2
S175GT100
 10
0.0
 20
-4.749956982924331
 30
0.0
 41
-1.0
 50
180.0
  0
INSERT
  5
FE6
330
F14
100
AcDbEntity
  8
0
  6
Continuous
100
AcDbBlockReference
  2
B175309A
 10
0.0
 20
0.0
 30
0.0
  0
INSERT
  5
FE7
330
F14
100
AcDbEntity
  8
0
100
AcDbBlockReference
  2
B175501A
 10
0.0
 20
0.0000000000000004
 30
0.0
  0
INSERT
  5
FE8
330
F14
100
AcDbEntity
  8
0
100
AcDbBlockReference
  2
B175501A
 10
0.0
 20
-4.749956982316334
 30
0.0
 41
-1.0
 50
180.0
  0
INSERT
  5
1038
330
F14
100
AcDbEntity
  8
0
100
AcDbBlockReference
  2
B175309B
 10
0.0
 20
-4.749956982316334
 30
0.0
  0
ENDBLK
  5
F42
330
F14
100
AcDbEntity
  8
0
100
AcDbBlockEnd
  0
BLOCK
  5
F7A
330
F79
100
AcDbEntity
  8
0
100
AcDbBlockBegin
  2
*D27
 70
     1
 10
0.0
 20
0.0
 30
0.0
  3
*D27
  1

  0
LINE
  5
F7C
330
F79
100
AcDbEntity
  8
DIME
 62
     0
370
    -2
100
AcDbLine
 10
-1.18672011329242
 20
-0.8750000000000994
 30
0.0
 11
-2.741999999999997
 21
-0.8750000000000991
 31
0.0
  0
LINE
  5
F7D
330
F79
100
AcDbEntity
  8
DIME
 62
     0
370
    -2
100
AcDbLine
 10
-1.18672011329242
 20
0.8749999999999005
 30
0.0
 11
-2.741999999999997
 21
0.8749999999999008
 31
0.0
  0
LINE
  5
F7E
330
F79
100
AcDbEntity
  8
DIME
 62
     0
370
    -2
100
AcDbLine
 10
-2.561999999999997
 20
-0.6250000000000991
 30
0.0
 11
-2.561999999999997
 21
0.624999999999901
 31
0.0
  0
SOLID
  5
F7F
330
F79
100
AcDbEntity
  8
DIME
 62
     0
100
AcDbTrace
 10
-2.603666666666664
 20
-0.6250000000000991
 30
0.0
 11
-2.520333333333331
 21
-0.6250000000000991
 31
0.0
 12
-2.561999999999997
 22
-0.8750000000000991
 32
0.0
 13
-2.561999999999997
 23
-0.8750000000000991
 33
0.0
  0
SOLID
  5
F80
330
F79
100
AcDbEntity
  8
DIME
 62
     0
100
AcDbTrace
 10
-2.603666666666664
 20
0.624999999999901
 30
0.0
 11
-2.520333333333331
 21
0.624999999999901
 31
0.0
 12
-2.561999999999997
 22
0.8749999999999008
 32
0.0
 13
-2.561999999999997
 23
0.8749999999999008
 33
0.0
  0
MTEXT
  5
F81
330
F79
100
AcDbEntity
  8
DIME
 62
     0
100
AcDbMText
 10
-2.791348567530693
 20
-0.0000000000000994
 30
0.0
 40
0.25
 41
0.0
 71
     5
 72
     1
  1
\A1;1 3/4"
 11
0.0000000000000001
 21
1.0
 31
0.0
 73
     1
 44
1.0
1001
ACAD
1000
MTEXTBEGIN
1070
    73
1070
     1
1070
    44
1040
1.0
1070
    74
1070
     0
1000
MTEXTEND
  0
POINT
  5
F82
330
F79
100
AcDbEntity
  8
Defpoints
 62
     0
100
AcDbPoint
 10
-0.8117201132924201
 20
-0.8750000000000994
 30
0.0
  0
POINT
  5
F83
330
F79
100
AcDbEntity
  8
Defpoints
 62
     0
100
AcDbPoint
 10
-0.8117201132924201
 20
0.8749999999999005
 30
0.0
  0
POINT
  5
F84
330
F79
100
AcDbEntity
  8
Defpoints
 62
     0
100
AcDbPoint
 10
-2.561999999999997
 20
0.8749999999999008
 30
0.0
  0
ENDBLK
  5
F7B
330
F79
100
AcDbEntity
  8
0
100
AcDbBlockEnd
  0
BLOCK
  5
F86
330
F85
100
AcDbEntity
  8
0
100
AcDbBlockBegin
  2
*D28
 70
     1
 10
0.0
 20
0.0
 30
0.0
  3
*D28
  1

  0
LINE
  5
F88
330
F85
100
AcDbEntity
  8
DIME
 62
     0
370
    -2
100
AcDbLine
 10
-1.175564584921641
 20
-0.875
 30
0.0
 11
-2.741999999999996
 21
-0.8749999999999996
 31
0.0
  0
LINE
  5
F89
330
F85
100
AcDbEntity
  8
DIME
 62
     0
370
    -2
100
AcDbLine
 10
-2.561999999999997
 20
-1.124999999999999
 30
0.0
 11
-2.561999999999997
 21
-3.624956982316234
 31
0.0
  0
SOLID
  5
F8A
330
F85
100
AcDbEntity
  8
DIME
 62
     0
100
AcDbTrace
 10
-2.603666666666663
 20
-1.124999999999999
 30
0.0
 11
-2.52033333333333
 21
-1.124999999999999
 31
0.0
 12
-2.561999999999996
 22
-0.8749999999999996
 32
0.0
 13
-2.561999999999996
 23
-0.8749999999999996
 33
0.0
  0
SOLID
  5
F8B
330
F85
100
AcDbEntity
  8
DIME
 62
     0
100
AcDbTrace
 10
-2.603666666666664
 20
-3.624956982316234
 30
0.0
 11
-2.520333333333331
 21
-3.624956982316234
 31
0.0
 12
-2.561999999999997
 22
-3.874956982316234
 32
0.0
 13
-2.561999999999997
 23
-3.874956982316234
 33
0.0
  0
MTEXT
  5
F8C
330
F85
100
AcDbEntity
  8
DIME
 62
     0
100
AcDbMText
 10
-2.791263301500678
 20
-2.374978491158117
 30
0.0
 40
0.25
 41
0.0
 71
     5
 72
     1
  1
\A1;VARIES
 11
0.0000000000000001
 21
1.0
 31
0.0
 73
     1
 44
1.0
1001
ACAD
1000
MTEXTBEGIN
1070
    73
1070
     1
1070
    44
1040
1.0
1070
    74
1070
     0
1000
MTEXTEND
  0
POINT
  5
F8D
330
F85
100
AcDbEntity
  8
Defpoints
 62
     0
100
AcDbPoint
 10
-0.8005645849216413
 20
-0.875
 30
0.0
  0
POINT
  5
F8E
330
F85
100
AcDbEntity
  8
Defpoints
 62
     0
100
AcDbPoint
 10
-0.8117201132924201
 20
-3.874956982316234
 30
0.0
  0
POINT
  5
F8F
330
F85
100
AcDbEntity
  8
Defpoints
 62
     0
100
AcDbPoint
 10
-2.561999999999997
 20
-3.874956982316234
 30
0.0
  0
ENDBLK
  5
F87
330
F85
100
AcDbEntity
  8
0
100
AcDbBlockEnd
  0
BLOCK
  5
F91
330
F90
100
AcDbEntity
  8
0
100
AcDbBlockBegin
  2
*D29
 70
     1
 10
0.0
 20
0.0
 30
0.0
  3
*D29
  1

  0
LINE
  5
F93
330
F90
100
AcDbEntity
  8
DIME
 62
     0
370
    -2
100
AcDbLine
 10
-1.18672011329242
 20
0.8749999999999005
 30
0.0
 11
-2.741999999999998
 21
0.8749999999999008
 31
0.0
  0
LINE
  5
F94
330
F90
100
AcDbEntity
  8
DIME
 62
     0
370
    -2
100
AcDbLine
 10
-2.561999999999997
 20
1.124999999999901
 30
0.0
 11
-2.561999999999997
 21
2.62499
 31
0.0
  0
SOLID
  5
F95
330
F90
100
AcDbEntity
  8
DIME
 62
     0
100
AcDbTrace
 10
-2.603666666666664
 20
1.124999999999901
 30
0.0
 11
-2.520333333333331
 21
1.124999999999901
 31
0.0
 12
-2.561999999999998
 22
0.8749999999999008
 32
0.0
 13
-2.561999999999998
 23
0.8749999999999008
 33
0.0
  0
SOLID
  5
F96
330
F90
100
AcDbEntity
  8
DIME
 62
     0
100
AcDbTrace
 10
-2.603666666666664
 20
2.62499
 30
0.0
 11
-2.520333333333331
 21
2.62499
 31
0.0
 12
-2.561999999999997
 22
2.87499
 32
0.0
 13
-2.561999999999997
 23
2.87499
 33
0.0
  0
MTEXT
  5
F97
330
F90
100
AcDbEntity
  8
DIME
 62
     0
100
AcDbMText
 10
-2.791348567530693
 20
1.87499499999995
 30
0.0
 40
0.25
 41
0.0
 71
     5
 72
     1
  1
\A1;{DLO}
 11
0.0000000000000001
 21
1.0
 31
0.0
 73
     1
 44
1.0
1001
ACAD
1000
MTEXTBEGIN
1070
    73
1070
     1
1070
    44
1040
1.0
1070
    74
1070
     0
1000
MTEXTEND
  0
POINT
  5
F98
330
F90
100
AcDbEntity
  8
Defpoints
 62
     0
100
AcDbPoint
 10
-0.8117201132924201
 20
0.8749999999999005
 30
0.0
  0
POINT
  5
F99
330
F90
100
AcDbEntity
  8
Defpoints
 62
     0
100
AcDbPoint
 10
-1.062999999999998
 20
2.87499
 30
0.0
  0
POINT
  5
F9A
330
F90
100
AcDbEntity
  8
Defpoints
 62
     0
100
AcDbPoint
 10
-2.561999999999997
 20
2.87499
 30
0.0
  0
ENDBLK
  5
F92
330
F90
100
AcDbEntity
  8
0
100
AcDbBlockEnd
  0
BLOCK
  5
F9C
330
F9B
100
AcDbEntity
  8
0
100
AcDbBlockBegin
  2
*D30
 70
     1
 10
0.0
 20
0.0
 30
0.0
  3
*D30
  1

  0
LINE
  5
F9E
330
F9B
100
AcDbEntity
  8
DIME
 62
     0
370
    -2
100
AcDbLine
 10
-1.18672011329242
 20
-3.874956982316234
 30
0.0
 11
-2.741999999999997
 21
-3.874956982316234
 31
0.0
  0
LINE
  5
F9F
330
F9B
100
AcDbEntity
  8
DIME
 62
     0
370
    -2
100
AcDbLine
 10
-1.18672011329242
 20
-5.624956982316234
 30
0.0
 11
-2.741999999999997
 21
-5.624956982316233
 31
0.0
  0
LINE
  5
FA0
330
F9B
100
AcDbEntity
  8
DIME
 62
     0
370
    -2
100
AcDbLine
 10
-2.561999999999997
 20
-4.124956982316233
 30
0.0
 11
-2.561999999999997
 21
-5.374956982316233
 31
0.0
  0
SOLID
  5
FA1
330
F9B
100
AcDbEntity
  8
DIME
 62
     0
100
AcDbTrace
 10
-2.603666666666663
 20
-4.124956982316233
 30
0.0
 11
-2.52033333333333
 21
-4.124956982316233
 31
0.0
 12
-2.561999999999997
 22
-3.874956982316234
 32
0.0
 13
-2.561999999999997
 23
-3.874956982316234
 33
0.0
  0
SOLID
  5
FA2
330
F9B
100
AcDbEntity
  8
DIME
 62
     0
100
AcDbTrace
 10
-2.603666666666664
 20
-5.374956982316233
 30
0.0
 11
-2.520333333333331
 21
-5.374956982316233
 31
0.0
 12
-2.561999999999997
 22
-5.624956982316233
 32
0.0
 13
-2.561999999999997
 23
-5.624956982316233
 33
0.0
  0
MTEXT
  5
FA3
330
F9B
100
AcDbEntity
  8
DIME
 62
     0
100
AcDbMText
 10
-2.791348567530692
 20
-4.749956982316234
 30
0.0
 40
0.25
 41
0.0
 71
     5
 72
     1
  1
\A1;1 3/4"
 11
0.0000000000000001
 21
1.0
 31
0.0
 73
     1
 44
1.0
1001
ACAD
1000
MTEXTBEGIN
1070
    73
1070
     1
1070
    44
1040
1.0
1070
    74
1070
     0
1000
MTEXTEND
  0
POINT
  5
FA4
330
F9B
100
AcDbEntity
  8
Defpoints
 62
     0
100
AcDbPoint
 10
-0.8117201132924201
 20
-3.874956982316234
 30
0.0
  0
POINT
  5
FA5
330
F9B
100
AcDbEntity
  8
Defpoints
 62
     0
100
AcDbPoint
 10
-0.8117201132924201
 20
-5.624956982316234
 30
0.0
  0
POINT
  5
FA6
330
F9B
100
AcDbEntity
  8
Defpoints
 62
     0
100
AcDbPoint
 10
-2.561999999999997
 20
-5.624956982316233
 30
0.0
  0
ENDBLK
  5
F9D
330
F9B
100
AcDbEntity
  8
0
100
AcDbBlockEnd
  0
BLOCK
  5
FA8
330
FA7
100
AcDbEntity
  8
0
100
AcDbBlockBegin
  2
*D31
 70
     1
 10
0.0
 20
0.0
 30
0.0
  3
*D31
  1

  0
LINE
  5
FAA
330
FA7
100
AcDbEntity
  8
DIME
 62
     0
370
    -2
100
AcDbLine
 10
-1.18672011329242
 20
-5.624956982316234
 30
0.0
 11
-2.741999999999997
 21
-5.624956982316233
 31
0.0
  0
LINE
  5
FAB
330
FA7
100
AcDbEntity
  8
DIME
 62
     0
370
    -2
100
AcDbLine
 10
-2.561999999999997
 20
-5.874956982316233
 30
0.0
 11
-2.561999999999997
 21
-7.374946982316335
 31
0.0
  0
SOLID
  5
FAC
330
FA7
100
AcDbEntity
  8
DIME
 62
     0
100
AcDbTrace
 10
-2.603666666666663
 20
-5.874956982316233
 30
0.0
 11
-2.52033333333333
 21
-5.874956982316233
 31
0.0
 12
-2.561999999999997
 22
-5.624956982316233
 32
0.0
 13
-2.561999999999997
 23
-5.624956982316233
 33
0.0
  0
SOLID
  5
FAD
330
FA7
100
AcDbEntity
  8
DIME
 62
     0
100
AcDbTrace
 10
-2.603666666666664
 20
-7.374946982316335
 30
0.0
 11
-2.520333333333331
 21
-7.374946982316335
 31
0.0
 12
-2.561999999999997
 22
-7.624946982316335
 32
0.0
 13
-2.561999999999997
 23
-7.624946982316335
 33
0.0
  0
MTEXT
  5
FAE
330
FA7
100
AcDbEntity
  8
DIME
 62
     0
100
AcDbMText
 10
-2.791348567530691
 20
-6.624951982316285
 30
0.0
 40
0.25
 41
0.0
 71
     5
 72
     1
  1
\A1;{DLO}
 11
0.0000000000000001
 21
1.0
 31
0.0
 73
     1
 44
1.0
1001
ACAD
1000
MTEXTBEGIN
1070
    73
1070
     1
1070
    44
1040
1.0
1070
    74
1070
     0
1000
MTEXTEND
  0
POINT
  5
FAF
330
FA7
100
AcDbEntity
  8
Defpoints
 62
     0
100
AcDbPoint
 10
-0.8117201132924201
 20
-5.624956982316234
 30
0.0
  0
POINT
  5
FB0
330
FA7
100
AcDbEntity
  8
Defpoints
 62
     0
100
AcDbPoint
 10
-1.062999999999998
 20
-7.624946982316336
 30
0.0
  0
POINT
  5
FB1
330
FA7
100
AcDbEntity
  8
Defpoints
 62
     0
100
AcDbPoint
 10
-2.561999999999997
 20
-7.624946982316335
 30
0.0
  0
ENDBLK
  5
FA9
330
FA7
100
AcDbEntity
  8
0
100
AcDbBlockEnd
  0
BLOCK
  5
FB3
330
FB2
100
AcDbEntity
  8
0
100
AcDbBlockBegin
  2
*D32
 70
     1
 10
0.0
 20
0.0
 30
0.0
  3
*D32
  1

  0
LINE
  5
FB5
330
FB2
100
AcDbEntity
  8
DIME
 62
     0
370
    -2
100
AcDbLine
 10
-3.76516352098986
 20
-7.424946982316335
 30
0.0
 11
-3.765163520989858
 21
2.67499
 31
0.0
  0
SOLID
  5
FB6
330
FB2
100
AcDbEntity
  8
DIME
 62
     0
100
AcDbTrace
 10
-3.798496854323194
 20
-7.424946982316335
 30
0.0
 11
-3.731830187656527
 21
-7.424946982316335
 31
0.0
 12
-3.76516352098986
 22
-7.624946982316335
 32
0.0
 13
-3.76516352098986
 23
-7.624946982316335
 33
0.0
  0
SOLID
  5
FB7
330
FB2
100
AcDbEntity
  8
DIME
 62
     0
100
AcDbTrace
 10
-3.798496854323191
 20
2.67499
 30
0.0
 11
-3.731830187656525
 21
2.67499
 31
0.0
 12
-3.765163520989858
 22
2.87499
 32
0.0
 13
-3.765163520989858
 23
2.87499
 33
0.0
  0
MTEXT
  5
FB8
330
FB2
100
AcDbEntity
  8
DIME
 62
     0
100
AcDbMText
 10
-4.01942682249054
 20
-2.374978491158167
 30
0.0
 40
0.25
 41
0.0
 71
     5
 72
     1
  1
\A1;M.L./F.H.
 11
0.0000000000000001
 21
1.0
 31
0.0
 73
     1
 44
1.0
1001
ACAD
1000
MTEXTBEGIN
1070
    73
1070
     1
1070
    44
1040
1.0
1070
    74
1070
     0
1000
MTEXTEND
  0
POINT
  5
FB9
330
FB2
100
AcDbEntity
  8
Defpoints
 62
     0
100
AcDbPoint
 10
-1.062999999999998
 20
-7.624946982316336
 30
0.0
  0
POINT
  5
FBA
330
FB2
100
AcDbEntity
  8
Defpoints
 62
     0
100
AcDbPoint
 10
-1.062999999999998
 20
2.87499
 30
0.0
  0
POINT
  5
FBB
330
FB2
100
AcDbEntity
  8
Defpoints
 62
     0
100
AcDbPoint
 10
-3.765163520989858
 20
2.87499
 30
0.0
  0
ENDBLK
  5
FB4
330
FB2
100
AcDbEntity
  8
0
100
AcDbBlockEnd
  0
BLOCK
  5
FF3
330
FF2
100
AcDbEntity
  8
0
100
AcDbBlockBegin
  2
*D33
 70
     1
 10
0.0
 20
0.0
 30
0.0
  3
*D33
  1

  0
LINE
  5
FF5
330
FF2
100
AcDbEntity
  8
DIME
 62
     0
370
    -2
100
AcDbLine
 10
-1.18672011329242
 20
-0.8750000000000994
 30
0.0
 11
-2.741999999999997
 21
-0.8750000000000991
 31
0.0
  0
LINE
  5
FF6
330
FF2
100
AcDbEntity
  8
DIME
 62
     0
370
    -2
100
AcDbLine
 10
-1.18672011329242
 20
0.8749999999999005
 30
0.0
 11
-2.741999999999997
 21
0.8749999999999008
 31
0.0
  0
LINE
  5
FF7
330
FF2
100
AcDbEntity
  8
DIME
 62
     0
370
    -2
100
AcDbLine
 10
-2.561999999999997
 20
-0.6250000000000991
 30
0.0
 11
-2.561999999999997
 21
0.624999999999901
 31
0.0
  0
SOLID
  5
FF8
330
FF2
100
AcDbEntity
  8
DIME
 62
     0
100
AcDbTrace
 10
-2.603666666666664
 20
-0.6250000000000991
 30
0.0
 11
-2.520333333333331
 21
-0.6250000000000991
 31
0.0
 12
-2.561999999999997
 22
-0.8750000000000991
 32
0.0
 13
-2.561999999999997
 23
-0.8750000000000991
 33
0.0
  0
SOLID
  5
FF9
330
FF2
100
AcDbEntity
  8
DIME
 62
     0
100
AcDbTrace
 10
-2.603666666666664
 20
0.624999999999901
 30
0.0
 11
-2.520333333333331
 21
0.624999999999901
 31
0.0
 12
-2.561999999999997
 22
0.8749999999999008
 32
0.0
 13
-2.561999999999997
 23
0.8749999999999008
 33
0.0
  0
MTEXT
  5
FFA
330
FF2
100
AcDbEntity
  8
DIME
 62
     0
100
AcDbMText
 10
-2.791348567530693
 20
-0.0000000000000994
 30
0.0
 40
0.25
 41
0.0
 71
     5
 72
     1
  1
\A1;1 3/4"
 11
0.0000000000000001
 21
1.0
 31
0.0
 73
     1
 44
1.0
1001
ACAD
1000
MTEXTBEGIN
1070
    73
1070
     1
1070
    44
1040
1.0
1070
    74
1070
     0
1000
MTEXTEND
  0
POINT
  5
FFB
330
FF2
100
AcDbEntity
  8
Defpoints
 62
     0
100
AcDbPoint
 10
-0.8117201132924201
 20
-0.8750000000000994
 30
0.0
  0
POINT
  5
FFC
330
FF2
100
AcDbEntity
  8
Defpoints
 62
     0
100
AcDbPoint
 10
-0.8117201132924201
 20
0.8749999999999005
 30
0.0
  0
POINT
  5
FFD
330
FF2
100
AcDbEntity
  8
Defpoints
 62
     0
100
AcDbPoint
 10
-2.561999999999997
 20
0.8749999999999008
 30
0.0
  0
ENDBLK
  5
FF4
330
FF2
100
AcDbEntity
  8
0
100
AcDbBlockEnd
  0
BLOCK
  5
FFF
330
FFE
100
AcDbEntity
  8
0
100
AcDbBlockBegin
  2
*D34
 70
     1
 10
0.0
 20
0.0
 30
0.0
  3
*D34
  1

  0
LINE
  5
1001
330
FFE
100
AcDbEntity
  8
DIME
 62
     0
370
    -2
100
AcDbLine
 10
-1.175564584921641
 20
-0.875
 30
0.0
 11
-2.741999999999996
 21
-0.8749999999999996
 31
0.0
  0
LINE
  5
1002
330
FFE
100
AcDbEntity
  8
DIME
 62
     0
370
    -2
100
AcDbLine
 10
-2.561999999999997
 20
-1.124999999999999
 30
0.0
 11
-2.561999999999997
 21
-3.624956982316234
 31
0.0
  0
SOLID
  5
1003
330
FFE
100
AcDbEntity
  8
DIME
 62
     0
100
AcDbTrace
 10
-2.603666666666663
 20
-1.124999999999999
 30
0.0
 11
-2.52033333333333
 21
-1.124999999999999
 31
0.0
 12
-2.561999999999996
 22
-0.8749999999999996
 32
0.0
 13
-2.561999999999996
 23
-0.8749999999999996
 33
0.0
  0
SOLID
  5
1004
330
FFE
100
AcDbEntity
  8
DIME
 62
     0
100
AcDbTrace
 10
-2.603666666666664
 20
-3.624956982316234
 30
0.0
 11
-2.520333333333331
 21
-3.624956982316234
 31
0.0
 12
-2.561999999999997
 22
-3.874956982316234
 32
0.0
 13
-2.561999999999997
 23
-3.874956982316234
 33
0.0
  0
MTEXT
  5
1005
330
FFE
100
AcDbEntity
  8
DIME
 62
     0
100
AcDbMText
 10
-2.791263301500678
 20
-2.374978491158117
 30
0.0
 40
0.25
 41
0.0
 71
     5
 72
     1
  1
\A1;VARIES
 11
0.0000000000000001
 21
1.0
 31
0.0
 73
     1
 44
1.0
1001
ACAD
1000
MTEXTBEGIN
1070
    73
1070
     1
1070
    44
1040
1.0
1070
    74
1070
     0
1000
MTEXTEND
  0
POINT
  5
1006
330
FFE
100
AcDbEntity
  8
Defpoints
 62
     0
100
AcDbPoint
 10
-0.8005645849216413
 20
-0.875
 30
0.0
  0
POINT
  5
1007
330
FFE
100
AcDbEntity
  8
Defpoints
 62
     0
100
AcDbPoint
 10
-0.8117201132924201
 20
-3.874956982316234
 30
0.0
  0
POINT
  5
1008
330
FFE
100
AcDbEntity
  8
Defpoints
 62
     0
100
AcDbPoint
 10
-2.561999999999997
 20
-3.874956982316234
 30
0.0
  0
ENDBLK
  5
1000
330
FFE
100
AcDbEntity
  8
0
100
AcDbBlockEnd
  0
BLOCK
  5
100A
330
1009
100
AcDbEntity
  8
0
100
AcDbBlockBegin
  2
*D35
 70
     1
 10
0.0
 20
0.0
 30
0.0
  3
*D35
  1

  0
LINE
  5
100C
330
1009
100
AcDbEntity
  8
DIME
 62
     0
370
    -2
100
AcDbLine
 10
-1.18672011329242
 20
0.8749999999999005
 30
0.0
 11
-2.741999999999998
 21
0.8749999999999008
 31
0.0
  0
LINE
  5
100D
330
1009
100
AcDbEntity
  8
DIME
 62
     0
370
    -2
100
AcDbLine
 10
-2.561999999999997
 20
1.124999999999901
 30
0.0
 11
-2.561999999999997
 21
2.62499
 31
0.0
  0
SOLID
  5
100E
330
1009
100
AcDbEntity
  8
DIME
 62
     0
100
AcDbTrace
 10
-2.603666666666664
 20
1.124999999999901
 30
0.0
 11
-2.520333333333331
 21
1.124999999999901
 31
0.0
 12
-2.561999999999998
 22
0.8749999999999008
 32
0.0
 13
-2.561999999999998
 23
0.8749999999999008
 33
0.0
  0
SOLID
  5
100F
330
1009
100
AcDbEntity
  8
DIME
 62
     0
100
AcDbTrace
 10
-2.603666666666664
 20
2.62499
 30
0.0
 11
-2.520333333333331
 21
2.62499
 31
0.0
 12
-2.561999999999997
 22
2.87499
 32
0.0
 13
-2.561999999999997
 23
2.87499
 33
0.0
  0
MTEXT
  5
1010
330
1009
100
AcDbEntity
  8
DIME
 62
     0
100
AcDbMText
 10
-2.791348567530693
 20
1.87499499999995
 30
0.0
 40
0.25
 41
0.0
 71
     5
 72
     1
  1
\A1;{DLO}
 11
0.0000000000000001
 21
1.0
 31
0.0
 73
     1
 44
1.0
1001
ACAD
1000
MTEXTBEGIN
1070
    73
1070
     1
1070
    44
1040
1.0
1070
    74
1070
     0
1000
MTEXTEND
  0
POINT
  5
1011
330
1009
100
AcDbEntity
  8
Defpoints
 62
     0
100
AcDbPoint
 10
-0.8117201132924201
 20
0.8749999999999005
 30
0.0
  0
POINT
  5
1012
330
1009
100
AcDbEntity
  8
Defpoints
 62
     0
100
AcDbPoint
 10
-1.062999999999998
 20
2.87499
 30
0.0
  0
POINT
  5
1013
330
1009
100
AcDbEntity
  8
Defpoints
 62
     0
100
AcDbPoint
 10
-2.561999999999997
 20
2.87499
 30
0.0
  0
ENDBLK
  5
100B
330
1009
100
AcDbEntity
  8
0
100
AcDbBlockEnd
  0
BLOCK
  5
1015
330
1014
100
AcDbEntity
  8
0
100
AcDbBlockBegin
  2
*D36
 70
     1
 10
0.0
 20
0.0
 30
0.0
  3
*D36
  1

  0
LINE
  5
1017
330
1014
100
AcDbEntity
  8
DIME
 62
     0
370
    -2
100
AcDbLine
 10
-1.18672011329242
 20
-3.874956982316234
 30
0.0
 11
-2.741999999999997
 21
-3.874956982316234
 31
0.0
  0
LINE
  5
1018
330
1014
100
AcDbEntity
  8
DIME
 62
     0
370
    -2
100
AcDbLine
 10
-1.18672011329242
 20
-5.624956982316234
 30
0.0
 11
-2.741999999999997
 21
-5.624956982316233
 31
0.0
  0
LINE
  5
1019
330
1014
100
AcDbEntity
  8
DIME
 62
     0
370
    -2
100
AcDbLine
 10
-2.561999999999997
 20
-4.124956982316233
 30
0.0
 11
-2.561999999999997
 21
-5.374956982316233
 31
0.0
  0
SOLID
  5
101A
330
1014
100
AcDbEntity
  8
DIME
 62
     0
100
AcDbTrace
 10
-2.603666666666663
 20
-4.124956982316233
 30
0.0
 11
-2.52033333333333
 21
-4.124956982316233
 31
0.0
 12
-2.561999999999997
 22
-3.874956982316234
 32
0.0
 13
-2.561999999999997
 23
-3.874956982316234
 33
0.0
  0
SOLID
  5
101B
330
1014
100
AcDbEntity
  8
DIME
 62
     0
100
AcDbTrace
 10
-2.603666666666664
 20
-5.374956982316233
 30
0.0
 11
-2.520333333333331
 21
-5.374956982316233
 31
0.0
 12
-2.561999999999997
 22
-5.624956982316233
 32
0.0
 13
-2.561999999999997
 23
-5.624956982316233
 33
0.0
  0
MTEXT
  5
101C
330
1014
100
AcDbEntity
  8
DIME
 62
     0
100
AcDbMText
 10
-2.791348567530692
 20
-4.749956982316234
 30
0.0
 40
0.25
 41
0.0
 71
     5
 72
     1
  1
\A1;1 3/4"
 11
0.0000000000000001
 21
1.0
 31
0.0
 73
     1
 44
1.0
1001
ACAD
1000
MTEXTBEGIN
1070
    73
1070
     1
1070
    44
1040
1.0
1070
    74
1070
     0
1000
MTEXTEND
  0
POINT
  5
101D
330
1014
100
AcDbEntity
  8
Defpoints
 62
     0
100
AcDbPoint
 10
-0.8117201132924201
 20
-3.874956982316234
 30
0.0
  0
POINT
  5
101E
330
1014
100
AcDbEntity
  8
Defpoints
 62
     0
100
AcDbPoint
 10
-0.8117201132924201
 20
-5.624956982316234
 30
0.0
  0
POINT
  5
101F
330
1014
100
AcDbEntity
  8
Defpoints
 62
     0
100
AcDbPoint
 10
-2.561999999999997
 20
-5.624956982316233
 30
0.0
  0
ENDBLK
  5
1016
330
1014
100
AcDbEntity
  8
0
100
AcDbBlockEnd
  0
BLOCK
  5
1021
330
1020
100
AcDbEntity
  8
0
100
AcDbBlockBegin
  2
*D37
 70
     1
 10
0.0
 20
0.0
 30
0.0
  3
*D37
  1

  0
LINE
  5
1023
330
1020
100
AcDbEntity
  8
DIME
 62
     0
370
    -2
100
AcDbLine
 10
-1.18672011329242
 20
-5.624956982316234
 30
0.0
 11
-2.741999999999997
 21
-5.624956982316233
 31
0.0
  0
LINE
  5
1024
330
1020
100
AcDbEntity
  8
DIME
 62
     0
370
    -2
100
AcDbLine
 10
-2.561999999999997
 20
-5.874956982316233
 30
0.0
 11
-2.561999999999997
 21
-7.374946982316335
 31
0.0
  0
SOLID
  5
1025
330
1020
100
AcDbEntity
  8
DIME
 62
     0
100
AcDbTrace
 10
-2.603666666666663
 20
-5.874956982316233
 30
0.0
 11
-2.52033333333333
 21
-5.874956982316233
 31
0.0
 12
-2.561999999999997
 22
-5.624956982316233
 32
0.0
 13
-2.561999999999997
 23
-5.624956982316233
 33
0.0
  0
SOLID
  5
1026
330
1020
100
AcDbEntity
  8
DIME
 62
     0
100
AcDbTrace
 10
-2.603666666666664
 20
-7.374946982316335
 30
0.0
 11
-2.520333333333331
 21
-7.374946982316335
 31
0.0
 12
-2.561999999999997
 22
-7.624946982316335
 32
0.0
 13
-2.561999999999997
 23
-7.624946982316335
 33
0.0
  0
MTEXT
  5
1027
330
1020
100
AcDbEntity
  8
DIME
 62
     0
100
AcDbMText
 10
-2.791348567530691
 20
-6.624951982316285
 30
0.0
 40
0.25
 41
0.0
 71
     5
 72
     1
  1
\A1;{DLO}
 11
0.0000000000000001
 21
1.0
 31
0.0
 73
     1
 44
1.0
1001
ACAD
1000
MTEXTBEGIN
1070
    73
1070
     1
1070
    44
1040
1.0
1070
    74
1070
     0
1000
MTEXTEND
  0
POINT
  5
1028
330
1020
100
AcDbEntity
  8
Defpoints
 62
     0
100
AcDbPoint
 10
-0.8117201132924201
 20
-5.624956982316234
 30
0.0
  0
POINT
  5
1029
330
1020
100
AcDbEntity
  8
Defpoints
 62
     0
100
AcDbPoint
 10
-1.062999999999998
 20
-7.624946982316336
 30
0.0
  0
POINT
  5
102A
330
1020
100
AcDbEntity
  8
Defpoints
 62
     0
100
AcDbPoint
 10
-2.561999999999997
 20
-7.624946982316335
 30
0.0
  0
ENDBLK
  5
1022
330
1020
100
AcDbEntity
  8
0
100
AcDbBlockEnd
  0
BLOCK
  5
102C
330
102B
100
AcDbEntity
  8
0
100
AcDbBlockBegin
  2
*D38
 70
     1
 10
0.0
 20
0.0
 30
0.0
  3
*D38
  1

  0
LINE
  5
102E
330
102B
100
AcDbEntity
  8
DIME
 62
     0
370
    -2
100
AcDbLine
 10
-3.76516352098986
 20
-7.424946982316335
 30
0.0
 11
-3.765163520989858
 21
2.67499
 31
0.0
  0
SOLID
  5
102F
330
102B
100
AcDbEntity
  8
DIME
 62
     0
100
AcDbTrace
 10
-3.798496854323194
 20
-7.424946982316335
 30
0.0
 11
-3.731830187656527
 21
-7.424946982316335
 31
0.0
 12
-3.76516352098986
 22
-7.624946982316335
 32
0.0
 13
-3.76516352098986
 23
-7.624946982316335
 33
0.0
  0
SOLID
  5
1030
330
102B
100
AcDbEntity
  8
DIME
 62
     0
100
AcDbTrace
 10
-3.798496854323191
 20
2.67499
 30
0.0
 11
-3.731830187656525
 21
2.67499
 31
0.0
 12
-3.765163520989858
 22
2.87499
 32
0.0
 13
-3.765163520989858
 23
2.87499
 33
0.0
  0
MTEXT
  5
1031
330
102B
100
AcDbEntity
  8
DIME
 62
     0
100
AcDbMText
 10
-4.01942682249054
 20
-2.374978491158167
 30
0.0
 40
0.25
 41
0.0
 71
     5
 72
     1
  1
\A1;M.L./F.H.
 11
0.0000000000000001
 21
1.0
 31
0.0
 73
     1
 44
1.0
1001
ACAD
1000
MTEXTBEGIN
1070
    73
1070
     1
1070
    44
1040
1.0
1070
    74
1070
     0
1000
MTEXTEND
  0
POINT
  5
1032
330
102B
100
AcDbEntity
  8
Defpoints
 62
     0
100
AcDbPoint
 10
-1.062999999999998
 20
-7.624946982316336
 30
0.0
  0
POINT
  5
1033
330
102B
100
AcDbEntity
  8
Defpoints
 62
     0
100
AcDbPoint
 10
-1.062999999999998
 20
2.87499
 30
0.0
  0
POINT
  5
1034
330
102B
100
AcDbEntity
  8
Defpoints
 62
     0
100
AcDbPoint
 10
-3.765163520989858
 20
2.87499
 30
0.0
  0
ENDBLK
  5
102D
330
102B
100
AcDbEntity
  8
0
100
AcDbBlockEnd
  0
BLOCK
  5
11AF
330
11A3
100
AcDbEntity
  8
0
100
AcDbBlockBegin
  2
Kawneer Logo English
 70
     0
 10
0.0
 20
0.0
 30
0.0
  3
Kawneer Logo English
  1

  0
MTEXT
  5
11A4
102
{ACAD_XDICTIONARY
360
1255
102
}
330
11A3
100
AcDbEntity
  8
Kawneer Logo-English
100
AcDbMText
 10
1.510096758583198
 20
0.0372523876656778
 30
0.0
 40
0.036
 41
0.6125900866323382
 71
     3
 72
     5
  1
{\fArial TUR|b0|i0|c0|p34;\T1.05;AN ARCONIC COMPANY}
 73
     1
 44
1.0
1001
ACAD
1000
ACAD_MTEXT_COLUMN_INFO_BEGIN
1070
    75
1070
     2
1070
    79
1070
     0
1070
    76
1070
     1
1070
    78
1070
     0
1070
    48
1040
0.6125900866323382
1070
    49
1040
1.0
1070
    50
1070
     1
1040
0.0
1000
ACAD_MTEXT_COLUMN_INFO_END
1000
MTEXTBEGIN
1070
    73
1070
     1
1070
    44
1040
1.0
1070
    74
1070
     0
1000
MTEXTEND
  0
HATCH
  5
11A5
330
11A3
100
AcDbEntity
  8
Kawneer Logo-English
100
AcDbHatch
 10
0.0
 20
0.0
 30
0.0
210
0.0
220
0.0
230
1.0
  2
SOLID
 70
     1
 71
     0
 91
        1
 92
        1
 93
       81
 72
     1
 10
0.2706169776412204
 20
0.0336337282279411
 11
0.2687512969786691
 21
0.0350329887248546
 72
     1
 10
0.2687512969786696
 20
0.0350329887248547
 11
0.2633408230572721
 21
0.039137486182467
 72
     1
 10
0.2633408230572729
 20
0.0391374861824669
 11
0.2550385441089194
 21
0.0453875164020133
 72
     1
 10
0.2550385441089191
 20
0.0453875164020132
 11
0.2442175962661241
 21
0.053596511317238
 72
     1
 10
0.2442175962661235
 20
0.0535965113172379
 11
0.2314376837276472
 21
0.0632980507625037
 72
     1
 10
0.2314376837276479
 20
0.0632980507625037
 11
0.2172585106922595
 21
0.0741189986052996
 72
     1
 10
0.2172585106922598
 20
0.0741189986052996
 11
0.2019599292593419
 21
0.0856862187131167
 72
     1
 10
0.201959929259341
 20
0.0856862187131167
 11
0.1862882116939105
 21
0.0976265749534437
 72
     1
 10
0.1862882116939102
 20
0.0976265749534437
 11
0.1706164941284813
 21
0.1095669311937706
 72
     1
 10
0.1706164941284811
 20
0.1095669311937709
 11
0.1553179126955632
 21
0.1211341513015875
 72
     1
 10
0.1553179126955642
 20
0.1211341513015876
 11
0.1411387396601757
 21
0.131955099144384
 72
     1
 10
0.1411387396601755
 20
0.1319550991443839
 11
0.1284521111548274
 21
0.141749922622777
 72
     1
 10
0.1284521111548278
 20
0.1417499226227768
 11
0.117631163312031
 21
0.1499589175380016
 72
     1
 10
0.1176311633120304
 20
0.1499589175380017
 11
0.1094221683968068
 21
0.1563022317906752
 72
     1
 10
0.1094221683968062
 20
0.1563022317906754
 11
0.1041049785085351
 21
0.1604067292482882
 72
     1
 10
0.1041049785085351
 20
0.1604067292482878
 11
0.1023325818791119
 21
0.1618992737783286
 72
     1
 10
0.1023325818791116
 20
0.1618992737783289
 11
0.1043848306079176
 21
0.1636716704077524
 72
     1
 10
0.1043848306079194
 20
0.1636716704077524
 11
0.1100751566286996
 21
0.1683358720641301
 72
     1
 10
0.1100751566286986
 20
0.1683358720641301
 11
0.1189371397758159
 21
0.1757053106812067
 72
     1
 10
0.1189371397758161
 20
0.1757053106812067
 11
0.1304110758505067
 21
0.1851269980270901
 72
     1
 10
0.1304110758505059
 20
0.1851269980270902
 11
0.1439372606540007
 21
0.1963210820023967
 72
     1
 10
0.1439372606540017
 20
0.1963210820023967
 11
0.1589559899875385
 21
0.2087278584083611
 72
     1
 10
0.1589559899875379
 20
0.2087278584083611
 11
0.1750941277186041
 21
0.2220674751456017
 72
     1
 10
0.1750941277186047
 20
0.2220674751456017
 11
0.19169868561531
 21
0.2358735120484796
 72
     1
 10
0.1916986856153105
 20
0.2358735120484796
 11
0.208303243512014
 21
0.2495862649182301
 72
     1
 10
0.2083032435120131
 20
0.2495862649182304
 11
0.2244413812430811
 21
0.2628325976223432
 72
     1
 10
0.2244413812430812
 20
0.2628325976223429
 11
0.239460110576618
 21
0.2753326580614352
 72
     1
 10
0.2394601105766174
 20
0.2753326580614351
 11
0.2529862953801122
 21
0.2864334580036143
 72
     1
 10
0.2529862953801132
 20
0.2864334580036143
 11
0.2643669474216756
 21
0.2958551453494973
 72
     1
 10
0.2643669474216757
 20
0.2958551453494973
 11
0.2731356465356649
 21
0.3031312999334466
 72
     1
 10
0.273135646535664
 20
0.3031312999334466
 11
0.2788259725564443
 21
0.3077955015898243
 72
     1
 10
0.278825972556445
 20
0.3077955015898246
 11
0.2807849372521245
 21
0.3094746141861208
 72
     1
 10
0.2807849372521249
 20
0.3094746141861205
 11
0.2798520969208501
 21
0.3094746141861205
 72
     1
 10
0.2798520969208496
 20
0.3094746141861205
 11
0.2769602918938953
 21
0.3095678982192478
 72
     1
 10
0.2769602918938943
 20
0.3095678982192481
 11
0.2724826583037715
 21
0.3095678982192481
 72
     1
 10
0.2724826583037729
 20
0.3095678982192481
 11
0.2666057642167363
 21
0.3095678982192481
 72
     1
 10
0.266605764216735
 20
0.3095678982192481
 11
0.2597027457652953
 21
0.3095678982192481
 72
     1
 10
0.2597027457652956
 20
0.3095678982192481
 11
0.2519601710157094
 21
0.3095678982192481
 72
     1
 10
0.2519601710157104
 20
0.3095678982192481
 11
0.2437511761004851
 21
0.3095678982192481
 72
     1
 10
0.243751176100484
 20
0.3095678982192481
 11
0.2351690450527495
 21
0.3095678982192481
 72
     1
 10
0.2351690450527495
 20
0.3095678982192481
 11
0.2266801980381413
 21
0.3095678982192481
 72
     1
 10
0.2266801980381423
 20
0.3095678982192481
 11
0.2183779190897905
 21
0.3094746141861208
 72
     1
 10
0.2183779190897899
 20
0.3094746141861205
 11
0.2106353443402037
 21
0.3094746141861205
 72
     1
 10
0.2106353443402029
 20
0.3094746141861205
 11
0.2037323258887632
 21
0.3094746141861205
 72
     1
 10
0.203732325888764
 20
0.3094746141861205
 11
0.1978554318017273
 21
0.3094746141861205
 72
     1
 10
0.1978554318017278
 20
0.3094746141861205
 11
0.1932845141784786
 21
0.3094746141861205
 72
     1
 10
0.1932845141784787
 20
0.3094746141861205
 11
0.1903927091515244
 21
0.3094746141861205
 72
     1
 10
0.1903927091515234
 20
0.3094746141861205
 11
0.1893665847871204
 21
0.3094746141861205
 72
     1
 10
0.1893665847871206
 20
0.3094746141861205
 11
0.1879673242902067
 21
0.3077955015898243
 72
     1
 10
0.1879673242902076
 20
0.3077955015898246
 11
0.1841426789319786
 21
0.3030380159003196
 72
     1
 10
0.1841426789319787
 20
0.3030380159003192
 11
0.1780792167786874
 21
0.29576186131637
 72
     1
 10
0.1780792167786873
 20
0.29576186131637
 11
0.170243357995973
 21
0.2862468899373593
 72
     1
 10
0.170243357995973
 20
0.2862468899373593
 11
0.1610082387163447
 21
0.2750528059620528
 72
     1
 10
0.1610082387163438
 20
0.2750528059620528
 11
0.1507469950723126
 21
0.2624594614898328
 72
     1
 10
0.1507469950723133
 20
0.2624594614898328
 11
0.1396461951301336
 21
0.2491198447525922
 72
     1
 10
0.1396461951301333
 20
0.2491198447525922
 11
0.1282655430885727
 21
0.2352205238165866
 72
     1
 10
0.1282655430885726
 20
0.2352205238165868
 11
0.1168848910470102
 21
0.2214144869137089
 72
     1
 10
0.1168848910470102
 20
0.2214144869137087
 11
0.1058773751379587
 21
0.2079815861433408
 72
     1
 10
0.105877375137958
 20
0.2079815861433408
 11
0.0955228474608004
 21
0.1954815257042486
 72
     1
 10
0.0955228474608019
 20
0.1954815257042488
 11
0.0862877281811736
 21
0.1842874417289424
 72
     1
 10
0.0862877281811727
 20
0.1842874417289424
 11
0.0784518693984583
 21
0.1747724703499316
 72
     1
 10
0.0784518693984584
 20
0.1747724703499314
 11
0.0723884072451672
 21
0.1674963157659821
 72
     1
 10
0.0723884072451671
 20
0.1674963157659822
 11
0.0685637618869363
 21
0.1627388300764767
 72
     1
 10
0.0685637618869364
 20
0.1627388300764767
 11
0.0671645013900242
 21
0.1611530015133082
 72
     1
 10
0.0671645013900251
 20
0.1611530015133082
 11
0.0680040576881734
 21
0.1596604569832674
 72
     1
 10
0.0680040576881726
 20
0.1596604569832674
 11
0.0704294425494878
 21
0.1556492435587824
 72
     1
 10
0.0704294425494871
 20
0.1556492435587824
 11
0.0742540879077179
 21
0.1493059293061089
 72
     1
 10
0.0742540879077192
 20
0.1493059293061089
 11
0.0791048576303511
 21
0.1411902184240116
 72
     1
 10
0.0791048576303508
 20
0.1411902184240116
 11
0.0848884676842594
 21
0.1314886789787458
 72
     1
 10
0.0848884676842596
 20
0.1314886789787459
 11
0.0913250659700619
 21
0.1207610151690772
 72
     1
 10
0.0913250659700613
 20
0.1207610151690775
 11
0.0982280844214992
 21
0.1091937950612604
 72
     1
 10
0.0982280844214985
 20
0.1091937950612603
 11
0.1053176709391927
 21
0.0973467228540611
 72
     1
 10
0.105317670939193
 20
0.0973467228540612
 11
0.1124072574568872
 21
0.0854996506468619
 72
     1
 10
0.1124072574568871
 20
0.0854996506468617
 11
0.1193102759083267
 21
0.0739324305390446
 72
     1
 10
0.1193102759083278
 20
0.0739324305390448
 11
0.1257468741941283
 21
0.0632047667293762
 72
     1
 10
0.1257468741941277
 20
0.063204766729376
 11
0.1315304842480362
 21
0.0535032272841102
 72
     1
 10
0.1315304842480365
 20
0.0535032272841104
 11
0.1363812539706702
 21
0.0453875164020132
 72
     1
 10
0.1363812539706699
 20
0.0453875164020132
 11
0.1402058993288989
 21
0.0391374861824667
 72
     1
 10
0.1402058993288988
 20
0.0391374861824669
 11
0.1426312841902157
 21
0.0350329887248546
 72
     1
 10
0.1426312841902164
 20
0.0350329887248547
 11
0.1434708404883648
 21
0.0336337282279412
 72
     1
 10
0.143470840488364
 20
0.0336337282279411
 11
0.2706169776412211
 21
0.0336337282279411
 97
        0
 75
     0
 76
     1
 98
        1
 10
-0.3743130907707726
 20
-0.2500502867693841
1001
ACAD
1010
0.0
1020
0.0
1030
0.0
  0
HATCH
  5
11A6
330
11A3
100
AcDbEntity
  8
Kawneer Logo-English
100
AcDbHatch
 10
0.0
 20
0.0
 30
0.0
210
0.0
220
0.0
230
1.0
  2
SOLID
 70
     1
 71
     0
 91
        1
 92
        1
 93
       18
 72
     1
 10
0.0001865656044393
 20
0.2563959993365415
 11
-0.0000000024618153
 21
0.113671428651383
 72
     1
 10
-0.0000000024618159
 20
0.1136714286513832
 11
0.0012126899688416
 21
0.1152572572145516
 72
     1
 10
0.0012126899688421
 20
0.1152572572145516
 11
0.0045709151614355
 21
0.1197348908046738
 72
     1
 10
0.004570915161435
 20
0.119734890804674
 11
0.0098881050497044
 21
0.1268244773223682
 72
     1
 10
0.0098881050497044
 20
0.1268244773223682
 11
0.0166978394680158
 21
0.1359663125688683
 72
     1
 10
0.016697839468016
 20
0.1359663125688683
 11
0.0248135503501131
 21
0.1467872604116651
 72
     1
 10
0.024813550350113
 20
0.1467872604116652
 11
0.0338621015634867
 21
0.1588209006851195
 72
     1
 10
0.0338621015634872
 20
0.1588209006851194
 11
0.0434703569756247
 21
0.1716940972567221
 72
     1
 10
0.0434703569756247
 20
0.1716940972567224
 11
0.0534517485202732
 21
0.1850337139939626
 72
     1
 10
0.0534517485202724
 20
0.1850337139939624
 11
0.0634331400649208
 21
0.1983733307312025
 72
     1
 10
0.0634331400649222
 20
0.1983733307312024
 11
0.0730413954770597
 21
0.2112465273028051
 72
     1
 10
0.0730413954770595
 20
0.2112465273028053
 11
0.0820899466904331
 21
0.2233734516093873
 72
     1
 10
0.0820899466904321
 20
0.2233734516093873
 11
0.0902056575725293
 21
0.2341943994521837
 72
     1
 10
0.0902056575725308
 20
0.2341943994521837
 11
0.0970153919908422
 21
0.2433362346986839
 72
     1
 10
0.0970153919908405
 20
0.2433362346986839
 11
0.1022392978459834
 21
0.2503325371832507
 72
     1
 10
0.1022392978459843
 20
0.2503325371832508
 11
0.1056908070717041
 21
0.2549034548065008
 72
     1
 10
0.1056908070717046
 20
0.254903454806501
 11
0.1069034995023621
 21
0.2564892833696694
 72
     1
 10
0.1069034995023625
 20
0.2564892833696695
 11
0.0001865656044399
 21
0.2563959993365418
 97
        0
 75
     0
 76
     1
 98
        1
 10
-0.3743130907707726
 20
-0.2500502867693841
1001
ACAD
1010
0.0
1020
0.0
1030
0.0
  0
HATCH
  5
11A7
330
11A3
100
AcDbEntity
  8
Kawneer Logo-English
100
AcDbHatch
 10
0.0
 20
0.0
 30
0.0
210
0.0
220
0.0
230
1.0
  2
SOLID
 70
     1
 71
     0
 91
        2
 92
       16
 93
       76
 72
     1
 10
1.358402087941634
 20
0.1650709309046659
 11
1.358402087941634
 21
0.16796273593162
 72
     1
 10
1.358402087941634
 20
0.1679627359316202
 11
1.358402087941634
 21
0.1729067896873803
 72
     1
 10
1.358402087941634
 20
0.1729067896873803
 11
1.358402087941634
 21
0.1791568199069267
 72
     1
 10
1.358402087941634
 20
0.1791568199069267
 11
1.358402087941634
 21
0.1861531223914932
 72
     1
 10
1.358402087941634
 20
0.186153122391493
 11
1.358402087941634
 21
0.1931494248760595
 72
     1
 10
1.358402087941634
 20
0.1931494248760596
 11
1.358402087941634
 21
0.1994927391287338
 72
     1
 10
1.358402087941634
 20
0.1994927391287336
 11
1.358402087941634
 21
0.2044367928844937
 72
     1
 10
1.358402087941634
 20
0.2044367928844937
 11
1.358402087941634
 21
0.2072353138783208
 72
     1
 10
1.358402087941634
 20
0.2072353138783208
 11
1.359894632471676
 21
0.2072353138783208
 72
     1
 10
1.359894632471676
 20
0.2072353138783208
 11
1.362693153465502
 21
0.2072353138783208
 72
     1
 10
1.362693153465502
 20
0.2072353138783208
 11
1.366424514790605
 21
0.2072353138783208
 72
     1
 10
1.366424514790606
 20
0.2072353138783208
 11
1.371088716446983
 21
0.2072353138783208
 72
     1
 10
1.371088716446982
 20
0.2072353138783208
 11
1.376405906335254
 21
0.2072353138783208
 72
     1
 10
1.376405906335254
 20
0.2072353138783208
 11
1.382282800422289
 21
0.2072353138783208
 72
     1
 10
1.38228280042229
 20
0.2072353138783208
 11
1.388346262575581
 21
0.2072353138783208
 72
     1
 10
1.388346262575579
 20
0.2072353138783208
 11
1.394596292795125
 21
0.2072353138783208
 72
     1
 10
1.394596292795125
 20
0.2072353138783208
 11
1.400753038981545
 21
0.2072353138783208
 72
     1
 10
1.400753038981546
 20
0.2072353138783208
 11
1.406723217101709
 21
0.2072353138783208
 72
     1
 10
1.406723217101708
 20
0.2072353138783208
 11
1.412320259089362
 21
0.2072353138783208
 72
     1
 10
1.412320259089362
 20
0.2072353138783208
 11
1.417264312845122
 21
0.2072353138783208
 72
     1
 10
1.417264312845123
 20
0.2072353138783208
 11
1.421368810302735
 21
0.2072353138783208
 72
     1
 10
1.421368810302734
 20
0.2072353138783208
 11
1.424540467429071
 21
0.2072353138783208
 72
     1
 10
1.424540467429072
 20
0.2072353138783208
 11
1.426592716157878
 21
0.2072353138783208
 72
     1
 10
1.426592716157878
 20
0.2072353138783208
 11
1.427338988422898
 21
0.2072353138783208
 72
     1
 10
1.427338988422898
 20
0.2072353138783208
 11
1.430977065714873
 21
0.207142029845193
 72
     1
 10
1.430977065714872
 20
0.207142029845193
 11
1.434335290907465
 21
0.2068621777458102
 72
     1
 10
1.434335290907465
 20
0.2068621777458102
 11
1.435921119470633
 21
0.2066756096795552
 72
     1
 10
1.435921119470633
 20
0.206675609679555
 11
1.437413664000673
 21
0.2063957575801723
 72
     1
 10
1.437413664000674
 20
0.2063957575801723
 11
1.438906208530714
 21
0.2061159054807895
 72
     1
 10
1.438906208530714
 20
0.2061159054807898
 11
1.440398753060756
 21
0.2056494853151523
 72
     1
 10
1.440398753060756
 20
0.2056494853151521
 11
1.441704729524542
 21
0.2050897811163865
 72
     1
 10
1.441704729524542
 20
0.2050897811163866
 11
1.443010705988328
 21
0.204530076917621
 72
     1
 10
1.443010705988329
 20
0.204530076917621
 11
1.444223398418986
 21
0.2036905206194736
 72
     1
 10
1.444223398418985
 20
0.2036905206194736
 11
1.445436090849643
 21
0.2028509643213252
 72
     1
 10
1.445436090849643
 20
0.2028509643213252
 11
1.446555499247174
 21
0.2018248399569224
 72
     1
 10
1.446555499247173
 20
0.2018248399569223
 11
1.447581623611576
 21
0.2007054315593917
 72
     1
 10
1.447581623611578
 20
0.2007054315593915
 11
1.448607747975981
 21
0.1993061710624781
 72
     1
 10
1.448607747975981
 20
0.1993061710624781
 11
1.449540588307258
 21
0.1978136265324374
 72
     1
 10
1.449540588307256
 20
0.1978136265324373
 11
1.450380144605403
 21
0.1961345139361415
 72
     1
 10
1.450380144605404
 20
0.1961345139361415
 11
1.451126416870426
 21
0.1944554013398453
 72
     1
 10
1.451126416870426
 20
0.1944554013398454
 11
1.451592837036063
 21
0.1929628568098046
 72
     1
 10
1.451592837036062
 20
0.1929628568098046
 11
1.451965973168573
 21
0.1913770282466361
 72
     1
 10
1.451965973168574
 20
0.1913770282466361
 11
1.452245825267955
 21
0.1899777677497231
 72
     1
 10
1.452245825267954
 20
0.1899777677497231
 11
1.452432393334211
 21
0.188671791285937
 72
     1
 10
1.452432393334211
 20
0.1886717912859369
 11
1.452432393334211
 21
0.1874590988552789
 72
     1
 10
1.452432393334211
 20
0.1874590988552789
 11
1.452525677367338
 21
0.1863396904577482
 72
     1
 10
1.452525677367337
 20
0.1863396904577481
 11
1.452432393334211
 21
0.1844740097951972
 72
     1
 10
1.452432393334211
 20
0.1844740097951974
 11
1.452245825267955
 21
0.1827948971989012
 72
     1
 10
1.452245825267954
 20
0.1827948971989009
 11
1.451872689135445
 21
0.1810225005694773
 72
     1
 10
1.451872689135446
 20
0.1810225005694774
 11
1.451406268969809
 21
0.1794366720063093
 72
     1
 10
1.451406268969809
 20
0.1794366720063094
 11
1.450846564771043
 21
0.1779441274762682
 72
     1
 10
1.450846564771041
 20
0.1779441274762681
 11
1.450100292506021
 21
0.1764515829462274
 72
     1
 10
1.450100292506023
 20
0.1764515829462275
 11
1.449260736207875
 21
0.1750523224493141
 72
     1
 10
1.449260736207873
 20
0.1750523224493139
 11
1.448327895876597
 21
0.1737463459855283
 72
     1
 10
1.448327895876596
 20
0.1737463459855281
 11
1.44702191941281
 21
0.1723470854886151
 72
     1
 10
1.447021919412811
 20
0.1723470854886151
 11
1.445715942949025
 21
0.1711343930579568
 72
     1
 10
1.445715942949026
 20
0.1711343930579568
 11
1.444316682452114
 21
0.1700149846604262
 72
     1
 10
1.444316682452114
 20
0.1700149846604259
 11
1.442824137922072
 21
0.168988860296023
 72
     1
 10
1.442824137922072
 20
0.168988860296023
 11
1.441238309358904
 21
0.1682425880310024
 72
     1
 10
1.441238309358902
 20
0.1682425880310024
 11
1.439559196762608
 21
0.1674963157659821
 72
     1
 10
1.439559196762608
 20
0.1674963157659822
 11
1.437880084166311
 21
0.1669366115672166
 72
     1
 10
1.437880084166311
 20
0.1669366115672167
 11
1.436107687536888
 21
0.1664701914015788
 72
     1
 10
1.436107687536888
 20
0.1664701914015789
 11
1.434242006874337
 21
0.166003771235941
 72
     1
 10
1.434242006874337
 20
0.1660037712359412
 11
1.432376326211786
 21
0.1657239191365588
 72
     1
 10
1.432376326211785
 20
0.1657239191365585
 11
1.430417361516107
 21
0.1655373510703035
 72
     1
 10
1.430417361516108
 20
0.1655373510703037
 11
1.428458396820429
 21
0.1653507830040482
 72
     1
 10
1.428458396820428
 20
0.1653507830040482
 11
1.424353899362817
 21
0.1651642149377932
 72
     1
 10
1.424353899362817
 20
0.1651642149377932
 11
1.420156117872077
 21
0.1650709309046658
 72
     1
 10
1.420156117872076
 20
0.1650709309046659
 11
1.41773073301076
 21
0.1650709309046659
 72
     1
 10
1.417730733010761
 20
0.1650709309046659
 11
1.411107566658704
 21
0.1650709309046659
 72
     1
 10
1.411107566658702
 20
0.1650709309046659
 11
1.401779163345947
 21
0.1650709309046659
 72
     1
 10
1.401779163345949
 20
0.1650709309046659
 11
1.390958215503152
 21
0.1650709309046659
 72
     1
 10
1.390958215503152
 20
0.1650709309046659
 11
1.379950699594101
 21
0.1650709309046659
 72
     1
 10
1.379950699594099
 20
0.1650709309046659
 11
1.369969308049451
 21
0.1650709309046659
 72
     1
 10
1.369969308049451
 20
0.1650709309046659
 11
1.362320017332992
 21
0.1650709309046659
 72
     1
 10
1.362320017332992
 20
0.1650709309046659
 11
1.358402087941635
 21
0.1650709309046659
 97
        0
 92
        1
 93
      107
 72
     1
 10
1.443756978253348
 20
0.1485596570410883
 11
1.446928635379685
 21
0.1492126452729816
 72
     1
 10
1.446928635379685
 20
0.1492126452729817
 11
1.449540588307256
 21
0.1498656335048746
 72
     1
 10
1.449540588307256
 20
0.1498656335048745
 11
1.451872689135445
 21
0.1506119057698948
 72
     1
 10
1.451872689135446
 20
0.1506119057698946
 11
1.45401822189738
 21
0.1514514620680426
 72
     1
 10
1.45401822189738
 20
0.1514514620680425
 11
1.455883902559929
 21
0.1521977343330632
 72
     1
 10
1.455883902559929
 20
0.1521977343330631
 11
1.457563015156225
 21
0.1530372906312111
 72
     1
 10
1.457563015156225
 20
0.1530372906312111
 11
1.459148843719394
 21
0.1539701309624869
 72
     1
 10
1.459148843719394
 20
0.1539701309624866
 11
1.460641388249434
 21
0.1549029712937624
 72
     1
 10
1.460641388249434
 20
0.1549029712937622
 11
1.462133932779476
 21
0.155835811625038
 72
     1
 10
1.462133932779476
 20
0.155835811625038
 11
1.463439909243262
 21
0.1568619359894408
 72
     1
 10
1.463439909243262
 20
0.1568619359894408
 11
1.464745885707048
 21
0.1579813443869714
 72
     1
 10
1.464745885707047
 20
0.1579813443869716
 11
1.465865294104579
 21
0.1591007527845022
 72
     1
 10
1.465865294104579
 20
0.1591007527845025
 11
1.466984702502109
 21
0.1602201611820331
 72
     1
 10
1.466984702502108
 20
0.1602201611820328
 11
1.468010826866511
 21
0.1613395695795634
 72
     1
 10
1.468010826866511
 20
0.1613395695795637
 11
1.468943667197788
 21
0.1625522620102216
 72
     1
 10
1.468943667197788
 20
0.1625522620102216
 11
1.469876507529063
 21
0.1636716704077522
 72
     1
 10
1.469876507529063
 20
0.1636716704077524
 11
1.470622779794084
 21
0.1648843628384107
 72
     1
 10
1.470622779794084
 20
0.1648843628384107
 11
1.471462336092232
 21
0.1661903393021964
 72
     1
 10
1.471462336092232
 20
0.1661903393021967
 11
1.472115324324125
 21
0.1674030317328546
 72
     1
 10
1.472115324324124
 20
0.1674030317328546
 11
1.472768312556016
 21
0.1686157241635125
 72
     1
 10
1.472768312556017
 20
0.1686157241635125
 11
1.473328016754783
 21
0.1699217006272986
 72
     1
 10
1.473328016754782
 20
0.1699217006272989
 11
1.47379443692042
 21
0.1711343930579568
 72
     1
 10
1.47379443692042
 20
0.1711343930579568
 11
1.474260857086057
 21
0.1724403695217425
 72
     1
 10
1.474260857086058
 20
0.1724403695217424
 11
1.474727277251697
 21
0.1736530619524008
 72
     1
 10
1.474727277251697
 20
0.173653061952401
 11
1.475380265483589
 21
0.1760784468137175
 72
     1
 10
1.475380265483588
 20
0.1760784468137173
 11
1.475846685649225
 21
0.1785038316750338
 72
     1
 10
1.475846685649226
 20
0.1785038316750335
 11
1.476219821781737
 21
0.1808359325032223
 72
     1
 10
1.476219821781738
 20
0.1808359325032223
 11
1.47649967388112
 21
0.1830747492982838
 72
     1
 10
1.47649967388112
 20
0.1830747492982838
 11
1.476592957914248
 21
0.1851269980270901
 72
     1
 10
1.476592957914248
 20
0.1851269980270902
 11
1.476686241947374
 21
0.1870859627227688
 72
     1
 10
1.476686241947375
 20
0.1870859627227687
 11
1.476592957914249
 21
0.1888583593521923
 72
     1
 10
1.476592957914248
 20
0.1888583593521922
 11
1.476499673881119
 21
0.1906307559816158
 72
     1
 10
1.47649967388112
 20
0.1906307559816159
 11
1.476406389847991
 21
0.1924031526110394
 72
     1
 10
1.476406389847991
 20
0.1924031526110394
 11
1.476126537748608
 21
0.1940822652073352
 72
     1
 10
1.476126537748608
 20
0.1940822652073352
 11
1.475846685649226
 21
0.195761377803631
 72
     1
 10
1.475846685649226
 20
0.1957613778036309
 11
1.475566833549843
 21
0.1974404903999272
 72
     1
 10
1.475566833549843
 20
0.1974404903999272
 11
1.475100413384206
 21
0.1990263189630953
 72
     1
 10
1.475100413384205
 20
0.1990263189630952
 11
1.474633993218568
 21
0.2006121475262637
 72
     1
 10
1.474633993218568
 20
0.2006121475262639
 11
1.47416757305293
 21
0.2021046920563051
 72
     1
 10
1.474167573052932
 20
0.2021046920563049
 11
1.473514584821038
 21
0.2035972365863457
 72
     1
 10
1.473514584821037
 20
0.2035972365863459
 11
1.472954880622271
 21
0.2050897811163867
 72
     1
 10
1.472954880622272
 20
0.2050897811163866
 11
1.472208608357252
 21
0.2064890416133
 72
     1
 10
1.472208608357252
 20
0.2064890416133001
 11
1.471462336092232
 21
0.2078883021102135
 72
     1
 10
1.471462336092232
 20
0.2078883021102136
 11
1.470622779794083
 21
0.2091942785739993
 72
     1
 10
1.470622779794084
 20
0.2091942785739991
 11
1.469783223495935
 21
0.2105002550377848
 72
     1
 10
1.469783223495934
 20
0.2105002550377851
 11
1.468850383164659
 21
0.2118062315015707
 72
     1
 10
1.468850383164661
 20
0.2118062315015709
 11
1.467917542833386
 21
0.2130189239322288
 72
     1
 10
1.467917542833385
 20
0.2130189239322289
 11
1.466891418468982
 21
0.2141383323297595
 72
     1
 10
1.466891418468982
 20
0.2141383323297595
 11
1.465772010071451
 21
0.2153510247604178
 72
     1
 10
1.46577201007145
 20
0.215351024760418
 11
1.464652601673919
 21
0.2163771491248209
 72
     1
 10
1.46465260167392
 20
0.2163771491248209
 11
1.463533193276389
 21
0.2174032734892238
 72
     1
 10
1.463533193276389
 20
0.2174032734892238
 11
1.462227216812603
 21
0.2184293978536266
 72
     1
 10
1.462227216812602
 20
0.2184293978536266
 11
1.461014524381945
 21
0.2193622381849024
 72
     1
 10
1.461014524381946
 20
0.2193622381849023
 11
1.459615263885032
 21
0.2202950785161781
 72
     1
 10
1.459615263885031
 20
0.2202950785161782
 11
1.458309287421245
 21
0.2211346348143262
 72
     1
 10
1.458309287421246
 20
0.221134634814326
 11
1.456816742891206
 21
0.221974191112474
 72
     1
 10
1.456816742891206
 20
0.2219741911124738
 11
1.455417482394292
 21
0.2227204633774945
 72
     1
 10
1.455417482394291
 20
0.2227204633774944
 11
1.453831653831122
 21
0.2233734516093874
 72
     1
 10
1.453831653831123
 20
0.2233734516093873
 11
1.452339109301082
 21
0.2240264398412803
 72
     1
 10
1.452339109301082
 20
0.2240264398412803
 11
1.450659996704785
 21
0.2245861440400459
 72
     1
 10
1.450659996704787
 20
0.2245861440400457
 11
1.44907416814162
 21
0.2251458482388108
 72
     1
 10
1.449074168141619
 20
0.2251458482388109
 11
1.447301771512194
 21
0.2256122684044489
 72
     1
 10
1.447301771512194
 20
0.2256122684044488
 11
1.445249522783388
 21
0.2261719726032139
 72
     1
 10
1.445249522783388
 20
0.226171972603214
 11
1.44329055808771
 21
0.2265451087357246
 72
     1
 10
1.443290558087712
 20
0.2265451087357244
 11
1.441145025325778
 21
0.2269182448682345
 72
     1
 10
1.441145025325776
 20
0.2269182448682345
 11
1.438906208530714
 21
0.2271980969676173
 72
     1
 10
1.438906208530714
 20
0.2271980969676173
 11
1.436387539636271
 21
0.2273846650338724
 72
     1
 10
1.436387539636271
 20
0.2273846650338724
 11
1.433495734609316
 21
0.2275712331001274
 72
     1
 10
1.433495734609317
 20
0.2275712331001274
 11
1.430044225383597
 21
0.2276645171332552
 72
     1
 10
1.430044225383597
 20
0.2276645171332549
 11
1.42612629599224
 21
0.2277578011663822
 72
     1
 10
1.42612629599224
 20
0.2277578011663825
 11
1.426033011959112
 21
0.2277578011663825
 72
     1
 10
1.426033011959111
 20
0.2277578011663825
 11
1.33489451159349
 21
0.2277578011663825
 72
     1
 10
1.334894511593491
 20
0.2277578011663825
 11
1.334894511593491
 21
0.0926825211976832
 72
     1
 10
1.334894511593491
 20
0.0926825211976832
 11
1.358588656007891
 21
0.0926825211976832
 72
     1
 10
1.358588656007891
 20
0.0926825211976832
 11
1.358588656007891
 21
0.0947347699264896
 72
     1
 10
1.358588656007891
 20
0.0947347699264896
 11
1.358588656007891
 21
0.1001452438478876
 72
     1
 10
1.358588656007891
 20
0.1001452438478875
 11
1.358588656007891
 21
0.1079811026306024
 72
     1
 10
1.358588656007891
 20
0.1079811026306024
 11
1.358588656007891
 21
0.1170296538439752
 72
     1
 10
1.358588656007891
 20
0.1170296538439753
 11
1.358588656007891
 21
0.1262647731236032
 72
     1
 10
1.358588656007891
 20
0.1262647731236031
 11
1.358588656007891
 21
0.1347536201382103
 72
     1
 10
1.358588656007891
 20
0.1347536201382104
 11
1.358588656007891
 21
0.1412835024571394
 72
     1
 10
1.358588656007891
 20
0.1412835024571393
 11
1.358588656007891
 21
0.1448282957159864
 72
     1
 10
1.358588656007891
 20
0.1448282957159865
 11
1.362320017332992
 21
0.1448282957159865
 72
     1
 10
1.362320017332992
 20
0.1448282957159865
 11
1.369409603850688
 21
0.1448282957159865
 72
     1
 10
1.369409603850688
 20
0.1448282957159865
 11
1.378738007163443
 21
0.1448282957159865
 72
     1
 10
1.378738007163443
 20
0.1448282957159865
 11
1.388999250807475
 21
0.1448282957159865
 72
     1
 10
1.388999250807473
 20
0.1448282957159865
 11
1.399260494451505
 21
0.1448282957159865
 72
     1
 10
1.399260494451506
 20
0.1448282957159865
 11
1.408215761631749
 21
0.1448282957159865
 72
     1
 10
1.408215761631748
 20
0.1448282957159865
 11
1.414745643950677
 21
0.1448282957159865
 72
     1
 10
1.414745643950678
 20
0.1448282957159865
 11
1.41773073301076
 21
0.1448282957159865
 72
     1
 10
1.417730733010761
 20
0.1448282957159865
 11
1.420062833838949
 21
0.1420297747221594
 72
     1
 10
1.420062833838949
 20
0.1420297747221597
 11
1.425193455660966
 21
0.1359663125688683
 72
     1
 10
1.425193455660965
 20
0.1359663125688683
 11
1.432283042178659
 21
0.1275707495873888
 72
     1
 10
1.432283042178659
 20
0.1275707495873886
 11
1.440305469027628
 21
0.1180557782083779
 72
     1
 10
1.440305469027629
 20
0.1180557782083781
 11
1.448234611843471
 21
0.1087273748956225
 72
     1
 10
1.448234611843471
 20
0.1087273748956225
 11
1.455044346261782
 21
0.1006116640135252
 72
     1
 10
1.455044346261782
 20
0.1006116640135252
 11
1.459895115984414
 21
0.0948280539596167
 72
     1
 10
1.459895115984414
 20
0.0948280539596169
 11
1.461760796646965
 21
0.0926825211976832
 72
     1
 10
1.461760796646967
 20
0.0926825211976832
 11
1.49254452757906
 21
0.0926825211976832
 72
     1
 10
1.492544527579059
 20
0.0926825211976832
 11
1.490678846916508
 21
0.0948280539596169
 72
     1
 10
1.490678846916508
 20
0.0948280539596169
 11
1.48564150912762
 21
0.100518379980398
 72
     1
 10
1.48564150912762
 20
0.1005183799803981
 11
1.478458638576797
 21
0.1088206589287502
 72
     1
 10
1.478458638576798
 20
0.1088206589287502
 11
1.470063075595318
 21
0.1183356303077609
 72
     1
 10
1.470063075595317
 20
0.118335630307761
 11
1.461480944547582
 21
0.1282237378192818
 72
     1
 10
1.461480944547582
 20
0.1282237378192818
 11
1.453551801731739
 21
0.1372722890326546
 72
     1
 10
1.45355180173174
 20
0.1372722890326546
 11
1.447395055545323
 21
0.1444551595834761
 72
     1
 10
1.447395055545323
 20
0.1444551595834759
 11
1.443756978253349
 21
0.1485596570410882
 97
        0
 75
     0
 76
     1
 98
        1
 10
-0.3743130907707726
 20
-0.2500502867693841
1001
ACAD
1010
0.0
1020
0.0
1030
0.0
  0
HATCH
  5
11A8
330
11A3
100
AcDbEntity
  8
Kawneer Logo-English
100
AcDbHatch
 10
0.0
 20
0.0
 30
0.0
210
0.0
220
0.0
230
1.0
  2
SOLID
 70
     1
 71
     0
 91
        1
 92
        1
 93
       87
 72
     1
 10
1.205602841678699
 20
0.1525708704655737
 11
1.207468522341251
 21
0.1525708704655737
 72
     1
 10
1.207468522341252
 20
0.1525708704655737
 11
1.211199883666355
 21
0.1525708704655737
 72
     1
 10
1.211199883666355
 20
0.1525708704655737
 11
1.216517073554626
 21
0.1525708704655737
 72
     1
 10
1.216517073554626
 20
0.1525708704655737
 11
1.223046955873555
 21
0.1525708704655737
 72
     1
 10
1.223046955873553
 20
0.1525708704655737
 11
1.230602962556885
 21
0.1525708704655737
 72
     1
 10
1.230602962556885
 20
0.1525708704655737
 11
1.238998525538365
 21
0.1525708704655737
 72
     1
 10
1.238998525538365
 20
0.1525708704655737
 11
1.247767224652354
 21
0.1525708704655737
 72
     1
 10
1.247767224652355
 20
0.1525708704655737
 11
1.256815775865728
 21
0.1525708704655737
 72
     1
 10
1.256815775865729
 20
0.1525708704655737
 11
1.265771043045974
 21
0.1525708704655737
 72
     1
 10
1.265771043045973
 20
0.1525708704655737
 11
1.274446458126836
 21
0.1525708704655737
 72
     1
 10
1.274446458126837
 20
0.1525708704655737
 11
1.282562169008935
 21
0.1525708704655737
 72
     1
 10
1.282562169008935
 20
0.1525708704655737
 11
1.289745039559756
 21
0.1525708704655737
 72
     1
 10
1.289745039559755
 20
0.1525708704655737
 11
1.295808501713046
 21
0.1525708704655737
 72
     1
 10
1.295808501713046
 20
0.1525708704655737
 11
1.300472703369423
 21
0.1525708704655737
 72
     1
 10
1.300472703369423
 20
0.1525708704655737
 11
1.303457792429505
 21
0.1525708704655737
 72
     1
 10
1.303457792429505
 20
0.1525708704655737
 11
1.304483916793908
 21
0.1525708704655737
 72
     1
 10
1.304483916793908
 20
0.1525708704655737
 11
1.304483916793908
 21
0.1730000737205081
 72
     1
 10
1.304483916793908
 20
0.1730000737205078
 11
1.303457792429505
 21
0.1730000737205078
 72
     1
 10
1.303457792429505
 20
0.1730000737205078
 11
1.300472703369423
 21
0.1730000737205078
 72
     1
 10
1.300472703369423
 20
0.1730000737205078
 11
1.295808501713045
 21
0.1730000737205078
 72
     1
 10
1.295808501713046
 20
0.1730000737205078
 11
1.289745039559754
 21
0.1730000737205078
 72
     1
 10
1.289745039559755
 20
0.1730000737205078
 11
1.282562169008934
 21
0.1730000737205078
 72
     1
 10
1.282562169008935
 20
0.1730000737205078
 11
1.274446458126837
 21
0.1730000737205078
 72
     1
 10
1.274446458126837
 20
0.1730000737205078
 11
1.265771043045975
 21
0.1730000737205078
 72
     1
 10
1.265771043045973
 20
0.1730000737205078
 11
1.256815775865728
 21
0.1730000737205078
 72
     1
 10
1.256815775865729
 20
0.1730000737205078
 11
1.247767224652355
 21
0.1730000737205078
 72
     1
 10
1.247767224652355
 20
0.1730000737205078
 11
1.238998525538365
 21
0.1730000737205078
 72
     1
 10
1.238998525538365
 20
0.1730000737205078
 11
1.230602962556885
 21
0.1730000737205078
 72
     1
 10
1.230602962556885
 20
0.1730000737205078
 11
1.223046955873553
 21
0.1730000737205078
 72
     1
 10
1.223046955873553
 20
0.1730000737205078
 11
1.216517073554625
 21
0.1730000737205078
 72
     1
 10
1.216517073554626
 20
0.1730000737205078
 11
1.211199883666355
 21
0.1730000737205078
 72
     1
 10
1.211199883666355
 20
0.1730000737205078
 11
1.207468522341252
 21
0.1730000737205078
 72
     1
 10
1.207468522341252
 20
0.1730000737205078
 11
1.205602841678701
 21
0.1730000737205078
 72
     1
 10
1.205602841678699
 20
0.1730000737205078
 11
1.205602841678699
 21
0.1754254585818243
 72
     1
 10
1.205602841678699
 20
0.1754254585818245
 11
1.205602841678699
 21
0.1794366720063095
 72
     1
 10
1.205602841678699
 20
0.1794366720063094
 11
1.205602841678699
 21
0.1843807257620694
 72
     1
 10
1.205602841678699
 20
0.1843807257620694
 11
1.205602841678699
 21
0.1898844837165951
 72
     1
 10
1.205602841678699
 20
0.1898844837165951
 11
1.205602841678699
 21
0.1952949576379935
 72
     1
 10
1.205602841678699
 20
0.1952949576379937
 11
1.205602841678699
 21
0.2003322954268815
 72
     1
 10
1.205602841678699
 20
0.2003322954268814
 11
1.205602841678699
 21
0.2042502248182386
 72
     1
 10
1.205602841678699
 20
0.2042502248182386
 11
1.205602841678699
 21
0.206675609679555
 72
     1
 10
1.205602841678699
 20
0.206675609679555
 11
1.207468522341251
 21
0.206675609679555
 72
     1
 10
1.207468522341252
 20
0.206675609679555
 11
1.211293167699483
 21
0.206675609679555
 72
     1
 10
1.211293167699483
 20
0.206675609679555
 11
1.21670364162088
 21
0.206675609679555
 72
     1
 10
1.216703641620879
 20
0.206675609679555
 11
1.223420092006063
 21
0.206675609679555
 72
     1
 10
1.223420092006064
 20
0.206675609679555
 11
1.231255950788778
 21
0.206675609679555
 72
     1
 10
1.231255950788778
 20
0.206675609679555
 11
1.239744797803386
 21
0.206675609679555
 72
     1
 10
1.239744797803385
 20
0.206675609679555
 11
1.248886633049885
 21
0.206675609679555
 72
     1
 10
1.248886633049885
 20
0.206675609679555
 11
1.258121752329513
 21
0.206675609679555
 72
     1
 10
1.258121752329514
 20
0.206675609679555
 11
1.267356871609143
 21
0.206675609679555
 72
     1
 10
1.267356871609142
 20
0.206675609679555
 11
1.276218854756259
 21
0.206675609679555
 72
     1
 10
1.276218854756259
 20
0.206675609679555
 11
1.284521133704611
 21
0.206675609679555
 72
     1
 10
1.284521133704611
 20
0.206675609679555
 11
1.291890572321688
 21
0.206675609679555
 72
     1
 10
1.291890572321688
 20
0.206675609679555
 11
1.298140602541234
 21
0.206675609679555
 72
     1
 10
1.298140602541234
 20
0.206675609679555
 11
1.30289808823074
 21
0.206675609679555
 72
     1
 10
1.30289808823074
 20
0.206675609679555
 11
1.305976461323949
 21
0.206675609679555
 72
     1
 10
1.305976461323949
 20
0.206675609679555
 11
1.30709586972148
 21
0.206675609679555
 72
     1
 10
1.307095869721479
 20
0.206675609679555
 11
1.307095869721479
 21
0.2277578011663822
 72
     1
 10
1.307095869721479
 20
0.2277578011663825
 11
1.304577200827036
 21
0.2277578011663825
 72
     1
 10
1.304577200827037
 20
0.2277578011663825
 11
1.182188549363684
 21
0.2277578011663825
 72
     1
 10
1.182188549363684
 20
0.2277578011663825
 11
1.182188549363684
 21
0.0926825211976832
 72
     1
 10
1.182188549363684
 20
0.0926825211976832
 11
1.311853355410986
 21
0.0926825211976832
 72
     1
 10
1.311853355410985
 20
0.0926825211976832
 11
1.311853355410985
 21
0.113671428651383
 72
     1
 10
1.311853355410985
 20
0.1136714286513832
 11
1.310733947013454
 21
0.1136714286513832
 72
     1
 10
1.310733947013455
 20
0.1136714286513832
 11
1.307469005853991
 21
0.1136714286513832
 72
     1
 10
1.307469005853991
 20
0.1136714286513832
 11
1.302431668065102
 21
0.1136714286513832
 72
     1
 10
1.302431668065103
 20
0.1136714286513832
 11
1.295901785746174
 21
0.1136714286513832
 72
     1
 10
1.295901785746174
 20
0.1136714286513832
 11
1.288159210996586
 21
0.1136714286513832
 72
     1
 10
1.288159210996587
 20
0.1136714286513832
 11
1.279483795915724
 21
0.1136714286513832
 72
     1
 10
1.279483795915723
 20
0.1136714286513832
 11
1.270155392602968
 21
0.1136714286513832
 72
     1
 10
1.270155392602969
 20
0.1136714286513832
 11
1.260547137190832
 21
0.1136714286513832
 72
     1
 10
1.260547137190831
 20
0.1136714286513832
 11
1.250752313712437
 21
0.1136714286513832
 72
     1
 10
1.250752313712437
 20
0.1136714286513832
 11
1.241330626366554
 21
0.1136714286513832
 72
     1
 10
1.241330626366555
 20
0.1136714286513832
 11
1.23237535918631
 21
0.1136714286513832
 72
     1
 10
1.232375359186308
 20
0.1136714286513832
 11
1.224166364271082
 21
0.1136714286513832
 72
     1
 10
1.224166364271083
 20
0.1136714286513832
 11
1.217170061786517
 21
0.1136714286513832
 72
     1
 10
1.217170061786517
 20
0.1136714286513832
 11
1.211479735765737
 21
0.1136714286513832
 72
     1
 10
1.211479735765737
 20
0.1136714286513832
 11
1.20756180637438
 21
0.1136714286513832
 72
     1
 10
1.207561806374379
 20
0.1136714286513832
 11
1.2056028416787
 21
0.1136714286513832
 72
     1
 10
1.205602841678699
 20
0.1136714286513832
 11
1.205602841678699
 21
0.1163766656120825
 72
     1
 10
1.205602841678699
 20
0.1163766656120823
 11
1.205602841678699
 21
0.1209475832353323
 72
     1
 10
1.205602841678699
 20
0.1209475832353325
 11
1.205602841678699
 21
0.1267311932892411
 72
     1
 10
1.205602841678699
 20
0.1267311932892408
 11
1.205602841678699
 21
0.1330745075419143
 72
     1
 10
1.205602841678699
 20
0.1330745075419144
 11
1.205602841678699
 21
0.1395111058277156
 72
     1
 10
1.205602841678699
 20
0.1395111058277158
 11
1.205602841678699
 21
0.1452947158816239
 72
     1
 10
1.205602841678699
 20
0.145294715881624
 11
1.205602841678699
 21
0.1498656335048746
 72
     1
 10
1.205602841678699
 20
0.1498656335048745
 11
1.205602841678699
 21
0.1525708704655738
 97
        0
 75
     0
 76
     1
 98
        1
 10
-0.3743130907707726
 20
-0.2500502867693841
1001
ACAD
1010
0.0
1020
0.0
1030
0.0
  0
HATCH
  5
11A9
330
11A3
100
AcDbEntity
  8
Kawneer Logo-English
100
AcDbHatch
 10
0.0
 20
0.0
 30
0.0
210
0.0
220
0.0
230
1.0
  2
SOLID
 70
     1
 71
     0
 91
        1
 92
        1
 93
       87
 72
     1
 10
1.049352086190046
 20
0.1525708704655737
 11
1.051217766852597
 21
0.1525708704655737
 72
     1
 10
1.051217766852596
 20
0.1525708704655737
 11
1.054949128177699
 21
0.1525708704655737
 72
     1
 10
1.0549491281777
 20
0.1525708704655737
 11
1.060173034032843
 21
0.1525708704655737
 72
     1
 10
1.060173034032843
 20
0.1525708704655737
 11
1.0667962003849
 21
0.1525708704655737
 72
     1
 10
1.0667962003849
 20
0.1525708704655737
 11
1.074352207068231
 21
0.1525708704655737
 72
     1
 10
1.074352207068232
 20
0.1525708704655737
 11
1.082747770049711
 21
0.1525708704655737
 72
     1
 10
1.082747770049711
 20
0.1525708704655737
 11
1.0915164691637
 21
0.1525708704655737
 72
     1
 10
1.091516469163701
 20
0.1525708704655737
 11
1.100565020377075
 21
0.1525708704655737
 72
     1
 10
1.100565020377073
 20
0.1525708704655737
 11
1.109520287557319
 21
0.1525708704655737
 72
     1
 10
1.10952028755732
 20
0.1525708704655737
 11
1.118195702638183
 21
0.1525708704655737
 72
     1
 10
1.118195702638182
 20
0.1525708704655737
 11
1.126218129487151
 21
0.1525708704655737
 72
     1
 10
1.126218129487152
 20
0.1525708704655737
 11
1.133401000037974
 21
0.1525708704655737
 72
     1
 10
1.133401000037974
 20
0.1525708704655737
 11
1.139557746224391
 21
0.1525708704655737
 72
     1
 10
1.139557746224392
 20
0.1525708704655737
 11
1.14422194788077
 21
0.1525708704655737
 72
     1
 10
1.144221947880769
 20
0.1525708704655737
 11
1.147207036940851
 21
0.1525708704655737
 72
     1
 10
1.147207036940852
 20
0.1525708704655737
 11
1.148233161305255
 21
0.1525708704655737
 72
     1
 10
1.148233161305255
 20
0.1525708704655737
 11
1.148233161305255
 21
0.1730000737205081
 72
     1
 10
1.148233161305255
 20
0.1730000737205078
 11
1.147207036940852
 21
0.1730000737205078
 72
     1
 10
1.147207036940852
 20
0.1730000737205078
 11
1.14422194788077
 21
0.1730000737205078
 72
     1
 10
1.144221947880769
 20
0.1730000737205078
 11
1.139557746224391
 21
0.1730000737205078
 72
     1
 10
1.139557746224392
 20
0.1730000737205078
 11
1.133494284071101
 21
0.1730000737205078
 72
     1
 10
1.133494284071101
 20
0.1730000737205078
 11
1.126218129487152
 21
0.1730000737205078
 72
     1
 10
1.126218129487152
 20
0.1730000737205078
 11
1.118195702638183
 21
0.1730000737205078
 72
     1
 10
1.118195702638182
 20
0.1730000737205078
 11
1.10952028755732
 21
0.1730000737205078
 72
     1
 10
1.10952028755732
 20
0.1730000737205078
 11
1.100565020377074
 21
0.1730000737205078
 72
     1
 10
1.100565020377073
 20
0.1730000737205078
 11
1.0915164691637
 21
0.1730000737205078
 72
     1
 10
1.091516469163701
 20
0.1730000737205078
 11
1.082747770049712
 21
0.1730000737205078
 72
     1
 10
1.082747770049711
 20
0.1730000737205078
 11
1.074352207068231
 21
0.1730000737205078
 72
     1
 10
1.074352207068232
 20
0.1730000737205078
 11
1.0667962003849
 21
0.1730000737205078
 72
     1
 10
1.0667962003849
 20
0.1730000737205078
 11
1.060173034032843
 21
0.1730000737205078
 72
     1
 10
1.060173034032843
 20
0.1730000737205078
 11
1.054949128177701
 21
0.1730000737205078
 72
     1
 10
1.0549491281777
 20
0.1730000737205078
 11
1.051217766852597
 21
0.1730000737205078
 72
     1
 10
1.051217766852596
 20
0.1730000737205078
 11
1.049352086190045
 21
0.1730000737205078
 72
     1
 10
1.049352086190046
 20
0.1730000737205078
 11
1.049352086190046
 21
0.1754254585818243
 72
     1
 10
1.049352086190046
 20
0.1754254585818245
 11
1.049352086190046
 21
0.1794366720063095
 72
     1
 10
1.049352086190046
 20
0.1794366720063094
 11
1.049352086190046
 21
0.1843807257620694
 72
     1
 10
1.049352086190046
 20
0.1843807257620694
 11
1.049352086190046
 21
0.1898844837165951
 72
     1
 10
1.049352086190046
 20
0.1898844837165951
 11
1.049352086190046
 21
0.1952949576379935
 72
     1
 10
1.049352086190046
 20
0.1952949576379937
 11
1.049352086190046
 21
0.2003322954268815
 72
     1
 10
1.049352086190046
 20
0.2003322954268814
 11
1.049352086190046
 21
0.2042502248182386
 72
     1
 10
1.049352086190046
 20
0.2042502248182386
 11
1.049352086190046
 21
0.206675609679555
 72
     1
 10
1.049352086190046
 20
0.206675609679555
 11
1.051217766852597
 21
0.206675609679555
 72
     1
 10
1.051217766852596
 20
0.206675609679555
 11
1.055042412210825
 21
0.206675609679555
 72
     1
 10
1.055042412210827
 20
0.206675609679555
 11
1.060452886132226
 21
0.206675609679555
 72
     1
 10
1.060452886132225
 20
0.206675609679555
 11
1.067169336517409
 21
0.206675609679555
 72
     1
 10
1.06716933651741
 20
0.206675609679555
 11
1.075005195300124
 21
0.206675609679555
 72
     1
 10
1.075005195300123
 20
0.206675609679555
 11
1.083494042314731
 21
0.206675609679555
 72
     1
 10
1.083494042314732
 20
0.206675609679555
 11
1.092542593528105
 21
0.206675609679555
 72
     1
 10
1.092542593528106
 20
0.206675609679555
 11
1.10187099684086
 21
0.206675609679555
 72
     1
 10
1.101870996840861
 20
0.206675609679555
 11
1.111106116120489
 21
0.206675609679555
 72
     1
 10
1.111106116120488
 20
0.206675609679555
 11
1.119968099267605
 21
0.206675609679555
 72
     1
 10
1.119968099267605
 20
0.206675609679555
 11
1.128270378215957
 21
0.206675609679555
 72
     1
 10
1.128270378215957
 20
0.206675609679555
 11
1.135639816833034
 21
0.206675609679555
 72
     1
 10
1.135639816833034
 20
0.206675609679555
 11
1.14188984705258
 21
0.206675609679555
 72
     1
 10
1.141889847052581
 20
0.206675609679555
 11
1.146647332742086
 21
0.206675609679555
 72
     1
 10
1.146647332742086
 20
0.206675609679555
 11
1.149725705835295
 21
0.206675609679555
 72
     1
 10
1.149725705835296
 20
0.206675609679555
 11
1.150845114232827
 21
0.206675609679555
 72
     1
 10
1.150845114232826
 20
0.206675609679555
 11
1.150845114232826
 21
0.2277578011663822
 72
     1
 10
1.150845114232826
 20
0.2277578011663825
 11
1.148326445338383
 21
0.2277578011663825
 72
     1
 10
1.148326445338383
 20
0.2277578011663825
 11
1.025937793875031
 21
0.2277578011663825
 72
     1
 10
1.025937793875032
 20
0.2277578011663825
 11
1.025937793875032
 21
0.0926825211976832
 72
     1
 10
1.025937793875032
 20
0.0926825211976832
 11
1.155602599922332
 21
0.0926825211976832
 72
     1
 10
1.155602599922332
 20
0.0926825211976832
 11
1.155602599922332
 21
0.113671428651383
 72
     1
 10
1.155602599922332
 20
0.1136714286513832
 11
1.154483191524801
 21
0.1136714286513832
 72
     1
 10
1.154483191524799
 20
0.1136714286513832
 11
1.151218250365336
 21
0.1136714286513832
 72
     1
 10
1.151218250365338
 20
0.1136714286513832
 11
1.146180912576449
 21
0.1136714286513832
 72
     1
 10
1.146180912576449
 20
0.1136714286513832
 11
1.13965103025752
 21
0.1136714286513832
 72
     1
 10
1.13965103025752
 20
0.1136714286513832
 11
1.131908455507932
 21
0.1136714286513832
 72
     1
 10
1.131908455507931
 20
0.1136714286513832
 11
1.12323304042707
 21
0.1136714286513832
 72
     1
 10
1.123233040427071
 20
0.1136714286513832
 11
1.113904637114314
 21
0.1136714286513832
 72
     1
 10
1.113904637114314
 20
0.1136714286513832
 11
1.104296381702177
 21
0.1136714286513832
 72
     1
 10
1.104296381702177
 20
0.1136714286513832
 11
1.094501558223783
 21
0.1136714286513832
 72
     1
 10
1.094501558223784
 20
0.1136714286513832
 11
1.085079870877901
 21
0.1136714286513832
 72
     1
 10
1.085079870877899
 20
0.1136714286513832
 11
1.076124603697654
 21
0.1136714286513832
 72
     1
 10
1.076124603697655
 20
0.1136714286513832
 11
1.067915608782429
 21
0.1136714286513832
 72
     1
 10
1.067915608782429
 20
0.1136714286513832
 11
1.060919306297863
 21
0.1136714286513832
 72
     1
 10
1.060919306297863
 20
0.1136714286513832
 11
1.055228980277083
 21
0.1136714286513832
 72
     1
 10
1.055228980277082
 20
0.1136714286513832
 11
1.051311050885725
 21
0.1136714286513832
 72
     1
 10
1.051311050885726
 20
0.1136714286513832
 11
1.049352086190046
 21
0.1136714286513832
 72
     1
 10
1.049352086190046
 20
0.1136714286513832
 11
1.049352086190046
 21
0.1163766656120825
 72
     1
 10
1.049352086190046
 20
0.1163766656120823
 11
1.049352086190046
 21
0.1209475832353323
 72
     1
 10
1.049352086190046
 20
0.1209475832353325
 11
1.049352086190046
 21
0.1267311932892411
 72
     1
 10
1.049352086190046
 20
0.1267311932892408
 11
1.049352086190046
 21
0.1330745075419143
 72
     1
 10
1.049352086190046
 20
0.1330745075419144
 11
1.049352086190046
 21
0.1395111058277156
 72
     1
 10
1.049352086190046
 20
0.1395111058277158
 11
1.049352086190046
 21
0.1452947158816239
 72
     1
 10
1.049352086190046
 20
0.145294715881624
 11
1.049352086190046
 21
0.1498656335048746
 72
     1
 10
1.049352086190046
 20
0.1498656335048745
 11
1.049352086190046
 21
0.1525708704655738
 97
        0
 75
     0
 76
     1
 98
        1
 10
-0.3743130907707726
 20
-0.2500502867693841
1001
ACAD
1010
0.0
1020
0.0
1030
0.0
  0
HATCH
  5
11AA
330
11A3
100
AcDbEntity
  8
Kawneer Logo-English
100
AcDbHatch
 10
0.0
 20
0.0
 30
0.0
210
0.0
220
0.0
230
1.0
  2
SOLID
 70
     1
 71
     0
 91
        1
 92
        1
 93
       42
 72
     1
 10
0.9725793269260698
 20
0.2277578011663825
 11
0.9725793269260698
 21
0.1354998924032311
 72
     1
 10
0.9725793269260698
 20
0.1354998924032311
 11
0.9729524630585808
 21
0.1264513411898582
 72
     1
 10
0.9729524630585796
 20
0.1264513411898583
 11
0.9729524630585796
 21
0.1255185008585825
 72
     1
 10
0.9729524630585796
 20
0.1255185008585824
 11
0.9731390311248343
 21
0.1238393882622866
 72
     1
 10
0.9731390311248349
 20
0.1238393882622866
 11
0.9717397706279211
 21
0.1254252168254551
 72
     1
 10
0.97173977062792
 20
0.1254252168254551
 11
0.9710867823960281
 21
0.1262647731236031
 72
     1
 10
0.9710867823960294
 20
0.1262647731236031
 11
0.9641837639445897
 21
0.1339140638400625
 72
     1
 10
0.9641837639445899
 20
0.1339140638400624
 11
0.8755639324734129
 21
0.2277578011663823
 72
     1
 10
0.8755639324734115
 20
0.2277578011663825
 11
0.8529891964565429
 21
0.2277578011663825
 72
     1
 10
0.8529891964565434
 20
0.2277578011663825
 11
0.8529891964565434
 21
0.0926825211976832
 72
     1
 10
0.8529891964565434
 20
0.0926825211976832
 11
0.8756572165065401
 21
0.0926825211976832
 72
     1
 10
0.875657216506541
 20
0.0926825211976832
 11
0.875657216506541
 21
0.1927762887435495
 72
     1
 10
0.875657216506541
 20
0.1927762887435495
 11
0.875657216506541
 21
0.1931494248760597
 72
     1
 10
0.875657216506541
 20
0.1931494248760596
 11
0.8755639324734129
 21
0.193988981174208
 72
     1
 10
0.8755639324734115
 20
0.1939889811742079
 11
0.8754706484402849
 21
0.1952949576379935
 72
     1
 10
0.8754706484402859
 20
0.1952949576379937
 11
0.8753773644071577
 21
0.1967875021680344
 72
     1
 10
0.875377364407158
 20
0.1967875021680343
 11
0.8755639324734126
 21
0.1965076500686515
 72
     1
 10
0.8755639324734115
 20
0.1965076500686517
 11
0.8756572165065396
 21
0.1963210820023967
 72
     1
 10
0.875657216506541
 20
0.1963210820023967
 11
0.8764967728046894
 21
0.1954815257042487
 72
     1
 10
0.8764967728046887
 20
0.1954815257042488
 11
0.8781758854009835
 21
0.1936158450416976
 72
     1
 10
0.8781758854009842
 20
0.1936158450416973
 11
0.8797617139641527
 21
0.1917501643791464
 72
     1
 10
0.879761713964152
 20
0.1917501643791466
 11
0.8805079862291723
 21
0.1909106080809982
 72
     1
 10
0.8805079862291727
 20
0.190910608080998
 11
0.8816273946267036
 21
0.1897911996834678
 72
     1
 10
0.8816273946267028
 20
0.1897911996834681
 11
0.884519199653657
 21
0.1867128265902584
 72
     1
 10
0.8845191996536581
 20
0.1867128265902582
 11
0.8891834013100353
 21
0.1818620568676254
 72
     1
 10
0.889183401310035
 20
0.1818620568676252
 11
0.8951535794301982
 21
0.1756120266480794
 72
     1
 10
0.8951535794301985
 20
0.1756120266480794
 11
0.9021498819147662
 21
0.1681493039978751
 72
     1
 10
0.9021498819147669
 20
0.1681493039978752
 11
0.9099857406974814
 21
0.1598470250495227
 72
     1
 10
0.9099857406974813
 20
0.1598470250495225
 11
0.9183813036789613
 21
0.1509850419024051
 72
     1
 10
0.9183813036789612
 20
0.1509850419024052
 11
0.9271500027929521
 21
0.1418432066559046
 72
     1
 10
0.9271500027929509
 20
0.1418432066559046
 11
0.9358254178738118
 21
0.1326080873762767
 72
     1
 10
0.9358254178738132
 20
0.1326080873762767
 11
0.9442209808552931
 21
0.1237461042291589
 72
     1
 10
0.9442209808552931
 20
0.1237461042291589
 11
0.9520568396380092
 21
0.1154438252808068
 72
     1
 10
0.9520568396380092
 20
0.1154438252808068
 11
0.9590531421225751
 21
0.1079811026306025
 72
     1
 10
0.959053142122574
 20
0.1079811026306024
 11
0.9650233202427372
 21
0.101731072411056
 72
     1
 10
0.9650233202427376
 20
0.101731072411056
 11
0.9695942378659868
 21
0.0968803026884232
 72
     1
 10
0.9695942378659871
 20
0.096880302688423
 11
0.9725793269260696
 21
0.0938019295952138
 72
     1
 10
0.9725793269260698
 20
0.093801929595214
 11
0.9736054512904727
 21
0.0926825211976834
 72
     1
 10
0.9736054512904726
 20
0.0926825211976832
 11
0.9952473469760661
 21
0.0926825211976832
 72
     1
 10
0.9952473469760651
 20
0.0926825211976832
 11
0.9952473469760651
 21
0.2277578011663825
 72
     1
 10
0.9952473469760651
 20
0.2277578011663825
 11
0.9927286780816201
 21
0.2277578011663825
 72
     1
 10
0.9927286780816203
 20
0.2277578011663825
 11
0.9725793269260686
 21
0.2277578011663825
 97
        0
 75
     0
 76
     1
 98
        1
 10
-0.3743130907707726
 20
-0.2500502867693841
1001
ACAD
1010
0.0
1020
0.0
1030
0.0
  0
HATCH
  5
11AB
330
11A3
100
AcDbEntity
  8
Kawneer Logo-English
100
AcDbHatch
 10
0.0
 20
0.0
 30
0.0
210
0.0
220
0.0
230
1.0
  2
SOLID
 70
     1
 71
     0
 91
        2
 92
       16
 93
       32
 72
     1
 10
0.5269615006757409
 20
0.144641727649731
 11
0.5290137494045469
 21
0.148652941074216
 72
     1
 10
0.5290137494045464
 20
0.1486529410742159
 11
0.5322786905640116
 21
0.1551828233931449
 72
     1
 10
0.532278690564012
 20
0.1551828233931452
 11
0.5364764720547521
 21
0.1633918183083696
 72
     1
 10
0.5364764720547526
 20
0.1633918183083696
 11
0.5409541056448736
 21
0.1722538014554874
 72
     1
 10
0.5409541056448726
 20
0.1722538014554873
 11
0.545338455201869
 21
0.1808359325032223
 72
     1
 10
0.5453384552018701
 20
0.1808359325032223
 11
0.5490698165269726
 21
0.1882053711202994
 72
     1
 10
0.549069816526973
 20
0.1882053711202996
 11
0.5515884854214162
 21
0.1932427089091875
 72
     1
 10
0.5515884854214148
 20
0.1932427089091872
 11
0.5526146097858177
 21
0.1952016736048658
 72
     1
 10
0.5526146097858194
 20
0.1952016736048658
 11
0.552801177852074
 21
0.195761377803631
 72
     1
 10
0.5528011778520723
 20
0.1957613778036309
 11
0.5533608820508379
 21
0.1970673542674166
 72
     1
 10
0.5533608820508378
 20
0.1970673542674169
 11
0.5542004383489863
 21
0.1990263189630955
 72
     1
 10
0.5542004383489872
 20
0.1990263189630952
 11
0.5550399946471356
 21
0.2012651357581567
 72
     1
 10
0.5550399946471352
 20
0.2012651357581567
 11
0.5555064148127727
 21
0.2001457273606265
 72
     1
 10
0.5555064148127729
 20
0.2001457273606264
 11
0.5560661190115385
 21
0.198933034929968
 72
     1
 10
0.5560661190115379
 20
0.198933034929968
 11
0.5567191072434298
 21
0.197533774433055
 72
     1
 10
0.5567191072434304
 20
0.197533774433055
 11
0.5574653795084506
 21
0.1959479458698865
 72
     1
 10
0.557465379508451
 20
0.1959479458698865
 11
0.5583049358065995
 21
0.1942688332735902
 72
     1
 10
0.5583049358065986
 20
0.1942688332735903
 11
0.5606370366347874
 21
0.1896046316172126
 72
     1
 10
0.5606370366347871
 20
0.1896046316172126
 11
0.5639952618273804
 21
0.1828881812320289
 72
     1
 10
0.5639952618273814
 20
0.1828881812320287
 11
0.5680064752518651
 21
0.1748657543830587
 72
     1
 10
0.5680064752518637
 20
0.1748657543830589
 11
0.57239082480886
 21
0.1661903393021966
 72
     1
 10
0.5723908248088612
 20
0.1661903393021967
 11
0.5765886062996012
 21
0.1577947763207168
 72
     1
 10
0.5765886062996
 20
0.1577947763207165
 11
0.5803199676247008
 21
0.1503320536705122
 72
     1
 10
0.5803199676247015
 20
0.1503320536705122
 11
0.5831184886185295
 21
0.144641727649731
 72
     1
 10
0.5831184886185295
 20
0.144641727649731
 11
0.5791072751940441
 21
0.144641727649731
 72
     1
 10
0.5791072751940436
 20
0.144641727649731
 11
0.5724841088419869
 21
0.144641727649731
 72
     1
 10
0.5724841088419872
 20
0.144641727649731
 11
0.5641818298936356
 21
0.144641727649731
 72
     1
 10
0.5641818298936352
 20
0.144641727649731
 11
0.5550399946471351
 21
0.144641727649731
 72
     1
 10
0.5550399946471352
 20
0.144641727649731
 11
0.5458981594006351
 21
0.144641727649731
 72
     1
 10
0.5458981594006352
 20
0.144641727649731
 11
0.5375958804522815
 21
0.144641727649731
 72
     1
 10
0.5375958804522814
 20
0.144641727649731
 11
0.5310659981333528
 21
0.144641727649731
 72
     1
 10
0.5310659981333524
 20
0.144641727649731
 11
0.5269615006757405
 21
0.144641727649731
 97
        0
 92
        1
 93
      141
 72
     1
 10
0.5656743744236757
 20
0.2277578011663825
 11
0.544405614870593
 21
0.2277578011663825
 72
     1
 10
0.544405614870593
 20
0.2277578011663825
 11
0.4748157261574382
 21
0.0934287934627039
 72
     1
 10
0.4748157261574378
 20
0.0934287934627039
 11
0.4729500454948865
 21
0.0955743262246376
 72
     1
 10
0.4729500454948874
 20
0.0955743262246376
 11
0.4699649564348049
 21
0.0991191194834847
 72
     1
 10
0.4699649564348043
 20
0.0991191194834847
 11
0.4661403110765752
 21
0.1036900371067346
 72
     1
 10
0.4661403110765754
 20
0.1036900371067347
 11
0.4615693934533244
 21
0.1091005110281331
 72
     1
 10
0.461569393453325
 20
0.109100511028133
 11
0.456345487598182
 21
0.1152572572145517
 72
     1
 10
0.4563454875981812
 20
0.1152572572145516
 11
0.4506551615774008
 21
0.1219737075997353
 72
     1
 10
0.4506551615774015
 20
0.1219737075997354
 11
0.4447782674903648
 21
0.1290632941174296
 72
     1
 10
0.4447782674903636
 20
0.1290632941174296
 11
0.4387148053370722
 21
0.1362461646682511
 72
     1
 10
0.4387148053370727
 20
0.1362461646682512
 11
0.4326513431837832
 21
0.1433357511859454
 72
     1
 10
0.4326513431837844
 20
0.1433357511859453
 11
0.4268677331298759
 21
0.1502387696373844
 72
     1
 10
0.4268677331298756
 20
0.1502387696373844
 11
0.4214572592084763
 21
0.1566753679231857
 72
     1
 10
0.4214572592084754
 20
0.1566753679231858
 11
0.4165132054527153
 21
0.1625522620102216
 72
     1
 10
0.4165132054527163
 20
0.1625522620102216
 11
0.4123154239619763
 21
0.1674963157659821
 72
     1
 10
0.4123154239619753
 20
0.1674963157659822
 11
0.4088639147362555
 21
0.1715075291904667
 72
     1
 10
0.4088639147362568
 20
0.1715075291904669
 11
0.4065318139080681
 21
0.1743993342174211
 72
     1
 10
0.4065318139080665
 20
0.1743993342174211
 11
0.405319121477409
 21
0.1757985947143345
 72
     1
 10
0.4053191214774104
 20
0.1757985947143345
 11
0.4067183819743243
 21
0.1769180031118651
 72
     1
 10
0.4067183819743235
 20
0.1769180031118651
 11
0.4094236189350213
 21
0.1788769678075437
 72
     1
 10
0.4094236189350218
 20
0.1788769678075437
 11
0.4132482642932526
 21
0.1816754888013702
 72
     1
 10
0.4132482642932525
 20
0.1816754888013703
 11
0.4179124659496298
 21
0.1852202820602174
 72
     1
 10
0.417912465949629
 20
0.1852202820602174
 11
0.4232296558379
 21
0.189138211451575
 72
     1
 10
0.4232296558379001
 20
0.1891382114515751
 11
0.4291065499249351
 21
0.1935225610085696
 72
     1
 10
0.4291065499249367
 20
0.1935225610085698
 11
0.4352632961113562
 21
0.1981867626649482
 72
     1
 10
0.4352632961113554
 20
0.1981867626649479
 11
0.4416066103640296
 21
0.2028509643213252
 72
     1
 10
0.4416066103640293
 20
0.2028509643213252
 11
0.4479499246167016
 21
0.2076084500108307
 72
     1
 10
0.4479499246167018
 20
0.2076084500108307
 11
0.4540133867699932
 21
0.2120860836009535
 72
     1
 10
0.4540133867699927
 20
0.2120860836009535
 11
0.4596104287576467
 21
0.2162838650916932
 72
     1
 10
0.4596104287576468
 20
0.216283865091693
 11
0.4646477665465351
 21
0.2200152264167952
 72
     1
 10
0.464647766546535
 20
0.2200152264167951
 11
0.4689388320704013
 21
0.223186883543132
 72
     1
 10
0.4689388320704016
 20
0.2231868835431323
 11
0.4721104891967386
 21
0.2256122684044488
 72
     1
 10
0.4721104891967376
 20
0.2256122684044488
 11
0.4742560219586717
 21
0.2271980969676172
 72
     1
 10
0.4742560219586727
 20
0.2271980969676173
 11
0.475002294223693
 21
0.2277578011663825
 72
     1
 10
0.4750022942236929
 20
0.2277578011663825
 11
0.4674462875403612
 21
0.2277578011663825
 72
     1
 10
0.4674462875403611
 20
0.2277578011663825
 11
0.4395543616352215
 21
0.2277578011663825
 72
     1
 10
0.439554361635222
 20
0.2277578011663825
 11
0.4386215213039473
 21
0.2270115289013622
 72
     1
 10
0.4386215213039466
 20
0.2270115289013622
 11
0.4359162843432469
 21
0.2250525642056836
 72
     1
 10
0.4359162843432465
 20
0.2250525642056836
 11
0.4318117868856346
 21
0.2220674751456017
 72
     1
 10
0.4318117868856351
 20
0.2220674751456017
 11
0.4264013129642376
 21
0.2180562617211167
 72
     1
 10
0.4264013129642379
 20
0.2180562617211168
 11
0.4200579987115638
 21
0.2132987760316117
 72
     1
 10
0.4200579987115641
 20
0.2132987760316114
 11
0.4128751281607416
 21
0.2079815861433408
 72
     1
 10
0.4128751281607408
 20
0.2079815861433408
 11
0.4051325534111546
 21
0.20229126012256
 72
     1
 10
0.4051325534111552
 20
0.20229126012256
 11
0.397016842529058
 21
0.1963210820023964
 72
     1
 10
0.3970168425290583
 20
0.1963210820023967
 11
0.3889011316469611
 21
0.1903509038822331
 72
     1
 10
0.3889011316469611
 20
0.190350903882233
 11
0.3808787047979902
 21
0.1844740097951972
 72
     1
 10
0.3808787047979898
 20
0.1844740097951974
 11
0.3733226981146581
 21
0.1787836837744166
 72
     1
 10
0.373322698114658
 20
0.1787836837744166
 11
0.3663263956300919
 21
0.173653061952401
 72
     1
 10
0.3663263956300931
 20
0.173653061952401
 11
0.3601696494436735
 21
0.169082144329151
 72
     1
 10
0.3601696494436726
 20
0.1690821443291508
 11
0.3550390276216579
 21
0.1653507830040483
 72
     1
 10
0.3550390276216584
 20
0.1653507830040482
 11
0.3513076662965558
 21
0.1625522620102218
 72
     1
 10
0.3513076662965551
 20
0.1625522620102216
 11
0.3490688495014928
 21
0.1609664334470531
 72
     1
 10
0.3490688495014926
 20
0.1609664334470531
 11
0.3490688495014926
 21
0.1631119662089868
 72
     1
 10
0.3490688495014926
 20
0.1631119662089868
 11
0.3490688495014926
 21
0.1662836233353237
 72
     1
 10
0.3490688495014926
 20
0.1662836233353238
 11
0.3490688495014926
 21
0.1702948367598088
 72
     1
 10
0.3490688495014926
 20
0.1702948367598088
 11
0.3490688495014926
 21
0.1749590384161865
 72
     1
 10
0.3490688495014926
 20
0.1749590384161865
 11
0.3490688495014926
 21
0.1801829442713294
 72
     1
 10
0.3490688495014926
 20
0.1801829442713296
 11
0.3490688495014926
 21
0.185779986258983
 72
     1
 10
0.3490688495014926
 20
0.1857799862589829
 11
0.3490688495014926
 21
0.1916568803460187
 72
     1
 10
0.3490688495014926
 20
0.1916568803460186
 11
0.3490688495014926
 21
0.1975337744330549
 72
     1
 10
0.3490688495014926
 20
0.197533774433055
 11
0.3490688495014926
 21
0.2033173844869632
 72
     1
 10
0.3490688495014926
 20
0.2033173844869631
 11
0.3490688495014926
 21
0.2088211424414888
 72
     1
 10
0.3490688495014926
 20
0.2088211424414888
 11
0.3490688495014926
 21
0.2139517642635044
 72
     1
 10
0.3490688495014926
 20
0.2139517642635044
 11
0.3490688495014926
 21
0.2185226818867544
 72
     1
 10
0.3490688495014926
 20
0.2185226818867545
 11
0.3490688495014926
 21
0.2222540432118567
 72
     1
 10
0.3490688495014926
 20
0.2222540432118567
 11
0.3490688495014926
 21
0.2252391322719387
 72
     1
 10
0.3490688495014926
 20
0.2252391322719387
 11
0.3490688495014926
 21
0.2271048129344895
 72
     1
 10
0.3490688495014926
 20
0.2271048129344895
 11
0.3490688495014926
 21
0.2277578011663825
 72
     1
 10
0.3490688495014926
 20
0.2277578011663825
 11
0.3258411252527322
 21
0.2277578011663825
 72
     1
 10
0.3258411252527336
 20
0.2277578011663825
 11
0.3258411252527336
 21
0.0926825211976832
 72
     1
 10
0.3258411252527336
 20
0.0926825211976832
 11
0.3486957133689848
 21
0.0926825211976832
 72
     1
 10
0.3486957133689845
 20
0.0926825211976832
 11
0.3486957133689845
 21
0.0943616337939795
 72
     1
 10
0.3486957133689845
 20
0.0943616337939795
 11
0.3486957133689845
 21
0.0988392673841017
 72
     1
 10
0.3486957133689845
 20
0.0988392673841017
 11
0.3486957133689845
 21
0.1051825816367752
 72
     1
 10
0.3486957133689845
 20
0.1051825816367753
 11
0.3486957133689845
 21
0.1125520202538523
 72
     1
 10
0.3486957133689845
 20
0.1125520202538524
 11
0.3486957133689845
 21
0.1200147429040567
 72
     1
 10
0.3486957133689845
 20
0.1200147429040567
 11
0.3486957133689845
 21
0.1267311932892408
 72
     1
 10
0.3486957133689845
 20
0.1267311932892408
 11
0.3486957133689845
 21
0.1317685310781287
 72
     1
 10
0.3486957133689845
 20
0.1317685310781289
 11
0.3486957133689845
 21
0.1342871999725727
 72
     1
 10
0.3486957133689845
 20
0.1342871999725725
 11
0.3507479620977905
 21
0.1356864604694859
 72
     1
 10
0.35074796209779
 20
0.1356864604694859
 11
0.3548524595554018
 21
0.1387648335626952
 72
     1
 10
0.3548524595554015
 20
0.1387648335626952
 11
0.3605427855761835
 21
0.1428693310203079
 72
     1
 10
0.3605427855761842
 20
0.1428693310203079
 11
0.3668860998288565
 21
0.1476268167098129
 72
     1
 10
0.3668860998288568
 20
0.1476268167098129
 11
0.373322698114659
 21
0.1522910183661906
 72
     1
 10
0.373322698114658
 20
0.1522910183661908
 11
0.3791995922016947
 21
0.1565820838900582
 72
     1
 10
0.3791995922016946
 20
0.1565820838900582
 11
0.3836772257918156
 21
0.1599403090826502
 72
     1
 10
0.3836772257918159
 20
0.1599403090826503
 11
0.386195894686261
 21
0.1618059897452011
 72
     1
 10
0.3861958946862609
 20
0.1618059897452011
 11
0.3873153030837921
 21
0.1604067292482882
 72
     1
 10
0.3873153030837915
 20
0.1604067292482878
 11
0.3894608358457238
 21
0.1577947763207163
 72
     1
 10
0.3894608358457248
 20
0.1577947763207165
 11
0.3925392089389353
 21
0.1541566990287417
 72
     1
 10
0.3925392089389348
 20
0.1541566990287417
 11
0.396457138330292
 21
0.149492497372364
 72
     1
 10
0.3964571383302933
 20
0.149492497372364
 11
0.4009347719204161
 21
0.1442685915172211
 72
     1
 10
0.4009347719204146
 20
0.1442685915172209
 11
0.4057855416430466
 21
0.138391697430185
 72
     1
 10
0.4057855416430463
 20
0.1383916974301853
 11
0.4109161634650628
 21
0.1322349512437666
 72
     1
 10
0.410916163465064
 20
0.1322349512437666
 11
0.4162333533533335
 21
0.1259849210242201
 72
     1
 10
0.4162333533533334
 20
0.1259849210242201
 11
0.4215505432416044
 21
0.1196416067715466
 72
     1
 10
0.4215505432416045
 20
0.1196416067715466
 11
0.4265878810304927
 21
0.113671428651383
 72
     1
 10
0.4265878810304931
 20
0.1136714286513832
 11
0.4312520826868704
 21
0.1079811026306024
 72
     1
 10
0.4312520826868696
 20
0.1079811026306024
 11
0.4355431482107378
 21
0.1029437648417141
 72
     1
 10
0.435543148210738
 20
0.1029437648417139
 11
0.4390879414695842
 21
0.0987459833509739
 72
     1
 10
0.4390879414695843
 20
0.0987459833509741
 11
0.4417931784302841
 21
0.0954810421915098
 72
     1
 10
0.4417931784302845
 20
0.0954810421915096
 11
0.4435655750597076
 21
0.0934287934627037
 72
     1
 10
0.4435655750597074
 20
0.0934287934627039
 11
0.4442185632915993
 21
0.0926825211976832
 72
     1
 10
0.4442185632915985
 20
0.0926825211976832
 11
0.4743493059918004
 21
0.0926825211976832
 72
     1
 10
0.4743493059918001
 20
0.0926825211976832
 11
0.4753754303562029
 21
0.0926825211976832
 72
     1
 10
0.4753754303562033
 20
0.0926825211976832
 11
0.5008419714000258
 21
0.0926825211976832
 72
     1
 10
0.5008419714000265
 20
0.0926825211976832
 11
0.5014949596319184
 21
0.0939884976614689
 72
     1
 10
0.501494959631919
 20
0.0939884976614688
 11
0.5031740722282155
 21
0.0973467228540609
 72
     1
 10
0.503174072228215
 20
0.0973467228540612
 11
0.5055061730564038
 21
0.1021042085435666
 72
     1
 10
0.505506173056403
 20
0.1021042085435665
 11
0.5083046940502291
 21
0.1077012505312196
 72
     1
 10
0.5083046940502292
 20
0.1077012505312194
 11
0.5111032150440553
 21
0.1134848605851279
 72
     1
 10
0.5111032150440549
 20
0.1134848605851281
 11
0.5137151679716264
 21
0.1186154824071433
 72
     1
 10
0.5137151679716277
 20
0.1186154824071433
 11
0.5156741326673071
 21
0.1226266958316283
 72
     1
 10
0.5156741326673076
 20
0.122626695831628
 11
0.5167002570317104
 21
0.1247722285935621
 72
     1
 10
0.5167002570317103
 20
0.1247722285935622
 11
0.5180062334954961
 21
0.1247722285935622
 72
     1
 10
0.5180062334954961
 20
0.1247722285935622
 11
0.5207114704561957
 21
0.1247722285935622
 72
     1
 10
0.5207114704561944
 20
0.1247722285935622
 11
0.5246293998475517
 21
0.1247722285935622
 72
     1
 10
0.5246293998475525
 20
0.1247722285935622
 11
0.5295734536033125
 21
0.1247722285935622
 72
     1
 10
0.5295734536033115
 20
0.1247722285935622
 11
0.5352637796240919
 21
0.1247722285935622
 72
     1
 10
0.5352637796240929
 20
0.1247722285935622
 11
0.5415138098436386
 21
0.1247722285935622
 72
     1
 10
0.5415138098436394
 20
0.1247722285935622
 11
0.5482302602288245
 21
0.1247722285935622
 72
     1
 10
0.5482302602288236
 20
0.1247722285935622
 11
0.5551332786802616
 21
0.1247722285935622
 72
     1
 10
0.5551332786802608
 20
0.1247722285935622
 11
0.5620362971317004
 21
0.1247722285935622
 72
     1
 10
0.5620362971317015
 20
0.1247722285935622
 11
0.5687527475168847
 21
0.1247722285935622
 72
     1
 10
0.5687527475168839
 20
0.1247722285935622
 11
0.5750027777364317
 21
0.1247722285935622
 72
     1
 10
0.5750027777364322
 20
0.1247722285935622
 11
0.5806931037572126
 21
0.1247722285935622
 72
     1
 10
0.5806931037572119
 20
0.1247722285935622
 11
0.585637157512972
 21
0.1247722285935622
 72
     1
 10
0.5856371575129727
 20
0.1247722285935622
 11
0.5895550869043299
 21
0.1247722285935622
 72
     1
 10
0.5895550869043289
 20
0.1247722285935622
 11
0.5922603238650286
 21
0.1247722285935622
 72
     1
 10
0.5922603238650291
 20
0.1247722285935622
 11
0.5935663003288148
 21
0.1247722285935622
 72
     1
 10
0.5935663003288148
 20
0.1247722285935622
 11
0.5945924246932176
 21
0.1226266958316281
 72
     1
 10
0.5945924246932175
 20
0.122626695831628
 11
0.5965513893888953
 21
0.1186154824071431
 72
     1
 10
0.5965513893888957
 20
0.1186154824071433
 11
0.5991633423164672
 21
0.1134848605851281
 72
     1
 10
0.5991633423164667
 20
0.1134848605851281
 11
0.6019618633102946
 21
0.1077012505312196
 72
     1
 10
0.6019618633102959
 20
0.1077012505312194
 11
0.604760384304122
 21
0.1021042085435664
 72
     1
 10
0.6047603843041221
 20
0.1021042085435665
 11
0.6070924851323109
 21
0.0973467228540611
 72
     1
 10
0.6070924851323101
 20
0.0973467228540612
 11
0.6087715977286067
 21
0.0939884976614691
 72
     1
 10
0.6087715977286062
 20
0.0939884976614688
 11
0.609424585960498
 21
0.0926825211976832
 72
     1
 10
0.6094245859604986
 20
0.0926825211976832
 11
0.6363836715343633
 21
0.0926825211976832
 72
     1
 10
0.6363836715343641
 20
0.0926825211976832
 11
0.5671669189537184
 21
0.2277578011663825
 72
     1
 10
0.5671669189537179
 20
0.2277578011663825
 11
0.5656743744236758
 21
0.2277578011663825
 97
        0
 75
     0
 76
     1
 98
        1
 10
-0.3743130907707726
 20
-0.2500502867693841
1001
ACAD
1010
0.0
1020
0.0
1030
0.0
  0
HATCH
  5
11AC
330
11A3
100
AcDbEntity
  8
Kawneer Logo-English
100
AcDbHatch
 10
0.0
 20
0.0
 30
0.0
210
0.0
220
0.0
230
1.0
  2
SOLID
 70
     1
 71
     0
 91
        1
 92
        1
 93
       69
 72
     1
 10
0.8092389849197205
 20
0.2277578011663825
 11
0.778921674153266
 21
0.1309289747799811
 72
     1
 10
0.778921674153267
 20
0.1309289747799809
 11
0.7781754018882468
 21
0.1287834420180468
 72
     1
 10
0.7781754018882468
 20
0.1287834420180467
 11
0.7776156976894812
 21
0.1270110453886236
 72
     1
 10
0.7776156976894813
 20
0.1270110453886237
 11
0.7771492775238438
 21
0.1253319327923275
 72
     1
 10
0.7771492775238436
 20
0.1253319327923274
 11
0.7766828573582045
 21
0.1238393882622867
 72
     1
 10
0.7766828573582046
 20
0.1238393882622866
 11
0.7764030052588217
 21
0.1248655126266895
 72
     1
 10
0.776403005258822
 20
0.1248655126266896
 11
0.7761231531594392
 21
0.1259849210242202
 72
     1
 10
0.7761231531594391
 20
0.1259849210242201
 11
0.7759365850931844
 21
0.1268244773223681
 72
     1
 10
0.7759365850931843
 20
0.1268244773223682
 11
0.7758433010600562
 21
0.1271976134548783
 72
     1
 10
0.7758433010600552
 20
0.1271976134548783
 11
0.7755634489606744
 21
0.1280371697530267
 72
     1
 10
0.775563448960674
 20
0.1280371697530267
 11
0.7750970287950349
 21
0.1291565781505569
 72
     1
 10
0.7750970287950363
 20
0.1291565781505568
 11
0.773977620397507
 21
0.1323282352768938
 72
     1
 10
0.7739776203975062
 20
0.1323282352768939
 11
0.7721119397349549
 21
0.1372722890326544
 72
     1
 10
0.7721119397349554
 20
0.1372722890326546
 11
0.7697798389067666
 21
0.1436156032853281
 72
     1
 10
0.769779838906767
 20
0.1436156032853281
 11
0.7670746019460673
 21
0.1511716099686602
 72
     1
 10
0.7670746019460668
 20
0.15117160996866
 11
0.7639962288528581
 21
0.1595671729501399
 72
     1
 10
0.7639962288528582
 20
0.15956717295014
 11
0.7606380036602665
 21
0.1686157241635125
 72
     1
 10
0.7606380036602652
 20
0.1686157241635125
 11
0.7572797784676718
 21
0.1778508434431408
 72
     1
 10
0.7572797784676726
 20
0.1778508434431408
 11
0.753921553275081
 21
0.187179246755896
 72
     1
 10
0.7539215532750814
 20
0.1871792467558961
 11
0.7505633280824898
 21
0.1962277979692689
 72
     1
 10
0.7505633280824902
 20
0.1962277979692689
 11
0.7474849549892814
 21
0.2046233609507488
 72
     1
 10
0.7474849549892797
 20
0.2046233609507488
 11
0.74477971802858
 21
0.2121793676340809
 72
     1
 10
0.7447797180285814
 20
0.2121793676340809
 11
0.7424476172003926
 21
0.2185226818867544
 72
     1
 10
0.7424476172003929
 20
0.2185226818867545
 11
0.7405819365378416
 21
0.2234667356425151
 72
     1
 10
0.7405819365378408
 20
0.2234667356425151
 11
0.7394625281403098
 21
0.2266383927688516
 72
     1
 10
0.7394625281403103
 20
0.2266383927688516
 11
0.7390893920078009
 21
0.2277578011663822
 72
     1
 10
0.7390893920078004
 20
0.2277578011663825
 11
0.7191266089185034
 21
0.2277578011663825
 72
     1
 10
0.7191266089185029
 20
0.2277578011663825
 11
0.6843316645619254
 21
0.1336342117406798
 72
     1
 10
0.6843316645619267
 20
0.1336342117406795
 11
0.6832122561643957
 21
0.130649122680598
 72
     1
 10
0.6832122561643961
 20
0.1306491226805981
 11
0.6823726998662476
 21
0.1282237378192816
 72
     1
 10
0.6823726998662468
 20
0.1282237378192818
 11
0.6817197116343549
 21
0.1260782050573481
 72
     1
 10
0.6817197116343552
 20
0.1260782050573481
 11
0.6811600074355896
 21
0.1241192403616695
 72
     1
 10
0.6811600074355884
 20
0.1241192403616695
 11
0.6808801553362055
 21
0.1250520806929446
 72
     1
 10
0.6808801553362059
 20
0.1250520806929445
 11
0.6805070192036949
 21
0.1261714890904751
 72
     1
 10
0.680507019203696
 20
0.1261714890904752
 11
0.6802271671043131
 21
0.1272908974880058
 72
     1
 10
0.680227167104313
 20
0.1272908974880061
 11
0.6798540309718037
 21
0.1286901579849195
 72
     1
 10
0.6798540309718031
 20
0.1286901579849194
 11
0.6794808948392922
 21
0.12980956638245
 72
     1
 10
0.6794808948392932
 20
0.1298095663824503
 11
0.6784547704748904
 21
0.1328879394756595
 72
     1
 10
0.67845477047489
 20
0.1328879394756595
 11
0.6769622259448497
 21
0.1378319932314196
 72
     1
 10
0.6769622259448496
 20
0.1378319932314196
 11
0.6750032612491701
 21
0.1441753074840938
 72
     1
 10
0.6750032612491697
 20
0.1441753074840937
 11
0.6725778763878547
 21
0.1516380301342981
 72
     1
 10
0.6725778763878556
 20
0.1516380301342981
 11
0.6699659234602841
 21
0.160033593115778
 72
     1
 10
0.6699659234602829
 20
0.160033593115778
 11
0.6671674024664549
 21
0.168988860296023
 72
     1
 10
0.6671674024664554
 20
0.168988860296023
 11
0.6642755974395012
 21
0.1782239795756509
 72
     1
 10
0.6642755974395019
 20
0.178223979575651
 11
0.6613837924125477
 21
0.1874590988552789
 72
     1
 10
0.6613837924125466
 20
0.1874590988552789
 11
0.6585852714187205
 21
0.1964143660355239
 72
     1
 10
0.6585852714187204
 20
0.1964143660355237
 11
0.6559733184911489
 21
0.2047166449838762
 72
     1
 10
0.6559733184911494
 20
0.2047166449838765
 11
0.6536412176629606
 21
0.2122726516672082
 72
     1
 10
0.6536412176629614
 20
0.2122726516672082
 11
0.6515889689341538
 21
0.2186159659198823
 72
     1
 10
0.6515889689341537
 20
0.2186159659198821
 11
0.6500964244041133
 21
0.2234667356425149
 72
     1
 10
0.6500964244041132
 20
0.2234667356425151
 11
0.6490703000397104
 21
0.2266383927688516
 72
     1
 10
0.6490703000397105
 20
0.2266383927688516
 11
0.6487904479403276
 21
0.2277578011663822
 72
     1
 10
0.648790447940328
 20
0.2277578011663825
 11
0.6237903270621445
 21
0.2277578011663825
 72
     1
 10
0.6237903270621437
 20
0.2277578011663825
 11
0.6676338226320932
 21
0.0926825211976832
 72
     1
 10
0.6676338226320926
 20
0.0926825211976832
 11
0.6922608073777669
 21
0.0926825211976832
 72
     1
 10
0.6922608073777666
 20
0.0926825211976832
 11
0.726029627369941
 21
0.1855001341596003
 72
     1
 10
0.7260296273699423
 20
0.1855001341596003
 11
0.7269624677012189
 21
0.1882986551534267
 72
     1
 10
0.7269624677012177
 20
0.1882986551534266
 11
0.7278020239993661
 21
0.1906307559816158
 72
     1
 10
0.727802023999367
 20
0.1906307559816159
 11
0.7284550122312589
 21
0.1927762887435496
 72
     1
 10
0.7284550122312581
 20
0.1927762887435495
 11
0.7290147164300237
 21
0.1947352534392281
 72
     1
 10
0.7290147164300232
 20
0.1947352534392282
 11
0.7298542727281716
 21
0.192216584544784
 72
     1
 10
0.729854272728173
 20
0.1922165845447839
 11
0.7306938290263214
 21
0.1894180635509575
 72
     1
 10
0.7306938290263206
 20
0.1894180635509575
 11
0.7318132374238499
 21
0.1863396904577483
 72
     1
 10
0.7318132374238511
 20
0.1863396904577481
 11
0.7331192138876387
 21
0.1827016131657736
 72
     1
 10
0.7331192138876382
 20
0.1827016131657737
 11
0.7654887733828987
 21
0.0926825211976834
 72
     1
 10
0.7654887733828986
 20
0.0926825211976832
 11
0.7895560539298075
 21
0.0926825211976832
 72
     1
 10
0.7895560539298075
 20
0.0926825211976832
 11
0.8341458217647785
 21
0.2277578011663825
 72
     1
 10
0.8341458217647783
 20
0.2277578011663825
 11
0.830601028505932
 21
0.2277578011663825
 72
     1
 10
0.8306010285059324
 20
0.2277578011663825
 11
0.8092389849197216
 21
0.2277578011663825
 97
        0
 75
     0
 76
     1
 98
        1
 10
-0.3743130907707726
 20
-0.2500502867693841
1001
ACAD
1010
0.0
1020
0.0
1030
0.0
  0
ENDBLK
  5
11B0
330
11A3
100
AcDbEntity
  8
0
100
AcDbBlockEnd
  0
ENDSEC
  0
SECTION
  2
ENTITIES
  0
LWPOLYLINE
  5
2DB
330
1F
100
AcDbEntity
  8
FORMAT
100
AcDbPolyline
 90
        3
 70
     0
 43
0.0
 10
77.42215070352099
 20
-0.0000000081277562
 10
-0.0000000638497113
 20
-0.0000000081277562
 10
-0.0000000638497113
 20
48.67769627977955
  0
MTEXT
  5
3E6
330
1F
100
AcDbEntity
  8
0
 62
     7
100
AcDbMText
 10
5.908499228281414
 20
39.13320205973136
 30
0.0
 40
0.375
 41
7.34375
 71
     2
 72
     5
  1
1/8" INFILL
 73
     1
 44
1.0
1001
ACAD
1000
MTEXTBEGIN
1070
    73
1070
     1
1070
    44
1040
1.0
1070
    74
1070
     0
1000
MTEXTEND
  0
MTEXT
  5
3E7
330
1F
100
AcDbEntity
  8
0
 62
     7
100
AcDbMText
 10
15.78053310328619
 20
39.13320205973136
 30
0.0
 40
0.375
 41
7.34375
 71
     2
 72
     5
  1
1/4" INFILL
 73
     1
 44
1.0
1001
ACAD
1000
MTEXTBEGIN
1070
    73
1070
     1
1070
    44
1040
1.0
1070
    74
1070
     0
1000
MTEXTEND
  0
MTEXT
  5
3E8
330
1F
100
AcDbEntity
  8
0
 62
     7
100
AcDbMText
 10
25.74952123167941
 20
39.13320205973136
 30
0.0
 40
0.375
 41
7.34375
 71
     2
 72
     5
  1
3/8" INFILL
 73
     1
 44
1.0
1001
ACAD
1000
MTEXTBEGIN
1070
    73
1070
     1
1070
    44
1040
1.0
1070
    74
1070
     0
1000
MTEXTEND
  0
MTEXT
  5
3E9
330
1F
100
AcDbEntity
  8
0
 62
     7
100
AcDbMText
 10
35.87534822568026
 20
39.13320205973136
 30
0.0
 40
0.375
 41
7.34375
 71
     2
 72
     5
  1
1/2" INFILL
 73
     1
 44
1.0
1001
ACAD
1000
MTEXTBEGIN
1070
    73
1070
     1
1070
    44
1040
1.0
1070
    74
1070
     0
1000
MTEXTEND
  0
MTEXT
  5
3EA
330
1F
100
AcDbEntity
  8
0
 62
     7
100
AcDbMText
 10
46.67800928725919
 20
39.13320205973136
 30
0.0
 40
0.375
 41
7.34375
 71
     2
 72
     5
  1
5/8" INFILL
 73
     1
 44
1.0
1001
ACAD
1000
MTEXTBEGIN
1070
    73
1070
     1
1070
    44
1040
1.0
1070
    74
1070
     0
1000
MTEXTEND
  0
MTEXT
  5
3EC
330
1F
100
AcDbEntity
  8
TEXT
100
AcDbMText
 10
6.665583882303103
 20
41.62240774222896
 30
0.0
 40
0.25
 41
3.618519781718962
 71
     1
 72
     5
  1
175171 1/4" ADAPTER
 73
     1
 44
1.0
1001
ACAD
1000
MTEXTBEGIN
1070
    73
1070
     1
1070
    44
1040
1.0
1070
    74
1070
     0
1000
MTEXTEND
  0
MTEXT
  5
3ED
330
1F
100
AcDbEntity
  8
TEXT
100
AcDbMText
 10
16.56804455077881
 20
41.60823056376315
 30
0.0
 40
0.25
 41
4.123124147339702
 71
     1
 72
     5
  1
175171 1/4" ADAPTER
 73
     1
 44
1.0
1001
ACAD
1000
MTEXTBEGIN
1070
    73
1070
     1
1070
    44
1040
1.0
1070
    74
1070
     0
1000
MTEXTEND
  0
MTEXT
  5
3EE
330
1F
100
AcDbEntity
  8
TEXT
100
AcDbMText
 10
26.7229073154152
 20
41.62475859753932
 30
0.0
 40
0.25
 41
3.618519781718966
 71
     1
 72
     5
  1
175171 1/4" ADAPTER
 73
     1
 44
1.0
1001
ACAD
1000
MTEXTBEGIN
1070
    73
1070
     1
1070
    44
1040
1.0
1070
    74
1070
     0
1000
MTEXTEND
  0
MTEXT
  5
3EF
330
1F
100
AcDbEntity
  8
TEXT
100
AcDbMText
 10
37.07264411668749
 20
41.62472563549634
 30
0.0
 40
0.25
 41
3.618519781718966
 71
     1
 72
     5
  1
175173 1/2" ADAPTER
 73
     1
 44
1.0
1001
ACAD
1000
MTEXTBEGIN
1070
    73
1070
     1
1070
    44
1040
1.0
1070
    74
1070
     0
1000
MTEXTEND
  0
MTEXT
  5
3F0
330
1F
100
AcDbEntity
  8
TEXT
100
AcDbMText
 10
47.56683519551947
 20
41.60823056376315
 30
0.0
 40
0.25
 41
4.123124147339702
 71
     1
 72
     5
  1
175173 1/2" ADAPTER
 73
     1
 44
1.0
1001
ACAD
1000
MTEXTBEGIN
1070
    73
1070
     1
1070
    44
1040
1.0
1070
    74
1070
     0
1000
MTEXTEND
  0
MTEXT
  5
3F1
330
1F
100
AcDbEntity
  8
0
 62
     7
100
AcDbMText
 10
55.90423113004075
 20
39.13320205973136
 30
0.0
 40
0.375
 41
7.34375
 71
     2
 72
     5
  1
3/4" INFILL
 73
     1
 44
1.0
1001
ACAD
1000
MTEXTBEGIN
1070
    73
1070
     1
1070
    44
1040
1.0
1070
    74
1070
     0
1000
MTEXTEND
  0
MTEXT
  5
3F2
330
1F
100
AcDbEntity
  8
TEXT
100
AcDbMText
 10
56.79305703830104
 20
41.60823056376315
 30
0.0
 40
0.25
 41
4.123124147339702
 71
     1
 72
     5
  1
175175 3/4" ADAPTER
 73
     1
 44
1.0
1001
ACAD
1000
MTEXTBEGIN
1070
    73
1070
     1
1070
    44
1040
1.0
1070
    74
1070
     0
1000
MTEXTEND
  0
MTEXT
  5
3F3
330
1F
100
AcDbEntity
  8
0
 62
     7
100
AcDbMText
 10
5.908499228281414
 20
30.33031802103293
 30
0.0
 40
0.375
 41
7.34375
 71
     2
 72
     5
  1
7/8" INFILL
 73
     1
 44
1.0
1001
ACAD
1000
MTEXTBEGIN
1070
    73
1070
     1
1070
    44
1040
1.0
1070
    74
1070
     0
1000
MTEXTEND
  0
MTEXT
  5
3F4
330
1F
100
AcDbEntity
  8
0
 62
     7
100
AcDbMText
 10
15.82739913689141
 20
30.33031802103293
 30
0.0
 40
0.375
 41
7.34375
 71
     2
 72
     5
  1
1" INFILL
 73
     1
 44
1.0
1001
ACAD
1000
MTEXTBEGIN
1070
    73
1070
     1
1070
    44
1040
1.0
1070
    74
1070
     0
1000
MTEXTEND
  0
MTEXT
  5
3F5
330
1F
100
AcDbEntity
  8
0
 62
     7
100
AcDbMText
 10
25.93238731663702
 20
30.33031802103293
 30
0.0
 40
0.375
 41
7.34375
 71
     2
 72
     5
  1
1-1/8" INFILL
 73
     1
 44
1.0
1001
ACAD
1000
MTEXTBEGIN
1070
    73
1070
     1
1070
    44
1040
1.0
1070
    74
1070
     0
1000
MTEXTEND
  0
MTEXT
  5
3F6
330
1F
100
AcDbEntity
  8
0
 62
     7
100
AcDbMText
 10
37.84610152859855
 20
30.33031802103293
 30
0.0
 40
0.375
 41
7.34375
 71
     2
 72
     5
  1
1/8" INFILL FOR 1" SSG
 73
     1
 44
1.0
1001
ACAD
1000
MTEXTBEGIN
1070
    73
1070
     1
1070
    44
1040
1.0
1070
    74
1070
     0
1000
MTEXTEND
  0
INSERT
  5
3F7
330
1F
100
AcDbEntity
  8
0
100
AcDbBlockReference
  2
B175172
 10
35.65446872926148
 20
31.40902504330038
 30
0.0
 41
-1.0
 50
270.0
  0
INSERT
  5
3F8
330
1F
100
AcDbEntity
  8
0
100
AcDbBlockReference
  2
B175302
 10
36.2914699949119
 20
30.66405075571766
 30
0.0
  0
MTEXT
  5
3F9
330
1F
100
AcDbEntity
  8
TEXT
100
AcDbMText
 10
37.07264411668749
 20
32.7280414261988
 30
0.0
 40
0.25
 41
4.016501293327706
 71
     1
 72
     5
  1
175172 SSG ADAPTER
 73
     1
 44
1.0
1001
ACAD
1000
MTEXTBEGIN
1070
    73
1070
     1
1070
    44
1040
1.0
1070
    74
1070
     0
1000
MTEXTEND
  0
MTEXT
  5
3FA
330
1F
100
AcDbEntity
  8
0
 62
     7
100
AcDbMText
 10
48.74549567533251
 20
30.33031802103293
 30
0.0
 40
0.375
 41
7.34375
 71
     2
 72
     5
  1
1/2" INFILL FOR 1" SSG
 73
     1
 44
1.0
1001
ACAD
1000
MTEXTBEGIN
1070
    73
1070
     1
1070
    44
1040
1.0
1070
    74
1070
     0
1000
MTEXTEND
  0
INSERT
  5
3FB
330
1F
100
AcDbEntity
  8
0
100
AcDbBlockReference
  2
B175176
 10
46.30343759398312
 20
31.15902504330037
 30
0.0
 41
-1.0
  0
INSERT
  5
3FC
330
1F
100
AcDbEntity
  8
0
100
AcDbBlockReference
  2
B175302
 10
46.94043885963353
 20
30.66405075571766
 30
0.0
  0
MTEXT
  5
3FD
330
1F
100
AcDbEntity
  8
TEXT
100
AcDbMText
 10
47.72161298140913
 20
32.7280414261988
 30
0.0
 40
0.25
 41
4.016501293327706
 71
     1
 72
     5
  1
175176 SSG ADAPTER 
 73
     1
 44
1.0
1001
ACAD
1000
MTEXTBEGIN
1070
    73
1070
     1
1070
    44
1040
1.0
1070
    74
1070
     0
1000
MTEXTEND
  0
MTEXT
  5
3FE
330
1F
100
AcDbEntity
  8
Defpoints
 62
    21
100
AcDbMText
 10
5.929204594814144
 20
38.39163217669953
 30
0.0
 40
0.375
 41
7.34375
 71
     2
 72
     5
  1
S175GT125
 73
     1
 44
1.0
1001
ACAD
1000
MTEXTBEGIN
1070
    73
1070
     1
1070
    44
1040
1.0
1070
    74
1070
     0
1000
MTEXTEND
  0
LINE
  5
3FF
330
1F
100
AcDbEntity
  8
0
100
AcDbLine
 10
5.547848379823676
 20
40.46790908199883
 30
0.0
 11
5.547848379823676
 21
42.84239908199894
 31
0.0
  0
LINE
  5
400
330
1F
100
AcDbEntity
  8
0
100
AcDbLine
 10
5.672848379823676
 20
40.46790908199883
 30
0.0
 11
5.672848379823673
 21
42.84239908199894
 31
0.0
  0
LINE
  5
401
330
1F
100
AcDbEntity
  8
0
100
AcDbLine
 10
6.247702094278512
 20
40.84240908199885
 30
0.0
 11
6.247702094278508
 21
42.84239908199894
 31
0.0
  0
LINE
  5
402
330
1F
100
AcDbEntity
  8
0
100
AcDbLine
 10
4.97299466536884
 20
40.84240908199885
 30
0.0
 11
4.97299466536884
 21
42.84239908199894
 31
0.0
  0
INSERT
  5
403
330
1F
100
AcDbEntity
  8
0
100
AcDbBlockReference
  2
B027077-M1
 10
6.042348379823671
 20
40.58390908199884
 30
0.0
  0
INSERT
  5
404
330
1F
100
AcDbEntity
  8
0
100
AcDbBlockReference
  2
B027077-M1
 10
5.178348379823681
 20
40.58390908199884
 30
0.0
 41
-1.0
  0
LINE
  5
405
330
1F
100
AcDbEntity
  8
0
100
AcDbLine
 10
5.547848379823676
 20
40.46790908199883
 30
0.0
 11
5.672848379823676
 21
40.46790908199883
 31
0.0
  0
INSERT
  5
406
330
1F
100
AcDbEntity
  8
0
100
AcDbBlockReference
  2
B175171
 10
5.485348379823674
 20
39.96740908199884
 30
0.0
  0
MTEXT
  5
407
330
1F
100
AcDbEntity
  8
Defpoints
 62
    21
100
AcDbMText
 10
15.7995491693549
 20
38.39163217669953
 30
0.0
 40
0.375
 41
7.34375
 71
     2
 72
     5
  1
S175GT250
 73
     1
 44
1.0
1001
ACAD
1000
MTEXTBEGIN
1070
    73
1070
     1
1070
    44
1040
1.0
1070
    74
1070
     0
1000
MTEXTEND
  0
LINE
  5
408
330
1F
100
AcDbEntity
  8
0
100
AcDbLine
 10
16.16660200288851
 20
40.84240908199885
 30
0.0
 11
16.16660200288851
 21
42.84239908199894
 31
0.0
  0
LINE
  5
409
330
1F
100
AcDbEntity
  8
0
100
AcDbLine
 10
15.40424828843368
 20
40.46790908199883
 30
0.0
 11
15.40424828843368
 21
42.84239908199894
 31
0.0
  0
LINE
  5
40A
330
1F
100
AcDbEntity
  8
0
100
AcDbLine
 10
15.65424828843368
 20
40.46790908199883
 30
0.0
 11
15.65424828843368
 21
42.84239908199894
 31
0.0
  0
LINE
  5
40B
330
1F
100
AcDbEntity
  8
0
100
AcDbLine
 10
15.65424828843368
 20
40.46790908199883
 30
0.0
 11
15.40424828843368
 21
40.46790908199883
 31
0.0
  0
INSERT
  5
40C
330
1F
100
AcDbEntity
  8
0
100
AcDbBlockReference
  2
B027074-M1
 10
15.96124828843367
 20
40.58390908199884
 30
0.0
  0
INSERT
  5
40D
330
1F
100
AcDbEntity
  8
0
100
AcDbBlockReference
  2
B027074-M1
 10
15.09724828843368
 20
40.58390908199884
 30
0.0
 41
-1.0
  0
LINE
  5
40E
330
1F
100
AcDbEntity
  8
0
100
AcDbLine
 10
14.89189457397884
 20
40.84240908199885
 30
0.0
 11
14.89189457397884
 21
42.84239908199894
 31
0.0
  0
INSERT
  5
40F
330
1F
100
AcDbEntity
  8
0
100
AcDbBlockReference
  2
B175171
 10
15.40424828843368
 20
39.96740908199884
 30
0.0
  0
MTEXT
  5
410
330
1F
100
AcDbEntity
  8
Defpoints
 62
    21
100
AcDbMText
 10
25.77456777931665
 20
38.39163217669953
 30
0.0
 40
0.375
 41
7.34375
 71
     2
 72
     5
  1
S175GT375
 73
     1
 44
1.0
1001
ACAD
1000
MTEXTBEGIN
1070
    73
1070
     1
1070
    44
1040
1.0
1070
    74
1070
     0
1000
MTEXTEND
  0
LINE
  5
411
330
1F
100
AcDbEntity
  8
0
100
AcDbLine
 10
24.99728630689386
 20
40.84240908199884
 30
0.0
 11
24.99728630689386
 21
42.84239908199894
 31
0.0
  0
LINE
  5
412
330
1F
100
AcDbEntity
  8
0
100
AcDbLine
 10
26.27118662946188
 20
40.84240908199882
 30
0.0
 11
26.27118662946187
 21
42.84239908199894
 31
0.0
  0
LINE
  5
413
330
1F
100
AcDbEntity
  8
0
100
AcDbLine
 10
25.82599316904487
 20
40.46790908199883
 30
0.0
 11
25.82599316904487
 21
42.84239908199894
 31
0.0
  0
LINE
  5
414
330
1F
100
AcDbEntity
  8
0
100
AcDbLine
 10
25.44247976731369
 20
40.46790908199883
 30
0.0
 11
25.44247976731369
 21
42.84239908199894
 31
0.0
  0
LINE
  5
415
330
1F
100
AcDbEntity
  8
0
100
AcDbLine
 10
25.82599316904487
 20
40.46790908199883
 30
0.0
 11
25.44247976731369
 21
40.46790908199883
 31
0.0
  0
INSERT
  5
416
330
1F
100
AcDbEntity
  8
0
100
AcDbBlockReference
  2
B027076-M1
 10
26.06583291500703
 20
40.58390908199884
 30
0.0
  0
INSERT
  5
417
330
1F
100
AcDbEntity
  8
0
100
AcDbBlockReference
  2
B027076-M1
 10
25.20264002135153
 20
40.58390908199884
 30
0.0
 41
-1.0
  0
INSERT
  5
418
330
1F
100
AcDbEntity
  8
0
100
AcDbBlockReference
  2
B175171
 10
25.50883291500703
 20
39.96740908199884
 30
0.0
  0
MTEXT
  5
419
330
1F
100
AcDbEntity
  8
Defpoints
 62
    21
100
AcDbMText
 10
36.00359352378318
 20
38.39163217669953
 30
0.0
 40
0.375
 41
7.34375
 71
     2
 72
     5
  1
S175GT500
 73
     1
 44
1.0
1001
ACAD
1000
MTEXTBEGIN
1070
    73
1070
     1
1070
    44
1040
1.0
1070
    74
1070
     0
1000
MTEXTEND
  0
LINE
  5
41A
330
1F
100
AcDbEntity
  8
0
100
AcDbLine
 10
36.04146872926142
 20
40.46790908199883
 30
0.0
 11
36.04146872926142
 21
42.84239908199894
 31
0.0
  0
LINE
  5
41B
330
1F
100
AcDbEntity
  8
0
100
AcDbLine
 10
35.54146872926143
 20
40.46790908199883
 30
0.0
 11
35.54146872926143
 21
42.84239908199894
 31
0.0
  0
LINE
  5
41C
330
1F
100
AcDbEntity
  8
0
100
AcDbLine
 10
36.04146872926142
 20
40.46790908199883
 30
0.0
 11
35.54146872926143
 21
40.46790908199883
 31
0.0
  0
INSERT
  5
41D
330
1F
100
AcDbEntity
  8
0
100
AcDbBlockReference
  2
B027074-M1
 10
36.34846872926144
 20
40.58390908199885
 30
0.0
  0
LINE
  5
41E
330
1F
100
AcDbEntity
  8
0
100
AcDbLine
 10
35.02909531697012
 20
40.84240830478119
 30
0.0
 11
35.0291239786427
 21
42.84239908199894
 31
0.0
  0
INSERT
  5
41F
330
1F
100
AcDbEntity
  8
0
100
AcDbBlockReference
  2
B027074-M1
 10
35.23446872926141
 20
40.58390908199885
 30
0.0
 41
-1.0
  0
INSERT
  5
420
330
1F
100
AcDbEntity
  8
0
100
AcDbBlockReference
  2
B175173
 10
35.54146872926145
 20
39.96740908199884
 30
0.0
  0
LINE
  5
421
330
1F
100
AcDbEntity
  8
0
100
AcDbLine
 10
36.55382244371629
 20
40.84240908199885
 30
0.0
 11
36.55382244371629
 21
42.84239908199894
 31
0.0
  0
MTEXT
  5
422
330
1F
100
AcDbEntity
  8
Defpoints
 62
    21
100
AcDbMText
 10
46.72663869096781
 20
38.39163217669953
 30
0.0
 40
0.375
 41
7.34375
 71
     2
 72
     5
  1
S175GT625
 73
     1
 44
1.0
1001
ACAD
1000
MTEXTBEGIN
1070
    73
1070
     1
1070
    44
1040
1.0
1070
    74
1070
     0
1000
MTEXTEND
  0
LINE
  5
423
330
1F
100
AcDbEntity
  8
0
100
AcDbLine
 10
47.1995346075723
 20
40.84232562618391
 30
0.0
 11
47.1995346075723
 21
42.84239908199894
 31
0.0
  0
LINE
  5
424
330
1F
100
AcDbEntity
  8
0
100
AcDbLine
 10
47.1995346075723
 20
40.84232562618391
 30
0.0
 11
47.1995346075723
 21
41.83230470094005
 31
0.0
  0
INSERT
  5
425
330
1F
100
AcDbEntity
  8
0
100
AcDbBlockReference
  2
B027076-M1
 10
46.99418089311746
 20
40.58390908199885
 30
0.0
  0
INSERT
  5
426
330
1F
100
AcDbEntity
  8
0
100
AcDbBlockReference
  2
B175173
 10
46.18718089311747
 20
39.96740908199884
 30
0.0
  0
LINE
  5
427
330
1F
100
AcDbEntity
  8
0
100
AcDbLine
 10
45.68134058039381
 20
40.84232562618391
 30
0.0
 11
45.68134058039381
 21
42.84239908199894
 31
0.0
  0
INSERT
  5
428
330
1F
100
AcDbEntity
  8
0
100
AcDbBlockReference
  2
B027076-M1
 10
45.88669429484865
 20
40.58390908199885
 30
0.0
 41
-1.0
  0
LINE
  5
429
330
1F
100
AcDbEntity
  8
0
100
AcDbLine
 10
46.12793759398306
 20
40.46790908199883
 30
0.0
 11
46.12793759398306
 21
42.84239908199894
 31
0.0
  0
LINE
  5
42A
330
1F
100
AcDbEntity
  8
0
100
AcDbLine
 10
46.75293759398306
 20
40.46790908199883
 30
0.0
 11
46.75293759398306
 21
42.84239908199894
 31
0.0
  0
LINE
  5
42B
330
1F
100
AcDbEntity
  8
0
100
AcDbLine
 10
46.12793759398306
 20
40.46790908199883
 30
0.0
 11
46.75293759398306
 21
40.46790908199883
 31
0.0
  0
MTEXT
  5
42C
330
1F
100
AcDbEntity
  8
Defpoints
 62
    21
100
AcDbMText
 10
55.99928092056971
 20
38.39163217669953
 30
0.0
 40
0.375
 41
7.34375
 71
     2
 72
     5
  1
S175GT750
 73
     1
 44
1.0
1001
ACAD
1000
MTEXTBEGIN
1070
    73
1070
     1
1070
    44
1040
1.0
1070
    74
1070
     0
1000
MTEXTEND
  0
LINE
  5
42D
330
1F
100
AcDbEntity
  8
0
100
AcDbLine
 10
56.61533857413628
 20
40.83690812372415
 30
0.0
 11
56.61533857413627
 21
42.84239908199894
 31
0.0
  0
INSERT
  5
42E
330
1F
100
AcDbEntity
  8
0
100
AcDbBlockReference
  2
B027074-M1
 10
56.40996057312827
 20
40.57840908199882
 30
0.0
  0
LINE
  5
42F
330
1F
100
AcDbEntity
  8
0
100
AcDbLine
 10
54.84298029939298
 20
40.83690812372415
 30
0.0
 11
54.84298029939299
 21
42.84239908199894
 31
0.0
  0
INSERT
  5
430
330
1F
100
AcDbEntity
  8
0
100
AcDbBlockReference
  2
B027074-M1
 10
55.04835830040099
 20
40.57840908199882
 30
0.0
 41
-1.0
  0
LINE
  5
431
330
1F
100
AcDbEntity
  8
0
100
AcDbLine
 10
55.35415943676463
 20
40.46790908199883
 30
0.0
 11
56.10415943676463
 21
40.46790908199883
 31
0.0
  0
LINE
  5
432
330
1F
100
AcDbEntity
  8
0
100
AcDbLine
 10
56.10415943676463
 20
40.46790908199883
 30
0.0
 11
56.10415943676463
 21
42.84239908199894
 31
0.0
  0
LINE
  5
433
330
1F
100
AcDbEntity
  8
0
100
AcDbLine
 10
55.35415943676463
 20
40.46790908199883
 30
0.0
 11
55.35415943676463
 21
42.84239908199894
 31
0.0
  0
INSERT
  5
434
330
1F
100
AcDbEntity
  8
0
100
AcDbBlockReference
  2
B175175
 10
55.35296057312828
 20
39.96790908199882
 30
0.0
  0
MTEXT
  5
435
330
1F
100
AcDbEntity
  8
Defpoints
 62
    21
100
AcDbMText
 10
5.929204594814144
 20
29.66557242375229
 30
0.0
 40
0.375
 41
7.34375
 71
     2
 72
     5
  1
S175GT875
 73
     1
 44
1.0
1001
ACAD
1000
MTEXTBEGIN
1070
    73
1070
     1
1070
    44
1040
1.0
1070
    74
1070
     0
1000
MTEXTEND
  0
INSERT
  5
436
330
1F
100
AcDbEntity
  8
0
100
AcDbBlockReference
  2
S175GT875
 10
5.110296203326415
 20
31.16452504330052
 30
0.0
  0
MTEXT
  5
437
330
1F
100
AcDbEntity
  8
Defpoints
 62
    21
100
AcDbMText
 10
15.8391918463021
 20
29.66557242375229
 30
0.0
 40
0.375
 41
7.34375
 71
     2
 72
     5
  1
S175GT100
 73
     1
 44
1.0
1001
ACAD
1000
MTEXTBEGIN
1070
    73
1070
     1
1070
    44
1040
1.0
1070
    74
1070
     0
1000
MTEXTEND
  0
INSERT
  5
438
330
1F
100
AcDbEntity
  8
0
100
AcDbBlockReference
  2
S175GT100
 10
15.02896840172609
 20
31.16452504330052
 30
0.0
  0
MTEXT
  5
439
330
1F
100
AcDbEntity
  8
Defpoints
 62
    21
100
AcDbMText
 10
26.01302517275478
 20
29.66557242375229
 30
0.0
 40
0.375
 41
7.34375
 71
     2
 72
     5
  1
S175GT1125
 73
     1
 44
1.0
1001
ACAD
1000
MTEXTBEGIN
1070
    73
1070
     1
1070
    44
1040
1.0
1070
    74
1070
     0
1000
MTEXTEND
  0
INSERT
  5
43A
330
1F
100
AcDbEntity
  8
0
100
AcDbBlockReference
  2
S175GT1125
 10
25.13395658147171
 20
31.16452504330052
 30
0.0
  0
MTEXT
  5
43B
330
1F
100
AcDbEntity
  8
Defpoints
 62
    21
100
AcDbMText
 10
36.81283806832412
 20
29.66557242375229
 30
0.0
 40
0.375
 41
7.34375
 71
     2
 72
     5
  1
S175GA250
 73
     1
 44
1.0
1001
ACAD
1000
MTEXTBEGIN
1070
    73
1070
     1
1070
    44
1040
1.0
1070
    74
1070
     0
1000
MTEXTEND
  0
MTEXT
  5
43C
330
1F
100
AcDbEntity
  8
Defpoints
 62
    21
100
AcDbMText
 10
47.81035310258196
 20
29.66557242375229
 30
0.0
 40
0.375
 41
7.34375
 71
     2
 72
     5
  1
S175GA500
 73
     1
 44
1.0
1001
ACAD
1000
MTEXTBEGIN
1070
    73
1070
     1
1070
    44
1040
1.0
1070
    74
1070
     0
1000
MTEXTEND
  0
MTEXT
  5
572
330
1F
100
AcDbEntity
  8
0
 62
     2
100
AcDbMText
 10
35.23316599629641
 20
1.707250518204503
 30
0.0
 40
0.4375
 41
11.91800541288839
 71
     2
 72
     5
  1
DETAIL SCALE: 1" = 1"
 73
     1
 44
1.0
1001
ACAD
1000
MTEXTBEGIN
1070
    73
1070
     1
1070
    44
1040
1.0
1070
    74
1070
     0
1000
MTEXTEND
  0
MTEXT
  5
573
330
1F
100
AcDbEntity
  8
0
 62
     2
100
AcDbMText
 10
35.0708089713971
 20
7.196776358375132
 30
0.0
 40
0.5
 41
22.30465967725257
 71
     2
 72
     5
  1
\A1;EnCORE™ FRAMING SYSTEM \PSTOREFRONT 3-9/16" (FRONT GLAZED) TYPE "A" OR "B"\PINFILL OPTIONS / \PHORIZONTAL GLAZED BRAKE METAL DETAILS\PSHEAR BLOCK ASSEMBLY\P(1/4" AND 1" INFILL)
 73
     1
 44
1.0
1001
ACAD
1000
MTEXTBEGIN
1070
    73
1070
     1
1070
    44
1040
1.0
1070
    74
1070
     0
1000
MTEXTEND
  0
LINE
  5
57D
330
1F
100
AcDbEntity
  8
0
  6
Continuous
100
AcDbLine
 10
2.605655418438033
 20
25.50915225653588
 30
0.0
 11
64.6249464760248
 21
25.50915225653588
 31
0.0
  0
MTEXT
  5
585
330
1F
100
AcDbEntity
  8
0
 62
     2
100
AcDbMText
 10
28.4757163374895
 20
27.54125728554338
 30
0.0
 40
0.375
 41
18.4401849358224
 71
     1
 72
     5
  1
INFILL OPTIONS
 73
     1
 44
1.0
1001
ACAD
1000
MTEXTBEGIN
1070
    73
1070
     1
1070
    44
1040
1.0
1070
    74
1070
     0
1000
MTEXTEND
  0
MTEXT
  5
6FD
330
1F
100
AcDbEntity
  8
TEXT
100
AcDbMText
 10
21.72005669062267
 20
21.08207754645404
 30
0.0
 40
0.25
 41
6.059768993387166
 71
     1
 72
     5
  1
175029 HORIZONTAL\P175155 COVER\P175502 SHEAR BLOCK PKG\P175309 SETTING BLOCK
 73
     1
 44
1.0
1001
ACAD
1000
MTEXTBEGIN
1070
    73
1070
     1
1070
    44
1040
1.0
1070
    74
1070
     0
1000
MTEXTEND
  0
MTEXT
  5
6FF
330
1F
100
AcDbEntity
  8
TEXT
100
AcDbMText
 10
21.72005669062267
 20
18.02089099895279
 30
0.0
 40
0.25
 41
6.059768993387166
 71
     1
 72
     5
  1
ALUM. SHEET
 73
     1
 44
1.0
1001
ACAD
1000
MTEXTBEGIN
1070
    73
1070
     1
1070
    44
1040
1.0
1070
    74
1070
     0
1000
MTEXTEND
  0
MTEXT
  5
7A2
330
1F
100
AcDbEntity
  8
TEXT
100
AcDbMText
 10
21.72005669062267
 20
16.3321205641378
 30
0.0
 40
0.25
 41
6.059768993387166
 71
     1
 72
     5
  1
175029 HORIZONTAL\P175156 COVER\P175502 SHEAR BLOCK PKG\P175309 SETTING BLOCK
 73
     1
 44
1.0
1001
ACAD
1000
MTEXTBEGIN
1070
    73
1070
     1
1070
    44
1040
1.0
1070
    74
1070
     0
1000
MTEXTEND
  0
MTEXT
  5
843
330
1F
100
AcDbEntity
  8
TEXT
100
AcDbMText
 10
40.30314164618547
 20
21.08207754645409
 30
0.0
 40
0.25
 41
6.059768993387166
 71
     1
 72
     5
  1
175009 HORIZONTAL\P175155 COVER\P175501 SHEAR BLOCK PKG\P175309 SETTING BLOCK
 73
     1
 44
1.0
1001
ACAD
1000
MTEXTBEGIN
1070
    73
1070
     1
1070
    44
1040
1.0
1070
    74
1070
     0
1000
MTEXTEND
  0
MTEXT
  5
844
330
1F
100
AcDbEntity
  8
TEXT
100
AcDbMText
 10
40.30314164618547
 20
18.02089099895285
 30
0.0
 40
0.25
 41
6.059768993387166
 71
     1
 72
     5
  1
ALUM. SHEET
 73
     1
 44
1.0
1001
ACAD
1000
MTEXTBEGIN
1070
    73
1070
     1
1070
    44
1040
1.0
1070
    74
1070
     0
1000
MTEXTEND
  0
MTEXT
  5
845
330
1F
100
AcDbEntity
  8
TEXT
100
AcDbMText
 10
40.30314164618547
 20
16.33212056413785
 30
0.0
 40
0.25
 41
6.059768993387166
 71
     1
 72
     5
  1
175009 HORIZONTAL\P175156 COVER\P175501 SHEAR BLOCK PKG\P175309 SETTING BLOCK
 73
     1
 44
1.0
1001
ACAD
1000
MTEXTBEGIN
1070
    73
1070
     1
1070
    44
1040
1.0
1070
    74
1070
     0
1000
MTEXTEND
  0
MTEXT
  5
8A8
330
1F
100
AcDbEntity
  8
0
 62
     7
100
AcDbMText
 10
19.71311491100178
 20
11.70098134858218
 30
0.0
 40
0.375
 41
7.34375
 71
     2
 72
     5
  1
1/4" INFILL
 73
     1
 44
1.0
1001
ACAD
1000
MTEXTBEGIN
1070
    73
1070
     1
1070
    44
1040
1.0
1070
    74
1070
     0
1000
MTEXTEND
  0
MTEXT
  5
8A9
330
1F
100
AcDbEntity
  8
Defpoints
 62
    21
100
AcDbMText
 10
19.73213097707049
 20
10.95941146555036
 30
0.0
 40
0.375
 41
7.34375
 71
     2
 72
     5
  1
S175HI25
 73
     1
 44
1.0
1001
ACAD
1000
MTEXTBEGIN
1070
    73
1070
     1
1070
    44
1040
1.0
1070
    74
1070
     0
1000
MTEXTEND
  0
MTEXT
  5
8AA
330
1F
100
AcDbEntity
  8
0
 62
     7
100
AcDbMText
 10
38.36895463941852
 20
11.70098134858218
 30
0.0
 40
0.375
 41
7.34375
 71
     2
 72
     5
  1
1" INFILL
 73
     1
 44
1.0
1001
ACAD
1000
MTEXTBEGIN
1070
    73
1070
     1
1070
    44
1040
1.0
1070
    74
1070
     0
1000
MTEXTEND
  0
MTEXT
  5
8AB
330
1F
100
AcDbEntity
  8
Defpoints
 62
    21
100
AcDbMText
 10
38.38797070548723
 20
10.95941146555036
 30
0.0
 40
0.375
 41
7.34375
 71
     2
 72
     5
  1
S175HI26
 73
     1
 44
1.0
1001
ACAD
1000
MTEXTBEGIN
1070
    73
1070
     1
1070
    44
1040
1.0
1070
    74
1070
     0
1000
MTEXTEND
  0
INSERT
  5
EC3
330
1F
100
AcDbEntity
  8
0
100
AcDbBlockReference
 66
     1
  2
S175HI25
 10
18.64072744094761
 20
20.20707754645409
 30
0.0
  0
ATTRIB
  5
EC4
330
EC3
100
AcDbEntity
  8
P_ATTR
100
AcDbText
 10
20.85972744094762
 20
23.70707754645409
 30
0.0
 40
0.25
  1

 72
     4
 11
20.85972744094762
 21
23.70707754645409
 31
0.0
100
AcDbAttribute
  2
LIST
 70
     0
  0
ATTRIB
  5
EC5
330
EC3
100
AcDbEntity
  8
P_ATTR
100
AcDbText
 10
19.85972744094762
 20
23.70707754645409
 30
0.0
 40
0.25
  1

 72
     4
 11
19.85972744094762
 21
23.70707754645409
 31
0.0
100
AcDbAttribute
  2
LIST
 70
     0
  0
ATTRIB
  5
EC6
330
EC3
100
AcDbEntity
  8
P_ATTR
100
AcDbText
 10
18.85972744094762
 20
23.70707754645409
 30
0.0
 40
0.25
  1

 72
     4
 11
18.85972744094762
 21
23.70707754645409
 31
0.0
100
AcDbAttribute
  2
LIST
 70
     0
  0
SEQEND
  5
EC7
330
EC3
100
AcDbEntity
  8
0
  0
INSERT
  5
F43
330
1F
100
AcDbEntity
  8
0
100
AcDbBlockReference
 66
     1
  2
S175HI26
 10
37.22381239651042
 20
20.20707754645419
 30
0.0
  0
ATTRIB
  5
F44
330
F43
100
AcDbEntity
  8
P_ATTR
100
AcDbText
 10
38.44281239651042
 20
23.70707754645419
 30
0.0
 40
0.25
  1

 72
     4
 11
38.44281239651042
 21
23.70707754645419
 31
0.0
100
AcDbAttribute
  2
LIST
 70
     0
  0
ATTRIB
  5
F45
330
F43
100
AcDbEntity
  8
P_ATTR
100
AcDbText
 10
39.44281239651043
 20
23.70707754645419
 30
0.0
 40
0.25
  1

 72
     4
 11
39.44281239651043
 21
23.70707754645419
 31
0.0
100
AcDbAttribute
  2
LIST
 70
     0
  0
ATTRIB
  5
F46
330
F43
100
AcDbEntity
  8
P_ATTR
100
AcDbText
 10
37.44281239651043
 20
23.70707754645419
 30
0.0
 40
0.25
  1

 72
     4
 11
37.44281239651043
 21
23.70707754645419
 31
0.0
100
AcDbAttribute
  2
LIST
 70
     0
  0
SEQEND
  5
F47
330
F43
100
AcDbEntity
  8
0
  0
MTEXT
  5
10EA
330
1F
100
AcDbEntity
  8
TEXT
100
AcDbMText
 10
0.999999936150289
 20
1.999999934003881
 30
0.0
 40
0.375
 41
14.22387531454843
 71
     1
 72
     5
  1
ENGINEERING CHANGE:  97910-087 (MARCH 2017)\PFILE NAME:  KCDC080B SHEET 07 OF 07.DWG
 73
     1
 44
1.0
1001
ACAD
1000
ACAD_MTEXT_COLUMN_INFO_BEGIN
1070
    75
1070
     2
1070
    79
1070
     0
1070
    76
1070
     1
1070
    78
1070
     0
1070
    48
1040
14.22387531454843
1070
    49
1040
1.25
1070
    50
1070
     1
1040
0.0
1000
ACAD_MTEXT_COLUMN_INFO_END
1000
MTEXTBEGIN
1070
    73
1070
     1
1070
    44
1040
1.0
1070
    74
1070
     0
1000
MTEXTEND
  0
INSERT
  5
11B1
330
1F
100
AcDbEntity
  8
0
100
AcDbBlockReference
  2
Kawneer Logo English
 10
1.0
 20
2.5
 30
0.0
 41
5.337
 42
5.337
 43
5.337
  0
ENDSEC
  0
SECTION
  2
OBJECTS
  0
DICTIONARY
  5
C
330
0
100
AcDbDictionary
281
     1
  3
ACAD_CIP_PREVIOUS_PRODUCT_INFO
350
18C
  3
ACAD_COLOR
350
73
  3
ACAD_GROUP
350
D
  3
ACAD_LAYOUT
350
1A
  3
ACAD_MATERIAL
350
72
  3
ACAD_MLEADERSTYLE
350
188
  3
ACAD_MLINESTYLE
350
17
  3
ACAD_PLOTSETTINGS
350
19
  3
ACAD_PLOTSTYLENAME
350
E
  3
ACAD_SCALELIST
350
176
  3
ACAD_TABLESTYLE
350
86
  3
ACAD_VISUALSTYLE
350
15D
  3
ACDB_RECOMPOSE_DATA
350
1257
  3
AcDbVariableDictionary
350
66
  3
DWGPROPS
350
1258
  0
DICTIONARY
  5
303
330
8
100
AcDbDictionary
280
     1
281
     1
  0
DICTIONARY
  5
C3
330
2
100
AcDbDictionary
280
     1
281
     1
  3
ACAD_LAYERSTATES
360
C4
  0
DICTIONARY
  5
2DE
330
10
100
AcDbDictionary
280
     1
281
     1
  3
ADSK_XREC_LAYER_RECONCILED
360
2DF
  0
DICTIONARY
  5
2E0
330
20B
100
AcDbDictionary
280
     1
281
     1
  3
ADSK_XREC_LAYER_RECONCILED
360
2E1
  0
DICTIONARY
  5
2E2
330
2DA
100
AcDbDictionary
280
     1
281
     1
  3
ADSK_XREC_LAYER_RECONCILED
360
2E3
  0
DICTIONARY
  5
624
330
623
100
AcDbDictionary
280
     1
281
     1
  0
DICTIONARY
  5
626
330
625
100
AcDbDictionary
280
     1
281
     1
  0
DICTIONARY
  5
628
330
627
100
AcDbDictionary
280
     1
281
     1
  0
DICTIONARY
  5
E93
330
E92
100
AcDbDictionary
280
     1
281
     1
  0
DICTIONARY
  5
2DC
330
1F
100
AcDbDictionary
280
     1
281
     1
  3
ACAD_SORTENTS
360
2DD
  0
DICTIONARY
  5
1FA
330
1F9
100
AcDbDictionary
280
     1
281
     1
  0
DICTIONARY
  5
35A
330
359
100
AcDbDictionary
280
     1
281
     1
  3
ACAD_SORTENTS
360
35B
  0
DICTIONARY
  5
376
330
375
100
AcDbDictionary
280
     1
281
     1
  3
ACAD_SORTENTS
360
377
  0
DICTIONARY
  5
5B5
330
5B4
100
AcDbDictionary
280
     1
281
     1
  3
ACAD_SORTENTS
360
5B6
  0
DICTIONARY
  5
6AC
330
6AB
100
AcDbDictionary
280
     1
281
     1
  3
ACAD_SORTENTS
360
6AD
  0
DICTIONARY
  5
6B2
330
6B1
100
AcDbDictionary
280
     1
281
     1
  3
ACAD_SORTENTS
360
6B3
  0
DICTIONARY
  5
FBD
330
E94
100
AcDbDictionary
280
     1
281
     1
  0
DICTIONARY
  5
1035
330
F14
100
AcDbDictionary
280
     1
281
     1
  0
DICTIONARY
  5
11AD
330
11A3
100
AcDbDictionary
280
     1
281
     1
  3
ACAD_SORTENTS
360
11AE
  0
DICTIONARY
  5
1255
330
11A4
100
AcDbDictionary
280
     1
281
     1
  3
ACAD_MTEXT_2008_RT
360
1256
  0
XRECORD
  5
18C
102
{ACAD_REACTORS
330
C
102
}
330
C
100
AcDbXrecord
280
     1
300
ACD
300
2012
300
85730ACD_2012_0F
  0
DICTIONARY
  5
73
102
{ACAD_REACTORS
330
C
102
}
330
C
100
AcDbDictionary
281
     1
  0
DICTIONARY
  5
D
102
{ACAD_REACTORS
330
C
102
}
330
C
100
AcDbDictionary
281
     1
  0
DICTIONARY
  5
1A
102
{ACAD_REACTORS
330
C
102
}
330
C
100
AcDbDictionary
281
     1
  3
Layout1
350
59
  3
Layout2
350
5E
  3
Model
350
22
  0
DICTIONARY
  5
72
102
{ACAD_REACTORS
330
C
102
}
330
C
100
AcDbDictionary
281
     1
  3
ByBlock
350
155
  3
ByLayer
350
14D
  3
Global
350
BA
  0
DICTIONARY
  5
188
102
{ACAD_REACTORS
330
C
102
}
330
C
100
AcDbDictionary
281
     1
  3
Standard
350
189
  0
DICTIONARY
  5
17
102
{ACAD_REACTORS
330
C
102
}
330
C
100
AcDbDictionary
281
     1
  3
Standard
350
18
  0
DICTIONARY
  5
19
102
{ACAD_REACTORS
330
C
102
}
330
C
100
AcDbDictionary
281
     1
  0
ACDBDICTIONARYWDFLT
  5
E
102
{ACAD_REACTORS
330
C
102
}
330
C
100
AcDbDictionary
281
     1
  3
Normal
350
F
100
AcDbDictionaryWithDefault
340
F
  0
DICTIONARY
  5
176
102
{ACAD_REACTORS
330
C
102
}
330
C
100
AcDbDictionary
281
     1
  3
A0
350
177
  3
A1
350
1187
  3
A2
350
1188
  3
A3
350
1189
  3
A4
350
118A
  3
A5
350
118B
  3
A6
350
118C
  3
A7
350
118D
  3
A8
350
118E
  3
A9
350
118F
  3
B0
350
1190
  3
B1
350
1191
  3
B2
350
1192
  3
B3
350
1193
  3
B4
350
1194
  3
B5
350
1195
  3
B6
350
1196
  0
DICTIONARY
  5
86
102
{ACAD_REACTORS
330
C
102
}
330
C
100
AcDbDictionary
281
     1
  3
Standard
350
87
  0
DICTIONARY
  5
15D
102
{ACAD_REACTORS
330
C
102
}
330
C
100
AcDbDictionary
281
     1
  3
2dWireframe
350
163
  3
3D Hidden
350
11A1
  3
3dWireframe
350
11A2
  3
Basic
350
162
  3
Brighten
350
169
  3
ColorChange
350
16D
  3
Conceptual
350
166
  3
Dim
350
168
  3
EdgeColorOff
350
175
  3
Facepattern
350
16C
  3
Flat
350
15E
  3
FlatWithEdges
350
15F
  3
Gouraud
350
160
  3
GouraudWithEdges
350
161
  3
Hidden
350
165
  3
JitterOff
350
173
  3
Linepattern
350
16B
  3
OverhangOff
350
174
  3
Realistic
350
167
  3
Shaded
350
172
  3
Shaded with edges
350
171
  3
Shades of Gray
350
16E
  3
Sketchy
350
16F
  3
Thicken
350
16A
  3
Wireframe
350
164
  3
X-Ray
350
170
  0
XRECORD
  5
1257
102
{ACAD_REACTORS
330
C
102
}
330
C
100
AcDbXrecord
280
     1
 90
        1
330
87
330
10EA
330
11A4
  0
DICTIONARY
  5
66
102
{ACAD_REACTORS
330
C
102
}
330
C
100
AcDbDictionary
281
     1
  3
CANNOSCALE
350
341
  3
CMLEADERSTYLE
350
340
  3
CTABLESTYLE
350
13E
  3
DIMASSOC
350
67
  3
HIDETEXT
350
6B
  3
INDEXCTL
350
343
  3
LAYEREVAL
350
AB2
  3
LAYERNOTIFY
350
AB3
  3
LIGHTINGUNITS
350
AB1
  3
MSLTSCALE
350
AB0
  3
PROJECTNAME
350
14B
  3
SORTENTS
350
342
  3
XCLIPFRAME
350
1251
  0
XRECORD
  5
1258
102
{ACAD_REACTORS
330
C
102
}
330
C
100
AcDbXrecord
280
     1
  1
DWGPROPS COOKIE
  2

  3

  4

  6

  7

  8
quadiss
  9

300
=
301
=
302
=
303
=
304
=
305
=
306
=
307
=
308
=
309
=
 40
0.0796697106481482
 41
2454727.556173148
 42
2457799.48305588
  1

 90
        0
  0
DICTIONARY
  5
C4
102
{ACAD_REACTORS
330
C3
102
}
330
C3
100
AcDbDictionary
281
     1
  0
XRECORD
  5
2DF
102
{ACAD_REACTORS
330
2DE
102
}
330
2DE
100
AcDbXrecord
280
     1
290
     1
  0
XRECORD
  5
2E1
102
{ACAD_REACTORS
330
2E0
102
}
330
2E0
100
AcDbXrecord
280
     1
290
     1
  0
XRECORD
  5
2E3
102
{ACAD_REACTORS
330
2E2
102
}
330
2E2
100
AcDbXrecord
280
     1
290
     1
  0
SORTENTSTABLE
  5
2DD
102
{ACAD_REACTORS
330
2DC
102
}
330
2DC
100
AcDbSortentsTable
330
1F
331
426
  5
426
331
40D
  5
40D
331
3F0
  5
3F0
331
423
  5
423
331
40A
  5
40A
331
3ED
  5
3ED
331
420
  5
420
331
407
  5
407
331
3EA
  5
3EA
331
404
  5
404
331
401
  5
401
331
43B
  5
43B
331
438
  5
438
331
41F
  5
41F
331
435
  5
435
331
41C
  5
41C
331
3FF
  5
3FF
331
3E6
  5
3E6
331
432
  5
432
331
419
  5
419
331
3FC
  5
3FC
331
416
  5
416
331
3F9
  5
3F9
331
413
  5
413
331
410
  5
410
331
57D
  5
57D
331
42E
  5
42E
331
42B
  5
42B
331
3F5
  5
3F5
331
428
  5
428
331
40F
  5
40F
331
3F2
  5
3F2
331
425
  5
425
331
40C
  5
40C
331
3EF
  5
3EF
331
422
  5
422
331
409
  5
409
331
3EC
  5
3EC
331
406
  5
406
331
6FD
  5
7CC
331
3E9
  5
3E9
331
403
  5
403
331
400
  5
400
331
43A
  5
43A
331
2DB
  5
108
331
437
  5
437
331
41E
  5
41E
331
434
  5
434
331
41B
  5
41B
331
3FE
  5
3FE
331
431
  5
431
331
418
  5
418
331
3FB
  5
3FB
331
415
  5
415
331
3F8
  5
3F8
331
412
  5
412
331
3F7
  5
3F7
331
42D
  5
42D
331
573
  5
573
331
3F4
  5
3F4
331
42A
  5
42A
331
3F1
  5
3F1
331
427
  5
427
331
40E
  5
40E
331
3EE
  5
3EE
331
424
  5
424
331
40B
  5
40B
331
421
  5
421
331
408
  5
408
331
6FF
  5
7CD
331
3E8
  5
3E8
331
405
  5
405
331
402
  5
402
331
43C
  5
43C
331
585
  5
585
331
439
  5
439
331
436
  5
436
331
41D
  5
41D
331
3E7
  5
3E7
331
433
  5
433
331
41A
  5
41A
331
3FD
  5
3FD
331
430
  5
430
331
417
  5
417
331
3FA
  5
3FA
331
414
  5
414
331
411
  5
411
331
7A2
  5
7CE
331
42F
  5
42F
331
42C
  5
42C
331
3F6
  5
3F6
331
429
  5
429
331
572
  5
572
331
3F3
  5
3F3
  0
SORTENTSTABLE
  5
35B
102
{ACAD_REACTORS
330
35A
102
}
330
35A
100
AcDbSortentsTable
330
359
  0
SORTENTSTABLE
  5
377
102
{ACAD_REACTORS
330
376
102
}
330
376
100
AcDbSortentsTable
330
375
  0
SORTENTSTABLE
  5
5B6
102
{ACAD_REACTORS
330
5B5
102
}
330
5B5
100
AcDbSortentsTable
330
5B4
  0
SORTENTSTABLE
  5
6AD
102
{ACAD_REACTORS
330
6AC
102
}
330
6AC
100
AcDbSortentsTable
330
6AB
  0
SORTENTSTABLE
  5
6B3
102
{ACAD_REACTORS
330
6B2
102
}
330
6B2
100
AcDbSortentsTable
330
6B1
  0
SORTENTSTABLE
  5
11AE
102
{ACAD_REACTORS
330
11AD
102
}
330
11AD
100
AcDbSortentsTable
330
11A3
  0
XRECORD
  5
1256
102
{ACAD_REACTORS
330
1255
102
}
330
1255
100
AcDbXrecord
280
     1
 40
102645.0
  1
\pxqr;{\fArial TUR|b0|i0|c0|p34;\T1.05;AN ARCONIC COMPANY}
  0
LAYOUT
  5
59
102
{ACAD_XDICTIONARY
360
125B
102
}
102
{ACAD_REACTORS
330
1A
102
}
330
1A
100
AcDbPlotSettings
  1

  2
None
  4

  6

 40
0.0
 41
0.0
 42
0.0
 43
0.0
 44
0.0
 45
0.0
 46
0.0
 47
0.0
 48
0.0
 49
0.0
140
0.0
141
0.0
142
1.0
143
1.0
 70
   688
 72
     0
 73
     0
 74
     5
  7
monochrome2.ctb
 75
    16
147
1.0
148
0.0
149
0.0
100
AcDbLayout
  1
Layout1
 70
     1
 71
     1
 10
0.0
 20
0.0
 11
12.0
 21
9.0
 12
0.0
 22
0.0
 32
0.0
 14
0.0
 24
0.0
 34
0.0
 15
0.0
 25
0.0
 35
0.0
146
0.0
 13
0.0
 23
0.0
 33
0.0
 16
1.0
 26
0.0
 36
0.0
 17
0.0
 27
1.0
 37
0.0
 76
     0
330
58
  0
LAYOUT
  5
5E
102
{ACAD_XDICTIONARY
360
125D
102
}
102
{ACAD_REACTORS
330
1A
102
}
330
1A
100
AcDbPlotSettings
  1

  2
None
  4

  6

 40
0.0
 41
0.0
 42
0.0
 43
0.0
 44
0.0
 45
0.0
 46
0.0
 47
0.0
 48
0.0
 49
0.0
140
0.0
141
0.0
142
1.0
143
1.0
 70
   688
 72
     0
 73
     0
 74
     5
  7
monochrome2.ctb
 75
    16
147
1.0
148
0.0
149
0.0
100
AcDbLayout
  1
Layout2
 70
     1
 71
     2
 10
0.0
 20
0.0
 11
12.0
 21
9.0
 12
0.0
 22
0.0
 32
0.0
 14
0.0
 24
0.0
 34
0.0
 15
0.0
 25
0.0
 35
0.0
146
0.0
 13
0.0
 23
0.0
 33
0.0
 16
1.0
 26
0.0
 36
0.0
 17
0.0
 27
1.0
 37
0.0
 76
     0
330
5D
  0
LAYOUT
  5
22
102
{ACAD_XDICTIONARY
360
1259
102
}
102
{ACAD_REACTORS
330
1A
102
}
330
1A
100
AcDbPlotSettings
  1

  2
KCI_ENG1_SHARP_ARM355NB_PCL6_64.pc3
  4
11x17
  6

 40
6.349999904632568
 41
4.233306884765625
 42
6.3499755859375
 43
4.23333740234375
 44
279.3999938964844
 45
431.7999877929687
 46
0.2686383066627758
 47
0.0
 48
0.0
 49
0.0
140
0.0
141
0.0
142
1.0
143
4.645896008477443
 70
 11828
 72
     0
 73
     3
 74
     1
  7
monochrome2.ctb
 75
     0
147
0.2152437330011871
148
0.1200231432021553
149
0.0754614421477726
100
AcDbLayout
  1
Model
 70
     1
 71
     0
 10
0.0
 20
0.0
 11
12.0
 21
9.0
 12
0.0
 22
0.0
 32
0.0
 14
0.0
 24
0.0
 34
0.0
 15
0.0
 25
0.0
 35
0.0
146
0.0
 13
0.0
 23
0.0
 33
0.0
 16
1.0
 26
0.0
 36
0.0
 17
0.0
 27
1.0
 37
0.0
 76
     0
330
1F
331
143
1001
ACAD_PSEXT
1000
KCI_ENG1_SHARP_ARM355NB_PCL6_64.pc3
1000
HP Universal Printing PCL 6 (v5.2)
1000
KCI
1000
KCI - Norcross, GA
1070
     0
  0
MATERIAL
  5
155
102
{ACAD_XDICTIONARY
360
156
102
}
102
{ACAD_REACTORS
330
72
102
}
330
72
100
AcDbMaterial
  1
ByBlock
 72
     0
 43
0.0208333333333333
 43
0.0
 43
0.0
 43
0.0
 43
0.0
 43
0.0208333333333333
 43
0.0
 43
0.0
 43
0.0
 43
0.0
 43
1.0
 43
0.0
 43
0.0
 43
0.0
 43
0.0
 43
1.0
 77
     0
 47
0.0208333333333333
 47
0.0
 47
0.0
 47
0.0
 47
0.0
 47
0.0208333333333333
 47
0.0
 47
0.0
 47
0.0
 47
0.0
 47
1.0
 47
0.0
 47
0.0
 47
0.0
 47
0.0
 47
1.0
171
     0
 49
0.0208333333333333
 49
0.0
 49
0.0
 49
0.0
 49
0.0
 49
0.0208333333333333
 49
0.0
 49
0.0
 49
0.0
 49
0.0
 49
1.0
 49
0.0
 49
0.0
 49
0.0
 49
0.0
 49
1.0
175
     0
142
0.0208333333333333
142
0.0
142
0.0
142
0.0
142
0.0
142
0.0208333333333333
142
0.0
142
0.0
142
0.0
142
0.0
142
1.0
142
0.0
142
0.0
142
0.0
142
0.0
142
1.0
179
     0
144
0.0208333333333333
144
0.0
144
0.0
144
0.0
144
0.0
144
0.0208333333333333
144
0.0
144
0.0
144
0.0
144
0.0
144
1.0
144
0.0
144
0.0
144
0.0
144
0.0
144
1.0
147
0.0208333333333333
147
0.0
147
0.0
147
0.0
147
0.0
147
0.0208333333333333
147
0.0
147
0.0
147
0.0
147
0.0
147
1.0
147
0.0
147
0.0
147
0.0
147
0.0
147
1.0
  0
MATERIAL
  5
14D
102
{ACAD_XDICTIONARY
360
14E
102
}
102
{ACAD_REACTORS
330
72
102
}
330
72
100
AcDbMaterial
  1
ByLayer
 72
     0
 43
0.0208333333333333
 43
0.0
 43
0.0
 43
0.0
 43
0.0
 43
0.0208333333333333
 43
0.0
 43
0.0
 43
0.0
 43
0.0
 43
1.0
 43
0.0
 43
0.0
 43
0.0
 43
0.0
 43
1.0
 77
     0
 47
0.0208333333333333
 47
0.0
 47
0.0
 47
0.0
 47
0.0
 47
0.0208333333333333
 47
0.0
 47
0.0
 47
0.0
 47
0.0
 47
1.0
 47
0.0
 47
0.0
 47
0.0
 47
0.0
 47
1.0
171
     0
 49
0.0208333333333333
 49
0.0
 49
0.0
 49
0.0
 49
0.0
 49
0.0208333333333333
 49
0.0
 49
0.0
 49
0.0
 49
0.0
 49
1.0
 49
0.0
 49
0.0
 49
0.0
 49
0.0
 49
1.0
175
     0
142
0.0208333333333333
142
0.0
142
0.0
142
0.0
142
0.0
142
0.0208333333333333
142
0.0
142
0.0
142
0.0
142
0.0
142
1.0
142
0.0
142
0.0
142
0.0
142
0.0
142
1.0
179
     0
144
0.0208333333333333
144
0.0
144
0.0
144
0.0
144
0.0
144
0.0208333333333333
144
0.0
144
0.0
144
0.0
144
0.0
144
1.0
144
0.0
144
0.0
144
0.0
144
0.0
144
1.0
147
0.0208333333333333
147
0.0
147
0.0
147
0.0
147
0.0
147
0.0208333333333333
147
0.0
147
0.0
147
0.0
147
0.0
147
1.0
147
0.0
147
0.0
147
0.0
147
0.0
147
1.0
  0
MATERIAL
  5
BA
102
{ACAD_XDICTIONARY
360
BB
102
}
102
{ACAD_REACTORS
330
72
102
}
330
72
100
AcDbMaterial
  1
Global
 72
     0
 43
0.0208333333333333
 43
0.0
 43
0.0
 43
0.0
 43
0.0
 43
0.0208333333333333
 43
0.0
 43
0.0
 43
0.0
 43
0.0
 43
1.0
 43
0.0
 43
0.0
 43
0.0
 43
0.0
 43
1.0
 77
     0
 47
0.0208333333333333
 47
0.0
 47
0.0
 47
0.0
 47
0.0
 47
0.0208333333333333
 47
0.0
 47
0.0
 47
0.0
 47
0.0
 47
1.0
 47
0.0
 47
0.0
 47
0.0
 47
0.0
 47
1.0
171
     0
 49
0.0208333333333333
 49
0.0
 49
0.0
 49
0.0
 49
0.0
 49
0.0208333333333333
 49
0.0
 49
0.0
 49
0.0
 49
0.0
 49
1.0
 49
0.0
 49
0.0
 49
0.0
 49
0.0
 49
1.0
175
     0
142
0.0208333333333333
142
0.0
142
0.0
142
0.0
142
0.0
142
0.0208333333333333
142
0.0
142
0.0
142
0.0
142
0.0
142
1.0
142
0.0
142
0.0
142
0.0
142
0.0
142
1.0
179
     0
144
0.0208333333333333
144
0.0
144
0.0
144
0.0
144
0.0
144
0.0208333333333333
144
0.0
144
0.0
144
0.0
144
0.0
144
1.0
144
0.0
144
0.0
144
0.0
144
0.0
144
1.0
147
0.0208333333333333
147
0.0
147
0.0
147
0.0
147
0.0
147
0.0208333333333333
147
0.0
147
0.0
147
0.0
147
0.0
147
1.0
147
0.0
147
0.0
147
0.0
147
0.0
147
1.0
  0
MLEADERSTYLE
  5
189
102
{ACAD_XDICTIONARY
360
1253
102
}
102
{ACAD_REACTORS
330
188
102
}
330
188
100
AcDbMLeaderStyle
170
     2
171
     1
172
     0
 90
        2
 40
0.0
 41
0.0
173
     1
 91
-1056964608
340
14
 92
       -2
290
     1
 42
0.09
291
     1
 43
0.36
  3
Standard
 44
0.18
300

342
11
174
     1
178
     6
175
     1
176
     0
 93
-1056964608
 45
0.18
292
     0
297
     0
 46
0.18
 94
-1056964608
 47
1.0
 49
1.0
140
1.0
293
     1
141
0.0
294
     1
177
     0
142
1.0
295
     0
296
     0
143
0.125
1001
ACAD_MLEADERVER
1070
     2
  0
MLINESTYLE
  5
18
102
{ACAD_REACTORS
330
17
102
}
330
17
100
AcDbMlineStyle
  2
STANDARD
 70
     0
  3

 62
   256
 51
90.0
 52
90.0
 71
     2
 49
0.5
 62
   256
  6
BYLAYER
 49
-0.5
 62
   256
  6
BYLAYER
  0
ACDBPLACEHOLDER
  5
F
102
{ACAD_REACTORS
330
E
102
}
330
E
  0
SCALE
  5
177
102
{ACAD_REACTORS
330
176
102
}
330
176
100
AcDbScale
 70
     0
300
1:1
140
1.0
141
1.0
290
     1
  0
SCALE
  5
1187
102
{ACAD_REACTORS
330
176
102
}
330
176
100
AcDbScale
 70
     0
300
1/128" = 1'-0"
140
0.0078125
141
12.0
290
     0
  0
SCALE
  5
1188
102
{ACAD_REACTORS
330
176
102
}
330
176
100
AcDbScale
 70
     0
300
1/64" = 1'-0"
140
0.015625
141
12.0
290
     0
  0
SCALE
  5
1189
102
{ACAD_REACTORS
330
176
102
}
330
176
100
AcDbScale
 70
     0
300
1/32" = 1'-0"
140
0.03125
141
12.0
290
     0
  0
SCALE
  5
118A
102
{ACAD_REACTORS
330
176
102
}
330
176
100
AcDbScale
 70
     0
300
1/16" = 1'-0"
140
0.0625
141
12.0
290
     0
  0
SCALE
  5
118B
102
{ACAD_REACTORS
330
176
102
}
330
176
100
AcDbScale
 70
     0
300
3/32" = 1'-0"
140
0.09375
141
12.0
290
     0
  0
SCALE
  5
118C
102
{ACAD_REACTORS
330
176
102
}
330
176
100
AcDbScale
 70
     0
300
1/8" = 1'-0"
140
0.125
141
12.0
290
     0
  0
SCALE
  5
118D
102
{ACAD_REACTORS
330
176
102
}
330
176
100
AcDbScale
 70
     0
300
3/16" = 1'-0"
140
0.1875
141
12.0
290
     0
  0
SCALE
  5
118E
102
{ACAD_REACTORS
330
176
102
}
330
176
100
AcDbScale
 70
     0
300
1/4" = 1'-0"
140
0.25
141
12.0
290
     0
  0
SCALE
  5
118F
102
{ACAD_REACTORS
330
176
102
}
330
176
100
AcDbScale
 70
     0
300
3/8" = 1'-0"
140
0.375
141
12.0
290
     0
  0
SCALE
  5
1190
102
{ACAD_REACTORS
330
176
102
}
330
176
100
AcDbScale
 70
     0
300
1/2" = 1'-0"
140
0.5
141
12.0
290
     0
  0
SCALE
  5
1191
102
{ACAD_REACTORS
330
176
102
}
330
176
100
AcDbScale
 70
     0
300
3/4" = 1'-0"
140
0.75
141
12.0
290
     0
  0
SCALE
  5
1192
102
{ACAD_REACTORS
330
176
102
}
330
176
100
AcDbScale
 70
     0
300
1" = 1'-0"
140
1.0
141
12.0
290
     0
  0
SCALE
  5
1193
102
{ACAD_REACTORS
330
176
102
}
330
176
100
AcDbScale
 70
     0
300
1-1/2" = 1'-0"
140
1.5
141
12.0
290
     0
  0
SCALE
  5
1194
102
{ACAD_REACTORS
330
176
102
}
330
176
100
AcDbScale
 70
     0
300
3" = 1'-0"
140
3.0
141
12.0
290
     0
  0
SCALE
  5
1195
102
{ACAD_REACTORS
330
176
102
}
330
176
100
AcDbScale
 70
     0
300
6" = 1'-0"
140
6.0
141
12.0
290
     0
  0
SCALE
  5
1196
102
{ACAD_REACTORS
330
176
102
}
330
176
100
AcDbScale
 70
     0
300
1'-0" = 1'-0"
140
12.0
141
12.0
290
     0
  0
TABLESTYLE
  5
87
102
{ACAD_XDICTIONARY
360
2FD
102
}
102
{ACAD_REACTORS
330
86
102
}
330
86
100
AcDbTableStyle
  3
Standard
 70
     0
 71
     0
 40
0.06
 41
0.06
280
     0
281
     0
  7
Standard
140
0.18
170
     2
 62
     0
 63
     7
283
     0
274
    -2
284
     1
 64
     0
275
    -2
285
     1
 65
     0
276
    -2
286
     1
 66
     0
277
    -2
287
     1
 67
     0
278
    -2
288
     1
 68
     0
279
    -2
289
     1
 69
     0
  7
Standard
140
0.25
170
     5
 62
     0
 63
     7
283
     0
274
    -2
284
     1
 64
     0
275
    -2
285
     1
 65
     0
276
    -2
286
     1
 66
     0
277
    -2
287
     1
 67
     0
278
    -2
288
     1
 68
     0
279
    -2
289
     1
 69
     0
  7
Standard
140
0.18
170
     5
 62
     0
 63
     7
283
     0
274
    -2
284
     1
 64
     0
275
    -2
285
     1
 65
     0
276
    -2
286
     1
 66
     0
277
    -2
287
     1
 67
     0
278
    -2
288
     1
 68
     0
279
    -2
289
     1
 69
     0
  0
VISUALSTYLE
  5
163
102
{ACAD_XDICTIONARY
360
126D
102
}
102
{ACAD_REACTORS
330
15D
102
}
330
15D
100
AcDbVisualStyle
  2
2dWireframe
 70
     4
 71
     0
 72
     2
 73
     0
 90
        0
 40
-0.6
 41
-30.0
 62
     5
 63
     7
 74
     1
 91
        4
 64
     7
 65
   257
 75
     1
175
     1
 42
1.0
 92
        0
 66
   257
 43
1.0
 76
     1
 77
     6
 78
     2
 67
     7
 79
     5
170
     0
171
     0
290
     0
174
     0
 93
        1
 44
0.0
173
     0
291
     0
 45
0.0
1001
ACAD
1000
AcDbSavedByObjectVersion
1070
     0
  0
VISUALSTYLE
  5
11A1
102
{ACAD_XDICTIONARY
360
1293
102
}
102
{ACAD_REACTORS
330
15D
102
}
330
15D
100
AcDbVisualStyle
  2
3D Hidden
 70
     6
 71
     1
 72
     2
 73
     2
 90
        0
 40
-0.6
 41
-30.0
 62
     5
 63
     7
 74
     2
 91
        2
 64
     7
 65
   257
 75
     2
175
     1
 42
40.0
 92
        0
 66
   257
 43
1.0
 76
     1
 77
     6
 78
     2
 67
     7
 79
     3
170
     0
171
     0
290
     0
174
     0
 93
        1
 44
0.0
173
     0
291
     0
 45
0.0
1001
ACAD
1000
AcDbSavedByObjectVersion
1070
     0
  0
VISUALSTYLE
  5
11A2
102
{ACAD_XDICTIONARY
360
1295
102
}
102
{ACAD_REACTORS
330
15D
102
}
330
15D
100
AcDbVisualStyle
  2
3dWireframe
 70
     5
 71
     0
 72
     2
 73
     0
 90
        0
 40
-0.6
 41
-30.0
 62
     5
 63
     7
 74
     1
 91
        4
 64
     7
 65
   257
 75
     1
175
     1
 42
1.0
 92
        0
 66
   257
 43
1.0
 76
     1
 77
     6
 78
     2
 67
     7
 79
     5
170
     0
171
     0
290
     0
174
     0
 93
        1
 44
0.0
173
     0
291
     0
 45
0.0
1001
ACAD
1000
AcDbSavedByObjectVersion
1070
     0
  0
VISUALSTYLE
  5
162
102
{ACAD_XDICTIONARY
360
126B
102
}
102
{ACAD_REACTORS
330
15D
102
}
330
15D
100
AcDbVisualStyle
  2
Basic
 70
     7
 71
     1
 72
     0
 73
     1
 90
        0
 40
-0.6
 41
-30.0
 62
     5
 63
     7
 74
     0
 91
        4
 64
     7
 65
   257
 75
     1
175
     1
 42
1.0
 92
        8
 66
     7
 43
1.0
 76
     1
 77
     6
 78
     2
 67
     7
 79
     5
170
     0
171
     0
290
     0
174
     0
 93
        1
 44
0.0
173
     0
291
     1
 45
0.0
1001
ACAD
1000
AcDbSavedByObjectVersion
1070
     0
  0
VISUALSTYLE
  5
169
102
{ACAD_XDICTIONARY
360
1279
102
}
102
{ACAD_REACTORS
330
15D
102
}
330
15D
100
AcDbVisualStyle
  2
Brighten
 70
    12
 71
     2
 72
     2
 73
     0
 90
        0
 40
-0.6
 41
-30.0
 62
     5
 63
     7
 74
     1
 91
        4
 64
     7
 65
   257
 75
     1
175
     1
 42
1.0
 92
        8
 66
     7
 43
1.0
 76
     1
 77
     6
 78
     2
 67
     7
 79
     5
170
     0
171
     0
290
     0
174
     0
 93
        1
 44
50.0
173
     0
291
     1
 45
0.0
1001
ACAD
1000
AcDbSavedByObjectVersion
1070
     0
  0
VISUALSTYLE
  5
16D
102
{ACAD_XDICTIONARY
360
1281
102
}
102
{ACAD_REACTORS
330
15D
102
}
330
15D
100
AcDbVisualStyle
  2
ColorChange
 70
    16
 71
     2
 72
     2
 73
     3
 90
        0
 40
-0.6
 41
-30.0
 62
     5
 63
     8
 74
     1
 91
        4
 64
     7
 65
   257
 75
     1
175
     1
 42
1.0
 92
        8
 66
     8
 43
1.0
 76
     1
 77
     6
 78
     2
 67
     7
 79
     5
170
     0
171
     0
290
     0
174
     0
 93
        1
 44
0.0
173
     0
291
     1
 45
0.0
1001
ACAD
1000
AcDbSavedByObjectVersion
1070
     0
  0
VISUALSTYLE
  5
166
102
{ACAD_XDICTIONARY
360
1273
102
}
102
{ACAD_REACTORS
330
15D
102
}
330
15D
100
AcDbVisualStyle
  2
Conceptual
 70
     9
 71
     3
 72
     2
 73
     0
 90
        0
 40
-0.6
 41
-30.0
 62
     5
 63
     7
 74
     2
 91
        2
 64
     7
 65
   257
 75
     1
175
     1
 42
179.0
 92
        8
 66
     7
 43
1.0
 76
     1
 77
     6
 78
     2
 67
     7
 79
     3
170
     0
171
     0
290
     0
174
     0
 93
        1
 44
0.0
173
     0
291
     0
 45
0.0
1001
ACAD
1000
AcDbSavedByObjectVersion
1070
     0
  0
VISUALSTYLE
  5
168
102
{ACAD_XDICTIONARY
360
1277
102
}
102
{ACAD_REACTORS
330
15D
102
}
330
15D
100
AcDbVisualStyle
  2
Dim
 70
    11
 71
     2
 72
     2
 73
     0
 90
        0
 40
-0.6
 41
-30.0
 62
     5
 63
     7
 74
     1
 91
        4
 64
     7
 65
   257
 75
     1
175
     1
 42
1.0
 92
        8
 66
     7
 43
1.0
 76
     1
 77
     6
 78
     2
 67
     7
 79
     5
170
     0
171
     0
290
     0
174
     0
 93
        1
 44
-50.0
173
     0
291
     1
 45
0.0
1001
ACAD
1000
AcDbSavedByObjectVersion
1070
     0
  0
VISUALSTYLE
  5
175
102
{ACAD_XDICTIONARY
360
1291
102
}
102
{ACAD_REACTORS
330
15D
102
}
330
15D
100
AcDbVisualStyle
  2
EdgeColorOff
 70
    22
 71
     2
 72
     2
 73
     0
 90
        0
 40
-0.6
 41
-30.0
 62
     5
 63
     7
 74
     1
 91
        4
 64
     7
 65
   257
 75
     1
175
     1
 42
1.0
 92
        8
 66
     7
 43
1.0
 76
     1
 77
     6
 78
     2
 67
     7
 79
     5
170
     0
171
     0
290
     0
174
     0
 93
        1
 44
0.0
173
     0
291
     1
 45
0.0
1001
ACAD
1000
AcDbSavedByObjectVersion
1070
     0
  0
VISUALSTYLE
  5
16C
102
{ACAD_XDICTIONARY
360
127F
102
}
102
{ACAD_REACTORS
330
15D
102
}
330
15D
100
AcDbVisualStyle
  2
Facepattern
 70
    15
 71
     2
 72
     2
 73
     0
 90
        0
 40
-0.6
 41
-30.0
 62
     5
 63
     7
 74
     1
 91
        4
 64
     7
 65
   257
 75
     1
175
     1
 42
1.0
 92
        8
 66
     7
 43
1.0
 76
     1
 77
     6
 78
     2
 67
     7
 79
     5
170
     0
171
     0
290
     0
174
     0
 93
        1
 44
0.0
173
     0
291
     1
 45
0.0
1001
ACAD
1000
AcDbSavedByObjectVersion
1070
     0
  0
VISUALSTYLE
  5
15E
102
{ACAD_XDICTIONARY
360
1263
102
}
102
{ACAD_REACTORS
330
15D
102
}
330
15D
100
AcDbVisualStyle
  2
Flat
 70
     0
 71
     2
 72
     1
 73
     1
 90
        2
 40
-0.6
 41
30.0
 62
     5
 63
     7
 74
     0
 91
        0
 64
     7
 65
   257
 75
     1
175
     1
 42
1.0
 92
        8
 66
     7
 43
1.0
 76
     1
 77
     6
 78
     2
 67
     7
 79
     5
170
     0
171
     0
290
     0
174
     0
 93
       13
 44
0.0
173
     0
291
     1
 45
0.0
1001
ACAD
1000
AcDbSavedByObjectVersion
1070
     0
  0
VISUALSTYLE
  5
15F
102
{ACAD_XDICTIONARY
360
1265
102
}
102
{ACAD_REACTORS
330
15D
102
}
330
15D
100
AcDbVisualStyle
  2
FlatWithEdges
 70
     1
 71
     2
 72
     1
 73
     1
 90
        2
 40
-0.6
 41
30.0
 62
     5
 63
     7
 74
     1
 91
        0
 64
     7
 65
   257
 75
     1
175
     1
 42
1.0
 92
        0
 66
   257
 43
1.0
 76
     1
 77
     6
 78
     2
 67
     7
 79
     5
170
     0
171
     0
290
     0
174
     0
 93
       13
 44
0.0
173
     0
291
     1
 45
0.0
1001
ACAD
1000
AcDbSavedByObjectVersion
1070
     0
  0
VISUALSTYLE
  5
160
102
{ACAD_XDICTIONARY
360
1267
102
}
102
{ACAD_REACTORS
330
15D
102
}
330
15D
100
AcDbVisualStyle
  2
Gouraud
 70
     2
 71
     2
 72
     2
 73
     1
 90
        2
 40
-0.6
 41
30.0
 62
     5
 63
     7
 74
     0
 91
        0
 64
     7
 65
   257
 75
     1
175
     1
 42
1.0
 92
        0
 66
     7
 43
1.0
 76
     1
 77
     6
 78
     2
 67
     7
 79
     5
170
     0
171
     0
290
     0
174
     0
 93
       13
 44
0.0
173
     0
291
     1
 45
0.0
1001
ACAD
1000
AcDbSavedByObjectVersion
1070
     0
  0
VISUALSTYLE
  5
161
102
{ACAD_XDICTIONARY
360
1269
102
}
102
{ACAD_REACTORS
330
15D
102
}
330
15D
100
AcDbVisualStyle
  2
GouraudWithEdges
 70
     3
 71
     2
 72
     2
 73
     1
 90
        2
 40
-0.6
 41
30.0
 62
     5
 63
     7
 74
     1
 91
        0
 64
     7
 65
   257
 75
     1
175
     1
 42
1.0
 92
        0
 66
   257
 43
1.0
 76
     1
 77
     6
 78
     2
 67
     7
 79
     5
170
     0
171
     0
290
     0
174
     0
 93
       13
 44
0.0
173
     0
291
     1
 45
0.0
1001
ACAD
1000
AcDbSavedByObjectVersion
1070
     0
  0
VISUALSTYLE
  5
165
102
{ACAD_XDICTIONARY
360
1271
102
}
102
{ACAD_REACTORS
330
15D
102
}
330
15D
100
AcDbVisualStyle
  2
Hidden
 70
     6
 71
     1
 72
     2
 73
     2
 90
        0
 40
-0.6
 41
-30.0
 62
     5
 63
     7
 74
     2
 91
        2
 64
     7
 65
   257
 75
     2
175
     1
 42
40.0
 92
        0
 66
   257
 43
1.0
 76
     1
 77
     6
 78
     2
 67
     7
 79
     3
170
     0
171
     0
290
     0
174
     0
 93
        1
 44
0.0
173
     0
291
     0
 45
0.0
1001
ACAD
1000
AcDbSavedByObjectVersion
1070
     0
  0
VISUALSTYLE
  5
173
102
{ACAD_XDICTIONARY
360
128D
102
}
102
{ACAD_REACTORS
330
15D
102
}
330
15D
100
AcDbVisualStyle
  2
JitterOff
 70
    20
 71
     2
 72
     2
 73
     0
 90
        0
 40
-0.6
 41
-30.0
 62
     5
 63
     7
 74
     1
 91
        4
 64
     7
 65
   257
 75
     1
175
     1
 42
1.0
 92
       10
 66
     7
 43
1.0
 76
     1
 77
     6
 78
     2
 67
     7
 79
     5
170
     0
171
     0
290
     0
174
     0
 93
        1
 44
0.0
173
     0
291
     1
 45
0.0
1001
ACAD
1000
AcDbSavedByObjectVersion
1070
     0
  0
VISUALSTYLE
  5
16B
102
{ACAD_XDICTIONARY
360
127D
102
}
102
{ACAD_REACTORS
330
15D
102
}
330
15D
100
AcDbVisualStyle
  2
Linepattern
 70
    14
 71
     2
 72
     2
 73
     0
 90
        0
 40
-0.6
 41
-30.0
 62
     5
 63
     7
 74
     1
 91
        4
 64
     7
 65
   257
 75
     7
175
     7
 42
1.0
 92
        8
 66
     7
 43
1.0
 76
     1
 77
     6
 78
     2
 67
     7
 79
     5
170
     0
171
     0
290
     0
174
     0
 93
        1
 44
0.0
173
     0
291
     1
 45
0.0
1001
ACAD
1000
AcDbSavedByObjectVersion
1070
     0
  0
VISUALSTYLE
  5
174
102
{ACAD_XDICTIONARY
360
128F
102
}
102
{ACAD_REACTORS
330
15D
102
}
330
15D
100
AcDbVisualStyle
  2
OverhangOff
 70
    21
 71
     2
 72
     2
 73
     0
 90
        0
 40
-0.6
 41
-30.0
 62
     5
 63
     7
 74
     1
 91
        4
 64
     7
 65
   257
 75
     1
175
     1
 42
1.0
 92
        9
 66
     7
 43
1.0
 76
     1
 77
     6
 78
     2
 67
     7
 79
     5
170
     0
171
     0
290
     0
174
     0
 93
        1
 44
0.0
173
     0
291
     1
 45
0.0
1001
ACAD
1000
AcDbSavedByObjectVersion
1070
     0
  0
VISUALSTYLE
  5
167
102
{ACAD_XDICTIONARY
360
1275
102
}
102
{ACAD_REACTORS
330
15D
102
}
330
15D
100
AcDbVisualStyle
  2
Realistic
 70
     8
 71
     2
 72
     2
 73
     0
 90
        2
 40
-0.6
 41
30.0
 62
     5
 63
     7
 74
     0
 91
        0
 64
     7
 65
   257
 75
     1
175
     1
 42
1.0
 92
        8
 66
   257
 43
1.0
 76
     1
 77
     6
 78
     2
 67
     7
 79
     3
170
     0
171
     0
290
     0
174
     0
 93
       13
 44
0.0
173
     0
291
     0
 45
0.0
1001
ACAD
1000
AcDbSavedByObjectVersion
1070
     0
  0
VISUALSTYLE
  5
172
102
{ACAD_XDICTIONARY
360
128B
102
}
102
{ACAD_REACTORS
330
15D
102
}
330
15D
100
AcDbVisualStyle
  2
Shaded
 70
    27
 71
     2
 72
     2
 73
     1
 90
        2
 40
-0.6
 41
30.0
 62
     5
 63
     7
 74
     0
 91
        4
 64
     7
 65
   257
 75
     1
175
     1
 42
1.0
 92
        8
 66
   257
 43
1.0
 76
     1
 77
     6
 78
     2
 67
     8
 79
     3
170
     0
171
     0
290
     0
174
     0
 93
        5
 44
0.0
173
     0
291
     0
 45
0.0
1001
ACAD
1000
AcDbSavedByObjectVersion
1070
     0
  0
VISUALSTYLE
  5
171
102
{ACAD_XDICTIONARY
360
1289
102
}
102
{ACAD_REACTORS
330
15D
102
}
330
15D
100
AcDbVisualStyle
  2
Shaded with edges
 70
    26
 71
     2
 72
     2
 73
     1
 90
        2
 40
-0.6
 41
30.0
 62
     5
 63
     7
 74
     1
 91
       10
 64
     7
 65
   257
 75
     2
175
     1
 42
1.0
 92
        8
 66
   257
 43
1.0
 76
     1
 77
     6
 78
     2
 67
     7
 79
     3
170
     0
171
     0
290
     0
174
     0
 93
        5
 44
0.0
173
     0
291
     0
 45
0.0
1001
ACAD
1000
AcDbSavedByObjectVersion
1070
     0
  0
VISUALSTYLE
  5
16E
102
{ACAD_XDICTIONARY
360
1283
102
}
102
{ACAD_REACTORS
330
15D
102
}
330
15D
100
AcDbVisualStyle
  2
Shades of Gray
 70
    23
 71
     2
 72
     2
 73
     3
 90
        0
 40
-0.6
 41
-30.0
 62
     5
 63
     7
 74
     2
 91
        2
 64
     7
 65
     7
 75
     1
175
     1
 42
40.0
 92
        8
 66
     7
 43
1.0
 76
     1
 77
     6
 78
     2
 67
     7
 79
     3
170
     0
171
     0
290
     0
174
     0
 93
        1
 44
0.0
173
     0
291
     0
 45
0.0
1001
ACAD
1000
AcDbSavedByObjectVersion
1070
     0
  0
VISUALSTYLE
  5
16F
102
{ACAD_XDICTIONARY
360
1285
102
}
102
{ACAD_REACTORS
330
15D
102
}
330
15D
100
AcDbVisualStyle
  2
Sketchy
 70
    24
 71
     1
 72
     2
 73
     2
 90
        0
 40
-0.6
 41
-30.0
 62
     5
 63
     7
 74
     2
 91
        2
 64
     7
 65
     7
 75
     1
175
     1
 42
40.0
 92
       11
 66
     7
 43
1.0
 76
     1
 77
     6
 78
     2
 67
     7
 79
     6
170
     0
171
     0
290
     0
174
     0
 93
        1
 44
0.0
173
     0
291
     0
 45
0.0
1001
ACAD
1000
AcDbSavedByObjectVersion
1070
     0
  0
VISUALSTYLE
  5
16A
102
{ACAD_XDICTIONARY
360
127B
102
}
102
{ACAD_REACTORS
330
15D
102
}
330
15D
100
AcDbVisualStyle
  2
Thicken
 70
    13
 71
     2
 72
     2
 73
     0
 90
        0
 40
-0.6
 41
-30.0
 62
     5
 63
     7
 74
     1
 91
        4
 64
     7
 65
   257
 75
     1
175
     1
 42
1.0
 92
       12
 66
     7
 43
1.0
 76
     1
 77
     6
 78
     2
 67
     7
 79
     5
170
     0
171
     0
290
     0
174
     0
 93
        1
 44
0.0
173
     0
291
     1
 45
0.0
1001
ACAD
1000
AcDbSavedByObjectVersion
1070
     0
  0
VISUALSTYLE
  5
164
102
{ACAD_XDICTIONARY
360
126F
102
}
102
{ACAD_REACTORS
330
15D
102
}
330
15D
100
AcDbVisualStyle
  2
Wireframe
 70
     5
 71
     0
 72
     2
 73
     0
 90
        0
 40
-0.6
 41
-30.0
 62
     5
 63
     7
 74
     1
 91
        4
 64
     7
 65
   257
 75
     1
175
     1
 42
1.0
 92
        0
 66
   257
 43
1.0
 76
     1
 77
     6
 78
     2
 67
     7
 79
     3
170
     0
171
     0
290
     0
174
     0
 93
        1
 44
0.0
173
     0
291
     0
 45
0.0
1001
ACAD
1000
AcDbSavedByObjectVersion
1070
     0
  0
VISUALSTYLE
  5
170
102
{ACAD_XDICTIONARY
360
1287
102
}
102
{ACAD_REACTORS
330
15D
102
}
330
15D
100
AcDbVisualStyle
  2
X-Ray
 70
    25
 71
     2
 72
     2
 73
     1
 90
        1
 40
0.5
 41
-30.0
 62
     5
 63
     7
 74
     1
 91
        0
 64
     7
 65
   257
 75
     1
175
     1
 42
1.0
 92
        8
 66
     7
 43
1.0
 76
     1
 77
     6
 78
     2
 67
     7
 79
     3
170
     0
171
     0
290
     0
174
     0
 93
       13
 44
0.0
173
     0
291
     0
 45
0.0
1001
ACAD
1000
AcDbSavedByObjectVersion
1070
     0
  0
DICTIONARYVAR
  5
341
102
{ACAD_REACTORS
330
66
102
}
330
66
100
DictionaryVariables
280
     0
  1
1:1
  0
DICTIONARYVAR
  5
340
102
{ACAD_REACTORS
330
66
102
}
330
66
100
DictionaryVariables
280
     0
  1
STANDARD
  0
DICTIONARYVAR
  5
13E
102
{ACAD_REACTORS
330
66
102
}
330
66
100
DictionaryVariables
280
     0
  1
STANDARD
  0
DICTIONARYVAR
  5
67
102
{ACAD_REACTORS
330
66
102
}
330
66
100
DictionaryVariables
280
     0
  1
2
  0
DICTIONARYVAR
  5
6B
102
{ACAD_REACTORS
330
66
102
}
330
66
100
DictionaryVariables
280
     0
  1
1
  0
DICTIONARYVAR
  5
343
102
{ACAD_REACTORS
330
66
102
}
330
66
100
DictionaryVariables
280
     0
  1
0
  0
DICTIONARYVAR
  5
AB2
102
{ACAD_REACTORS
330
66
102
}
330
66
100
DictionaryVariables
280
     0
  1
1
  0
DICTIONARYVAR
  5
AB3
102
{ACAD_REACTORS
330
66
102
}
330
66
100
DictionaryVariables
280
     0
  1
15
  0
DICTIONARYVAR
  5
AB1
102
{ACAD_REACTORS
330
66
102
}
330
66
100
DictionaryVariables
280
     0
  1
0
  0
DICTIONARYVAR
  5
AB0
102
{ACAD_REACTORS
330
66
102
}
330
66
100
DictionaryVariables
280
     0
  1
0
  0
DICTIONARYVAR
  5
14B
102
{ACAD_REACTORS
330
66
102
}
330
66
100
DictionaryVariables
280
     0
  1

  0
DICTIONARYVAR
  5
342
102
{ACAD_REACTORS
330
66
102
}
330
66
100
DictionaryVariables
280
     0
  1
127
  0
DICTIONARYVAR
  5
1251
102
{ACAD_REACTORS
330
66
102
}
330
66
100
DictionaryVariables
280
     0
  1
2
  0
DICTIONARY
  5
125B
330
59
100
AcDbDictionary
280
     1
281
     1
  3
ACAD_XREC_ROUNDTRIP
360
125C
  0
DICTIONARY
  5
125D
330
5E
100
AcDbDictionary
280
     1
281
     1
  3
ACAD_XREC_ROUNDTRIP
360
125E
  0
DICTIONARY
  5
1259
330
22
100
AcDbDictionary
280
     1
281
     1
  3
ACAD_XREC_ROUNDTRIP
360
125A
  0
DICTIONARY
  5
156
330
155
100
AcDbDictionary
280
     1
281
     1
  3
ACAD_XREC_ROUNDTRIP
360
1262
  3
BUMPTILE
360
158
  3
DIFFUSETILE
360
157
  3
OPACITYTILE
360
15B
  3
REFLECTIONTILE
360
15A
  3
REFRACTIONTILE
360
15C
  3
SPECULARTILE
360
159
  0
DICTIONARY
  5
14E
330
14D
100
AcDbDictionary
280
     1
281
     1
  3
ACAD_XREC_ROUNDTRIP
360
1261
  3
BUMPTILE
360
150
  3
DIFFUSETILE
360
14F
  3
OPACITYTILE
360
153
  3
REFLECTIONTILE
360
152
  3
REFRACTIONTILE
360
154
  3
SPECULARTILE
360
151
  0
DICTIONARY
  5
BB
330
BA
100
AcDbDictionary
280
     1
281
     1
  3
ACAD_XREC_ROUNDTRIP
360
1260
  3
BUMPTILE
360
BD
  3
DIFFUSETILE
360
BE
  3
OPACITYTILE
360
BF
  3
REFLECTIONTILE
360
C0
  3
REFRACTIONTILE
360
C1
  3
SPECULARTILE
360
C2
  0
DICTIONARY
  5
1253
330
189
100
AcDbDictionary
280
     1
281
     1
  3
ACAD_XREC_ROUNDTRIP
360
1254
  0
DICTIONARY
  5
2FD
330
87
100
AcDbDictionary
280
     1
281
     1
  3
ACAD_ROUNDTRIP_2008_TABLESTYLE_CELLSTYLEMAP
360
1252
  3
ACAD_XREC_ROUNDTRIP
360
125F
  0
DICTIONARY
  5
126D
330
163
100
AcDbDictionary
280
     1
281
     1
  3
ACAD_XREC_ROUNDTRIP
360
126E
  0
DICTIONARY
  5
1293
330
11A1
100
AcDbDictionary
280
     1
281
     1
  3
ACAD_XREC_ROUNDTRIP
360
1294
  0
DICTIONARY
  5
1295
330
11A2
100
AcDbDictionary
280
     1
281
     1
  3
ACAD_XREC_ROUNDTRIP
360
1296
  0
DICTIONARY
  5
126B
330
162
100
AcDbDictionary
280
     1
281
     1
  3
ACAD_XREC_ROUNDTRIP
360
126C
  0
DICTIONARY
  5
1279
330
169
100
AcDbDictionary
280
     1
281
     1
  3
ACAD_XREC_ROUNDTRIP
360
127A
  0
DICTIONARY
  5
1281
330
16D
100
AcDbDictionary
280
     1
281
     1
  3
ACAD_XREC_ROUNDTRIP
360
1282
  0
DICTIONARY
  5
1273
330
166
100
AcDbDictionary
280
     1
281
     1
  3
ACAD_XREC_ROUNDTRIP
360
1274
  0
DICTIONARY
  5
1277
330
168
100
AcDbDictionary
280
     1
281
     1
  3
ACAD_XREC_ROUNDTRIP
360
1278
  0
DICTIONARY
  5
1291
330
175
100
AcDbDictionary
280
     1
281
     1
  3
ACAD_XREC_ROUNDTRIP
360
1292
  0
DICTIONARY
  5
127F
330
16C
100
AcDbDictionary
280
     1
281
     1
  3
ACAD_XREC_ROUNDTRIP
360
1280
  0
DICTIONARY
  5
1263
330
15E
100
AcDbDictionary
280
     1
281
     1
  3
ACAD_XREC_ROUNDTRIP
360
1264
  0
DICTIONARY
  5
1265
330
15F
100
AcDbDictionary
280
     1
281
     1
  3
ACAD_XREC_ROUNDTRIP
360
1266
  0
DICTIONARY
  5
1267
330
160
100
AcDbDictionary
280
     1
281
     1
  3
ACAD_XREC_ROUNDTRIP
360
1268
  0
DICTIONARY
  5
1269
330
161
100
AcDbDictionary
280
     1
281
     1
  3
ACAD_XREC_ROUNDTRIP
360
126A
  0
DICTIONARY
  5
1271
330
165
100
AcDbDictionary
280
     1
281
     1
  3
ACAD_XREC_ROUNDTRIP
360
1272
  0
DICTIONARY
  5
128D
330
173
100
AcDbDictionary
280
     1
281
     1
  3
ACAD_XREC_ROUNDTRIP
360
128E
  0
DICTIONARY
  5
127D
330
16B
100
AcDbDictionary
280
     1
281
     1
  3
ACAD_XREC_ROUNDTRIP
360
127E
  0
DICTIONARY
  5
128F
330
174
100
AcDbDictionary
280
     1
281
     1
  3
ACAD_XREC_ROUNDTRIP
360
1290
  0
DICTIONARY
  5
1275
330
167
100
AcDbDictionary
280
     1
281
     1
  3
ACAD_XREC_ROUNDTRIP
360
1276
  0
DICTIONARY
  5
128B
330
172
100
AcDbDictionary
280
     1
281
     1
  3
ACAD_XREC_ROUNDTRIP
360
128C
  0
DICTIONARY
  5
1289
330
171
100
AcDbDictionary
280
     1
281
     1
  3
ACAD_XREC_ROUNDTRIP
360
128A
  0
DICTIONARY
  5
1283
330
16E
100
AcDbDictionary
280
     1
281
     1
  3
ACAD_XREC_ROUNDTRIP
360
1284
  0
DICTIONARY
  5
1285
330
16F
100
AcDbDictionary
280
     1
281
     1
  3
ACAD_XREC_ROUNDTRIP
360
1286
  0
DICTIONARY
  5
127B
330
16A
100
AcDbDictionary
280
     1
281
     1
  3
ACAD_XREC_ROUNDTRIP
360
127C
  0
DICTIONARY
  5
126F
330
164
100
AcDbDictionary
280
     1
281
     1
  3
ACAD_XREC_ROUNDTRIP
360
1270
  0
DICTIONARY
  5
1287
330
170
100
AcDbDictionary
280
     1
281
     1
  3
ACAD_XREC_ROUNDTRIP
360
1288
  0
XRECORD
  5
125C
102
{ACAD_REACTORS
330
125B
102
}
330
125B
100
AcDbXrecord
280
     1
102
SHADEPLOT
 70
     0
102
SHADEPLOTRESLEVEL
 70
     2
102
SHADEPLOTCUSTOMDPI
 70
   300
  0
XRECORD
  5
125E
102
{ACAD_REACTORS
330
125D
102
}
330
125D
100
AcDbXrecord
280
     1
102
SHADEPLOT
 70
     0
102
SHADEPLOTRESLEVEL
 70
     2
102
SHADEPLOTCUSTOMDPI
 70
   300
  0
XRECORD
  5
125A
102
{ACAD_REACTORS
330
1259
102
}
330
1259
100
AcDbXrecord
280
     1
102
SHADEPLOT
 70
     0
102
SHADEPLOTRESLEVEL
 70
     2
102
SHADEPLOTCUSTOMDPI
 70
   300
  0
XRECORD
  5
1262
102
{ACAD_REACTORS
330
156
102
}
330
156
100
AcDbXrecord
280
     1
102
MATERIAL
148
0.0
149
0.0
149
0.0
 93
        0
 94
      127
282
     0
 72
     0
 77
     0
171
     0
175
     0
179
     0
273
     0
  0
XRECORD
  5
158
102
{ACAD_REACTORS
330
156
102
}
330
156
100
AcDbXrecord
280
     1
270
     1
271
     1
  0
XRECORD
  5
157
102
{ACAD_REACTORS
330
156
102
}
330
156
100
AcDbXrecord
280
     1
270
     1
271
     1
  0
XRECORD
  5
15B
102
{ACAD_REACTORS
330
156
102
}
330
156
100
AcDbXrecord
280
     1
270
     1
271
     1
  0
XRECORD
  5
15A
102
{ACAD_REACTORS
330
156
102
}
330
156
100
AcDbXrecord
280
     1
270
     1
271
     1
  0
XRECORD
  5
15C
102
{ACAD_REACTORS
330
156
102
}
330
156
100
AcDbXrecord
280
     1
270
     1
271
     1
  0
XRECORD
  5
159
102
{ACAD_REACTORS
330
156
102
}
330
156
100
AcDbXrecord
280
     1
270
     1
271
     1
  0
XRECORD
  5
1261
102
{ACAD_REACTORS
330
14E
102
}
330
14E
100
AcDbXrecord
280
     1
102
MATERIAL
148
0.0
149
0.0
149
0.0
 93
        0
 94
      127
282
     0
 72
     0
 77
     0
171
     0
175
     0
179
     0
273
     0
  0
XRECORD
  5
150
102
{ACAD_REACTORS
330
14E
102
}
330
14E
100
AcDbXrecord
280
     1
270
     1
271
     1
  0
XRECORD
  5
14F
102
{ACAD_REACTORS
330
14E
102
}
330
14E
100
AcDbXrecord
280
     1
270
     1
271
     1
  0
XRECORD
  5
153
102
{ACAD_REACTORS
330
14E
102
}
330
14E
100
AcDbXrecord
280
     1
270
     1
271
     1
  0
XRECORD
  5
152
102
{ACAD_REACTORS
330
14E
102
}
330
14E
100
AcDbXrecord
280
     1
270
     1
271
     1
  0
XRECORD
  5
154
102
{ACAD_REACTORS
330
14E
102
}
330
14E
100
AcDbXrecord
280
     1
270
     1
271
     1
  0
XRECORD
  5
151
102
{ACAD_REACTORS
330
14E
102
}
330
14E
100
AcDbXrecord
280
     1
270
     1
271
     1
  0
XRECORD
  5
1260
102
{ACAD_REACTORS
330
BB
102
}
330
BB
100
AcDbXrecord
280
     1
102
MATERIAL
148
0.0
149
0.0
149
0.0
 93
        0
 94
      127
282
     0
 72
     0
 77
     0
171
     0
175
     0
179
     0
273
     0
  0
XRECORD
  5
BD
102
{ACAD_REACTORS
330
BB
102
}
330
BB
100
AcDbXrecord
280
     1
270
     1
271
     1
  0
XRECORD
  5
BE
102
{ACAD_REACTORS
330
BB
102
}
330
BB
100
AcDbXrecord
280
     1
270
     1
271
     1
  0
XRECORD
  5
BF
102
{ACAD_REACTORS
330
BB
102
}
330
BB
100
AcDbXrecord
280
     1
270
     1
271
     1
  0
XRECORD
  5
C0
102
{ACAD_REACTORS
330
BB
102
}
330
BB
100
AcDbXrecord
280
     1
270
     1
271
     1
  0
XRECORD
  5
C1
102
{ACAD_REACTORS
330
BB
102
}
330
BB
100
AcDbXrecord
280
     1
270
     1
271
     1
  0
XRECORD
  5
C2
102
{ACAD_REACTORS
330
BB
102
}
330
BB
100
AcDbXrecord
280
     1
270
     1
271
     1
  0
XRECORD
  5
1254
102
{ACAD_REACTORS
330
1253
102
}
330
1253
100
AcDbXrecord
280
     1
102
ACAD_ROUNDTRIP_2012_MLEADER_STYLE
298
     1
  0
CELLSTYLEMAP
  5
1252
102
{ACAD_REACTORS
330
2FD
102
}
330
2FD
100
AcDbCellStyleMap
 90
        3
300
CELLSTYLE
  1
TABLEFORMAT_BEGIN
 90
        5
170
     1
 91
        0
 92
    32768
 62
   257
 93
        1
300
CONTENTFORMAT
  1
CONTENTFORMAT_BEGIN
 90
        0
 91
        0
 92
        4
 93
        0
300

 40
0.0
140
1.0
 94
        5
 62
     0
340
11
144
0.25
309
CONTENTFORMAT_END
171
     0
 94
        6
 95
        1
302
GRIDFORMAT
  1
GRIDFORMAT_BEGIN
 90
        0
 91
        1
 62
     0
 92
       -2
340
0
 93
        0
 40
0.045
309
GRIDFORMAT_END
 95
        2
302
GRIDFORMAT
  1
GRIDFORMAT_BEGIN
 90
        0
 91
        1
 62
     0
 92
       -2
340
0
 93
        0
 40
0.045
309
GRIDFORMAT_END
 95
        4
302
GRIDFORMAT
  1
GRIDFORMAT_BEGIN
 90
        0
 91
        1
 62
     0
 92
       -2
340
0
 93
        0
 40
0.045
309
GRIDFORMAT_END
 95
        8
302
GRIDFORMAT
  1
GRIDFORMAT_BEGIN
 90
        0
 91
        1
 62
     0
 92
       -2
340
0
 93
        0
 40
0.045
309
GRIDFORMAT_END
 95
       16
302
GRIDFORMAT
  1
GRIDFORMAT_BEGIN
 90
        0
 91
        1
 62
     0
 92
       -2
340
0
 93
        0
 40
0.045
309
GRIDFORMAT_END
 95
       32
302
GRIDFORMAT
  1
GRIDFORMAT_BEGIN
 90
        0
 91
        1
 62
     0
 92
       -2
340
0
 93
        0
 40
0.045
309
GRIDFORMAT_END
309
TABLEFORMAT_END
  1
CELLSTYLE_BEGIN
 90
        1
 91
        1
300
_TITLE
309
CELLSTYLE_END
300
CELLSTYLE
  1
TABLEFORMAT_BEGIN
 90
        5
170
     1
 91
        0
 92
        0
 62
   257
 93
        1
300
CONTENTFORMAT
  1
CONTENTFORMAT_BEGIN
 90
        0
 91
        0
 92
        4
 93
        0
300

 40
0.0
140
1.0
 94
        5
 62
     0
340
11
144
0.18
309
CONTENTFORMAT_END
171
     0
 94
        6
 95
        1
302
GRIDFORMAT
  1
GRIDFORMAT_BEGIN
 90
        0
 91
        1
 62
     0
 92
       -2
340
0
 93
        0
 40
0.045
309
GRIDFORMAT_END
 95
        2
302
GRIDFORMAT
  1
GRIDFORMAT_BEGIN
 90
        0
 91
        1
 62
     0
 92
       -2
340
0
 93
        0
 40
0.045
309
GRIDFORMAT_END
 95
        4
302
GRIDFORMAT
  1
GRIDFORMAT_BEGIN
 90
        0
 91
        1
 62
     0
 92
       -2
340
0
 93
        0
 40
0.045
309
GRIDFORMAT_END
 95
        8
302
GRIDFORMAT
  1
GRIDFORMAT_BEGIN
 90
        0
 91
        1
 62
     0
 92
       -2
340
0
 93
        0
 40
0.045
309
GRIDFORMAT_END
 95
       16
302
GRIDFORMAT
  1
GRIDFORMAT_BEGIN
 90
        0
 91
        1
 62
     0
 92
       -2
340
0
 93
        0
 40
0.045
309
GRIDFORMAT_END
 95
       32
302
GRIDFORMAT
  1
GRIDFORMAT_BEGIN
 90
        0
 91
        1
 62
     0
 92
       -2
340
0
 93
        0
 40
0.045
309
GRIDFORMAT_END
309
TABLEFORMAT_END
  1
CELLSTYLE_BEGIN
 90
        2
 91
        1
300
_HEADER
309
CELLSTYLE_END
300
CELLSTYLE
  1
TABLEFORMAT_BEGIN
 90
        5
170
     1
 91
        0
 92
        0
 62
   257
 93
        1
300
CONTENTFORMAT
  1
CONTENTFORMAT_BEGIN
 90
        0
 91
        0
 92
        4
 93
        0
300

 40
0.0
140
1.0
 94
        2
 62
     0
340
11
144
0.18
309
CONTENTFORMAT_END
171
     0
 94
        6
 95
        1
302
GRIDFORMAT
  1
GRIDFORMAT_BEGIN
 90
        0
 91
        1
 62
     0
 92
       -2
340
0
 93
        0
 40
0.045
309
GRIDFORMAT_END
 95
        2
302
GRIDFORMAT
  1
GRIDFORMAT_BEGIN
 90
        0
 91
        1
 62
     0
 92
       -2
340
0
 93
        0
 40
0.045
309
GRIDFORMAT_END
 95
        4
302
GRIDFORMAT
  1
GRIDFORMAT_BEGIN
 90
        0
 91
        1
 62
     0
 92
       -2
340
0
 93
        0
 40
0.045
309
GRIDFORMAT_END
 95
        8
302
GRIDFORMAT
  1
GRIDFORMAT_BEGIN
 90
        0
 91
        1
 62
     0
 92
       -2
340
0
 93
        0
 40
0.045
309
GRIDFORMAT_END
 95
       16
302
GRIDFORMAT
  1
GRIDFORMAT_BEGIN
 90
        0
 91
        1
 62
     0
 92
       -2
340
0
 93
        0
 40
0.045
309
GRIDFORMAT_END
 95
       32
302
GRIDFORMAT
  1
GRIDFORMAT_BEGIN
 90
        0
 91
        1
 62
     0
 92
       -2
340
0
 93
        0
 40
0.045
309
GRIDFORMAT_END
309
TABLEFORMAT_END
  1
CELLSTYLE_BEGIN
 90
        3
 91
        2
300
_DATA
309
CELLSTYLE_END
  0
XRECORD
  5
125F
102
{ACAD_REACTORS
330
2FD
102
}
330
2FD
100
AcDbXrecord
280
     1
102
ACAD_ROUNDTRIP_PRE2007_TABLESTYLE
 90
        4
 91
        0
  1

 92
        4
 93
        0
  2

 94
        4
 95
        0
  3

  0
XRECORD
  5
126E
102
{ACAD_REACTORS
330
126D
102
}
330
126D
100
AcDbXrecord
280
     1
102
RTVSPropertyOp0
 70
     1
102
RTVSPropertyOp1
 70
     1
102
RTVSPropertyOp2
 70
     1
102
RTVSPropertyOp3
 70
     1
102
RTVSPropertyOp4
 70
     1
102
RTVSPropertyOp5
 70
     1
102
RTVSPropertyOp6
 70
     1
102
RTVSPropertyOp7
 70
     1
102
RTVSPropertyOp8
 70
     1
102
RTVSPropertyOp9
 70
     1
102
RTVSPropertyOp10
 70
     1
102
RTVSPropertyOp11
 70
     1
102
RTVSPropertyOp12
 70
     1
102
RTVSPropertyOp13
 70
     1
102
RTVSPropertyOp14
 70
     1
102
RTVSPropertyOp15
 70
     1
102
RTVSPropertyOp16
 70
     1
102
RTVSPropertyOp17
 70
     1
102
RTVSPropertyOp18
 70
     1
102
RTVSPropertyOp19
 70
     1
102
RTVSPropertyOp20
 70
     1
102
RTVSPropertyOp21
 70
     1
102
RTVSPropertyOp22
 70
     1
102
RTVSPropertyOp23
 70
     1
102
RTVSPropertyOp24
 70
     1
102
RTVSPropertyOp25
 70
     1
102
RTVSPropertyOp26
 70
     1
102
RTVSPropertyOp27
 70
     1
102
RTVSPropertyOp28
 70
     1
102
RTVSPropertyOp29
 70
     1
102
RTVSPropertyOp30
 70
     1
102
RTVSPropertyOp31
 70
     1
102
RTVSPropertyOp32
 70
     1
  0
XRECORD
  5
1294
102
{ACAD_REACTORS
330
1293
102
}
330
1293
100
AcDbXrecord
280
     1
102
RTVSPropertyOp0
 70
     1
102
RTVSPropertyOp1
 70
     1
102
RTVSPropertyOp2
 70
     1
102
RTVSPropertyOp3
 70
     1
102
RTVSPropertyOp4
 70
     1
102
RTVSPropertyOp5
 70
     1
102
RTVSPropertyOp6
 70
     1
102
RTVSPropertyOp7
 70
     1
102
RTVSPropertyOp8
 70
     1
102
RTVSPropertyOp9
 70
     1
102
RTVSPropertyOp10
 70
     1
102
RTVSPropertyOp11
 70
     1
102
RTVSPropertyOp12
 70
     1
102
RTVSPropertyOp13
 70
     1
102
RTVSPropertyOp14
 70
     1
102
RTVSPropertyOp15
 70
     1
102
RTVSPropertyOp16
 70
     1
102
RTVSPropertyOp17
 70
     1
102
RTVSPropertyOp18
 70
     1
102
RTVSPropertyOp19
 70
     1
102
RTVSPropertyOp20
 70
     1
102
RTVSPropertyOp21
 70
     1
102
RTVSPropertyOp22
 70
     1
102
RTVSPropertyOp23
 70
     1
102
RTVSPropertyOp24
 70
     1
102
RTVSPropertyOp25
 70
     1
102
RTVSPropertyOp26
 70
     1
102
RTVSPropertyOp27
 70
     1
102
RTVSPropertyOp28
 70
     1
102
RTVSPropertyOp29
 70
     1
102
RTVSPropertyOp30
 70
     1
102
RTVSPropertyOp31
 70
     1
102
RTVSPropertyOp32
 70
     1
  0
XRECORD
  5
1296
102
{ACAD_REACTORS
330
1295
102
}
330
1295
100
AcDbXrecord
280
     1
102
RTVSPropertyOp0
 70
     1
102
RTVSPropertyOp1
 70
     1
102
RTVSPropertyOp2
 70
     1
102
RTVSPropertyOp3
 70
     1
102
RTVSPropertyOp4
 70
     1
102
RTVSPropertyOp5
 70
     1
102
RTVSPropertyOp6
 70
     1
102
RTVSPropertyOp7
 70
     1
102
RTVSPropertyOp8
 70
     1
102
RTVSPropertyOp9
 70
     1
102
RTVSPropertyOp10
 70
     1
102
RTVSPropertyOp11
 70
     1
102
RTVSPropertyOp12
 70
     1
102
RTVSPropertyOp13
 70
     1
102
RTVSPropertyOp14
 70
     1
102
RTVSPropertyOp15
 70
     1
102
RTVSPropertyOp16
 70
     1
102
RTVSPropertyOp17
 70
     1
102
RTVSPropertyOp18
 70
     1
102
RTVSPropertyOp19
 70
     1
102
RTVSPropertyOp20
 70
     1
102
RTVSPropertyOp21
 70
     1
102
RTVSPropertyOp22
 70
     1
102
RTVSPropertyOp23
 70
     1
102
RTVSPropertyOp24
 70
     1
102
RTVSPropertyOp25
 70
     1
102
RTVSPropertyOp26
 70
     1
102
RTVSPropertyOp27
 70
     1
102
RTVSPropertyOp28
 70
     1
102
RTVSPropertyOp29
 70
     1
102
RTVSPropertyOp30
 70
     1
102
RTVSPropertyOp31
 70
     1
102
RTVSPropertyOp32
 70
     1
  0
XRECORD
  5
126C
102
{ACAD_REACTORS
330
126B
102
}
330
126B
100
AcDbXrecord
280
     1
102
RTVSPropertyOp0
 70
     1
102
RTVSPropertyOp1
 70
     1
102
RTVSPropertyOp2
 70
     1
102
RTVSPropertyOp3
 70
     1
102
RTVSPropertyOp4
 70
     1
102
RTVSPropertyOp5
 70
     1
102
RTVSPropertyOp6
 70
     1
102
RTVSPropertyOp7
 70
     1
102
RTVSPropertyOp8
 70
     1
102
RTVSPropertyOp9
 70
     1
102
RTVSPropertyOp10
 70
     1
102
RTVSPropertyOp11
 70
     1
102
RTVSPropertyOp12
 70
     1
102
RTVSPropertyOp13
 70
     1
102
RTVSPropertyOp14
 70
     1
102
RTVSPropertyOp15
 70
     1
102
RTVSPropertyOp16
 70
     1
102
RTVSPropertyOp17
 70
     1
102
RTVSPropertyOp18
 70
     1
102
RTVSPropertyOp19
 70
     1
102
RTVSPropertyOp20
 70
     1
102
RTVSPropertyOp21
 70
     1
102
RTVSPropertyOp22
 70
     1
102
RTVSPropertyOp23
 70
     1
102
RTVSPropertyOp24
 70
     1
102
RTVSPropertyOp25
 70
     1
102
RTVSPropertyOp26
 70
     1
102
RTVSPropertyOp27
 70
     1
102
RTVSPropertyOp28
 70
     1
102
RTVSPropertyOp29
 70
     1
102
RTVSPropertyOp30
 70
     1
102
RTVSPropertyOp31
 70
     1
102
RTVSPropertyOp32
 70
     1
  0
XRECORD
  5
127A
102
{ACAD_REACTORS
330
1279
102
}
330
1279
100
AcDbXrecord
280
     1
102
RTVSPropertyOp0
 70
     1
102
RTVSPropertyOp1
 70
     1
102
RTVSPropertyOp2
 70
     1
102
RTVSPropertyOp3
 70
     1
102
RTVSPropertyOp4
 70
     1
102
RTVSPropertyOp5
 70
     1
102
RTVSPropertyOp6
 70
     1
102
RTVSPropertyOp7
 70
     1
102
RTVSPropertyOp8
 70
     1
102
RTVSPropertyOp9
 70
     1
102
RTVSPropertyOp10
 70
     1
102
RTVSPropertyOp11
 70
     1
102
RTVSPropertyOp12
 70
     1
102
RTVSPropertyOp13
 70
     1
102
RTVSPropertyOp14
 70
     1
102
RTVSPropertyOp15
 70
     1
102
RTVSPropertyOp16
 70
     1
102
RTVSPropertyOp17
 70
     1
102
RTVSPropertyOp18
 70
     1
102
RTVSPropertyOp19
 70
     1
102
RTVSPropertyOp20
 70
     1
102
RTVSPropertyOp21
 70
     1
102
RTVSPropertyOp22
 70
     1
102
RTVSPropertyOp23
 70
     1
102
RTVSPropertyOp24
 70
     1
102
RTVSPropertyOp25
 70
     1
102
RTVSPropertyOp26
 70
     1
102
RTVSPropertyOp27
 70
     1
102
RTVSPropertyOp28
 70
     1
102
RTVSPropertyOp29
 70
     1
102
RTVSPropertyOp30
 70
     1
102
RTVSPropertyOp31
 70
     1
102
RTVSPropertyOp32
 70
     1
  0
XRECORD
  5
1282
102
{ACAD_REACTORS
330
1281
102
}
330
1281
100
AcDbXrecord
280
     1
102
RTVSPropertyOp0
 70
     1
102
RTVSPropertyOp1
 70
     1
102
RTVSPropertyOp2
 70
     1
102
RTVSPropertyOp3
 70
     1
102
RTVSPropertyOp4
 70
     1
102
RTVSPropertyOp5
 70
     1
102
RTVSPropertyOp6
 70
     1
102
RTVSPropertyOp7
 70
     1
102
RTVSPropertyOp8
 70
     1
102
RTVSPropertyOp9
 70
     1
102
RTVSPropertyOp10
 70
     1
102
RTVSPropertyOp11
 70
     1
102
RTVSPropertyOp12
 70
     1
102
RTVSPropertyOp13
 70
     1
102
RTVSPropertyOp14
 70
     1
102
RTVSPropertyOp15
 70
     1
102
RTVSPropertyOp16
 70
     1
102
RTVSPropertyOp17
 70
     1
102
RTVSPropertyOp18
 70
     1
102
RTVSPropertyOp19
 70
     1
102
RTVSPropertyOp20
 70
     1
102
RTVSPropertyOp21
 70
     1
102
RTVSPropertyOp22
 70
     1
102
RTVSPropertyOp23
 70
     1
102
RTVSPropertyOp24
 70
     1
102
RTVSPropertyOp25
 70
     1
102
RTVSPropertyOp26
 70
     1
102
RTVSPropertyOp27
 70
     1
102
RTVSPropertyOp28
 70
     1
102
RTVSPropertyOp29
 70
     1
102
RTVSPropertyOp30
 70
     1
102
RTVSPropertyOp31
 70
     1
102
RTVSPropertyOp32
 70
     1
  0
XRECORD
  5
1274
102
{ACAD_REACTORS
330
1273
102
}
330
1273
100
AcDbXrecord
280
     1
102
RTVSPropertyOp0
 70
     1
102
RTVSPropertyOp1
 70
     1
102
RTVSPropertyOp2
 70
     1
102
RTVSPropertyOp3
 70
     1
102
RTVSPropertyOp4
 70
     1
102
RTVSPropertyOp5
 70
     1
102
RTVSPropertyOp6
 70
     1
102
RTVSPropertyOp7
 70
     1
102
RTVSPropertyOp8
 70
     1
102
RTVSPropertyOp9
 70
     1
102
RTVSPropertyOp10
 70
     1
102
RTVSPropertyOp11
 70
     1
102
RTVSPropertyOp12
 70
     1
102
RTVSPropertyOp13
 70
     1
102
RTVSPropertyOp14
 70
     1
102
RTVSPropertyOp15
 70
     1
102
RTVSPropertyOp16
 70
     1
102
RTVSPropertyOp17
 70
     1
102
RTVSPropertyOp18
 70
     1
102
RTVSPropertyOp19
 70
     1
102
RTVSPropertyOp20
 70
     1
102
RTVSPropertyOp21
 70
     1
102
RTVSPropertyOp22
 70
     1
102
RTVSPropertyOp23
 70
     1
102
RTVSPropertyOp24
 70
     1
102
RTVSPropertyOp25
 70
     1
102
RTVSPropertyOp26
 70
     1
102
RTVSPropertyOp27
 70
     1
102
RTVSPropertyOp28
 70
     1
102
RTVSPropertyOp29
 70
     1
102
RTVSPropertyOp30
 70
     1
102
RTVSPropertyOp31
 70
     1
102
RTVSPropertyOp32
 70
     1
  0
XRECORD
  5
1278
102
{ACAD_REACTORS
330
1277
102
}
330
1277
100
AcDbXrecord
280
     1
102
RTVSPropertyOp0
 70
     1
102
RTVSPropertyOp1
 70
     1
102
RTVSPropertyOp2
 70
     1
102
RTVSPropertyOp3
 70
     1
102
RTVSPropertyOp4
 70
     1
102
RTVSPropertyOp5
 70
     1
102
RTVSPropertyOp6
 70
     1
102
RTVSPropertyOp7
 70
     1
102
RTVSPropertyOp8
 70
     1
102
RTVSPropertyOp9
 70
     1
102
RTVSPropertyOp10
 70
     1
102
RTVSPropertyOp11
 70
     1
102
RTVSPropertyOp12
 70
     1
102
RTVSPropertyOp13
 70
     1
102
RTVSPropertyOp14
 70
     1
102
RTVSPropertyOp15
 70
     1
102
RTVSPropertyOp16
 70
     1
102
RTVSPropertyOp17
 70
     1
102
RTVSPropertyOp18
 70
     1
102
RTVSPropertyOp19
 70
     1
102
RTVSPropertyOp20
 70
     1
102
RTVSPropertyOp21
 70
     1
102
RTVSPropertyOp22
 70
     1
102
RTVSPropertyOp23
 70
     1
102
RTVSPropertyOp24
 70
     1
102
RTVSPropertyOp25
 70
     1
102
RTVSPropertyOp26
 70
     1
102
RTVSPropertyOp27
 70
     1
102
RTVSPropertyOp28
 70
     1
102
RTVSPropertyOp29
 70
     1
102
RTVSPropertyOp30
 70
     1
102
RTVSPropertyOp31
 70
     1
102
RTVSPropertyOp32
 70
     1
  0
XRECORD
  5
1292
102
{ACAD_REACTORS
330
1291
102
}
330
1291
100
AcDbXrecord
280
     1
102
RTVSPropertyOp0
 70
     0
102
RTVSPropertyOp1
 70
     0
102
RTVSPropertyOp2
 70
     0
102
RTVSPropertyOp3
 70
     0
102
RTVSPropertyOp4
 70
     0
102
RTVSPropertyOp5
 70
     0
102
RTVSPropertyOp6
 70
     0
102
RTVSPropertyOp7
 70
     0
102
RTVSPropertyOp8
 70
     0
102
RTVSPropertyOp9
 70
     0
102
RTVSPropertyOp10
 70
     0
102
RTVSPropertyOp11
 70
     0
102
RTVSPropertyOp12
 70
     0
102
RTVSPropertyOp13
 70
     0
102
RTVSPropertyOp14
 70
     2
102
RTVSPropertyOp15
 70
     0
102
RTVSPropertyOp16
 70
     0
102
RTVSPropertyOp17
 70
     0
102
RTVSPropertyOp18
 70
     0
102
RTVSPropertyOp19
 70
     0
102
RTVSPropertyOp20
 70
     0
102
RTVSPropertyOp21
 70
     0
102
RTVSPropertyOp22
 70
     0
102
RTVSPropertyOp23
 70
     0
102
RTVSPropertyOp24
 70
     0
102
RTVSPropertyOp25
 70
     0
102
RTVSPropertyOp26
 70
     0
102
RTVSPropertyOp27
 70
     0
102
RTVSPropertyOp28
 70
     1
102
RTVSPropertyOp29
 70
     1
102
RTVSPropertyOp30
 70
     1
102
RTVSPropertyOp31
 70
     1
102
RTVSPropertyOp32
 70
     1
  0
XRECORD
  5
1280
102
{ACAD_REACTORS
330
127F
102
}
330
127F
100
AcDbXrecord
280
     1
102
RTVSPropertyOp0
 70
     1
102
RTVSPropertyOp1
 70
     1
102
RTVSPropertyOp2
 70
     1
102
RTVSPropertyOp3
 70
     1
102
RTVSPropertyOp4
 70
     1
102
RTVSPropertyOp5
 70
     1
102
RTVSPropertyOp6
 70
     1
102
RTVSPropertyOp7
 70
     1
102
RTVSPropertyOp8
 70
     1
102
RTVSPropertyOp9
 70
     1
102
RTVSPropertyOp10
 70
     1
102
RTVSPropertyOp11
 70
     1
102
RTVSPropertyOp12
 70
     1
102
RTVSPropertyOp13
 70
     1
102
RTVSPropertyOp14
 70
     1
102
RTVSPropertyOp15
 70
     1
102
RTVSPropertyOp16
 70
     1
102
RTVSPropertyOp17
 70
     1
102
RTVSPropertyOp18
 70
     1
102
RTVSPropertyOp19
 70
     1
102
RTVSPropertyOp20
 70
     1
102
RTVSPropertyOp21
 70
     1
102
RTVSPropertyOp22
 70
     1
102
RTVSPropertyOp23
 70
     1
102
RTVSPropertyOp24
 70
     1
102
RTVSPropertyOp25
 70
     1
102
RTVSPropertyOp26
 70
     1
102
RTVSPropertyOp27
 70
     1
102
RTVSPropertyOp28
 70
     1
102
RTVSPropertyOp29
 70
     1
102
RTVSPropertyOp30
 70
     1
102
RTVSPropertyOp31
 70
     1
102
RTVSPropertyOp32
 70
     1
  0
XRECORD
  5
1264
102
{ACAD_REACTORS
330
1263
102
}
330
1263
100
AcDbXrecord
280
     1
102
RTVSPropertyOp0
 70
     1
102
RTVSPropertyOp1
 70
     1
102
RTVSPropertyOp2
 70
     1
102
RTVSPropertyOp3
 70
     1
102
RTVSPropertyOp4
 70
     1
102
RTVSPropertyOp5
 70
     1
102
RTVSPropertyOp6
 70
     1
102
RTVSPropertyOp7
 70
     1
102
RTVSPropertyOp8
 70
     1
102
RTVSPropertyOp9
 70
     1
102
RTVSPropertyOp10
 70
     1
102
RTVSPropertyOp11
 70
     1
102
RTVSPropertyOp12
 70
     1
102
RTVSPropertyOp13
 70
     1
102
RTVSPropertyOp14
 70
     1
102
RTVSPropertyOp15
 70
     1
102
RTVSPropertyOp16
 70
     1
102
RTVSPropertyOp17
 70
     1
102
RTVSPropertyOp18
 70
     1
102
RTVSPropertyOp19
 70
     1
102
RTVSPropertyOp20
 70
     1
102
RTVSPropertyOp21
 70
     1
102
RTVSPropertyOp22
 70
     1
102
RTVSPropertyOp23
 70
     1
102
RTVSPropertyOp24
 70
     1
102
RTVSPropertyOp25
 70
     1
102
RTVSPropertyOp26
 70
     1
102
RTVSPropertyOp27
 70
     1
102
RTVSPropertyOp28
 70
     1
102
RTVSPropertyOp29
 70
     1
102
RTVSPropertyOp30
 70
     1
102
RTVSPropertyOp31
 70
     1
102
RTVSPropertyOp32
 70
     1
  0
XRECORD
  5
1266
102
{ACAD_REACTORS
330
1265
102
}
330
1265
100
AcDbXrecord
280
     1
102
RTVSPropertyOp0
 70
     1
102
RTVSPropertyOp1
 70
     1
102
RTVSPropertyOp2
 70
     1
102
RTVSPropertyOp3
 70
     1
102
RTVSPropertyOp4
 70
     1
102
RTVSPropertyOp5
 70
     1
102
RTVSPropertyOp6
 70
     1
102
RTVSPropertyOp7
 70
     1
102
RTVSPropertyOp8
 70
     1
102
RTVSPropertyOp9
 70
     1
102
RTVSPropertyOp10
 70
     1
102
RTVSPropertyOp11
 70
     1
102
RTVSPropertyOp12
 70
     1
102
RTVSPropertyOp13
 70
     1
102
RTVSPropertyOp14
 70
     1
102
RTVSPropertyOp15
 70
     1
102
RTVSPropertyOp16
 70
     1
102
RTVSPropertyOp17
 70
     1
102
RTVSPropertyOp18
 70
     1
102
RTVSPropertyOp19
 70
     1
102
RTVSPropertyOp20
 70
     1
102
RTVSPropertyOp21
 70
     1
102
RTVSPropertyOp22
 70
     1
102
RTVSPropertyOp23
 70
     1
102
RTVSPropertyOp24
 70
     1
102
RTVSPropertyOp25
 70
     1
102
RTVSPropertyOp26
 70
     1
102
RTVSPropertyOp27
 70
     1
102
RTVSPropertyOp28
 70
     1
102
RTVSPropertyOp29
 70
     1
102
RTVSPropertyOp30
 70
     1
102
RTVSPropertyOp31
 70
     1
102
RTVSPropertyOp32
 70
     1
  0
XRECORD
  5
1268
102
{ACAD_REACTORS
330
1267
102
}
330
1267
100
AcDbXrecord
280
     1
102
RTVSPropertyOp0
 70
     1
102
RTVSPropertyOp1
 70
     1
102
RTVSPropertyOp2
 70
     1
102
RTVSPropertyOp3
 70
     1
102
RTVSPropertyOp4
 70
     1
102
RTVSPropertyOp5
 70
     1
102
RTVSPropertyOp6
 70
     1
102
RTVSPropertyOp7
 70
     1
102
RTVSPropertyOp8
 70
     1
102
RTVSPropertyOp9
 70
     1
102
RTVSPropertyOp10
 70
     1
102
RTVSPropertyOp11
 70
     1
102
RTVSPropertyOp12
 70
     1
102
RTVSPropertyOp13
 70
     1
102
RTVSPropertyOp14
 70
     1
102
RTVSPropertyOp15
 70
     1
102
RTVSPropertyOp16
 70
     1
102
RTVSPropertyOp17
 70
     1
102
RTVSPropertyOp18
 70
     1
102
RTVSPropertyOp19
 70
     1
102
RTVSPropertyOp20
 70
     1
102
RTVSPropertyOp21
 70
     1
102
RTVSPropertyOp22
 70
     1
102
RTVSPropertyOp23
 70
     1
102
RTVSPropertyOp24
 70
     1
102
RTVSPropertyOp25
 70
     1
102
RTVSPropertyOp26
 70
     1
102
RTVSPropertyOp27
 70
     1
102
RTVSPropertyOp28
 70
     1
102
RTVSPropertyOp29
 70
     1
102
RTVSPropertyOp30
 70
     1
102
RTVSPropertyOp31
 70
     1
102
RTVSPropertyOp32
 70
     1
  0
XRECORD
  5
126A
102
{ACAD_REACTORS
330
1269
102
}
330
1269
100
AcDbXrecord
280
     1
102
RTVSPropertyOp0
 70
     1
102
RTVSPropertyOp1
 70
     1
102
RTVSPropertyOp2
 70
     1
102
RTVSPropertyOp3
 70
     1
102
RTVSPropertyOp4
 70
     1
102
RTVSPropertyOp5
 70
     1
102
RTVSPropertyOp6
 70
     1
102
RTVSPropertyOp7
 70
     1
102
RTVSPropertyOp8
 70
     1
102
RTVSPropertyOp9
 70
     1
102
RTVSPropertyOp10
 70
     1
102
RTVSPropertyOp11
 70
     1
102
RTVSPropertyOp12
 70
     1
102
RTVSPropertyOp13
 70
     1
102
RTVSPropertyOp14
 70
     1
102
RTVSPropertyOp15
 70
     1
102
RTVSPropertyOp16
 70
     1
102
RTVSPropertyOp17
 70
     1
102
RTVSPropertyOp18
 70
     1
102
RTVSPropertyOp19
 70
     1
102
RTVSPropertyOp20
 70
     1
102
RTVSPropertyOp21
 70
     1
102
RTVSPropertyOp22
 70
     1
102
RTVSPropertyOp23
 70
     1
102
RTVSPropertyOp24
 70
     1
102
RTVSPropertyOp25
 70
     1
102
RTVSPropertyOp26
 70
     1
102
RTVSPropertyOp27
 70
     1
102
RTVSPropertyOp28
 70
     1
102
RTVSPropertyOp29
 70
     1
102
RTVSPropertyOp30
 70
     1
102
RTVSPropertyOp31
 70
     1
102
RTVSPropertyOp32
 70
     1
  0
XRECORD
  5
1272
102
{ACAD_REACTORS
330
1271
102
}
330
1271
100
AcDbXrecord
280
     1
102
RTVSPropertyOp0
 70
     1
102
RTVSPropertyOp1
 70
     1
102
RTVSPropertyOp2
 70
     1
102
RTVSPropertyOp3
 70
     1
102
RTVSPropertyOp4
 70
     1
102
RTVSPropertyOp5
 70
     1
102
RTVSPropertyOp6
 70
     1
102
RTVSPropertyOp7
 70
     1
102
RTVSPropertyOp8
 70
     1
102
RTVSPropertyOp9
 70
     1
102
RTVSPropertyOp10
 70
     1
102
RTVSPropertyOp11
 70
     1
102
RTVSPropertyOp12
 70
     1
102
RTVSPropertyOp13
 70
     1
102
RTVSPropertyOp14
 70
     1
102
RTVSPropertyOp15
 70
     1
102
RTVSPropertyOp16
 70
     1
102
RTVSPropertyOp17
 70
     1
102
RTVSPropertyOp18
 70
     1
102
RTVSPropertyOp19
 70
     1
102
RTVSPropertyOp20
 70
     1
102
RTVSPropertyOp21
 70
     1
102
RTVSPropertyOp22
 70
     1
102
RTVSPropertyOp23
 70
     1
102
RTVSPropertyOp24
 70
     1
102
RTVSPropertyOp25
 70
     1
102
RTVSPropertyOp26
 70
     1
102
RTVSPropertyOp27
 70
     1
102
RTVSPropertyOp28
 70
     1
102
RTVSPropertyOp29
 70
     1
102
RTVSPropertyOp30
 70
     1
102
RTVSPropertyOp31
 70
     1
102
RTVSPropertyOp32
 70
     1
  0
XRECORD
  5
128E
102
{ACAD_REACTORS
330
128D
102
}
330
128D
100
AcDbXrecord
280
     1
102
RTVSPropertyOp0
 70
     0
102
RTVSPropertyOp1
 70
     0
102
RTVSPropertyOp2
 70
     0
102
RTVSPropertyOp3
 70
     0
102
RTVSPropertyOp4
 70
     0
102
RTVSPropertyOp5
 70
     0
102
RTVSPropertyOp6
 70
     0
102
RTVSPropertyOp7
 70
     0
102
RTVSPropertyOp8
 70
     0
102
RTVSPropertyOp9
 70
     0
102
RTVSPropertyOp10
 70
     0
102
RTVSPropertyOp11
 70
     0
102
RTVSPropertyOp12
 70
     0
102
RTVSPropertyOp13
 70
     0
102
RTVSPropertyOp14
 70
     2
102
RTVSPropertyOp15
 70
     0
102
RTVSPropertyOp16
 70
     0
102
RTVSPropertyOp17
 70
     0
102
RTVSPropertyOp18
 70
     0
102
RTVSPropertyOp19
 70
     0
102
RTVSPropertyOp20
 70
     0
102
RTVSPropertyOp21
 70
     0
102
RTVSPropertyOp22
 70
     0
102
RTVSPropertyOp23
 70
     0
102
RTVSPropertyOp24
 70
     0
102
RTVSPropertyOp25
 70
     0
102
RTVSPropertyOp26
 70
     0
102
RTVSPropertyOp27
 70
     0
102
RTVSPropertyOp28
 70
     1
102
RTVSPropertyOp29
 70
     1
102
RTVSPropertyOp30
 70
     1
102
RTVSPropertyOp31
 70
     1
102
RTVSPropertyOp32
 70
     1
  0
XRECORD
  5
127E
102
{ACAD_REACTORS
330
127D
102
}
330
127D
100
AcDbXrecord
280
     1
102
RTVSPropertyOp0
 70
     1
102
RTVSPropertyOp1
 70
     1
102
RTVSPropertyOp2
 70
     1
102
RTVSPropertyOp3
 70
     1
102
RTVSPropertyOp4
 70
     1
102
RTVSPropertyOp5
 70
     1
102
RTVSPropertyOp6
 70
     1
102
RTVSPropertyOp7
 70
     1
102
RTVSPropertyOp8
 70
     1
102
RTVSPropertyOp9
 70
     1
102
RTVSPropertyOp10
 70
     1
102
RTVSPropertyOp11
 70
     1
102
RTVSPropertyOp12
 70
     1
102
RTVSPropertyOp13
 70
     1
102
RTVSPropertyOp14
 70
     1
102
RTVSPropertyOp15
 70
     1
102
RTVSPropertyOp16
 70
     1
102
RTVSPropertyOp17
 70
     1
102
RTVSPropertyOp18
 70
     1
102
RTVSPropertyOp19
 70
     1
102
RTVSPropertyOp20
 70
     1
102
RTVSPropertyOp21
 70
     1
102
RTVSPropertyOp22
 70
     1
102
RTVSPropertyOp23
 70
     1
102
RTVSPropertyOp24
 70
     1
102
RTVSPropertyOp25
 70
     1
102
RTVSPropertyOp26
 70
     1
102
RTVSPropertyOp27
 70
     1
102
RTVSPropertyOp28
 70
     1
102
RTVSPropertyOp29
 70
     1
102
RTVSPropertyOp30
 70
     1
102
RTVSPropertyOp31
 70
     1
102
RTVSPropertyOp32
 70
     1
  0
XRECORD
  5
1290
102
{ACAD_REACTORS
330
128F
102
}
330
128F
100
AcDbXrecord
280
     1
102
RTVSPropertyOp0
 70
     0
102
RTVSPropertyOp1
 70
     0
102
RTVSPropertyOp2
 70
     0
102
RTVSPropertyOp3
 70
     0
102
RTVSPropertyOp4
 70
     0
102
RTVSPropertyOp5
 70
     0
102
RTVSPropertyOp6
 70
     0
102
RTVSPropertyOp7
 70
     0
102
RTVSPropertyOp8
 70
     0
102
RTVSPropertyOp9
 70
     0
102
RTVSPropertyOp10
 70
     0
102
RTVSPropertyOp11
 70
     0
102
RTVSPropertyOp12
 70
     0
102
RTVSPropertyOp13
 70
     0
102
RTVSPropertyOp14
 70
     2
102
RTVSPropertyOp15
 70
     0
102
RTVSPropertyOp16
 70
     0
102
RTVSPropertyOp17
 70
     0
102
RTVSPropertyOp18
 70
     0
102
RTVSPropertyOp19
 70
     0
102
RTVSPropertyOp20
 70
     0
102
RTVSPropertyOp21
 70
     0
102
RTVSPropertyOp22
 70
     0
102
RTVSPropertyOp23
 70
     0
102
RTVSPropertyOp24
 70
     0
102
RTVSPropertyOp25
 70
     0
102
RTVSPropertyOp26
 70
     0
102
RTVSPropertyOp27
 70
     0
102
RTVSPropertyOp28
 70
     1
102
RTVSPropertyOp29
 70
     1
102
RTVSPropertyOp30
 70
     1
102
RTVSPropertyOp31
 70
     1
102
RTVSPropertyOp32
 70
     1
  0
XRECORD
  5
1276
102
{ACAD_REACTORS
330
1275
102
}
330
1275
100
AcDbXrecord
280
     1
102
RTVSPropertyOp0
 70
     1
102
RTVSPropertyOp1
 70
     1
102
RTVSPropertyOp2
 70
     1
102
RTVSPropertyOp3
 70
     1
102
RTVSPropertyOp4
 70
     1
102
RTVSPropertyOp5
 70
     1
102
RTVSPropertyOp6
 70
     1
102
RTVSPropertyOp7
 70
     1
102
RTVSPropertyOp8
 70
     1
102
RTVSPropertyOp9
 70
     1
102
RTVSPropertyOp10
 70
     1
102
RTVSPropertyOp11
 70
     1
102
RTVSPropertyOp12
 70
     1
102
RTVSPropertyOp13
 70
     1
102
RTVSPropertyOp14
 70
     1
102
RTVSPropertyOp15
 70
     1
102
RTVSPropertyOp16
 70
     1
102
RTVSPropertyOp17
 70
     1
102
RTVSPropertyOp18
 70
     1
102
RTVSPropertyOp19
 70
     1
102
RTVSPropertyOp20
 70
     1
102
RTVSPropertyOp21
 70
     1
102
RTVSPropertyOp22
 70
     1
102
RTVSPropertyOp23
 70
     1
102
RTVSPropertyOp24
 70
     1
102
RTVSPropertyOp25
 70
     1
102
RTVSPropertyOp26
 70
     1
102
RTVSPropertyOp27
 70
     1
102
RTVSPropertyOp28
 70
     1
102
RTVSPropertyOp29
 70
     1
102
RTVSPropertyOp30
 70
     1
102
RTVSPropertyOp31
 70
     1
102
RTVSPropertyOp32
 70
     1
  0
XRECORD
  5
128C
102
{ACAD_REACTORS
330
128B
102
}
330
128B
100
AcDbXrecord
280
     1
102
RTVSPropertyOp0
 70
     1
102
RTVSPropertyOp1
 70
     1
102
RTVSPropertyOp2
 70
     1
102
RTVSPropertyOp3
 70
     1
102
RTVSPropertyOp4
 70
     1
102
RTVSPropertyOp5
 70
     1
102
RTVSPropertyOp6
 70
     1
102
RTVSPropertyOp7
 70
     1
102
RTVSPropertyOp8
 70
     1
102
RTVSPropertyOp9
 70
     1
102
RTVSPropertyOp10
 70
     1
102
RTVSPropertyOp11
 70
     1
102
RTVSPropertyOp12
 70
     1
102
RTVSPropertyOp13
 70
     1
102
RTVSPropertyOp14
 70
     1
102
RTVSPropertyOp15
 70
     1
102
RTVSPropertyOp16
 70
     1
102
RTVSPropertyOp17
 70
     1
102
RTVSPropertyOp18
 70
     1
102
RTVSPropertyOp19
 70
     1
102
RTVSPropertyOp20
 70
     1
102
RTVSPropertyOp21
 70
     1
102
RTVSPropertyOp22
 70
     1
102
RTVSPropertyOp23
 70
     1
102
RTVSPropertyOp24
 70
     1
102
RTVSPropertyOp25
 70
     1
102
RTVSPropertyOp26
 70
     1
102
RTVSPropertyOp27
 70
     1
102
RTVSPropertyOp28
 70
     1
102
RTVSPropertyOp29
 70
     1
102
RTVSPropertyOp30
 70
     1
102
RTVSPropertyOp31
 70
     1
102
RTVSPropertyOp32
 70
     1
  0
XRECORD
  5
128A
102
{ACAD_REACTORS
330
1289
102
}
330
1289
100
AcDbXrecord
280
     1
102
RTVSPropertyOp0
 70
     1
102
RTVSPropertyOp1
 70
     1
102
RTVSPropertyOp2
 70
     1
102
RTVSPropertyOp3
 70
     1
102
RTVSPropertyOp4
 70
     1
102
RTVSPropertyOp5
 70
     1
102
RTVSPropertyOp6
 70
     1
102
RTVSPropertyOp7
 70
     1
102
RTVSPropertyOp8
 70
     1
102
RTVSPropertyOp9
 70
     1
102
RTVSPropertyOp10
 70
     1
102
RTVSPropertyOp11
 70
     1
102
RTVSPropertyOp12
 70
     1
102
RTVSPropertyOp13
 70
     1
102
RTVSPropertyOp14
 70
     1
102
RTVSPropertyOp15
 70
     1
102
RTVSPropertyOp16
 70
     1
102
RTVSPropertyOp17
 70
     1
102
RTVSPropertyOp18
 70
     1
102
RTVSPropertyOp19
 70
     1
102
RTVSPropertyOp20
 70
     1
102
RTVSPropertyOp21
 70
     1
102
RTVSPropertyOp22
 70
     1
102
RTVSPropertyOp23
 70
     1
102
RTVSPropertyOp24
 70
     1
102
RTVSPropertyOp25
 70
     1
102
RTVSPropertyOp26
 70
     1
102
RTVSPropertyOp27
 70
     1
102
RTVSPropertyOp28
 70
     1
102
RTVSPropertyOp29
 70
     1
102
RTVSPropertyOp30
 70
     1
102
RTVSPropertyOp31
 70
     1
102
RTVSPropertyOp32
 70
     1
  0
XRECORD
  5
1284
102
{ACAD_REACTORS
330
1283
102
}
330
1283
100
AcDbXrecord
280
     1
102
RTVSPropertyOp0
 70
     1
102
RTVSPropertyOp1
 70
     1
102
RTVSPropertyOp2
 70
     1
102
RTVSPropertyOp3
 70
     1
102
RTVSPropertyOp4
 70
     1
102
RTVSPropertyOp5
 70
     1
102
RTVSPropertyOp6
 70
     1
102
RTVSPropertyOp7
 70
     1
102
RTVSPropertyOp8
 70
     1
102
RTVSPropertyOp9
 70
     1
102
RTVSPropertyOp10
 70
     1
102
RTVSPropertyOp11
 70
     1
102
RTVSPropertyOp12
 70
     1
102
RTVSPropertyOp13
 70
     1
102
RTVSPropertyOp14
 70
     1
102
RTVSPropertyOp15
 70
     1
102
RTVSPropertyOp16
 70
     1
102
RTVSPropertyOp17
 70
     1
102
RTVSPropertyOp18
 70
     1
102
RTVSPropertyOp19
 70
     1
102
RTVSPropertyOp20
 70
     1
102
RTVSPropertyOp21
 70
     1
102
RTVSPropertyOp22
 70
     1
102
RTVSPropertyOp23
 70
     1
102
RTVSPropertyOp24
 70
     1
102
RTVSPropertyOp25
 70
     1
102
RTVSPropertyOp26
 70
     1
102
RTVSPropertyOp27
 70
     1
102
RTVSPropertyOp28
 70
     1
102
RTVSPropertyOp29
 70
     1
102
RTVSPropertyOp30
 70
     1
102
RTVSPropertyOp31
 70
     1
102
RTVSPropertyOp32
 70
     1
  0
XRECORD
  5
1286
102
{ACAD_REACTORS
330
1285
102
}
330
1285
100
AcDbXrecord
280
     1
102
RTVSPropertyOp0
 70
     1
102
RTVSPropertyOp1
 70
     1
102
RTVSPropertyOp2
 70
     1
102
RTVSPropertyOp3
 70
     1
102
RTVSPropertyOp4
 70
     1
102
RTVSPropertyOp5
 70
     1
102
RTVSPropertyOp6
 70
     1
102
RTVSPropertyOp7
 70
     1
102
RTVSPropertyOp8
 70
     1
102
RTVSPropertyOp9
 70
     1
102
RTVSPropertyOp10
 70
     1
102
RTVSPropertyOp11
 70
     1
102
RTVSPropertyOp12
 70
     1
102
RTVSPropertyOp13
 70
     1
102
RTVSPropertyOp14
 70
     1
102
RTVSPropertyOp15
 70
     1
102
RTVSPropertyOp16
 70
     1
102
RTVSPropertyOp17
 70
     1
102
RTVSPropertyOp18
 70
     1
102
RTVSPropertyOp19
 70
     1
102
RTVSPropertyOp20
 70
     1
102
RTVSPropertyOp21
 70
     1
102
RTVSPropertyOp22
 70
     1
102
RTVSPropertyOp23
 70
     1
102
RTVSPropertyOp24
 70
     1
102
RTVSPropertyOp25
 70
     1
102
RTVSPropertyOp26
 70
     1
102
RTVSPropertyOp27
 70
     1
102
RTVSPropertyOp28
 70
     1
102
RTVSPropertyOp29
 70
     1
102
RTVSPropertyOp30
 70
     1
102
RTVSPropertyOp31
 70
     1
102
RTVSPropertyOp32
 70
     1
  0
XRECORD
  5
127C
102
{ACAD_REACTORS
330
127B
102
}
330
127B
100
AcDbXrecord
280
     1
102
RTVSPropertyOp0
 70
     1
102
RTVSPropertyOp1
 70
     1
102
RTVSPropertyOp2
 70
     1
102
RTVSPropertyOp3
 70
     1
102
RTVSPropertyOp4
 70
     1
102
RTVSPropertyOp5
 70
     1
102
RTVSPropertyOp6
 70
     1
102
RTVSPropertyOp7
 70
     1
102
RTVSPropertyOp8
 70
     1
102
RTVSPropertyOp9
 70
     1
102
RTVSPropertyOp10
 70
     1
102
RTVSPropertyOp11
 70
     1
102
RTVSPropertyOp12
 70
     1
102
RTVSPropertyOp13
 70
     1
102
RTVSPropertyOp14
 70
     1
102
RTVSPropertyOp15
 70
     1
102
RTVSPropertyOp16
 70
     1
102
RTVSPropertyOp17
 70
     1
102
RTVSPropertyOp18
 70
     1
102
RTVSPropertyOp19
 70
     1
102
RTVSPropertyOp20
 70
     1
102
RTVSPropertyOp21
 70
     1
102
RTVSPropertyOp22
 70
     1
102
RTVSPropertyOp23
 70
     1
102
RTVSPropertyOp24
 70
     1
102
RTVSPropertyOp25
 70
     1
102
RTVSPropertyOp26
 70
     1
102
RTVSPropertyOp27
 70
     1
102
RTVSPropertyOp28
 70
     1
102
RTVSPropertyOp29
 70
     1
102
RTVSPropertyOp30
 70
     1
102
RTVSPropertyOp31
 70
     1
102
RTVSPropertyOp32
 70
     1
  0
XRECORD
  5
1270
102
{ACAD_REACTORS
330
126F
102
}
330
126F
100
AcDbXrecord
280
     1
102
RTVSPropertyOp0
 70
     1
102
RTVSPropertyOp1
 70
     1
102
RTVSPropertyOp2
 70
     1
102
RTVSPropertyOp3
 70
     1
102
RTVSPropertyOp4
 70
     1
102
RTVSPropertyOp5
 70
     1
102
RTVSPropertyOp6
 70
     1
102
RTVSPropertyOp7
 70
     1
102
RTVSPropertyOp8
 70
     1
102
RTVSPropertyOp9
 70
     1
102
RTVSPropertyOp10
 70
     1
102
RTVSPropertyOp11
 70
     1
102
RTVSPropertyOp12
 70
     1
102
RTVSPropertyOp13
 70
     1
102
RTVSPropertyOp14
 70
     1
102
RTVSPropertyOp15
 70
     1
102
RTVSPropertyOp16
 70
     1
102
RTVSPropertyOp17
 70
     1
102
RTVSPropertyOp18
 70
     1
102
RTVSPropertyOp19
 70
     1
102
RTVSPropertyOp20
 70
     1
102
RTVSPropertyOp21
 70
     1
102
RTVSPropertyOp22
 70
     1
102
RTVSPropertyOp23
 70
     1
102
RTVSPropertyOp24
 70
     1
102
RTVSPropertyOp25
 70
     1
102
RTVSPropertyOp26
 70
     1
102
RTVSPropertyOp27
 70
     1
102
RTVSPropertyOp28
 70
     1
102
RTVSPropertyOp29
 70
     1
102
RTVSPropertyOp30
 70
     1
102
RTVSPropertyOp31
 70
     1
102
RTVSPropertyOp32
 70
     1
  0
XRECORD
  5
1288
102
{ACAD_REACTORS
330
1287
102
}
330
1287
100
AcDbXrecord
280
     1
102
RTVSPropertyOp0
 70
     1
102
RTVSPropertyOp1
 70
     1
102
RTVSPropertyOp2
 70
     1
102
RTVSPropertyOp3
 70
     1
102
RTVSPropertyOp4
 70
     1
102
RTVSPropertyOp5
 70
     1
102
RTVSPropertyOp6
 70
     1
102
RTVSPropertyOp7
 70
     1
102
RTVSPropertyOp8
 70
     1
102
RTVSPropertyOp9
 70
     1
102
RTVSPropertyOp10
 70
     1
102
RTVSPropertyOp11
 70
     1
102
RTVSPropertyOp12
 70
     1
102
RTVSPropertyOp13
 70
     1
102
RTVSPropertyOp14
 70
     1
102
RTVSPropertyOp15
 70
     1
102
RTVSPropertyOp16
 70
     1
102
RTVSPropertyOp17
 70
     1
102
RTVSPropertyOp18
 70
     1
102
RTVSPropertyOp19
 70
     1
102
RTVSPropertyOp20
 70
     1
102
RTVSPropertyOp21
 70
     1
102
RTVSPropertyOp22
 70
     1
102
RTVSPropertyOp23
 70
     1
102
RTVSPropertyOp24
 70
     1
102
RTVSPropertyOp25
 70
     1
102
RTVSPropertyOp26
 70
     1
102
RTVSPropertyOp27
 70
     1
102
RTVSPropertyOp28
 70
     1
102
RTVSPropertyOp29
 70
     1
102
RTVSPropertyOp30
 70
     1
102
RTVSPropertyOp31
 70
     1
102
RTVSPropertyOp32
 70
     1
  0
ENDSEC
  0
EOF
