  0
SECTION
  2
HEADER
  9
$ACADVER
  1
AC1015
  9
$ACADMAINTVER
 70
    20
  9
$DWGCODEPAGE
  3
ANSI_1252
  9
$INSBASE
 10
0.0
 20
0.0
 30
0.0
  9
$EXTMIN
 10
0.0
 20
-0.0000000822457764
 30
0.0
  9
$EXTMAX
 10
78.11799311431099
 20
49.79040562797536
 30
0.0
  9
$LIMMIN
 10
0.0
 20
0.0
  9
$LIMMAX
 10
12.0
 20
9.0
  9
$ORTHOMODE
 70
     1
  9
$REGENMODE
 70
     1
  9
$FILLMODE
 70
     1
  9
$QTEXTMODE
 70
     0
  9
$MIRRTEXT
 70
     0
  9
$LTSCALE
 40
1.0
  9
$ATTMODE
 70
     1
  9
$TEXTSIZE
 40
0.25
  9
$TRACEWID
 40
0.05
  9
$TEXTSTYLE
  7
Standard
  9
$CLAYER
  8
0
  9
$CELTYPE
  6
ByLayer
  9
$CECOLOR
 62
   256
  9
$CELTSCALE
 40
1.0
  9
$DISPSILH
 70
     0
  9
$DIMSCALE
 40
1.0
  9
$DIMASZ
 40
0.18
  9
$DIMEXO
 40
0.0625
  9
$DIMDLI
 40
0.38
  9
$DIMRND
 40
0.0
  9
$DIMDLE
 40
0.0
  9
$DIMEXE
 40
0.18
  9
$DIMTP
 40
0.0
  9
$DIMTM
 40
0.0
  9
$DIMTXT
 40
0.18
  9
$DIMCEN
 40
0.09
  9
$DIMTSZ
 40
0.0
  9
$DIMTOL
 70
     0
  9
$DIMLIM
 70
     0
  9
$DIMTIH
 70
     0
  9
$DIMTOH
 70
     0
  9
$DIMSE1
 70
     0
  9
$DIMSE2
 70
     0
  9
$DIMTAD
 70
     1
  9
$DIMZIN
 70
     0
  9
$DIMBLK
  1

  9
$DIMASO
 70
     1
  9
$DIMSHO
 70
     1
  9
$DIMPOST
  1

  9
$DIMAPOST
  1

  9
$DIMALT
 70
     0
  9
$DIMALTD
 70
     2
  9
$DIMALTF
 40
25.4
  9
$DIMLFAC
 40
1.0
  9
$DIMTOFL
 70
     0
  9
$DIMTVP
 40
0.0
  9
$DIMTIX
 70
     0
  9
$DIMSOXD
 70
     0
  9
$DIMSAH
 70
     0
  9
$DIMBLK1
  1

  9
$DIMBLK2
  1

  9
$DIMSTYLE
  2
Standard
  9
$DIMCLRD
 70
     0
  9
$DIMCLRE
 70
     0
  9
$DIMCLRT
 70
     0
  9
$DIMTFAC
 40
1.0
  9
$DIMGAP
 40
0.09
  9
$DIMJUST
 70
     0
  9
$DIMSD1
 70
     0
  9
$DIMSD2
 70
     0
  9
$DIMTOLJ
 70
     1
  9
$DIMTZIN
 70
     0
  9
$DIMALTZ
 70
     0
  9
$DIMALTTZ
 70
     0
  9
$DIMUPT
 70
     0
  9
$DIMDEC
 70
     4
  9
$DIMTDEC
 70
     4
  9
$DIMALTU
 70
     2
  9
$DIMALTTD
 70
     2
  9
$DIMTXSTY
  7
Standard
  9
$DIMAUNIT
 70
     0
  9
$DIMADEC
 70
     0
  9
$DIMALTRND
 40
0.0
  9
$DIMAZIN
 70
     0
  9
$DIMDSEP
 70
    46
  9
$DIMATFIT
 70
     3
  9
$DIMFRAC
 70
     2
  9
$DIMLDRBLK
  1

  9
$DIMLUNIT
 70
     4
  9
$DIMLWD
 70
    -2
  9
$DIMLWE
 70
    -2
  9
$DIMTMOVE
 70
     0
  9
$LUNITS
 70
     2
  9
$LUPREC
 70
     5
  9
$SKETCHINC
 40
0.1
  9
$FILLETRAD
 40
0.0
  9
$AUNITS
 70
     0
  9
$AUPREC
 70
     0
  9
$MENU
  1
.
  9
$ELEVATION
 40
0.0
  9
$PELEVATION
 40
0.0
  9
$THICKNESS
 40
0.0
  9
$LIMCHECK
 70
     0
  9
$CHAMFERA
 40
0.5
  9
$CHAMFERB
 40
0.5
  9
$CHAMFERC
 40
1.0
  9
$CHAMFERD
 40
0.0
  9
$SKPOLY
 70
     0
  9
$TDCREATE
 40
2452445.268156470
  9
$TDUCREATE
 40
2452445.476489803
  9
$TDUPDATE
 40
2457799.485766377
  9
$TDUUPDATE
 40
2457799.694099711
  9
$TDINDWG
 40
0.2199032176
  9
$TDUSRTIMER
 40
0.2199032176
  9
$USRTIMER
 70
     1
  9
$ANGBASE
 50
0.0
  9
$ANGDIR
 70
     0
  9
$PDMODE
 70
     0
  9
$PDSIZE
 40
0.0
  9
$PLINEWID
 40
0.0
  9
$SPLFRAME
 70
     0
  9
$SPLINETYPE
 70
     6
  9
$SPLINESEGS
 70
     8
  9
$HANDSEED
  5
2732
  9
$SURFTAB1
 70
     6
  9
$SURFTAB2
 70
     6
  9
$SURFTYPE
 70
     6
  9
$SURFU
 70
     6
  9
$SURFV
 70
     6
  9
$UCSBASE
  2

  9
$UCSNAME
  2

  9
$UCSORG
 10
0.0
 20
0.0
 30
0.0
  9
$UCSXDIR
 10
1.0
 20
0.0
 30
0.0
  9
$UCSYDIR
 10
0.0
 20
1.0
 30
0.0
  9
$UCSORTHOREF
  2

  9
$UCSORTHOVIEW
 70
     0
  9
$UCSORGTOP
 10
0.0
 20
0.0
 30
0.0
  9
$UCSORGBOTTOM
 10
0.0
 20
0.0
 30
0.0
  9
$UCSORGLEFT
 10
0.0
 20
0.0
 30
0.0
  9
$UCSORGRIGHT
 10
0.0
 20
0.0
 30
0.0
  9
$UCSORGFRONT
 10
0.0
 20
0.0
 30
0.0
  9
$UCSORGBACK
 10
0.0
 20
0.0
 30
0.0
  9
$PUCSBASE
  2

  9
$PUCSNAME
  2

  9
$PUCSORG
 10
0.0
 20
0.0
 30
0.0
  9
$PUCSXDIR
 10
1.0
 20
0.0
 30
0.0
  9
$PUCSYDIR
 10
0.0
 20
1.0
 30
0.0
  9
$PUCSORTHOREF
  2

  9
$PUCSORTHOVIEW
 70
     0
  9
$PUCSORGTOP
 10
0.0
 20
0.0
 30
0.0
  9
$PUCSORGBOTTOM
 10
0.0
 20
0.0
 30
0.0
  9
$PUCSORGLEFT
 10
0.0
 20
0.0
 30
0.0
  9
$PUCSORGRIGHT
 10
0.0
 20
0.0
 30
0.0
  9
$PUCSORGFRONT
 10
0.0
 20
0.0
 30
0.0
  9
$PUCSORGBACK
 10
0.0
 20
0.0
 30
0.0
  9
$USERI1
 70
     0
  9
$USERI2
 70
     0
  9
$USERI3
 70
     0
  9
$USERI4
 70
     0
  9
$USERI5
 70
     0
  9
$USERR1
 40
0.0
  9
$USERR2
 40
0.0
  9
$USERR3
 40
0.0
  9
$USERR4
 40
0.0
  9
$USERR5
 40
0.0
  9
$WORLDVIEW
 70
     1
  9
$SHADEDGE
 70
     3
  9
$SHADEDIF
 70
    70
  9
$TILEMODE
 70
     1
  9
$MAXACTVP
 70
    48
  9
$PINSBASE
 10
0.0
 20
0.0
 30
0.0
  9
$PLIMCHECK
 70
     0
  9
$PEXTMIN
 10
1.000000000000000E+20
 20
1.000000000000000E+20
 30
1.000000000000000E+20
  9
$PEXTMAX
 10
-1.000000000000000E+20
 20
-1.000000000000000E+20
 30
-1.000000000000000E+20
  9
$PLIMMIN
 10
0.0
 20
0.0
  9
$PLIMMAX
 10
12.0
 20
9.0
  9
$UNITMODE
 70
     0
  9
$VISRETAIN
 70
     1
  9
$PLINEGEN
 70
     0
  9
$PSLTSCALE
 70
     1
  9
$TREEDEPTH
 70
  3020
  9
$CMLSTYLE
  2
Standard
  9
$CMLJUST
 70
     0
  9
$CMLSCALE
 40
1.0
  9
$PROXYGRAPHICS
 70
     1
  9
$MEASUREMENT
 70
     0
  9
$CELWEIGHT
370
    -1
  9
$ENDCAPS
280
     0
  9
$JOINSTYLE
280
     0
  9
$LWDISPLAY
290
     0
  9
$INSUNITS
 70
     1
  9
$HYPERLINKBASE
  1

  9
$STYLESHEET
  1
monochrome2.ctb
  9
$XEDIT
290
     1
  9
$CEPSNTYPE
380
     0
  9
$PSTYLEMODE
290
     1
  9
$FINGERPRINTGUID
  2
{3361D554-6BD6-4857-9903-B8679E770F42}
  9
$VERSIONGUID
  2
{335DB837-A501-4ECF-8ACD-50811F6D24D7}
  9
$EXTNAMES
290
     1
  9
$PSVPSCALE
 40
0.0
  9
$OLESTARTUP
290
     0
  0
ENDSEC
  0
SECTION
  2
CLASSES
  0
CLASS
  1
ACDBDICTIONARYWDFLT
  2
AcDbDictionaryWithDefault
  3
ObjectDBX Classes
 90
        0
280
     0
281
     0
  0
CLASS
  1
ACDBPLACEHOLDER
  2
AcDbPlaceHolder
  3
ObjectDBX Classes
 90
        0
280
     0
281
     0
  0
CLASS
  1
LAYOUT
  2
AcDbLayout
  3
ObjectDBX Classes
 90
        0
280
     0
281
     0
  0
CLASS
  1
TABLESTYLE
  2
AcDbTableStyle
  3
ObjectDBX Classes
 90
     4095
280
     0
281
     0
  0
CLASS
  1
DICTIONARYVAR
  2
AcDbDictionaryVar
  3
ObjectDBX Classes
 90
        0
280
     0
281
     0
  0
CLASS
  1
SORTENTSTABLE
  2
AcDbSortentsTable
  3
ObjectDBX Classes
 90
        0
280
     0
281
     0
  0
CLASS
  1
MATERIAL
  2
AcDbMaterial
  3
ObjectDBX Classes
 90
     1153
280
     0
281
     0
  0
CLASS
  1
VISUALSTYLE
  2
AcDbVisualStyle
  3
ObjectDBX Classes
 90
     4095
280
     0
281
     0
  0
CLASS
  1
SCALE
  2
AcDbScale
  3
ObjectDBX Classes
 90
     1153
280
     0
281
     0
  0
CLASS
  1
MLEADERSTYLE
  2
AcDbMLeaderStyle
  3
ACDB_MLEADERSTYLE_CLASS
 90
     4095
280
     0
281
     0
  0
CLASS
  1
CELLSTYLEMAP
  2
AcDbCellStyleMap
  3
ObjectDBX Classes
 90
     1152
280
     0
281
     0
  0
CLASS
  1
EXACXREFPANELOBJECT
  2
ExAcXREFPanelObject
  3
EXAC_ESW
 90
     1025
280
     0
281
     0
  0
CLASS
  1
NPOCOLLECTION
  2
AcDbImpNonPersistentObjectsCollection
  3
ObjectDBX Classes
 90
     1153
280
     0
281
     0
  0
CLASS
  1
ACAD_EVALUATION_GRAPH
  2
AcDbEvalGraph
  3
ObjectDBX Classes
 90
    33921
280
     0
281
     0
  0
CLASS
  1
ACAECUSTOBJ
  2
AcAeEditorObj
  3
AcAeEditorObj
 90
    33792
280
     0
281
     0
  0
CLASS
  1
ACDB_DYNAMICBLOCKPURGEPREVENTER_VERSION
  2
AcDbDynamicBlockPurgePreventer
  3
ObjectDBX Classes
 90
    33921
280
     0
281
     0
  0
ENDSEC
  0
SECTION
  2
TABLES
  0
TABLE
  2
VPORT
  5
8
102
{ACAD_XDICTIONARY
360
B0B
102
}
330
0
100
AcDbSymbolTable
 70
     1
  0
VPORT
  5
C8C
330
8
100
AcDbSymbolTableRecord
100
AcDbViewportTableRecord
  2
*Active
 70
     0
 10
0.0
 20
0.0
 11
1.0
 21
1.0
 12
39.05899710283664
 22
35.75566416001084
 13
0.0
 23
0.0
 14
0.5
 24
0.5
 15
0.5
 25
0.5
 16
0.0
 26
0.0
 36
1.0
 17
0.0
 27
0.0
 37
0.0
 40
71.85311062367638
 41
1.481327800829875
 42
50.0
 43
0.0
 44
0.0
 50
0.0
 51
0.0
 71
     0
 72
   100
 73
     1
 74
     3
 75
     0
 76
     0
 77
     0
 78
     0
281
     0
 65
     1
110
0.0
120
0.0
130
0.0
111
1.0
121
0.0
131
0.0
112
0.0
122
1.0
132
0.0
 79
     0
146
0.0
1001
ACAD_NAV_VCDISPLAY
1070
     3
  0
ENDTAB
  0
TABLE
  2
LTYPE
  5
5
330
0
100
AcDbSymbolTable
 70
     6
  0
LTYPE
  5
14
330
5
100
AcDbSymbolTableRecord
100
AcDbLinetypeTableRecord
  2
ByBlock
 70
     0
  3

 72
    65
 73
     0
 40
0.0
  0
LTYPE
  5
15
330
5
100
AcDbSymbolTableRecord
100
AcDbLinetypeTableRecord
  2
ByLayer
 70
     0
  3

 72
    65
 73
     0
 40
0.0
  0
LTYPE
  5
16
330
5
100
AcDbSymbolTableRecord
100
AcDbLinetypeTableRecord
  2
Continuous
 70
     0
  3
Solid line
 72
    65
 73
     0
 40
0.0
  0
LTYPE
  5
D8F
330
5
100
AcDbSymbolTableRecord
100
AcDbLinetypeTableRecord
  2
CENTER
 70
     0
  3
CENTER LINE
 72
    65
 73
     4
 40
2.0
 49
1.25
 74
     0
 49
-0.25
 74
     0
 49
0.25
 74
     0
 49
-0.25
 74
     0
  0
LTYPE
  5
D90
330
5
100
AcDbSymbolTableRecord
100
AcDbLinetypeTableRecord
  2
HIDDEN
 70
     0
  3
Hidden __ __ __ __ __ __ __ __ __ __ __ __ __ _
 72
    65
 73
     2
 40
0.375
 49
0.25
 74
     0
 49
-0.125
 74
     0
  0
LTYPE
  5
EB5
330
5
100
AcDbSymbolTableRecord
100
AcDbLinetypeTableRecord
  2
PHANTOM
 70
     0
  3
PHANTOM LINE
 72
    65
 73
     6
 40
2.5
 49
1.25
 74
     0
 49
-0.25
 74
     0
 49
0.25
 74
     0
 49
-0.25
 74
     0
 49
0.25
 74
     0
 49
-0.25
 74
     0
  0
LTYPE
  5
2633
330
5
100
AcDbSymbolTableRecord
100
AcDbLinetypeTableRecord
  2
DASHED
 70
     0
  3
Dashed __ __ __ __ __ __ __ __ __ __ __ __ __ _
 72
    65
 73
     2
 40
0.75
 49
0.5
 74
     0
 49
-0.25
 74
     0
  0
LTYPE
  5
2634
330
5
100
AcDbSymbolTableRecord
100
AcDbLinetypeTableRecord
  2
DOT
 70
     0
  3
Dot . . . . . . . . . . . . . . . . . . . . . .
 72
    65
 73
     2
 40
0.25
 49
0.0
 74
     0
 49
-0.25
 74
     0
  0
ENDTAB
  0
TABLE
  2
LAYER
  5
2
102
{ACAD_XDICTIONARY
360
A6E
102
}
330
0
100
AcDbSymbolTable
 70
    10
  0
LAYER
  5
10
102
{ACAD_XDICTIONARY
360
AE0
102
}
330
2
100
AcDbSymbolTableRecord
100
AcDbLayerTableRecord
  2
0
 70
     0
 62
     4
  6
Continuous
370
    -3
390
F
  0
LAYER
  5
216
330
2
100
AcDbSymbolTableRecord
100
AcDbLayerTableRecord
  2
Defpoints
 70
     0
 62
     7
  6
Continuous
290
     0
370
    -3
390
F
  0
LAYER
  5
D53
330
2
100
AcDbSymbolTableRecord
100
AcDbLayerTableRecord
  2
FORMAT
 70
     0
 62
     7
  6
Continuous
370
    -3
390
F
1001
AcAecLayerStandard
1000

1000

1001
AcCmTransparency
1071
        0
  0
LAYER
  5
EB6
102
{ACAD_XDICTIONARY
360
EB7
102
}
330
2
100
AcDbSymbolTableRecord
100
AcDbLayerTableRecord
  2
TEXT
 70
     0
 62
     3
  6
Continuous
370
    -3
390
F
  0
LAYER
  5
EB8
102
{ACAD_XDICTIONARY
360
EB9
102
}
330
2
100
AcDbSymbolTableRecord
100
AcDbLayerTableRecord
  2
DIME
 70
     0
 62
     2
  6
Continuous
370
    -3
390
F
  0
LAYER
  5
EBC
102
{ACAD_XDICTIONARY
360
EBD
102
}
330
2
100
AcDbSymbolTableRecord
100
AcDbLayerTableRecord
  2
HIDDEN
 70
     0
 62
     3
  6
HIDDEN
370
    -3
390
F
  0
LAYER
  5
EBE
330
2
100
AcDbSymbolTableRecord
100
AcDbLayerTableRecord
  2
CENTER
 70
     0
 62
     1
  6
CENTER
370
    -3
390
F
  0
LAYER
  5
EC0
102
{ACAD_XDICTIONARY
360
EC1
102
}
330
2
100
AcDbSymbolTableRecord
100
AcDbLayerTableRecord
  2
PHANTOM
 70
     1
 62
     7
  6
PHANTOM
370
    -3
390
F
  0
LAYER
  5
1B1F
102
{ACAD_XDICTIONARY
360
1B20
102
}
330
2
100
AcDbSymbolTableRecord
100
AcDbLayerTableRecord
  2
P_ATTR
 70
     0
 62
     3
  6
Continuous
370
    -3
390
F
  0
LAYER
  5
2635
330
2
100
AcDbSymbolTableRecord
100
AcDbLayerTableRecord
  2
Kawneer Logo-English
 70
     0
 62
     7
  6
Continuous
370
    -3
390
F
1001
AcAecLayerStandard
1000

1000

1001
AcCmTransparency
1071
        0
  0
ENDTAB
  0
TABLE
  2
STYLE
  5
3
330
0
100
AcDbSymbolTable
 70
     1
  0
STYLE
  5
11
330
3
100
AcDbSymbolTableRecord
100
AcDbTextStyleTableRecord
  2
Standard
 70
     0
 40
0.0
 41
1.0
 50
0.0
 71
     0
 42
0.25
  3
arial.ttf
  4

1001
ACAD
1000
Arial
1071
       34
  0
ENDTAB
  0
TABLE
  2
VIEW
  5
6
330
0
100
AcDbSymbolTable
 70
     1
  0
VIEW
  5
BE4
102
{ACAD_XDICTIONARY
360
BE5
102
}
330
6
100
AcDbSymbolTableRecord
100
AcDbViewTableRecord
  2
OLE1
 70
     0
 40
52.12263435097185
 10
30.94557967862881
 20
17.19620046687765
 41
62.35961351135762
 11
0.0
 21
0.0
 31
1.0
 12
0.0
 22
0.0
 32
0.0
 42
50.0
 43
0.0
 44
0.0
 50
0.0
 71
     0
281
     0
 72
     0
  0
ENDTAB
  0
TABLE
  2
UCS
  5
7
330
0
100
AcDbSymbolTable
 70
     0
  0
ENDTAB
  0
TABLE
  2
APPID
  5
9
330
0
100
AcDbSymbolTable
 70
    15
  0
APPID
  5
12
330
9
100
AcDbSymbolTableRecord
100
AcDbRegAppTableRecord
  2
ACAD
 70
     0
  0
APPID
  5
CB0
330
9
100
AcDbSymbolTableRecord
100
AcDbRegAppTableRecord
  2
ACAD_NAV_VCDISPLAY
 70
     0
  0
APPID
  5
D54
330
9
100
AcDbSymbolTableRecord
100
AcDbRegAppTableRecord
  2
AcAecLayerStandard
 70
     0
  0
APPID
  5
D55
330
9
100
AcDbSymbolTableRecord
100
AcDbRegAppTableRecord
  2
AcCmTransparency
 70
     0
  0
APPID
  5
D70
330
9
100
AcDbSymbolTableRecord
100
AcDbRegAppTableRecord
  2
ACAD_DSTYLE_DIMJAG
 70
     0
  0
APPID
  5
D71
330
9
100
AcDbSymbolTableRecord
100
AcDbRegAppTableRecord
  2
ACAD_DSTYLE_DIMTALN
 70
     0
  0
APPID
  5
EC3
330
9
100
AcDbSymbolTableRecord
100
AcDbRegAppTableRecord
  2
AcDbDynamicBlockGUID
 70
     0
  0
APPID
  5
1A59
330
9
100
AcDbSymbolTableRecord
100
AcDbRegAppTableRecord
  2
ACAD_PSEXT
 70
     0
  0
APPID
  5
2636
330
9
100
AcDbSymbolTableRecord
100
AcDbRegAppTableRecord
  2
ACAD_EXEMPT_FROM_CAD_STANDARDS
 70
     0
  0
APPID
  5
2637
330
9
100
AcDbSymbolTableRecord
100
AcDbRegAppTableRecord
  2
GradientColor1ACI
 70
     0
  0
APPID
  5
2638
330
9
100
AcDbSymbolTableRecord
100
AcDbRegAppTableRecord
  2
GradientColor2ACI
 70
     0
  0
APPID
  5
2639
330
9
100
AcDbSymbolTableRecord
100
AcDbRegAppTableRecord
  2
ACAD_MLEADERVER
 70
     0
  0
APPID
  5
263A
330
9
100
AcDbSymbolTableRecord
100
AcDbRegAppTableRecord
  2
ACAD_DSTYLE_DIMBREAK
 70
     0
  0
APPID
  5
263B
330
9
100
AcDbSymbolTableRecord
100
AcDbRegAppTableRecord
  2
ACAUTHENVIRON
 70
     0
  0
APPID
  5
263C
330
9
100
AcDbSymbolTableRecord
100
AcDbRegAppTableRecord
  2
AcDbDynamicBlockTrueName
 70
     0
  0
ENDTAB
  0
TABLE
  2
DIMSTYLE
  5
A
330
0
100
AcDbSymbolTable
 70
     3
100
AcDbDimStyleTable
 71
     1
340
27
  0
DIMSTYLE
105
27
330
A
100
AcDbSymbolTableRecord
100
AcDbDimStyleTableRecord
  2
Standard
 70
     0
 73
     0
 74
     0
 77
     1
276
     2
277
     4
340
11
  0
DIMSTYLE
105
D6F
102
{ACAD_REACTORS
330
2105
330
2106
330
2108
330
2233
330
2241
330
23B7
102
}
330
A
100
AcDbSymbolTableRecord
100
AcDbDimStyleTableRecord
  2
EXT_ON-OFF
 70
     0
  3
"
  4
mm
 40
2.0
 41
0.125
 42
0.1875
 43
0.1875
 44
0.09
 73
     0
 74
     0
 76
     1
 77
     3
 78
     3
140
0.125
141
0.0
147
0.05
171
     3
179
     2
273
     5
274
     3
276
     2
277
     5
284
     3
285
     3
286
     3
289
     0
340
11
1001
ACAD_DSTYLE_DIMJAG
1070
   388
1040
1.5
1001
ACAD_DSTYLE_DIMTALN
1070
   392
1070
     0
  0
DIMSTYLE
105
D7D
102
{ACAD_REACTORS
330
2104
330
2109
330
2234
330
23B4
330
23B5
330
23B6
102
}
330
A
100
AcDbSymbolTableRecord
100
AcDbDimStyleTableRecord
  2
EXT_ON-ON
 70
     0
  3
"
  4
mm
 40
2.0
 41
0.125
 42
0.1875
 43
0.1875
 44
0.09
 73
     0
 74
     0
 77
     3
 78
     3
140
0.125
141
0.0
147
0.05
171
     3
179
     2
273
     5
274
     3
276
     2
277
     5
284
     3
285
     3
286
     3
289
     0
340
11
1001
ACAD_DSTYLE_DIMJAG
1070
   388
1040
1.5
1001
ACAD_DSTYLE_DIMTALN
1070
   392
1070
     0
  0
ENDTAB
  0
TABLE
  2
BLOCK_RECORD
  5
1
330
0
100
AcDbSymbolTable
 70
    30
  0
BLOCK_RECORD
  5
1F
102
{ACAD_XDICTIONARY
360
4E8
102
}
330
1
100
AcDbSymbolTableRecord
100
AcDbBlockTableRecord
  2
*Model_Space
340
22
  0
BLOCK_RECORD
  5
1B
102
{ACAD_XDICTIONARY
360
4EA
102
}
330
1
100
AcDbSymbolTableRecord
100
AcDbBlockTableRecord
  2
*Paper_Space
340
1E
  0
BLOCK_RECORD
  5
23
102
{ACAD_XDICTIONARY
360
4EC
102
}
330
1
100
AcDbSymbolTableRecord
100
AcDbBlockTableRecord
  2
*Paper_Space0
340
26
  0
BLOCK_RECORD
  5
DC4
330
1
100
AcDbSymbolTableRecord
100
AcDbBlockTableRecord
  2
B175310
340
0
102
{BLKREFS
331
2111
331
2239
102
}
  0
BLOCK_RECORD
  5
DD0
102
{ACAD_XDICTIONARY
360
DD1
102
}
330
1
100
AcDbSymbolTableRecord
100
AcDbBlockTableRecord
  2
B175301
340
0
102
{BLKREFS
331
2110
102
}
1001
AcDbDynamicBlockGUID
1000
{0D9ED588-19D6-4359-BADC-371D4219EB21}
  0
BLOCK_RECORD
  5
1005
102
{ACAD_XDICTIONARY
360
1006
102
}
330
1
100
AcDbSymbolTableRecord
100
AcDbBlockTableRecord
  2
B128345
340
0
102
{BLKREFS
331
239D
102
}
1001
AcDbDynamicBlockGUID
1000
{590D88EC-A8A9-4D38-A747-E9E90D9A8563}
  0
BLOCK_RECORD
  5
1030
102
{ACAD_XDICTIONARY
360
1031
102
}
330
1
100
AcDbSymbolTableRecord
100
AcDbBlockTableRecord
  2
B028727
340
0
102
{BLKREFS
331
23AB
331
23AC
102
}
1001
AcDbDynamicBlockGUID
1000
{029B0DE5-D3FD-4B37-8328-429CDE31921F}
  0
BLOCK_RECORD
  5
1457
102
{ACAD_XDICTIONARY
360
1465
102
}
330
1
100
AcDbSymbolTableRecord
100
AcDbBlockTableRecord
  2
B175186
340
0
102
{BLKREFS
331
2113
331
223B
102
}
  0
BLOCK_RECORD
  5
14EF
330
1
100
AcDbSymbolTableRecord
100
AcDbBlockTableRecord
  2
B175304
340
0
102
{BLKREFS
331
239F
102
}
  0
BLOCK_RECORD
  5
14F3
330
1
100
AcDbSymbolTableRecord
100
AcDbBlockTableRecord
  2
B175303A
340
0
102
{BLKREFS
331
239E
102
}
  0
BLOCK_RECORD
  5
1BA6
330
1
100
AcDbSymbolTableRecord
100
AcDbBlockTableRecord
  2
ESEAL2
340
0
102
{BLKREFS
331
238C
102
}
  0
BLOCK_RECORD
  5
2027
102
{ACAD_XDICTIONARY
360
2028
102
}
330
1
100
AcDbSymbolTableRecord
100
AcDbBlockTableRecord
  2
B601188
340
0
102
{BLKREFS
331
2123
102
}
  0
BLOCK_RECORD
  5
202E
330
1
100
AcDbSymbolTableRecord
100
AcDbBlockTableRecord
  2
B027074-M
340
0
102
{BLKREFS
331
23BA
331
23BB
331
2124
331
2125
331
2254
331
2255
331
2256
331
2257
102
}
  0
BLOCK_RECORD
  5
2059
102
{ACAD_XDICTIONARY
360
212F
102
}
330
1
100
AcDbSymbolTableRecord
100
AcDbBlockTableRecord
  2
S601MD07
340
0
102
{BLKREFS
331
2089
102
}
1001
AcDbDynamicBlockGUID
1000
{1DC66D21-90CD-4C69-B53F-797A46A46A63}
  0
BLOCK_RECORD
  5
2130
330
1
100
AcDbSymbolTableRecord
100
AcDbBlockTableRecord
  2
*D12
340
0
  0
BLOCK_RECORD
  5
213D
330
1
100
AcDbSymbolTableRecord
100
AcDbBlockTableRecord
  2
*D13
340
0
  0
BLOCK_RECORD
  5
2148
330
1
100
AcDbSymbolTableRecord
100
AcDbBlockTableRecord
  2
*D14
340
0
  0
BLOCK_RECORD
  5
2153
330
1
100
AcDbSymbolTableRecord
100
AcDbBlockTableRecord
  2
*D15
340
0
  0
BLOCK_RECORD
  5
215E
330
1
100
AcDbSymbolTableRecord
100
AcDbBlockTableRecord
  2
*D16
340
0
  0
BLOCK_RECORD
  5
218F
102
{ACAD_XDICTIONARY
360
2190
102
}
330
1
100
AcDbSymbolTableRecord
100
AcDbBlockTableRecord
  2
B601187
340
0
102
{BLKREFS
331
2253
102
}
  0
BLOCK_RECORD
  5
219C
102
{ACAD_XDICTIONARY
360
225E
102
}
330
1
100
AcDbSymbolTableRecord
100
AcDbBlockTableRecord
  2
S601MD08
340
0
102
{BLKREFS
331
21C9
102
}
1001
AcDbDynamicBlockGUID
1000
{8895F7EF-6395-4384-8CF8-0F910094E18B}
  0
BLOCK_RECORD
  5
225F
330
1
100
AcDbSymbolTableRecord
100
AcDbBlockTableRecord
  2
*D19
340
0
  0
BLOCK_RECORD
  5
226A
330
1
100
AcDbSymbolTableRecord
100
AcDbBlockTableRecord
  2
*D20
340
0
  0
BLOCK_RECORD
  5
2276
330
1
100
AcDbSymbolTableRecord
100
AcDbBlockTableRecord
  2
*D21
340
0
  0
BLOCK_RECORD
  5
2286
102
{ACAD_XDICTIONARY
360
2287
102
}
330
1
100
AcDbSymbolTableRecord
100
AcDbBlockTableRecord
  2
B601191
340
0
102
{BLKREFS
331
23B8
102
}
  0
BLOCK_RECORD
  5
22C3
102
{ACAD_XDICTIONARY
360
22C4
102
}
330
1
100
AcDbSymbolTableRecord
100
AcDbBlockTableRecord
  2
B601079
340
0
102
{BLKREFS
331
23B9
102
}
  0
BLOCK_RECORD
  5
22D1
102
{ACAD_XDICTIONARY
360
23C8
102
}
330
1
100
AcDbSymbolTableRecord
100
AcDbBlockTableRecord
  2
S601MD09
340
0
102
{BLKREFS
331
2307
102
}
1001
AcDbDynamicBlockGUID
1000
{4BAC4A11-3AB9-4689-8B81-2EC22E747F19}
  0
BLOCK_RECORD
  5
23C9
330
1
100
AcDbSymbolTableRecord
100
AcDbBlockTableRecord
  2
*D25
340
0
  0
BLOCK_RECORD
  5
23D6
330
1
100
AcDbSymbolTableRecord
100
AcDbBlockTableRecord
  2
*D26
340
0
  0
BLOCK_RECORD
  5
23E2
330
1
100
AcDbSymbolTableRecord
100
AcDbBlockTableRecord
  2
*D27
340
0
  0
BLOCK_RECORD
  5
23EE
330
1
100
AcDbSymbolTableRecord
100
AcDbBlockTableRecord
  2
*D28
340
0
  0
BLOCK_RECORD
  5
263D
102
{ACAD_XDICTIONARY
360
2647
102
}
330
1
100
AcDbSymbolTableRecord
100
AcDbBlockTableRecord
  2
Kawneer Logo English
340
0
102
{BLKREFS
331
264B
102
}
1001
ACAD
1000
DesignCenter Data
1002
{
1070
     1
1070
     1
1002
}
  0
ENDTAB
  0
ENDSEC
  0
SECTION
  2
BLOCKS
  0
BLOCK
  5
20
330
1F
100
AcDbEntity
  8
0
100
AcDbBlockBegin
  2
*Model_Space
 70
     0
 10
0.0
 20
0.0
 30
0.0
  3
*Model_Space
  1

  0
ENDBLK
  5
21
330
1F
100
AcDbEntity
  8
0
100
AcDbBlockEnd
  0
BLOCK
  5
1C
330
1B
100
AcDbEntity
 67
     1
  8
0
100
AcDbBlockBegin
  2
*Paper_Space
 70
     0
 10
0.0
 20
0.0
 30
0.0
  3
*Paper_Space
  1

  0
ENDBLK
  5
1D
330
1B
100
AcDbEntity
 67
     1
  8
0
100
AcDbBlockEnd
  0
BLOCK
  5
24
330
23
100
AcDbEntity
 67
     1
  8
0
100
AcDbBlockBegin
  2
*Paper_Space0
 70
     0
 10
0.0
 20
0.0
 30
0.0
  3
*Paper_Space0
  1

  0
ENDBLK
  5
25
330
23
100
AcDbEntity
 67
     1
  8
0
100
AcDbBlockEnd
  0
BLOCK
  5
DC5
330
DC4
100
AcDbEntity
  8
0
  6
Continuous
 62
     7
100
AcDbBlockBegin
  2
B175310
 70
     0
 10
14.39954331594512
 20
6.103638012940372
 30
0.0
  3
B175310
  1
M:\PRODUCTS\SFRONT\ENCORE\WBLOCKS\B175310.DWG
  0
LWPOLYLINE
  5
DC6
330
DC4
100
AcDbEntity
  8
0
100
AcDbPolyline
 90
       49
 70
     1
 43
0.0
 10
13.9011621979816
 20
6.149087725376844
 10
13.80329770655387
 20
6.149087725376848
 42
-0.8390996311772736
 10
13.79474720297073
 20
6.197580040896497
 10
13.89552610973363
 20
6.234260563200077
 42
0.3178372451958491
 10
13.93500234595173
 20
6.291195849043365
 42
0.5176380902049651
 10
13.91487268259744
 20
6.30515280620612
 10
13.78011796832192
 20
6.256106101282785
 42
0.315298788878987
 10
13.67747311068072
 20
6.109514052440182
 10
13.67747311068072
 20
6.09866139831351
 42
0.315298788878986
 10
13.78011796832192
 20
5.95206934947091
 10
13.91487268259737
 20
5.903022644547597
 42
0.5176380902051414
 10
13.9350023459517
 20
5.916979601710359
 42
0.3178372451957014
 10
13.89552610973363
 20
5.973914887553615
 10
13.79474720297072
 20
6.010595409857199
 42
-0.8390996311772754
 10
13.80329770655386
 20
6.059087725376848
 10
13.9011621979816
 20
6.059087725376848
 42
-0.304694561002323
 10
13.98448032320793
 20
6.003118446920339
 42
0.234468587772891
 10
14.07785162946786
 20
5.920825509196404
 10
14.2576898137849
 20
5.872638012940377
 10
14.33848745106992
 20
5.872638012940377
 42
0.4142135623730951
 10
14.41348745106992
 20
5.94763801294038
 10
14.41348745106992
 20
5.968773076868963
 42
0.2679491924310998
 10
14.37598745106993
 20
6.033724982152794
 10
14.35796821318346
 20
6.044128393997141
 42
0.1316524975874127
 10
14.35046821318346
 20
6.046138012940375
 10
14.31205143631702
 20
6.046138012940375
 42
0.466307658155023
 10
14.29727932002184
 20
6.028533290275369
 10
14.30267308630053
 20
5.997943721639707
 42
-0.5486187866266593
 10
14.26536428235709
 20
5.963756501521025
 10
14.10114534352709
 20
6.007758833562423
 42
-0.3394542588633731
 10
14.06408629578221
 20
6.056055124876877
 10
14.06408629578221
 20
6.152120325876818
 42
-0.3394542588633806
 10
14.10114534352709
 20
6.200416617191272
 10
14.26553073978901
 20
6.244463551367125
 42
-0.5486187866267027
 10
14.30283954373246
 20
6.210276331248444
 10
14.29727932002183
 20
6.178742735605379
 42
0.4663076581549861
 10
14.31205143631701
 20
6.161138012940376
 10
14.35046821318346
 20
6.161138012940376
 42
0.1316524975873938
 10
14.35796821318346
 20
6.16314763188361
 10
14.37598745106992
 20
6.173551043727954
 42
0.2713314781362632
 10
14.41348148615623
 20
6.239448835618944
 42
-0.4179124203606424
 10
14.42848029317349
 20
6.254638012940375
 10
14.62594322397313
 20
6.254638012940375
 42
0.4142135623730777
 10
14.65594322397313
 20
6.284638012940376
 10
14.65594322397313
 20
6.304638012940372
 42
0.4142135623731124
 10
14.62594322397313
 20
6.334638012940377
 10
14.25433311446149
 20
6.334638012940377
 10
14.07785162946786
 20
6.287349941557287
 42
0.2344685877728889
 10
13.98448032320793
 20
6.205057003833356
 42
-0.3046945610023244
1001
ACAD
1000
ASC_BOUNDS
1002
{
1070
    19
1002
}
  0
POINT
  5
DC7
330
DC4
100
AcDbEntity
  8
0
 62
     4
100
AcDbPoint
 10
14.39954331594512
 20
6.103638012940372
 30
0.0
  0
POINT
  5
DC8
330
DC4
100
AcDbEntity
  8
0
100
AcDbPoint
 10
14.39954331594512
 20
6.103638012940372
 30
0.0
  0
POINT
  5
DC9
330
DC4
100
AcDbEntity
  8
0
100
AcDbPoint
 10
14.39954331594512
 20
6.103638012940372
 30
0.0
  0
ENDBLK
  5
DCA
330
DC4
100
AcDbEntity
  8
0
  6
Continuous
 62
     7
100
AcDbBlockEnd
  0
BLOCK
  5
DD3
330
DD0
100
AcDbEntity
  8
0
  6
Continuous
 62
     7
100
AcDbBlockBegin
  2
B175301
 70
     0
 10
0.0
 20
0.0
 30
0.0
  3
B175301
  1
M:/PRODUCTS/SFRONT/ENCORE/WBLOCKS/B175301.DWG
  0
LINE
  5
DD4
330
DD0
100
AcDbEntity
  8
PHANTOM
  6
PHANTOM
 62
     1
100
AcDbLine
 10
0.25
 20
0.0
 30
0.0
 11
0.25
 21
11.0
 31
0.0
  0
LWPOLYLINE
  5
DD5
330
DD0
100
AcDbEntity
  8
0
100
AcDbPolyline
 90
       13
 70
     1
 43
0.0
 10
-0.0512219146290427
 20
0.0221508051071968
 10
-0.0738903670019084
 20
0.0491660146611111
 42
-0.9999999999999397
 10
-0.054739255923927
 20
0.0652357049032784
 10
0.0
 20
0.0
 10
-0.054739255923927
 20
-0.0652357049032801
 42
-1.000000000000095
 10
-0.0738903670019013
 20
-0.0491660146611163
 10
-0.051221914629036
 20
-0.0221508051071986
 10
-0.1379999999999981
 20
-0.0419486110143925
 10
-0.1379999999999981
 20
-0.0840000000000014
 10
-0.2757200132924065
 20
-0.0840000000000014
 10
-0.2757200132924029
 20
0.0840000000000014
 10
-0.1379999999999981
 20
0.0840000000000014
 10
-0.1379999999999981
 20
0.0419486110143926
1001
ACAD
1000
ASC_BOUNDS
1002
{
1070
    19
1002
}
  0
ENDBLK
  5
DD6
330
DD0
100
AcDbEntity
  8
0
  6
Continuous
 62
     7
100
AcDbBlockEnd
  0
BLOCK
  5
1007
330
1005
100
AcDbEntity
  8
0
 62
     3
100
AcDbBlockBegin
  2
B128345
 70
     0
 10
0.0
 20
0.0
 30
0.0
  3
B128345
  1

  0
LINE
  5
1008
330
1005
100
AcDbEntity
  8
0
100
AcDbLine
 10
0.4374992999999999
 20
-0.09500021
 30
0.0
 11
0.5624993
 21
-0.06500024
 31
0.0
  0
LINE
  5
1009
330
1005
100
AcDbEntity
  8
0
100
AcDbLine
 10
0.5625
 20
-0.06500006
 30
0.0
 11
0.5625
 21
0.06499988
 31
0.0
  0
LINE
  5
100A
330
1005
100
AcDbEntity
  8
0
100
AcDbLine
 10
0.4374995000000001
 20
0.09499997
 30
0.0
 11
0.5624995000000001
 21
0.06499994
 31
0.0
  0
LINE
  5
100B
330
1005
100
AcDbEntity
  8
0
100
AcDbLine
 10
0.00000005626477
 20
-0.1924996
 30
0.0
 11
0.1121609
 21
-0.09499979
 31
0.0
  0
LINE
  5
100C
330
1005
100
AcDbEntity
  8
0
100
AcDbLine
 10
0.00000007245171
 20
0.1924996
 30
0.0
 11
0.112161
 21
0.09499967
 31
0.0
  0
LINE
  5
100D
330
1005
100
AcDbEntity
  8
0
100
AcDbLine
 10
0.0
 20
0.1924999
 30
0.0
 11
0.0
 21
-0.1924999
 31
0.0
  0
LINE
  5
100E
330
1005
100
AcDbEntity
  8
0
100
AcDbLine
 10
0.112161
 20
-0.09500003
 30
0.0
 11
0.4375
 21
-0.09500003
 31
0.0
  0
LINE
  5
100F
330
1005
100
AcDbEntity
  8
0
100
AcDbLine
 10
0.1121613
 20
0.09499991
 30
0.0
 11
0.4375
 21
0.09499991
 31
0.0
  0
LINE
  5
1010
330
1005
100
AcDbEntity
  8
0
100
AcDbLine
 10
0.1121609
 20
-0.09499961
 30
0.0
 11
0.1121609
 21
0.09499961
 31
0.0
  0
LINE
  5
1011
330
1005
100
AcDbEntity
  8
CENTER
 48
0.25
100
AcDbLine
 10
-0.1436461
 20
0.0
 30
0.0
 11
0.7183838
 21
0.0
 31
0.0
  0
ENDBLK
  5
1012
330
1005
100
AcDbEntity
  8
0
 62
     3
100
AcDbBlockEnd
  0
BLOCK
  5
1032
330
1030
100
AcDbEntity
  8
0
100
AcDbBlockBegin
  2
B028727
 70
     0
 10
0.0
 20
0.0
 30
0.0
  3
B028727
  1

  0
LINE
  5
1033
330
1030
100
AcDbEntity
  8
0
100
AcDbLine
 10
0.09663135
 20
0.0819999
 30
0.0
 11
1.167999
 21
0.0819999
 31
0.0
  0
LINE
  5
1034
330
1030
100
AcDbEntity
  8
0
100
AcDbLine
 10
0.09663129
 20
-0.08200002
 30
0.0
 11
1.167999
 21
-0.08200002
 31
0.0
  0
LINE
  5
1035
330
1030
100
AcDbEntity
  8
0
100
AcDbLine
 10
1.249999
 20
0.0000004320055
 30
0.0
 11
1.167997999999999
 21
-0.08199978
 31
0.0
  0
LINE
  5
1036
330
1030
100
AcDbEntity
  8
0
100
AcDbLine
 10
1.249999
 20
-0.00000004214684
 30
0.0
 11
1.167999
 21
0.0820002
 31
0.0
  0
LINE
  5
1037
330
1030
100
AcDbEntity
  8
0
100
AcDbLine
 10
0.0000001109927
 20
0.1659998
 30
0.0
 11
0.09663117
 21
0.08199978
 31
0.0
  0
LINE
  5
1038
330
1030
100
AcDbEntity
  8
0
100
AcDbLine
 10
0.0000001935601
 20
-0.1659999
 30
0.0
 11
0.09663117
 21
-0.0819999
 31
0.0
  0
LINE
  5
1039
330
1030
100
AcDbEntity
  8
0
100
AcDbLine
 10
0.09663129
 20
-0.08199984
 30
0.0
 11
0.09663129
 21
0.08199966
 31
0.0
  0
LINE
  5
103A
330
1030
100
AcDbEntity
  8
CENTER
 48
0.5
100
AcDbLine
 10
-0.1175995
 20
0.0
 30
0.0
 11
1.345183999999999
 21
0.0
 31
0.0
  0
LINE
  5
103B
330
1030
100
AcDbEntity
  8
0
100
AcDbLine
 10
0.0000001109927
 20
0.1659998
 30
0.0
 11
0.0000001935601
 21
-0.1659999
 31
0.0
  0
ENDBLK
  5
103C
330
1030
100
AcDbEntity
  8
0
100
AcDbBlockEnd
  0
BLOCK
  5
1466
330
1457
100
AcDbEntity
  8
0
100
AcDbBlockBegin
  2
B175186
 70
     0
 10
0.0
 20
0.0
 30
0.0
  3
B175186
  1

  0
POINT
  5
1458
330
1457
100
AcDbEntity
  8
0
 62
     4
100
AcDbPoint
 10
0.0
 20
0.0
 30
0.0
  0
POINT
  5
1459
330
1457
100
AcDbEntity
  8
0
 62
     4
100
AcDbPoint
 10
0.0
 20
0.0
 30
0.0
  0
POINT
  5
145A
330
1457
100
AcDbEntity
  8
0
100
AcDbPoint
 10
0.0
 20
0.0
 30
0.0
  0
POINT
  5
145B
330
1457
100
AcDbEntity
  8
0
100
AcDbPoint
 10
0.0
 20
0.0
 30
0.0
  0
POINT
  5
145C
330
1457
100
AcDbEntity
  8
0
100
AcDbPoint
 10
0.0
 20
0.0
 30
0.0
  0
POINT
  5
145D
330
1457
100
AcDbEntity
  8
0
100
AcDbPoint
 10
0.0
 20
0.0
 30
0.0
  0
POINT
  5
145E
330
1457
100
AcDbEntity
  8
0
100
AcDbPoint
 10
0.0
 20
0.0
 30
0.0
  0
POINT
  5
145F
330
1457
100
AcDbEntity
  8
0
100
AcDbPoint
 10
0.0
 20
0.0
 30
0.0
  0
POINT
  5
1460
330
1457
100
AcDbEntity
  8
0
100
AcDbPoint
 10
0.0
 20
0.0
 30
0.0
  0
POINT
  5
1461
330
1457
100
AcDbEntity
  8
0
100
AcDbPoint
 10
0.0
 20
0.0
 30
0.0
  0
POINT
  5
1462
330
1457
100
AcDbEntity
  8
0
100
AcDbPoint
 10
0.0
 20
0.0
 30
0.0
  0
LWPOLYLINE
  5
1463
330
1457
100
AcDbEntity
  8
0
100
AcDbPolyline
 90
       56
 70
     1
 43
0.0
 10
-0.3567201132924165
 20
0.897499999999896
 10
-0.3857201132924164
 20
0.897499999999896
 10
-0.3857201132924164
 20
0.8204999999998978
 42
0.9999999999999998
 10
-0.2277201132924187
 20
0.8204999999998978
 10
-0.2277201132924187
 20
0.897499999999896
 10
-0.2567201132924186
 20
0.897499999999896
 10
-0.2567201132924186
 20
0.9094999999999
 42
-0.4142135623730951
 10
-0.236720113292419
 20
0.9294999999998996
 10
-0.1877201132924195
 20
0.9294999999998996
 10
-0.1877201132924213
 20
0.7114999999998997
 42
-0.414213562373069
 10
-0.2077201132924191
 20
0.6914999999998983
 10
-0.3067201132924158
 20
0.6914999999999001
 42
-0.3568984457916546
 10
-0.4331597695553704
 20
0.7949263157893709
 42
0.3568984457916577
 10
-0.5860635399198984
 20
0.919999999999896
 10
-0.7217201132924167
 20
0.9199999999998995
 42
0.4142135623730779
 10
-0.7517201132924179
 20
0.8899999999999002
 10
-0.7517201132924232
 20
0.2492864416244451
 10
-0.3258965152292887
 20
0.2492864416244451
 42
-0.8769746978767239
 10
-0.3181318282253009
 20
0.1903086978245936
 10
-0.451648652938026
 20
0.1545324013392104
 42
-0.5773515995313876
 10
-0.4638961402022482
 20
0.1667798397235209
 10
-0.4585590179397379
 20
0.1866982511734232
 42
0.4931454260313347
 10
-0.4682182762026273
 20
0.199286441624448
 10
-0.7517201132924214
 20
0.199286441624448
 10
-0.751720113292425
 20
-0.1992864416244444
 10
-0.4682182762026273
 20
-0.1992864416244409
 42
0.4931454260313203
 10
-0.4585590179397361
 20
-0.1866982511734143
 10
-0.4638961402022482
 20
-0.1667798397235138
 42
-0.5773515995313879
 10
-0.451648652938026
 20
-0.1545324013392033
 10
-0.3181318282253009
 20
-0.1903086978245838
 42
-0.8769746978767239
 10
-0.3258965152292887
 20
-0.2492864416244362
 10
-0.7517201132924214
 20
-0.2492864416244416
 10
-0.7517201132924179
 20
-0.8900000000001
 42
0.4142135623730779
 10
-0.7217201132924185
 20
-0.9200000000000994
 10
-0.5860635399199019
 20
-0.9200000000000994
 42
0.3568984457916727
 10
-0.4331597695553793
 20
-0.794926315789569
 42
-0.3568984457916574
 10
-0.3067201132924158
 20
-0.6915000000000991
 10
-0.2077201132924191
 20
-0.6915000000000991
 42
-0.4142135623730951
 10
-0.1877201132924195
 20
-0.7115000000000986
 10
-0.1877201132924195
 20
-0.9295000000001003
 10
-0.236720113292419
 20
-0.9295000000001003
 42
-0.4142135623730951
 10
-0.2567201132924186
 20
-0.9095000000001007
 10
-0.2567201132924186
 20
-0.8975000000000967
 10
-0.2277201132924187
 20
-0.8975000000000967
 10
-0.2277201132924187
 20
-0.8205000000000985
 42
0.9999999999999998
 10
-0.3857201132924164
 20
-0.8205000000000985
 10
-0.3857201132924164
 20
-0.8975000000000967
 10
-0.3567201132924165
 20
-0.8975000000000967
 10
-0.3857201132924182
 20
-0.9800000000001016
 10
-0.4387192383263443
 20
-0.9700000000001018
 10
-0.4497201132924218
 20
-1.000000000000099
 10
-1.749720113292418
 20
-1.0000000000001
 10
-1.749720113292417
 20
0.9999999999999058
 10
-0.4497201132924147
 20
0.9999999999998969
 10
-0.4387192383263443
 20
0.9699999999998993
 10
-0.3857201132924182
 20
0.9799999999998991
  0
LWPOLYLINE
  5
1464
330
1457
100
AcDbEntity
  8
0
100
AcDbPolyline
 90
        8
 70
     1
 43
0.0
 10
-1.656720113292417
 20
-0.8770000000000983
 42
0.4142135623730993
 10
-1.626720113292417
 20
-0.9070000000000986
 10
-0.8747201132924118
 20
-0.9070000000000977
 42
0.4142135623730995
 10
-0.8447201132924124
 20
-0.8770000000000974
 10
-0.8447201132924178
 20
0.8769999999998887
 42
0.4142135623730777
 10
-0.8747201132924171
 20
0.906999999999889
 10
-1.626720113292426
 20
0.9069999999998943
 42
0.4142135623730867
 10
-1.656720113292424
 20
0.876999999999894
  0
ENDBLK
  5
1467
330
1457
100
AcDbEntity
  8
0
100
AcDbBlockEnd
  0
BLOCK
  5
14F0
330
14EF
100
AcDbEntity
  8
0
  6
Continuous
 62
     7
100
AcDbBlockBegin
  2
B175304
 70
     0
 10
3.864705054493578
 20
1.260842463831424
 30
0.0
  3
B175304
  1
M:/PRODUCTS/SFRONT/ENCORE/WBLOCKS/B175304
  0
LWPOLYLINE
  5
14F1
330
14EF
100
AcDbEntity
  8
0
100
AcDbPolyline
 90
       11
 70
     1
 43
0.0
 10
5.207946342448703
 20
1.635842463831422
 10
4.582446342448704
 20
1.635842463831422
 10
4.520446342448703
 20
1.573842463831421
 10
4.458446342448706
 20
1.635842463831426
 10
3.832946342448703
 20
1.635842463831422
 10
3.832946342448703
 20
1.323342463831426
 10
4.457946342448703
 20
1.323342463831426
 10
4.457946342448703
 20
1.511842463831424
 10
4.582946342448707
 20
1.511842463831424
 10
4.582946342448707
 20
1.323342463831426
 10
5.207946342448707
 20
1.323342463831426
  0
ENDBLK
  5
14F2
330
14EF
100
AcDbEntity
  8
0
  6
Continuous
 62
     7
100
AcDbBlockEnd
  0
BLOCK
  5
14F4
330
14F3
100
AcDbEntity
  8
0
100
AcDbBlockBegin
  2
B175303A
 70
     0
 10
0.0
 20
0.0
 30
0.0
  3
B175303A
  1

  0
POINT
  5
14F5
330
14F3
100
AcDbEntity
  8
0
100
AcDbPoint
 10
0.0
 20
0.0
 30
0.0
  0
POINT
  5
14F6
330
14F3
100
AcDbEntity
  8
0
100
AcDbPoint
 10
0.0
 20
0.0
 30
0.0
  0
POINT
  5
14F7
330
14F3
100
AcDbEntity
  8
0
100
AcDbPoint
 10
0.0
 20
0.0
 30
0.0
  0
POINT
  5
14F8
330
14F3
100
AcDbEntity
  8
0
100
AcDbPoint
 10
0.0
 20
0.0
 30
0.0
  0
POINT
  5
14F9
330
14F3
100
AcDbEntity
  8
0
100
AcDbPoint
 10
0.0
 20
0.0
 30
0.0
  0
POINT
  5
14FA
330
14F3
100
AcDbEntity
  8
0
100
AcDbPoint
 10
0.0
 20
0.0
 30
0.0
  0
POINT
  5
14FB
330
14F3
100
AcDbEntity
  8
0
100
AcDbPoint
 10
0.0
 20
0.0
 30
0.0
  0
POINT
  5
14FC
330
14F3
100
AcDbEntity
  8
0
100
AcDbPoint
 10
0.0
 20
0.0
 30
0.0
  0
LWPOLYLINE
  5
14FD
330
14F3
100
AcDbEntity
  8
0
100
AcDbPolyline
 90
       19
 70
     1
 43
0.0
 10
0.5766561603927123
 20
0.1245000000000012
 10
0.5766561603927123
 20
0.3765000000000001
 10
0.7016561603927159
 20
0.3765000000000001
 10
0.7016561603927159
 20
0.1245000000000012
 10
1.108656160392719
 20
0.1244999999999976
 10
1.108656160392717
 20
0.1865000000000023
 10
1.264656160392718
 20
0.1865000000000023
 10
1.264656160392718
 20
0.1245000000000012
 10
1.326656160392719
 20
0.1245000000000012
 10
1.326656160392717
 20
0.4995000000000012
 10
0.701156160392717
 20
0.4995000000000048
 10
0.6391561603927159
 20
0.4375
 10
0.5771561603927147
 20
0.4995000000000048
 10
-0.0483438396072842
 20
0.4995000000000048
 10
-0.0483438396072842
 20
0.1245000000000012
 10
0.0136561603927152
 20
0.1245000000000012
 10
0.0136561603927152
 20
0.1865000000000023
 10
0.1696561603927158
 20
0.1865000000000023
 10
0.1696561603927158
 20
0.1245000000000012
  0
ENDBLK
  5
14FE
330
14F3
100
AcDbEntity
  8
0
100
AcDbBlockEnd
  0
BLOCK
  5
1BA7
330
1BA6
100
AcDbEntity
  8
0
100
AcDbBlockBegin
  2
ESEAL2
 70
     0
 10
0.0
 20
0.0
 30
0.0
  3
ESEAL2
  1

  0
TEXT
  5
1BA8
330
1BA6
100
AcDbEntity
  8
TEXT
 62
     3
100
AcDbText
 10
0.2468220512709394
 20
-0.1156688473868144
 30
0.0
 40
0.2499609375
  1
E
100
AcDbText
  0
LINE
  5
1BA9
330
1BA6
100
AcDbEntity
  8
TEXT
 62
     7
100
AcDbLine
 10
0.5754660318623231
 20
0.2103251596036415
 30
0.0
 11
0.1964331166453128
 21
0.2103251596036415
 31
0.0
  0
LINE
  5
1BAA
330
1BA6
100
AcDbEntity
  8
TEXT
 62
     7
100
AcDbLine
 10
0.1964331166453128
 20
0.2103251596036415
 30
0.0
 11
0.1964331166453128
 21
0.3376272298900531
 31
0.0
  0
LINE
  5
1BAB
330
1BA6
100
AcDbEntity
  8
TEXT
 62
     7
100
AcDbLine
 10
0.1964331166453128
 20
0.3376272298900531
 30
0.0
 11
0.0
 21
0.0
 31
0.0
  0
LINE
  5
1BAC
330
1BA6
100
AcDbEntity
  8
TEXT
 62
     7
100
AcDbLine
 10
0.5754660318623231
 20
-0.2103251596036433
 30
0.0
 11
0.1964331166453128
 21
-0.2103251596036433
 31
0.0
  0
LINE
  5
1BAD
330
1BA6
100
AcDbEntity
  8
TEXT
 62
     7
100
AcDbLine
 10
0.1964331166453128
 20
-0.2103251596036433
 30
0.0
 11
0.1964331166453128
 21
-0.3376272298900567
 31
0.0
  0
LINE
  5
1BAE
330
1BA6
100
AcDbEntity
  8
TEXT
 62
     7
100
AcDbLine
 10
0.1964331166453128
 20
-0.3376272298900567
 30
0.0
 11
0.0
 21
0.0
 31
0.0
  0
LINE
  5
1BAF
330
1BA6
100
AcDbEntity
  8
TEXT
 62
     7
100
AcDbLine
 10
0.5754660318623231
 20
0.2103251596036415
 30
0.0
 11
0.5754660318623231
 21
-0.210325159603638
 31
0.0
  0
ENDBLK
  5
1BB0
330
1BA6
100
AcDbEntity
  8
0
100
AcDbBlockEnd
  0
BLOCK
  5
202A
330
2027
100
AcDbEntity
  8
0
100
AcDbBlockBegin
  2
B601188
 70
     0
 10
0.0
 20
0.0
 30
0.0
  3
B601188
  1

  0
LWPOLYLINE
  5
202B
330
2027
100
AcDbEntity
  8
0
100
AcDbPolyline
 90
       32
 70
     1
 43
0.0
 10
2.149970791487133
 20
0.920000000000005
 10
3.087900286632502
 20
0.9199999999999837
 42
-0.5558234986378395
 10
3.115699670685676
 20
0.8752816091950455
 42
0.2364346462432117
 10
3.116458619618589
 20
0.7472031250000092
 42
0.2822912805812444
 10
3.129830324455076
 20
0.7390000000000006
 10
3.177753970628726
 20
0.7390000000000006
 42
0.6446448688013859
 10
3.189034919793128
 20
0.7638863636363629
 42
-2.206052281035923
 10
3.298836158326592
 20
0.7638863636363629
 42
0.6446448688015501
 10
3.310117107490979
 20
0.7390000000000113
 10
3.358040753664637
 20
0.7390000000000006
 42
0.2822912805812429
 10
3.371412458501124
 20
0.7472031250000092
 42
0.2364346462431437
 10
3.372171407433958
 20
0.8752816091952835
 42
-0.5558234986363875
 10
3.399970791487133
 20
0.9199999999999873
 10
4.321935539059849
 20
0.9200000000000086
 42
-0.4142135623731294
 10
4.383935539059853
 20
0.8580000000000074
 10
4.383935539059846
 20
-0.8580000000000113
 42
-0.4142135623731276
 10
4.321935539059841
 20
-0.9200000000000125
 10
1.742935539059826
 20
-0.9199999999998775
 42
-0.4142135623730585
 10
1.680935539059836
 20
-0.8579999999998763
 10
1.680935539059836
 20
0.7950000000000016
 42
-0.4142135623732574
 10
1.805935539059907
 20
0.9200000000000015
 10
1.837900286632516
 20
0.9199999999999837
 42
-0.5558234986376544
 10
1.865699670685676
 20
0.8752816091950455
 42
0.2364346462432117
 10
1.866458619618588
 20
0.7472031250000092
 42
0.2822912805812467
 10
1.879830324455076
 20
0.7390000000000006
 10
1.927753970628726
 20
0.7390000000000006
 42
0.6446448688013859
 10
1.939034919793128
 20
0.7638863636363629
 42
-2.206052281035923
 10
2.048836158326592
 20
0.7638863636363629
 42
0.6446448688015501
 10
2.060117107490979
 20
0.7390000000000077
 10
2.108040753664637
 20
0.7390000000000006
 42
0.2822912805812429
 10
2.121412458501124
 20
0.7472031250000127
 42
0.2364346462431437
 10
2.122171407433958
 20
0.87528160919528
 42
-0.5558234986363852
  0
LWPOLYLINE
  5
202C
330
2027
100
AcDbEntity
  8
0
100
AcDbPolyline
 90
       66
 70
     1
 43
0.0
 10
1.59093553905984
 20
-0.8479999999999956
 42
-0.4142135623730959
 10
1.528935539059835
 20
-0.9099999999999932
 10
0.4539354390598528
 20
-0.9100000000000003
 42
-0.4142135623730964
 10
0.391935439059848
 20
-0.8479999999999991
 10
0.391935439059848
 20
-0.8090000000000403
 42
0.2264720603490347
 10
0.3529534660059619
 20
-0.7273506269580248
 42
-0.2264720603488091
 10
0.3299355390598728
 20
-0.6791386162094606
 10
0.3299355390598657
 20
0.1244364042901933
 10
0.2399355390598765
 20
0.1244364042901933
 10
0.2399355390598694
 20
0.0699364042901924
 10
0.1105729149493919
 20
0.0699364042901889
 10
0.1149092224284283
 20
0.1195006255764566
 42
0.630996391348715
 10
0.1071317699886458
 20
0.124081245117768
 10
0.0453324606631449
 20
0.0837344620980714
 42
0.5417518471030808
 10
0.0454278767631615
 20
-0.0837966787254916
 10
0.1071412199265092
 20
-0.1239871519004441
 42
0.6302003646970852
 10
0.1149092224284283
 20
-0.1194001722411857
 10
0.1105928312847533
 20
-0.0700635957098117
 10
0.2399355390598694
 20
-0.0700635957098046
 10
0.2399355390598694
 20
-0.7089999999999998
 42
-0.4142135623730603
 10
0.2249355390598759
 20
-0.7240000000000004
 10
0.1819356390598494
 20
-0.7240000000000004
 42
0.4142135623730256
 10
0.1669356390598489
 20
-0.739000000000001
 10
0.1669356390598489
 20
-0.7910000000000006
 42
0.4142135623731367
 10
0.1919356390598546
 20
-0.8160000000000062
 10
0.206935639059848
 20
-0.8159999999999991
 10
0.206935639059848
 20
-0.7940000000000007
 10
0.2869354390598511
 20
-0.7940000000000007
 42
-0.4142135623730951
 10
0.3019354390598516
 20
-0.8090000000000012
 10
0.3019354390598516
 20
-0.9169999999999946
 42
-0.4142135623730777
 10
0.2869354390598511
 20
-0.9319999999999916
 10
0.206935639059848
 20
-0.9319999999999987
 10
0.206935639059848
 20
-0.9100000000000003
 10
0.1919356390598546
 20
-0.9100000000000003
 42
0.4142135623730951
 10
0.1669356390598489
 20
-0.9349999999999988
 10
0.1669356390598489
 20
-0.950000000000003
 10
-0.1055644609401389
 20
-0.950000000000003
 42
0.9999999999999998
 10
-0.1055644609401389
 20
-1.0
 10
0.9764354890598434
 20
-1.0
 10
0.991435489059844
 20
-0.984999999999996
 10
1.006435489059844
 20
-1.000000000000003
 10
2.228935539059859
 20
-1.0
 10
2.24393553905986
 20
-0.984999999999996
 10
2.25893553905986
 20
-1.000000000000003
 10
4.463935539059852
 20
-1.0
 10
4.463935539059852
 20
0.9999999999999962
 10
1.663480118639233
 20
0.9999999999999998
 10
1.652934664093775
 20
0.9699999999999986
 10
1.599935539059847
 20
0.9799999999999966
 10
1.570935539059851
 20
0.8974999999999935
 10
1.599935539059847
 20
0.8974999999999935
 10
1.599935539059847
 20
0.8204999999999953
 42
-0.9999999999999998
 10
1.441935539059846
 20
0.8204999999999953
 10
1.441935539059846
 20
0.8974999999999935
 10
1.470935539059849
 20
0.8974999999999935
 10
1.470935539059856
 20
0.9095000000000011
 42
0.4142135623731471
 10
1.450935539059846
 20
0.9295000000000007
 10
1.401935539059854
 20
0.9294999999999971
 10
1.401935539059854
 20
0.7064999999999982
 42
0.322429136334677
 10
1.418996027030081
 20
0.6827942169771076
 10
1.528935539059849
 20
0.6424299516908148
 10
1.528935539059849
 20
0.6639999999999942
 10
1.590935539059833
 20
0.6639999999999942
 10
1.590935539059833
 20
0.3744999999999903
 10
1.605935539059833
 20
0.3594999999999968
 10
1.590935539059833
 20
0.3444999999999962
  0
ENDBLK
  5
202D
330
2027
100
AcDbEntity
  8
0
100
AcDbBlockEnd
  0
BLOCK
  5
202F
330
202E
100
AcDbEntity
  8
0
100
AcDbBlockBegin
  2
B027074-M
 70
     0
 10
0.0
 20
0.0
 30
0.0
  3
B027074-M
  1

  0
LWPOLYLINE
  5
2030
330
202E
100
AcDbEntity
  8
0
100
AcDbPolyline
 90
       31
 70
     1
 43
0.0
 10
0.0615385958537953
 20
0.1444979718355525
 10
0.0347220693148596
 20
0.1493722724335179
 10
0.0688521934359927
 20
0.2566068701152685
 10
0.1297988440960616
 20
0.2614811689939573
 10
0.205353714454843
 20
0.2585000000000051
 10
0.1952631728965243
 20
0.2895095426212411
 42
0.1257100272134179
 10
-0.0367282291255313
 20
0.3412518702148949
 42
-0.2260837189018228
 10
-0.190313789557137
 20
0.3909697288589945
 10
-0.2858690992168286
 20
0.5019103470193476
 42
0.6449762263124317
 10
-0.3118033912350138
 20
0.4901690045456872
 10
-0.3102236542069603
 20
0.3609320689163035
 42
0.1518691569180708
 10
-0.2938708776106291
 20
0.3164969145670437
 10
-0.2553676893153789
 20
0.256571135298567
 42
-0.0293454671788447
 10
-0.2379728001124799
 20
0.2046884921059461
 10
-0.2207425105289544
 20
0.0828944822689027
 42
-0.6538117075652882
 10
-0.2409833214318129
 20
0.0759077453035388
 10
-0.285075068654139
 20
0.2411566627934628
 42
0.8886355728344963
 10
-0.3102236542069601
 20
0.2390952318940735
 10
-0.3102236542069602
 20
0.1048496115014148
 42
0.0642046489364144
 10
-0.2677911922975344
 20
-0.0837666452058693
 42
0.6896355001773956
 10
-0.1651824619094271
 20
-0.0837666452058707
 42
0.0703560868358924
 10
-0.1239500000000007
 20
0.1048496115014146
 10
-0.1239500000000006
 20
0.2005524218350488
 10
-0.0506032420234126
 20
0.2005524218350488
 10
-0.0286624472059418
 20
0.1469351221345353
 10
-0.0676683051194189
 20
0.1420608232558463
 10
-0.0335381789274067
 20
0.1055035739289353
 10
-0.0652304392586864
 20
0.0835692246766441
 10
-0.0042837865277385
 20
0.029951926695407
 10
0.0517871324108659
 20
0.0957549744522811
 10
0.0274084717326622
 20
0.1055035739289353
  0
ENDBLK
  5
2031
330
202E
100
AcDbEntity
  8
0
100
AcDbBlockEnd
  0
BLOCK
  5
2083
330
2059
100
AcDbEntity
  8
0
100
AcDbBlockBegin
  2
S601MD07
 70
     2
 10
0.0
 20
0.0
 30
0.0
  3
S601MD07
  1

  0
LWPOLYLINE
  5
2101
330
2059
100
AcDbEntity
  8
0
100
AcDbPolyline
 90
        6
 70
     0
 43
0.0
 10
3.12841713362873
 20
-1.999720113292418
 10
3.12841713362873
 20
0.8845307978632312
 10
2.928437133628726
 20
0.9345507978632348
 10
3.328417133628732
 20
1.034530797863236
 10
3.12841713362873
 20
1.084530797863234
 10
3.128417133628712
 20
4.499999999999991
  0
LINE
  5
2102
330
2059
100
AcDbEntity
  8
0
100
AcDbLine
 10
-1.249999999999992
 20
-1.749720113292419
 30
0.0
 11
-1.249999999999992
 21
4.418912643140162
 31
0.0
  0
LINE
  5
2103
330
2059
100
AcDbEntity
  8
0
100
AcDbLine
 10
-0.8755327812567653
 20
3.750832870216397
 30
0.0
 11
-0.875
 21
0.0879998999999998
 31
0.0
  0
DIMENSION
  5
2104
330
2059
100
AcDbEntity
  8
DIME
100
AcDbDimension
  2
*D12
 10
-1.249999999999993
 20
-4.124720113292419
 30
0.0
 11
-2.266666666666659
 21
-4.124720113292419
 31
0.0
 70
   160
 71
     5
 42
0.3749364042902704
  3
EXT_ON-ON
100
AcDbAlignedDimension
 13
-0.8750635957097225
 23
-1.749720113292417
 33
0.0
 14
-1.249999999999992
 24
-1.749720113292419
 34
0.0
100
AcDbRotatedDimension
  0
DIMENSION
  5
2105
330
2059
100
AcDbEntity
  8
DIME
100
AcDbDimension
  2
*D13
 10
3.12841713362873
 20
-4.749720113292419
 30
0.0
 11
0.9392085668143684
 21
-4.520371545761723
 31
0.0
 70
    32
  1
O.D.
 71
     5
 42
4.378417133628722
  3
EXT_ON-OFF
100
AcDbAlignedDimension
 13
-1.249999999999992
 23
-1.749720113292419
 33
0.0
 14
3.12841713362873
 24
-1.999720113292418
 34
0.0
100
AcDbRotatedDimension
  0
DIMENSION
  5
2106
330
2059
100
AcDbEntity
  8
DIME
100
AcDbDimension
  2
*D14
 10
3.12841713362873
 20
-4.124720113292419
 30
0.0
 11
1.126676768959503
 21
-3.899720113292419
 31
0.0
 70
    32
  1
F.W.
 71
     5
 42
4.003480729338452
  3
EXT_ON-OFF
100
AcDbAlignedDimension
 13
-0.8750635957097225
 23
-1.749720113292417
 33
0.0
 14
3.12841713362873
 24
-1.999720113292418
 34
0.0
100
AcDbRotatedDimension
  0
LINE
  5
2107
330
2059
100
AcDbEntity
  8
0
100
AcDbLine
 10
1.124936404290283
 20
-1.749720113292418
 30
0.0
 11
3.12841713362873
 21
-1.749720113292418
 31
0.0
  0
DIMENSION
  5
2108
330
2059
100
AcDbEntity
  8
DIME
100
AcDbDimension
  2
*D15
 10
3.12841713362873
 20
-3.499720113292418
 30
0.0
 11
2.126676768959506
 21
-3.270371545761723
 31
0.0
 70
    32
  1
DLO
 71
     5
 42
2.003480729338446
  3
EXT_ON-OFF
100
AcDbAlignedDimension
 13
1.124936404290283
 23
-1.749720113292418
 33
0.0
 14
3.12841713362873
 24
-1.999720113292418
 34
0.0
100
AcDbRotatedDimension
  0
DIMENSION
  5
2109
330
2059
100
AcDbEntity
  8
DIME
100
AcDbDimension
  2
*D16
 10
-0.8750635957097225
 20
-3.499720113292418
 30
0.0
 11
0.1249364042902808
 21
-3.274208517112337
 31
0.0
 70
    32
 71
     5
 42
2.000000000000006
  3
EXT_ON-ON
100
AcDbAlignedDimension
 13
1.124936404290284
 23
-2.687440226584837
 33
0.0
 14
-0.8750635957097225
 24
-1.749720113292417
 34
0.0
100
AcDbRotatedDimension
  0
ARC
  5
210A
330
2059
100
AcDbEntity
  8
0
100
AcDbCircle
 10
-0.9677754330338167
 20
-0.6048685542147203
 30
0.0
 40
0.3000708128246127
100
AcDbArc
 50
71.99027209266107
 51
159.7257336509866
  0
LINE
  5
210B
330
2059
100
AcDbEntity
  8
0
100
AcDbLine
 10
-0.875
 20
0.0879998999999998
 30
0.0
 11
-1.249999999999992
 21
0.0879998999999998
 31
0.0
  0
LINE
  5
210D
330
2059
100
AcDbEntity
  8
0
100
AcDbLine
 10
1.124999999999984
 20
4.249999999999991
 30
0.0
 11
3.128417133628713
 21
4.249999999999991
 31
0.0
  0
LINE
  5
210E
330
2059
100
AcDbEntity
  8
0
100
AcDbLine
 10
1.124999999999988
 20
1.517303714454838
 30
0.0
 11
3.128417133628715
 21
1.517303714454839
 31
0.0
  0
INSERT
  5
2110
330
2059
100
AcDbEntity
  8
0
100
AcDbBlockReference
  2
B175301
 10
-0.7379999999999996
 20
0.0879998999999998
 30
0.0
 50
90.0
  0
INSERT
  5
2111
330
2059
100
AcDbEntity
  8
0
100
AcDbBlockReference
  2
B175310
 10
0.1190603647903714
 20
0.0078637550713552
 30
0.0
 41
-1.0
 50
270.0
  0
POINT
  5
2112
330
2059
100
AcDbEntity
  8
0
100
AcDbPoint
 10
0.0
 20
0.0
 30
0.0
  0
INSERT
  5
2113
330
2059
100
AcDbEntity
  8
0
100
AcDbBlockReference
  2
B175186
 10
0.1249364042901835
 20
0.0
 30
0.0
 50
90.0
  0
LINE
  5
2114
330
2059
100
AcDbEntity
  8
0
100
AcDbLine
 10
-0.8755327812567896
 20
3.750832870216397
 30
0.0
 11
-1.250532781256782
 21
3.750832870216397
 31
0.0
  0
ARC
  5
2115
330
2059
100
AcDbEntity
  8
0
100
AcDbCircle
 10
-0.9677754330338325
 20
4.454281197354901
 30
0.0
 40
0.3000708128246127
100
AcDbArc
 50
200.2742663490133
 51
288.0097279073389
  0
LINE
  5
2116
330
2059
100
AcDbEntity
  8
0
100
AcDbLine
 10
1.125
 20
-0.5170238277472621
 30
0.0
 11
3.12841713362873
 21
-0.5170238277472623
 31
0.0
  0
LINE
  5
2117
330
2059
100
AcDbEntity
  8
0
100
AcDbLine
 10
-0.8755327812567653
 20
3.750832870216397
 30
0.0
 11
-1.249999999999992
 21
0.0879998999999998
 31
0.0
  0
LINE
  5
2118
330
2059
100
AcDbEntity
  8
CENTER
100
AcDbLine
 10
-2.528829552158349
 20
0.7833456292333381
 30
0.0
 11
-0.3602515460296161
 21
0.7833456292333381
 31
0.0
  0
LINE
  5
211D
330
2059
100
AcDbEntity
  8
0
  6
Continuous
100
AcDbLine
 10
0.7534071336287325
 20
0.7476991736096768
 30
0.0
 11
3.128417133628728
 21
0.7476991736096786
 31
0.0
  0
LINE
  5
211E
330
2059
100
AcDbEntity
  8
0
  6
Continuous
100
AcDbLine
 10
0.7534071336287319
 20
0.2476991736096767
 30
0.0
 11
3.128417133628734
 21
0.2476991736096799
 31
0.0
  0
LINE
  5
211F
330
2059
100
AcDbEntity
  8
0
  6
Continuous
100
AcDbLine
 10
0.7534071336287323
 20
-0.0023008263903233
 30
0.0
 11
0.7534071336287323
 21
0.9976991736096767
 31
0.0
  0
LINE
  5
2120
330
2059
100
AcDbEntity
  8
0
  6
Continuous
100
AcDbLine
 10
1.003407133628732
 20
0.2476991736096772
 30
0.0
 11
1.003407133628732
 21
0.7476991736096766
 31
0.0
  0
LINE
  5
2121
330
2059
100
AcDbEntity
  8
0
  6
Continuous
100
AcDbLine
 10
0.7534071336287323
 20
0.9976991736096767
 30
0.0
 11
3.128417133628728
 21
0.9976991736096785
 31
0.0
  0
LINE
  5
2122
330
2059
100
AcDbEntity
  8
0
  6
Continuous
100
AcDbLine
 10
0.7534071336287323
 20
-0.0023008263903233
 30
0.0
 11
3.128417133628735
 21
-0.0023008263903201
 31
0.0
  0
INSERT
  5
2123
330
2059
100
AcDbEntity
  8
0
100
AcDbBlockReference
  2
B601188
 10
0.124999999999988
 20
-0.213935539059861
 30
0.0
 41
-1.0
 50
270.0
  0
INSERT
  5
2124
330
2059
100
AcDbEntity
  8
0
100
AcDbBlockReference
  2
B027074-M
 10
0.8664364042902779
 20
-0.3116701132924202
 30
0.0
 50
270.0
  0
INSERT
  5
2125
330
2059
100
AcDbEntity
  8
0
100
AcDbBlockReference
  2
B027074-M
 10
0.8664999999999828
 20
1.311949999999993
 30
0.0
 41
-1.0
 50
270.0
  0
LINE
  5
2126
330
2059
100
AcDbEntity
  8
0
100
AcDbLine
 10
-1.250532781256758
 20
3.750832870216397
 30
0.0
 11
-0.875000000000012
 21
0.0879998999999998
 31
0.0
  0
CIRCLE
  5
2127
330
2059
100
AcDbEntity
  8
0
100
AcDbCircle
 10
-1.061396346008499
 20
-0.0953185898405729
 30
0.0
 40
0.1821223026193319
  0
CIRCLE
  5
2128
330
2059
100
AcDbEntity
  8
0
100
AcDbCircle
 10
-1.063032781256786
 20
3.932955172835729
 30
0.0
 40
0.1821223026193319
  0
ENDBLK
  5
2084
330
2059
100
AcDbEntity
  8
0
100
AcDbBlockEnd
  0
BLOCK
  5
2131
330
2130
100
AcDbEntity
  8
0
100
AcDbBlockBegin
  2
*D12
 70
     1
 10
0.0
 20
0.0
 30
0.0
  3
*D12
  1

  0
LINE
  5
2133
330
2130
100
AcDbEntity
  8
DIME
 62
     0
370
    -2
100
AcDbLine
 10
-0.8750635957097225
 20
-2.124720113292417
 30
0.0
 11
-0.8750635957097225
 21
-4.30472011329242
 31
0.0
  0
LINE
  5
2134
330
2130
100
AcDbEntity
  8
DIME
 62
     0
370
    -2
100
AcDbLine
 10
-1.249999999999992
 20
-2.124720113292418
 30
0.0
 11
-1.249999999999993
 21
-4.30472011329242
 31
0.0
  0
LINE
  5
2135
330
2130
100
AcDbEntity
  8
DIME
 62
     0
370
    -2
100
AcDbLine
 10
-0.6250635957097226
 20
-4.124720113292419
 30
0.0
 11
-0.3750635957097226
 21
-4.124720113292419
 31
0.0
  0
LINE
  5
2136
330
2130
100
AcDbEntity
  8
DIME
 62
     0
370
    -2
100
AcDbLine
 10
-1.499999999999993
 20
-4.124720113292419
 30
0.0
 11
-2.655889040472935
 21
-4.124720113292419
 31
0.0
  0
SOLID
  5
2137
330
2130
100
AcDbEntity
  8
DIME
 62
     0
100
AcDbTrace
 10
-0.6250635957097226
 20
-4.083053446625752
 30
0.0
 11
-0.6250635957097226
 21
-4.166386779959086
 31
0.0
 12
-0.8750635957097225
 22
-4.124720113292419
 32
0.0
 13
-0.8750635957097225
 23
-4.124720113292419
 33
0.0
  0
SOLID
  5
2138
330
2130
100
AcDbEntity
  8
DIME
 62
     0
100
AcDbTrace
 10
-1.499999999999993
 20
-4.083053446625752
 30
0.0
 11
-1.499999999999993
 21
-4.166386779959086
 31
0.0
 12
-1.249999999999993
 22
-4.124720113292419
 32
0.0
 13
-1.249999999999993
 23
-4.124720113292419
 33
0.0
  0
MTEXT
  5
2139
330
2130
100
AcDbEntity
  8
DIME
 62
     0
100
AcDbMText
 10
-2.266666666666659
 20
-3.895371545761724
 30
0.0
 40
0.25
 41
0.0
 71
     5
 72
     1
  1
\A1;3/8"
 73
     1
 44
1.0
1001
ACAD
1000
MTEXTBEGIN
1070
    73
1070
     1
1070
    44
1040
1.0
1070
    74
1070
     0
1000
MTEXTEND
  0
POINT
  5
213A
330
2130
100
AcDbEntity
  8
Defpoints
 62
     0
100
AcDbPoint
 10
-0.8750635957097225
 20
-1.749720113292417
 30
0.0
  0
POINT
  5
213B
330
2130
100
AcDbEntity
  8
Defpoints
 62
     0
100
AcDbPoint
 10
-1.249999999999992
 20
-1.749720113292419
 30
0.0
  0
POINT
  5
213C
330
2130
100
AcDbEntity
  8
Defpoints
 62
     0
100
AcDbPoint
 10
-1.249999999999993
 20
-4.124720113292419
 30
0.0
  0
ENDBLK
  5
2132
330
2130
100
AcDbEntity
  8
0
100
AcDbBlockEnd
  0
BLOCK
  5
213E
330
213D
100
AcDbEntity
  8
0
100
AcDbBlockBegin
  2
*D13
 70
     1
 10
0.0
 20
0.0
 30
0.0
  3
*D13
  1

  0
LINE
  5
2140
330
213D
100
AcDbEntity
  8
DIME
 62
     0
370
    -2
100
AcDbLine
 10
-1.249999999999992
 20
-2.124720113292418
 30
0.0
 11
-1.249999999999993
 21
-4.92972011329242
 31
0.0
  0
LINE
  5
2141
330
213D
100
AcDbEntity
  8
DIME
 62
     0
370
    -2
100
AcDbLine
 10
-0.999999999999993
 20
-4.749720113292419
 30
0.0
 11
2.87841713362873
 21
-4.749720113292419
 31
0.0
  0
SOLID
  5
2142
330
213D
100
AcDbEntity
  8
DIME
 62
     0
100
AcDbTrace
 10
-0.999999999999993
 20
-4.708053446625752
 30
0.0
 11
-0.999999999999993
 21
-4.791386779959086
 31
0.0
 12
-1.249999999999993
 22
-4.749720113292419
 32
0.0
 13
-1.249999999999993
 23
-4.749720113292419
 33
0.0
  0
SOLID
  5
2143
330
213D
100
AcDbEntity
  8
DIME
 62
     0
100
AcDbTrace
 10
2.87841713362873
 20
-4.708053446625752
 30
0.0
 11
2.87841713362873
 21
-4.791386779959086
 31
0.0
 12
3.12841713362873
 22
-4.749720113292419
 32
0.0
 13
3.12841713362873
 23
-4.749720113292419
 33
0.0
  0
MTEXT
  5
2144
330
213D
100
AcDbEntity
  8
DIME
 62
     0
100
AcDbMText
 10
0.9392085668143684
 20
-4.520371545761723
 30
0.0
 40
0.25
 41
0.0
 71
     5
 72
     1
  1
\A1;O.D.
 73
     1
 44
1.0
1001
ACAD
1000
MTEXTBEGIN
1070
    73
1070
     1
1070
    44
1040
1.0
1070
    74
1070
     0
1000
MTEXTEND
  0
POINT
  5
2145
330
213D
100
AcDbEntity
  8
Defpoints
 62
     0
100
AcDbPoint
 10
-1.249999999999992
 20
-1.749720113292419
 30
0.0
  0
POINT
  5
2146
330
213D
100
AcDbEntity
  8
Defpoints
 62
     0
100
AcDbPoint
 10
3.12841713362873
 20
-1.999720113292418
 30
0.0
  0
POINT
  5
2147
330
213D
100
AcDbEntity
  8
Defpoints
 62
     0
100
AcDbPoint
 10
3.12841713362873
 20
-4.749720113292419
 30
0.0
  0
ENDBLK
  5
213F
330
213D
100
AcDbEntity
  8
0
100
AcDbBlockEnd
  0
BLOCK
  5
2149
330
2148
100
AcDbEntity
  8
0
100
AcDbBlockBegin
  2
*D14
 70
     1
 10
0.0
 20
0.0
 30
0.0
  3
*D14
  1

  0
LINE
  5
214B
330
2148
100
AcDbEntity
  8
DIME
 62
     0
370
    -2
100
AcDbLine
 10
-0.8750635957097225
 20
-2.124720113292417
 30
0.0
 11
-0.8750635957097225
 21
-4.30472011329242
 31
0.0
  0
LINE
  5
214C
330
2148
100
AcDbEntity
  8
DIME
 62
     0
370
    -2
100
AcDbLine
 10
-0.6250635957097226
 20
-4.124720113292419
 30
0.0
 11
2.87841713362873
 21
-4.124720113292419
 31
0.0
  0
SOLID
  5
214D
330
2148
100
AcDbEntity
  8
DIME
 62
     0
100
AcDbTrace
 10
-0.6250635957097226
 20
-4.083053446625752
 30
0.0
 11
-0.6250635957097226
 21
-4.166386779959086
 31
0.0
 12
-0.8750635957097225
 22
-4.124720113292419
 32
0.0
 13
-0.8750635957097225
 23
-4.124720113292419
 33
0.0
  0
SOLID
  5
214E
330
2148
100
AcDbEntity
  8
DIME
 62
     0
100
AcDbTrace
 10
2.87841713362873
 20
-4.083053446625752
 30
0.0
 11
2.87841713362873
 21
-4.166386779959086
 31
0.0
 12
3.12841713362873
 22
-4.124720113292419
 32
0.0
 13
3.12841713362873
 23
-4.124720113292419
 33
0.0
  0
MTEXT
  5
214F
330
2148
100
AcDbEntity
  8
DIME
 62
     0
100
AcDbMText
 10
1.126676768959503
 20
-3.899720113292419
 30
0.0
 40
0.25
 41
0.0
 71
     5
 72
     1
  1
\A1;F.W.
 73
     1
 44
1.0
1001
ACAD
1000
MTEXTBEGIN
1070
    73
1070
     1
1070
    44
1040
1.0
1070
    74
1070
     0
1000
MTEXTEND
  0
POINT
  5
2150
330
2148
100
AcDbEntity
  8
Defpoints
 62
     0
100
AcDbPoint
 10
-0.8750635957097225
 20
-1.749720113292417
 30
0.0
  0
POINT
  5
2151
330
2148
100
AcDbEntity
  8
Defpoints
 62
     0
100
AcDbPoint
 10
3.12841713362873
 20
-1.999720113292418
 30
0.0
  0
POINT
  5
2152
330
2148
100
AcDbEntity
  8
Defpoints
 62
     0
100
AcDbPoint
 10
3.12841713362873
 20
-4.124720113292419
 30
0.0
  0
ENDBLK
  5
214A
330
2148
100
AcDbEntity
  8
0
100
AcDbBlockEnd
  0
BLOCK
  5
2154
330
2153
100
AcDbEntity
  8
0
100
AcDbBlockBegin
  2
*D15
 70
     1
 10
0.0
 20
0.0
 30
0.0
  3
*D15
  1

  0
LINE
  5
2156
330
2153
100
AcDbEntity
  8
DIME
 62
     0
370
    -2
100
AcDbLine
 10
1.124936404290283
 20
-2.124720113292418
 30
0.0
 11
1.124936404290283
 21
-3.679720113292418
 31
0.0
  0
LINE
  5
2157
330
2153
100
AcDbEntity
  8
DIME
 62
     0
370
    -2
100
AcDbLine
 10
1.374936404290283
 20
-3.499720113292418
 30
0.0
 11
2.87841713362873
 21
-3.499720113292418
 31
0.0
  0
SOLID
  5
2158
330
2153
100
AcDbEntity
  8
DIME
 62
     0
100
AcDbTrace
 10
1.374936404290283
 20
-3.458053446625752
 30
0.0
 11
1.374936404290283
 21
-3.541386779959085
 31
0.0
 12
1.124936404290283
 22
-3.499720113292418
 32
0.0
 13
1.124936404290283
 23
-3.499720113292418
 33
0.0
  0
SOLID
  5
2159
330
2153
100
AcDbEntity
  8
DIME
 62
     0
100
AcDbTrace
 10
2.87841713362873
 20
-3.458053446625752
 30
0.0
 11
2.87841713362873
 21
-3.541386779959085
 31
0.0
 12
3.12841713362873
 22
-3.499720113292418
 32
0.0
 13
3.12841713362873
 23
-3.499720113292418
 33
0.0
  0
MTEXT
  5
215A
330
2153
100
AcDbEntity
  8
DIME
 62
     0
100
AcDbMText
 10
2.126676768959506
 20
-3.270371545761723
 30
0.0
 40
0.25
 41
0.0
 71
     5
 72
     1
  1
\A1;DLO
 73
     1
 44
1.0
1001
ACAD
1000
MTEXTBEGIN
1070
    73
1070
     1
1070
    44
1040
1.0
1070
    74
1070
     0
1000
MTEXTEND
  0
POINT
  5
215B
330
2153
100
AcDbEntity
  8
Defpoints
 62
     0
100
AcDbPoint
 10
1.124936404290283
 20
-1.749720113292418
 30
0.0
  0
POINT
  5
215C
330
2153
100
AcDbEntity
  8
Defpoints
 62
     0
100
AcDbPoint
 10
3.12841713362873
 20
-1.999720113292418
 30
0.0
  0
POINT
  5
215D
330
2153
100
AcDbEntity
  8
Defpoints
 62
     0
100
AcDbPoint
 10
3.12841713362873
 20
-3.499720113292418
 30
0.0
  0
ENDBLK
  5
2155
330
2153
100
AcDbEntity
  8
0
100
AcDbBlockEnd
  0
BLOCK
  5
215F
330
215E
100
AcDbEntity
  8
0
100
AcDbBlockBegin
  2
*D16
 70
     1
 10
0.0
 20
0.0
 30
0.0
  3
*D16
  1

  0
LINE
  5
2161
330
215E
100
AcDbEntity
  8
DIME
 62
     0
370
    -2
100
AcDbLine
 10
1.124936404290284
 20
-3.062440226584837
 30
0.0
 11
1.124936404290284
 21
-3.679720113292418
 31
0.0
  0
LINE
  5
2162
330
215E
100
AcDbEntity
  8
DIME
 62
     0
370
    -2
100
AcDbLine
 10
-0.8750635957097225
 20
-2.124720113292417
 30
0.0
 11
-0.8750635957097225
 21
-3.679720113292418
 31
0.0
  0
LINE
  5
2163
330
215E
100
AcDbEntity
  8
DIME
 62
     0
370
    -2
100
AcDbLine
 10
0.874936404290284
 20
-3.499720113292418
 30
0.0
 11
-0.6250635957097226
 21
-3.499720113292418
 31
0.0
  0
SOLID
  5
2164
330
215E
100
AcDbEntity
  8
DIME
 62
     0
100
AcDbTrace
 10
0.874936404290284
 20
-3.458053446625752
 30
0.0
 11
0.874936404290284
 21
-3.541386779959085
 31
0.0
 12
1.124936404290284
 22
-3.499720113292418
 32
0.0
 13
1.124936404290284
 23
-3.499720113292418
 33
0.0
  0
SOLID
  5
2165
330
215E
100
AcDbEntity
  8
DIME
 62
     0
100
AcDbTrace
 10
-0.6250635957097226
 20
-3.458053446625752
 30
0.0
 11
-0.6250635957097226
 21
-3.541386779959085
 31
0.0
 12
-0.8750635957097225
 22
-3.499720113292418
 32
0.0
 13
-0.8750635957097225
 23
-3.499720113292418
 33
0.0
  0
MTEXT
  5
2166
330
215E
100
AcDbEntity
  8
DIME
 62
     0
100
AcDbMText
 10
0.1249364042902808
 20
-3.274208517112337
 30
0.0
 40
0.25
 41
0.0
 71
     5
 72
     1
  1
\A1;2"
 73
     1
 44
1.0
1001
ACAD
1000
MTEXTBEGIN
1070
    73
1070
     1
1070
    44
1040
1.0
1070
    74
1070
     0
1000
MTEXTEND
  0
POINT
  5
2167
330
215E
100
AcDbEntity
  8
Defpoints
 62
     0
100
AcDbPoint
 10
1.124936404290284
 20
-2.687440226584837
 30
0.0
  0
POINT
  5
2168
330
215E
100
AcDbEntity
  8
Defpoints
 62
     0
100
AcDbPoint
 10
-0.8750635957097225
 20
-1.749720113292417
 30
0.0
  0
POINT
  5
2169
330
215E
100
AcDbEntity
  8
Defpoints
 62
     0
100
AcDbPoint
 10
-0.8750635957097225
 20
-3.499720113292418
 30
0.0
  0
ENDBLK
  5
2160
330
215E
100
AcDbEntity
  8
0
100
AcDbBlockEnd
  0
BLOCK
  5
2192
330
218F
100
AcDbEntity
  8
0
100
AcDbBlockBegin
  2
B601187
 70
     0
 10
0.0
 20
0.0
 30
0.0
  3
B601187
  1

  0
LWPOLYLINE
  5
2193
330
218F
100
AcDbEntity
  8
0
100
AcDbPolyline
 90
       56
 70
     1
 43
0.0
 10
2.165587506678093
 20
-0.738999999999999
 10
2.213511152851751
 20
-0.7390000000000026
 42
-0.2822912805811923
 10
2.226882857688245
 20
-0.7472031250000005
 42
-0.2364346462441565
 10
2.227641806621008
 20
-0.8752816091953175
 42
0.5558234986361778
 10
2.255441190674076
 20
-0.920000000000007
 10
3.193370685819843
 20
-0.920000000000007
 42
0.5558234986361751
 10
3.22117006987289
 20
-0.8752816091952961
 42
-0.2364346462441434
 10
3.221929018805688
 20
-0.747203125000004
 42
-0.2822912805811892
 10
3.235300723642183
 20
-0.7390000000000026
 10
3.28322436981584
 20
-0.7390000000000026
 42
-0.6446448688013373
 10
3.294505318980249
 20
-0.7638863636363756
 42
2.206052281035921
 10
3.404306557513677
 20
-0.7638863636363791
 42
-0.6446448688013671
 10
3.415587506678093
 20
-0.7390000000000026
 10
3.463511152851751
 20
-0.7390000000000026
 42
-0.2822912805812272
 10
3.476882857688245
 20
-0.7472031250000005
 42
-0.2364346462441549
 10
3.477641806620972
 20
-0.8752816091953956
 42
0.5558234986361731
 10
3.50544119067409
 20
-0.9200000000000034
 10
4.36440593824696
 20
-0.9200000000000034
 42
0.4142135623730951
 10
4.48940593824696
 20
-0.7950000000000035
 10
4.489405938246967
 20
0.7950000000000035
 42
0.4142135623731325
 10
4.364405938246946
 20
0.9200000000000105
 10
3.505441190674083
 20
0.9199999999999963
 42
0.5558234986361059
 10
3.477641806620994
 20
0.8752816091953601
 42
-0.2364346462441317
 10
3.476882857688231
 20
0.7472031250000076
 42
-0.2822912805812033
 10
3.463511152851751
 20
0.7390000000000026
 10
3.415587506678093
 20
0.7390000000000026
 42
-0.6446448688013442
 10
3.404306557513699
 20
0.7638863636363649
 42
2.206052281035918
 10
3.294505318980235
 20
0.7638863636363649
 42
-0.6446448688013703
 10
3.28322436981584
 20
0.7390000000000026
 10
3.235300723642183
 20
0.738999999999999
 42
-0.2822912805812282
 10
3.221929018805695
 20
0.7472031250000076
 42
-0.2364346462441069
 10
3.221170069872897
 20
0.8752816091952677
 42
0.5558234986361605
 10
3.193370685819807
 20
0.9199999999999999
 10
2.255441190674083
 20
0.9199999999999963
 42
0.5558234986361059
 10
2.227641806620994
 20
0.8752816091953601
 42
-0.2364346462441286
 10
2.226882857688231
 20
0.7472031250000076
 42
-0.2822912805812033
 10
2.213511152851751
 20
0.7390000000000061
 10
2.165587506678093
 20
0.7390000000000026
 42
-0.6446448688013442
 10
2.154306557513699
 20
0.7638863636363649
 42
2.206052281035918
 10
2.044505318980235
 20
0.7638863636363649
 42
-0.6446448688013703
 10
2.03322436981584
 20
0.7390000000000026
 10
1.985300723642183
 20
0.738999999999999
 42
-0.2822912805812282
 10
1.971929018805695
 20
0.7472031250000076
 42
-0.2364346462441071
 10
1.971170069872897
 20
0.8752816091952713
 42
0.5558234986361436
 10
1.943370685819807
 20
0.9199999999999999
 10
1.911405938246964
 20
0.9199999999999963
 42
0.4142135623730909
 10
1.786405938246964
 20
0.7949999999999964
 10
1.786405938246964
 20
-0.7950000000000071
 42
0.4142135623730951
 10
1.911405938246964
 20
-0.920000000000007
 10
1.943370685819843
 20
-0.920000000000007
 42
0.5558234986362029
 10
1.971170069872904
 20
-0.8752816091953175
 42
-0.236434646244142
 10
1.971929018805688
 20
-0.747203125000004
 42
-0.2822912805811926
 10
1.985300723642183
 20
-0.7390000000000026
 10
2.03322436981584
 20
-0.7390000000000026
 42
-0.6446448688013373
 10
2.044505318980249
 20
-0.7638863636363756
 42
2.206052281035931
 10
2.154306557513677
 20
-0.7638863636363756
 42
-0.644644868801409
  0
LWPOLYLINE
  5
2194
330
218F
100
AcDbEntity
  8
0
100
AcDbPolyline
 90
       64
 70
     1
 43
0.0
 10
0.0
 20
0.0474999999999977
 42
-0.4142135623730951
 10
0.0150000000000006
 20
0.0624999999999982
 10
0.0211379166170644
 20
0.0624999999999947
 42
-0.3271555718464516
 10
0.0506971467229178
 20
0.040840873382562
 42
0.5011464070124432
 10
0.0733894367165107
 20
0.0329261282543332
 10
0.213109459297641
 20
0.1241448408275776
 42
-0.6309963913483419
 10
0.2208869117374235
 20
0.1195642212862626
 10
0.2165506042583871
 20
0.069999999999995
 10
0.3455506042583849
 20
0.069999999999995
 10
0.3455506042583849
 20
0.0624999999999947
 10
1.696405938246968
 20
0.0624999999999947
 10
1.696405938246954
 20
0.4044999999999864
 10
1.711405938246969
 20
0.419499999999994
 10
1.696405938246968
 20
0.4344999999999946
 10
1.696405938246968
 20
0.6639999999999962
 10
1.63440593824697
 20
0.6639999999999962
 10
1.63440593824697
 20
0.6424299516908168
 10
1.524466426217195
 20
0.6827942169771096
 42
-0.3224291363345324
 10
1.507405938246968
 20
0.7065000000000073
 10
1.507405938246968
 20
0.9294999999999991
 10
1.556405938246967
 20
0.9294999999999991
 42
-0.4142135623731212
 10
1.576405938246971
 20
0.909500000000003
 10
1.576405938246971
 20
0.8974999999999955
 10
1.547405938246967
 20
0.8974999999999955
 10
1.547405938246967
 20
0.8204999999999973
 42
0.9999999999999998
 10
1.705405938246968
 20
0.8204999999999973
 10
1.705405938246968
 20
0.8974999999999955
 10
1.676405938246965
 20
0.8974999999999955
 10
1.705405938246968
 20
0.9799999999999986
 10
1.758405063280889
 20
0.9700000000000006
 10
1.768950517826347
 20
1.000000000000001
 10
4.569405938246966
 20
0.9999999999999946
 10
4.569405938246966
 20
-0.9999999999999982
 10
1.768950517826347
 20
-1.000000000000001
 10
1.758405063280889
 20
-0.9700000000000041
 10
1.705405938246968
 20
-0.9800000000000022
 10
1.676405938246965
 20
-0.8975000000000026
 10
1.705405938246968
 20
-0.8975000000000026
 10
1.705405938246968
 20
-0.8205000000000044
 42
1.000000000000022
 10
1.547405938246967
 20
-0.820500000000008
 10
1.547405938246967
 20
-0.8975000000000026
 10
1.576405938246971
 20
-0.8975000000000026
 10
1.576405938246971
 20
-0.9095000000000066
 42
-0.4142135623730951
 10
1.556405938246967
 20
-0.9295000000000062
 10
1.507405938246968
 20
-0.9295000000000062
 10
1.507405938246968
 20
-0.7065000000000037
 42
-0.3224291363344953
 10
1.524466426217195
 20
-0.6827942169771202
 10
1.63440593824697
 20
-0.6424299516908274
 10
1.63440593824697
 20
-0.6640000000000033
 10
1.696405938246968
 20
-0.6640000000000033
 10
1.696405938246961
 20
-0.4344999999999981
 10
1.711405938246969
 20
-0.4194999999999976
 10
1.696405938246968
 20
-0.404499999999997
 10
1.696405938246968
 20
-0.0625000000000053
 10
0.3455506042583849
 20
-0.0625000000000053
 10
0.345550604258392
 20
-0.0700000000000056
 10
0.2165705205937556
 20
-0.0700000000000056
 10
0.2208869117374235
 20
-0.1193365765313832
 42
-0.6302003646968584
 10
0.2131189092355044
 20
-0.123923556190638
 10
0.0733610870199328
 20
-0.0329070479797888
 42
0.5004340286155992
 10
0.0506971467229747
 20
-0.0408408733825798
 42
-0.3271555718464083
 10
0.0211379166170644
 20
-0.0624999999999982
 10
0.0150000000000006
 20
-0.0624999999999982
 42
-0.4142135623730951
 10
0.0
 20
-0.0474999999999977
  0
ENDBLK
  5
2195
330
218F
100
AcDbEntity
  8
0
100
AcDbBlockEnd
  0
BLOCK
  5
21C7
330
219C
100
AcDbEntity
  8
0
100
AcDbBlockBegin
  2
S601MD08
 70
     2
 10
0.0
 20
0.0
 30
0.0
  3
S601MD08
  1

  0
LWPOLYLINE
  5
2230
330
219C
100
AcDbEntity
  8
0
100
AcDbPolyline
 90
        6
 70
     0
 43
0.0
 10
3.141700323578017
 20
-1.999720113292418
 10
3.141700323578017
 20
0.8845307978632312
 10
2.941720323578014
 20
0.9345507978632348
 10
3.34170032357802
 20
1.034530797863236
 10
3.141700323578017
 20
1.084530797863234
 10
3.141763919287649
 20
4.496391866488149
  0
LINE
  5
2231
330
219C
100
AcDbEntity
  8
0
100
AcDbLine
 10
1.124936404290283
 20
-1.749720113292418
 30
0.0
 11
3.141700323578017
 21
-1.749720113292418
 31
0.0
  0
LINE
  5
2232
330
219C
100
AcDbEntity
  8
0
100
AcDbLine
 10
1.122291844698196
 20
-0.5170238277472621
 30
0.0
 11
3.139055763985931
 21
-0.5170238277472621
 31
0.0
  0
DIMENSION
  5
2233
330
219C
100
AcDbEntity
  8
DIME
100
AcDbDimension
  2
*D19
 10
3.141700323578017
 20
-3.499720113292418
 30
0.0
 11
2.13331836393415
 21
-3.270371545761722
 31
0.0
 70
    32
  1
DLO
 71
     5
 42
2.016763919287734
  3
EXT_ON-OFF
100
AcDbAlignedDimension
 13
1.124936404290283
 23
-1.749720113292418
 33
0.0
 14
3.141700323578017
 24
-1.999720113292418
 34
0.0
100
AcDbRotatedDimension
  0
DIMENSION
  5
2234
330
219C
100
AcDbEntity
  8
DIME
100
AcDbDimension
  2
*D20
 10
-0.8750635957097225
 20
-3.499720113292418
 30
0.0
 11
0.1249364042902807
 21
-3.274208517112336
 31
0.0
 70
    32
 71
     5
 42
2.000000000000006
  3
EXT_ON-ON
100
AcDbAlignedDimension
 13
1.124936404290283
 23
-1.749720113292418
 33
0.0
 14
-0.8750635957097225
 24
-1.749720113292417
 34
0.0
100
AcDbRotatedDimension
  0
LINE
  5
2236
330
219C
100
AcDbEntity
  8
0
100
AcDbLine
 10
1.125063595709633
 20
4.246391866488149
 30
0.0
 11
3.14176391928765
 21
4.246391866488149
 31
0.0
  0
LINE
  5
2237
330
219C
100
AcDbEntity
  8
0
100
AcDbLine
 10
1.124936404290282
 20
1.51656840732665
 30
0.0
 11
3.141708376584224
 21
1.51656840732665
 31
0.0
  0
INSERT
  5
2239
330
219C
100
AcDbEntity
  8
0
100
AcDbBlockReference
  2
B175310
 10
0.1190603647903714
 20
0.0078637550713552
 30
0.0
 41
-1.0
 50
270.0
  0
POINT
  5
223A
330
219C
100
AcDbEntity
  8
0
100
AcDbPoint
 10
0.0
 20
0.0
 30
0.0
  0
INSERT
  5
223B
330
219C
100
AcDbEntity
  8
0
100
AcDbBlockReference
  2
B175186
 10
0.1249364042901835
 20
0.0
 30
0.0
 50
90.0
  0
LINE
  5
223C
330
219C
100
AcDbEntity
  8
0
100
AcDbLine
 10
-0.8750635957097234
 20
-1.749720113292418
 30
0.0
 11
-2.891827514997457
 21
-1.749720113292418
 31
0.0
  0
LINE
  5
223D
330
219C
100
AcDbEntity
  8
0
100
AcDbLine
 10
-0.875063595709723
 20
-0.5173037144548964
 30
0.0
 11
-2.891827514997457
 21
-0.5173037144548964
 31
0.0
  0
LWPOLYLINE
  5
223E
330
219C
100
AcDbEntity
  8
0
100
AcDbPolyline
 90
        6
 70
     0
 43
0.0
 10
-2.891827514997457
 20
-1.999720113292418
 10
-2.891827514997457
 20
0.8845307978632312
 10
-2.691847514997453
 20
0.9345507978632348
 10
-3.09182751499746
 20
1.034530797863236
 10
-2.891827514997457
 20
1.084530797863234
 10
-2.891763919287813
 20
4.496391866488149
  0
LINE
  5
223F
330
219C
100
AcDbEntity
  8
0
100
AcDbLine
 10
-0.8750635957097991
 20
1.516568407328638
 30
0.0
 11
-2.891819461991249
 21
1.516568407328638
 31
0.0
  0
LINE
  5
2240
330
219C
100
AcDbEntity
  8
0
100
AcDbLine
 10
-0.8750635957097976
 20
4.246391866488149
 30
0.0
 11
-2.891763919287813
 21
4.246391866488149
 31
0.0
  0
DIMENSION
  5
2241
330
219C
100
AcDbEntity
  8
DIME
100
AcDbDimension
  2
*D21
 10
-2.891827514997457
 20
-3.499720113292418
 30
0.0
 11
-1.88344555535359
 21
-3.270371545761722
 31
0.0
 70
    32
  1
DLO
 71
     5
 42
2.016763919287734
  3
EXT_ON-OFF
100
AcDbAlignedDimension
 13
-0.8750635957097232
 23
-1.749720113292418
 33
0.0
 14
-2.891827514997457
 24
-1.999720113292418
 34
0.0
100
AcDbRotatedDimension
  0
POINT
  5
2242
330
219C
100
AcDbEntity
  8
0
100
AcDbPoint
 10
0.1249364042901835
 20
0.0
 30
0.0
  0
LINE
  5
2247
330
219C
100
AcDbEntity
  8
0
  6
Continuous
100
AcDbLine
 10
0.7585697256416266
 20
0.7476991736096768
 30
0.0
 11
3.141700323578017
 21
0.7476991736096786
 31
0.0
  0
LINE
  5
2248
330
219C
100
AcDbEntity
  8
0
  6
Continuous
100
AcDbLine
 10
0.7585697256416261
 20
0.2476991736096767
 30
0.0
 11
3.141700323578017
 21
0.2476991736096799
 31
0.0
  0
LINE
  5
2249
330
219C
100
AcDbEntity
  8
0
  6
Continuous
100
AcDbLine
 10
0.7585697256416264
 20
-0.0023008263903233
 30
0.0
 11
0.7585697256416264
 21
0.9976991736096767
 31
0.0
  0
LINE
  5
224A
330
219C
100
AcDbEntity
  8
0
  6
Continuous
100
AcDbLine
 10
1.008569725641626
 20
0.2476991736096772
 30
0.0
 11
1.008569725641626
 21
0.7476991736096766
 31
0.0
  0
LINE
  5
224B
330
219C
100
AcDbEntity
  8
0
  6
Continuous
100
AcDbLine
 10
0.7585697256416264
 20
0.9976991736096767
 30
0.0
 11
3.194351723168556
 21
0.9976991736096785
 31
0.0
  0
LINE
  5
224C
330
219C
100
AcDbEntity
  8
0
  6
Continuous
100
AcDbLine
 10
0.7585697256416264
 20
-0.0023008263903233
 30
0.0
 11
3.141700323578017
 21
-0.0023008263903201
 31
0.0
  0
LINE
  5
224D
330
219C
100
AcDbEntity
  8
0
  6
Continuous
100
AcDbLine
 10
-0.5086969170610663
 20
0.7476991736096768
 30
0.0
 11
-2.891827514997457
 21
0.7476991736096786
 31
0.0
  0
LINE
  5
224E
330
219C
100
AcDbEntity
  8
0
  6
Continuous
100
AcDbLine
 10
-0.5086969170610657
 20
0.2476991736096767
 30
0.0
 11
-2.891827514997457
 21
0.2476991736096799
 31
0.0
  0
LINE
  5
224F
330
219C
100
AcDbEntity
  8
0
  6
Continuous
100
AcDbLine
 10
-0.508696917061066
 20
-0.0023008263903233
 30
0.0
 11
-0.508696917061066
 21
0.9976991736096767
 31
0.0
  0
LINE
  5
2250
330
219C
100
AcDbEntity
  8
0
  6
Continuous
100
AcDbLine
 10
-0.7586969170610662
 20
0.2476991736096772
 30
0.0
 11
-0.758696917061066
 21
0.7476991736096766
 31
0.0
  0
LINE
  5
2251
330
219C
100
AcDbEntity
  8
0
  6
Continuous
100
AcDbLine
 10
-0.508696917061066
 20
0.9976991736096767
 30
0.0
 11
-2.944478914587995
 21
0.9976991736096785
 31
0.0
  0
LINE
  5
2252
330
219C
100
AcDbEntity
  8
0
  6
Continuous
100
AcDbLine
 10
-0.508696917061066
 20
-0.0023008263903233
 30
0.0
 11
-2.891827514997457
 21
-0.0023008263903201
 31
0.0
  0
INSERT
  5
2253
330
219C
100
AcDbEntity
  8
0
100
AcDbBlockReference
  2
B601187
 10
0.1249364042902025
 20
-0.3230140717588166
 30
0.0
 50
90.0
  0
INSERT
  5
2254
330
219C
100
AcDbEntity
  8
0
100
AcDbBlockReference
  2
B027074-M
 10
0.8664364042902779
 20
-0.3116701132924202
 30
0.0
 50
270.0
  0
INSERT
  5
2255
330
219C
100
AcDbEntity
  8
0
100
AcDbBlockReference
  2
B027074-M
 10
0.8664364042902779
 20
1.311214692871807
 30
0.0
 41
-1.0
 50
270.0
  0
INSERT
  5
2256
330
219C
100
AcDbEntity
  8
0
100
AcDbBlockReference
  2
B027074-M
 10
-0.6165635957098724
 20
-0.3116701132924202
 30
0.0
 41
-1.0
 50
90.0
  0
INSERT
  5
2257
330
219C
100
AcDbEntity
  8
0
100
AcDbBlockReference
  2
B027074-M
 10
-0.6165635957098724
 20
1.311214692871807
 30
0.0
 50
90.00000000000003
  0
ENDBLK
  5
21C8
330
219C
100
AcDbEntity
  8
0
100
AcDbBlockEnd
  0
BLOCK
  5
2260
330
225F
100
AcDbEntity
  8
0
100
AcDbBlockBegin
  2
*D19
 70
     1
 10
0.0
 20
0.0
 30
0.0
  3
*D19
  1

  0
LINE
  5
2262
330
225F
100
AcDbEntity
  8
DIME
 62
     0
370
    -2
100
AcDbLine
 10
1.124936404290283
 20
-2.124720113292418
 30
0.0
 11
1.124936404290283
 21
-3.679720113292417
 31
0.0
  0
LINE
  5
2263
330
225F
100
AcDbEntity
  8
DIME
 62
     0
370
    -2
100
AcDbLine
 10
1.374936404290283
 20
-3.499720113292418
 30
0.0
 11
2.891700323578017
 21
-3.499720113292418
 31
0.0
  0
SOLID
  5
2264
330
225F
100
AcDbEntity
  8
DIME
 62
     0
100
AcDbTrace
 10
1.374936404290283
 20
-3.458053446625751
 30
0.0
 11
1.374936404290283
 21
-3.541386779959084
 31
0.0
 12
1.124936404290283
 22
-3.499720113292418
 32
0.0
 13
1.124936404290283
 23
-3.499720113292418
 33
0.0
  0
SOLID
  5
2265
330
225F
100
AcDbEntity
  8
DIME
 62
     0
100
AcDbTrace
 10
2.891700323578017
 20
-3.458053446625751
 30
0.0
 11
2.891700323578017
 21
-3.541386779959084
 31
0.0
 12
3.141700323578017
 22
-3.499720113292418
 32
0.0
 13
3.141700323578017
 23
-3.499720113292418
 33
0.0
  0
MTEXT
  5
2266
330
225F
100
AcDbEntity
  8
DIME
 62
     0
100
AcDbMText
 10
2.13331836393415
 20
-3.270371545761722
 30
0.0
 40
0.25
 41
0.0
 71
     5
 72
     1
  1
\A1;DLO
 73
     1
 44
1.0
1001
ACAD
1000
MTEXTBEGIN
1070
    73
1070
     1
1070
    44
1040
1.0
1070
    74
1070
     0
1000
MTEXTEND
  0
POINT
  5
2267
330
225F
100
AcDbEntity
  8
Defpoints
 62
     0
100
AcDbPoint
 10
1.124936404290283
 20
-1.749720113292418
 30
0.0
  0
POINT
  5
2268
330
225F
100
AcDbEntity
  8
Defpoints
 62
     0
100
AcDbPoint
 10
3.141700323578017
 20
-1.999720113292418
 30
0.0
  0
POINT
  5
2269
330
225F
100
AcDbEntity
  8
Defpoints
 62
     0
100
AcDbPoint
 10
3.141700323578017
 20
-3.499720113292418
 30
0.0
  0
ENDBLK
  5
2261
330
225F
100
AcDbEntity
  8
0
100
AcDbBlockEnd
  0
BLOCK
  5
226B
330
226A
100
AcDbEntity
  8
0
100
AcDbBlockBegin
  2
*D20
 70
     1
 10
0.0
 20
0.0
 30
0.0
  3
*D20
  1

  0
LINE
  5
226D
330
226A
100
AcDbEntity
  8
DIME
 62
     0
370
    -2
100
AcDbLine
 10
1.124936404290283
 20
-2.124720113292418
 30
0.0
 11
1.124936404290283
 21
-3.679720113292417
 31
0.0
  0
LINE
  5
226E
330
226A
100
AcDbEntity
  8
DIME
 62
     0
370
    -2
100
AcDbLine
 10
-0.8750635957097225
 20
-2.124720113292417
 30
0.0
 11
-0.8750635957097225
 21
-3.679720113292417
 31
0.0
  0
LINE
  5
226F
330
226A
100
AcDbEntity
  8
DIME
 62
     0
370
    -2
100
AcDbLine
 10
0.8749364042902838
 20
-3.499720113292418
 30
0.0
 11
-0.6250635957097226
 21
-3.499720113292418
 31
0.0
  0
SOLID
  5
2270
330
226A
100
AcDbEntity
  8
DIME
 62
     0
100
AcDbTrace
 10
0.8749364042902838
 20
-3.458053446625751
 30
0.0
 11
0.8749364042902838
 21
-3.541386779959084
 31
0.0
 12
1.124936404290283
 22
-3.499720113292418
 32
0.0
 13
1.124936404290283
 23
-3.499720113292418
 33
0.0
  0
SOLID
  5
2271
330
226A
100
AcDbEntity
  8
DIME
 62
     0
100
AcDbTrace
 10
-0.6250635957097226
 20
-3.458053446625751
 30
0.0
 11
-0.6250635957097226
 21
-3.541386779959084
 31
0.0
 12
-0.8750635957097225
 22
-3.499720113292418
 32
0.0
 13
-0.8750635957097225
 23
-3.499720113292418
 33
0.0
  0
MTEXT
  5
2272
330
226A
100
AcDbEntity
  8
DIME
 62
     0
100
AcDbMText
 10
0.1249364042902807
 20
-3.274208517112336
 30
0.0
 40
0.25
 41
0.0
 71
     5
 72
     1
  1
\A1;2"
 73
     1
 44
1.0
1001
ACAD
1000
MTEXTBEGIN
1070
    73
1070
     1
1070
    44
1040
1.0
1070
    74
1070
     0
1000
MTEXTEND
  0
POINT
  5
2273
330
226A
100
AcDbEntity
  8
Defpoints
 62
     0
100
AcDbPoint
 10
1.124936404290283
 20
-1.749720113292418
 30
0.0
  0
POINT
  5
2274
330
226A
100
AcDbEntity
  8
Defpoints
 62
     0
100
AcDbPoint
 10
-0.8750635957097225
 20
-1.749720113292417
 30
0.0
  0
POINT
  5
2275
330
226A
100
AcDbEntity
  8
Defpoints
 62
     0
100
AcDbPoint
 10
-0.8750635957097225
 20
-3.499720113292418
 30
0.0
  0
ENDBLK
  5
226C
330
226A
100
AcDbEntity
  8
0
100
AcDbBlockEnd
  0
BLOCK
  5
2277
330
2276
100
AcDbEntity
  8
0
100
AcDbBlockBegin
  2
*D21
 70
     1
 10
0.0
 20
0.0
 30
0.0
  3
*D21
  1

  0
LINE
  5
2279
330
2276
100
AcDbEntity
  8
DIME
 62
     0
370
    -2
100
AcDbLine
 10
-0.8750635957097232
 20
-2.124720113292418
 30
0.0
 11
-0.8750635957097234
 21
-3.679720113292417
 31
0.0
  0
LINE
  5
227A
330
2276
100
AcDbEntity
  8
DIME
 62
     0
370
    -2
100
AcDbLine
 10
-1.125063595709723
 20
-3.499720113292418
 30
0.0
 11
-2.641827514997457
 21
-3.499720113292418
 31
0.0
  0
SOLID
  5
227B
330
2276
100
AcDbEntity
  8
DIME
 62
     0
100
AcDbTrace
 10
-1.125063595709723
 20
-3.458053446625751
 30
0.0
 11
-1.125063595709723
 21
-3.541386779959084
 31
0.0
 12
-0.8750635957097234
 22
-3.499720113292418
 32
0.0
 13
-0.8750635957097234
 23
-3.499720113292418
 33
0.0
  0
SOLID
  5
227C
330
2276
100
AcDbEntity
  8
DIME
 62
     0
100
AcDbTrace
 10
-2.641827514997457
 20
-3.458053446625751
 30
0.0
 11
-2.641827514997457
 21
-3.541386779959084
 31
0.0
 12
-2.891827514997457
 22
-3.499720113292418
 32
0.0
 13
-2.891827514997457
 23
-3.499720113292418
 33
0.0
  0
MTEXT
  5
227D
330
2276
100
AcDbEntity
  8
DIME
 62
     0
100
AcDbMText
 10
-1.88344555535359
 20
-3.270371545761722
 30
0.0
 40
0.25
 41
0.0
 71
     5
 72
     1
  1
\A1;DLO
 73
     1
 44
1.0
1001
ACAD
1000
MTEXTBEGIN
1070
    73
1070
     1
1070
    44
1040
1.0
1070
    74
1070
     0
1000
MTEXTEND
  0
POINT
  5
227E
330
2276
100
AcDbEntity
  8
Defpoints
 62
     0
100
AcDbPoint
 10
-0.8750635957097232
 20
-1.749720113292418
 30
0.0
  0
POINT
  5
227F
330
2276
100
AcDbEntity
  8
Defpoints
 62
     0
100
AcDbPoint
 10
-2.891827514997457
 20
-1.999720113292418
 30
0.0
  0
POINT
  5
2280
330
2276
100
AcDbEntity
  8
Defpoints
 62
     0
100
AcDbPoint
 10
-2.891827514997457
 20
-3.499720113292418
 30
0.0
  0
ENDBLK
  5
2278
330
2276
100
AcDbEntity
  8
0
100
AcDbBlockEnd
  0
BLOCK
  5
2289
330
2286
100
AcDbEntity
  8
0
100
AcDbBlockBegin
  2
B601191
 70
     0
 10
0.0
 20
0.0
 30
0.0
  3
B601191
  1

  0
LWPOLYLINE
  5
228A
330
2286
100
AcDbEntity
  8
0
100
AcDbPolyline
 90
      112
 70
     1
 43
0.0
 10
5.172499999999988
 20
-0.0475000000001362
 10
6.304999999999996
 20
-0.0475000000001362
 10
6.305000000000003
 20
-0.1375000000001325
 10
6.249999999999996
 20
-0.1375000000001307
 10
6.250000000000003
 20
-0.207500000000131
 10
6.375000000000003
 20
-0.207500000000131
 10
6.374999999999996
 20
0.0424999999998654
 10
3.422310538071233
 20
0.0424999999998654
 10
3.389381605883105
 20
0.0095710678117289
 42
0.6681786379192989
 10
3.39645267369497
 20
-0.0075000000001353
 10
3.424810538071245
 20
-0.0075000000001335
 42
-0.6681786379193442
 10
3.431881605883109
 20
-0.0245710678120013
 10
3.381902130665235
 20
-0.0745505430298845
 10
3.30751246165234
 20
-0.0745505430298827
 42
-0.4142135623731298
 10
3.277512461652346
 20
-0.0445505430298834
 10
3.277512461652346
 20
0.0424999999998654
 10
3.047310538071233
 20
0.0424999999998654
 10
3.014381605883105
 20
0.0095710678117289
 42
0.6681786379192989
 10
3.02145267369497
 20
-0.0075000000001353
 10
3.049810538071245
 20
-0.0075000000001335
 42
-0.6681786379193442
 10
3.056881605883109
 20
-0.0245710678120013
 10
3.006902130665235
 20
-0.0745505430298845
 10
2.93251246165234
 20
-0.0745505430298827
 42
-0.4142135623731298
 10
2.902512461652346
 20
-0.0445505430298834
 10
2.902512461652346
 20
0.0424999999998654
 10
2.701999999999994
 20
0.0424999999998654
 10
2.686999999999994
 20
0.0274999999998666
 10
2.672
 20
0.0424999999998654
 10
2.484310538071245
 20
0.0424999999998654
 10
2.451381605883117
 20
0.0095710678117289
 42
0.6681786379192989
 10
2.458452673694981
 20
-0.0075000000001353
 10
2.486810538071257
 20
-0.0075000000001335
 42
-0.6681786379193442
 10
2.493881605883121
 20
-0.0245710678119995
 10
2.443902130665247
 20
-0.0745505430298827
 10
2.243097869334764
 20
-0.0745505430298845
 10
2.193118394116883
 20
-0.0245710678119995
 42
-0.6681786379195104
 10
2.200189461928754
 20
-0.0075000000001353
 10
2.228547326305029
 20
-0.0075000000001335
 42
0.6681786379192535
 10
2.235618394116894
 20
0.0095710678117271
 10
2.202689461928766
 20
0.0424999999998654
 10
1.972487538347653
 20
0.0424999999998654
 10
1.972487538347653
 20
-0.0445505430298834
 42
-0.4142135623730951
 10
1.942487538347652
 20
-0.0745505430298827
 10
1.868097869334764
 20
-0.0745505430298845
 10
1.818118394116883
 20
-0.0245710678119995
 42
-0.6681786379195104
 10
1.825189461928754
 20
-0.0075000000001353
 10
1.853547326305029
 20
-0.0075000000001335
 42
0.6681786379192535
 10
1.860618394116894
 20
0.0095710678117271
 10
1.827689461928766
 20
0.0424999999998654
 10
1.734310538071259
 20
0.0424999999998654
 10
1.701381605883131
 20
0.0095710678117289
 42
0.6681786379192989
 10
1.708452673694996
 20
-0.0075000000001353
 10
1.736810538071271
 20
-0.0075000000001335
 42
-0.6681786379193442
 10
1.743881605883135
 20
-0.0245710678119995
 10
1.693902130665261
 20
-0.0745505430298845
 10
1.619512461652366
 20
-0.0745505430298827
 42
-0.4142135623731298
 10
1.589512461652372
 20
-0.0445505430298834
 10
1.589512461652372
 20
0.0424999999998654
 10
1.034487538347679
 20
0.0424999999998654
 10
1.034487538347679
 20
-0.0445505430298834
 42
-0.4142135623730951
 10
1.004487538347678
 20
-0.0745505430298827
 10
0.9300978693347907
 20
-0.0745505430298845
 10
0.8801183941169092
 20
-0.0245710678119995
 42
-0.6681786379195558
 10
0.8871894619287807
 20
-0.0075000000001335
 10
0.9155473263050559
 20
-0.0075000000001335
 42
0.6681786379192989
 10
0.9226183941169203
 20
0.0095710678117289
 10
0.8896894619287927
 20
0.0424999999998654
 10
0.5571814132329572
 20
0.0424999999998654
 10
0.3545833024919567
 20
-0.1275000000001398
 10
0.0699999999999967
 20
-0.1275000000001398
 10
0.0700000000000323
 20
0.1275000000001434
 42
1.142857142848204
 10
0.0000000000000036
 20
0.1275000000001363
 10
-0.0000000000000036
 20
-0.1275000000001363
 42
0.4142135623731081
 10
0.0799999999999948
 20
-0.2075000000001381
 10
0.3992581595018585
 20
-0.2075000000001381
 10
0.5899387343169274
 20
-0.0475000000001344
 10
0.7757681056914727
 20
-0.0475000000001362
 10
0.8727670074865976
 20
-0.14449890179527
 10
0.9379999999999917
 20
-0.14449890179527
 10
0.9379999999999917
 20
-0.2075000000001381
 10
1.027999999999995
 20
-0.2075000000001381
 10
1.027999999999995
 20
-0.1445000000001322
 10
1.070896167691689
 20
-0.1445000000001499
 42
0.2446552227773719
 10
1.124451285803221
 20
-0.0475000000001344
 10
1.499548714196816
 20
-0.0475000000001344
 42
0.2446552227773735
 10
1.553103832308384
 20
-0.1445000000001322
 10
1.704475269101404
 20
-0.1445000000001322
 10
2.20195542042067
 20
-0.144500000000134
 10
2.216955420420664
 20
-0.1295000000001334
 10
2.231955420420664
 20
-0.144500000000134
 10
2.50123189430857
 20
-0.1445000000001357
 10
2.598231894308558
 20
-0.0475000000001344
 10
2.7971121797808
 20
-0.0475000000001344
 10
2.7971121797808
 20
-0.1445000000001375
 10
2.952111979780799
 20
-0.1445000000001375
 42
-0.9999999999999998
 10
2.982111979780814
 20
-0.1445000000001375
 10
3.129111879780797
 20
-0.1445000000001375
 10
3.129111879780797
 20
-0.0475000000001344
 10
3.187548714196783
 20
-0.0475000000001327
 42
0.2446552227769974
 10
3.241103832308144
 20
-0.1445000000001357
 10
3.451955420420677
 20
-0.1445000000001357
 10
3.466955420420671
 20
-0.1295000000001369
 10
3.481955420420664
 20
-0.144500000000134
 10
3.701249999999962
 20
-0.1445000000001393
 10
3.701249999999955
 20
-0.0475000000001327
 10
3.887499999999977
 20
-0.0475000000001362
 10
3.904999999999976
 20
-0.0300000000001362
 10
3.92249999999996
 20
-0.0475000000001327
 10
4.202111979780799
 20
-0.0475000000001362
 42
-0.9999999999999998
 10
4.232111979780807
 20
-0.0475000000001362
 10
5.137499999999992
 20
-0.0475000000001362
 10
5.15499999999999
 20
-0.0300000000001362
  0
ENDBLK
  5
228B
330
2286
100
AcDbEntity
  8
0
100
AcDbBlockEnd
  0
BLOCK
  5
22C6
330
22C3
100
AcDbEntity
  8
0
100
AcDbBlockBegin
  2
B601079
 70
     0
 10
0.0
 20
0.0
 30
0.0
  3
B601079
  1

  0
LWPOLYLINE
  5
22C7
330
22C3
100
AcDbEntity
  8
0
100
AcDbPolyline
 90
       12
 70
     1
 43
0.0
 10
4.357800000000001
 20
1.874999999999999
 10
2.682800000000007
 20
1.874999999999999
 10
2.585300000000007
 20
1.972499999999995
 10
1.866500000000005
 20
1.972499999999999
 10
1.769000000000005
 20
1.874999999999999
 10
0.0940000000000048
 20
1.874999999999999
 10
0.0940000000000048
 20
0.1249999999999991
 10
5.857800000000004
 20
0.125
 10
5.857800000000004
 20
1.874999999999999
 10
4.451800000000009
 20
1.874999999999999
 10
4.451800000000005
 20
1.624999999999999
 10
4.357800000000004
 20
1.624999999999999
  0
LWPOLYLINE
  5
22C8
330
22C3
100
AcDbEntity
  8
0
100
AcDbPolyline
 90
       24
 70
     1
 43
0.0
 10
2.854600000000004
 20
2.0625
 10
1.595800000000004
 20
2.0625
 42
0.8533345914292086
 10
1.592072100425042
 20
2.039093740106459
 10
1.697886696318544
 20
2.004510433155902
 42
-0.8533345914291928
 10
1.691673530360276
 20
1.965500000000002
 10
1.097790381196013
 20
1.9655
 42
-0.5773080015851985
 10
1.089129493202122
 20
1.980498901795129
 10
1.132130443996945
 20
2.055000549102434
 42
0.5773080015851911
 10
1.1278
 20
2.0625
 10
1.037800000000004
 20
2.0625
 10
0.9293000000000048
 20
2.0
 10
0.0
 20
2.0
 10
0.0
 20
0.0
 10
5.951800000000002
 20
0.0
 10
5.951800000000002
 20
2.0
 10
3.521300000000003
 20
2.0
 10
3.412800000000004
 20
2.0625
 10
3.322600000000008
 20
2.0625
 42
0.5763447263134277
 10
3.318262347856599
 20
2.055013079437779
 10
3.360998177822914
 20
1.980473841124439
 42
-0.5763447263135673
 10
3.352322873536099
 20
1.9655
 10
2.759242745734194
 20
1.9655
 42
-0.852709700737763
 10
2.753002081955852
 20
2.004501424041523
 10
2.858344398267011
 20
2.039099145575086
 42
0.8527097007377607
  0
ENDBLK
  5
22C9
330
22C3
100
AcDbEntity
  8
0
100
AcDbBlockEnd
  0
BLOCK
  5
2305
330
22D1
100
AcDbEntity
  8
0
100
AcDbBlockBegin
  2
S601MD09
 70
     2
 10
0.0
 20
0.0
 30
0.0
  3
S601MD09
  1

  0
LWPOLYLINE
  5
238B
330
22D1
100
AcDbEntity
  8
0
100
AcDbPolyline
 90
        6
 70
     0
 43
0.0
 10
-0.2235331232327837
 20
4.124999999999991
 10
2.176456876767211
 20
4.124999999999992
 10
2.226476876767215
 20
3.925019999999987
 10
2.326456876767217
 20
4.324999999999994
 10
2.376456876767214
 20
4.124999999999992
 10
6.283716876767215
 20
4.124999999999988
  0
INSERT
  5
238C
330
22D1
100
AcDbEntity
  8
0
100
AcDbBlockReference
  2
ESEAL2
 10
3.376445478350365
 20
3.448954657838972
 30
0.0
 50
50.0
  0
LINE
  5
238D
330
22D1
100
AcDbEntity
  8
0
100
AcDbLine
 10
1.25953445130471
 20
3.311999999999999
 30
0.0
 11
1.25953445130471
 21
4.124999999999985
 31
0.0
  0
LINE
  5
238E
330
22D1
100
AcDbEntity
  8
0
100
AcDbLine
 10
1.087466876767219
 20
3.312
 30
0.0
 11
1.087466876767223
 21
4.124999999999991
 31
0.0
  0
LINE
  5
238F
330
22D1
100
AcDbEntity
  8
0
100
AcDbLine
 10
3.293770591222062
 20
3.312
 30
0.0
 11
3.293770591222062
 21
4.124999999999991
 31
0.0
  0
LINE
  5
2390
330
22D1
100
AcDbEntity
  8
0
100
AcDbLine
 10
3.465466876767223
 20
3.312
 30
0.0
 11
3.465466876767223
 21
3.398244188219355
 31
0.0
  0
LINE
  5
2393
330
22D1
100
AcDbEntity
  8
0
100
AcDbLine
 10
0.0264668767672163
 20
2.249999999999999
 30
0.0
 11
0.0264668767672163
 21
4.124999999999988
 31
0.0
  0
LINE
  5
2394
330
22D1
100
AcDbEntity
  8
0
100
AcDbLine
 10
6.026466876767216
 20
2.000000000000002
 30
0.0
 11
6.026466876767216
 21
4.124999999999988
 31
0.0
  0
POINT
  5
2395
330
22D1
100
AcDbEntity
  8
0
100
AcDbPoint
 10
6.026466876767216
 20
2.249999999999999
 30
0.0
  0
POINT
  5
2396
330
22D1
100
AcDbEntity
  8
0
100
AcDbPoint
 10
6.026466876767216
 20
2.249999999999999
 30
0.0
  0
POINT
  5
2397
330
22D1
100
AcDbEntity
  8
0
100
AcDbPoint
 10
6.026466876767216
 20
2.249999999999999
 30
0.0
  0
LWPOLYLINE
  5
2398
330
22D1
100
AcDbEntity
  8
0
100
AcDbPolyline
 90
        4
 70
     0
 43
0.0
 10
1.776652521263386
 20
4.124999999999991
 10
1.776652521263386
 20
2.937499999999974
 10
2.026652521263386
 20
2.937499999999974
 10
2.026652521263386
 20
4.124999999999991
  0
INSERT
  5
239D
330
22D1
100
AcDbEntity
  8
HIDDEN
100
AcDbBlockReference
  2
B128345
 10
2.337943524819866
 20
2.24603599572699
 30
0.0
 41
-1.0
 50
90.0
  0
INSERT
  5
239E
330
22D1
100
AcDbEntity
  8
0
100
AcDbBlockReference
  2
B175303A
 10
1.662991603813672
 20
2.438413055039587
 30
0.0
  0
INSERT
  5
239F
330
22D1
100
AcDbEntity
  8
0
100
AcDbBlockReference
  2
B175304
 10
1.646406476251261
 20
2.187913055039592
 30
0.0
  0
LWPOLYLINE
  5
23A0
330
22D1
100
AcDbEntity
  8
0
100
AcDbPolyline
 90
       38
 70
     1
 43
0.0
 10
3.162466876767222
 20
3.132500000000002
 10
3.162466876767222
 20
3.2095
 10
3.133466876767222
 20
3.2095
 10
3.162466876767222
 20
3.292000000000003
 10
3.215466001801146
 20
3.282000000000005
 10
3.226011456346601
 20
3.311999999999999
 10
3.465466876767219
 20
3.311999999999999
 10
3.465466876767219
 20
2.250000000000001
 10
3.037919550462188
 20
2.250000000000003
 10
3.037919550462191
 20
2.197836231204441
 10
3.074510767537795
 20
2.199114024661362
 42
-0.6808757648995555
 10
3.081930830316686
 20
2.182049048579305
 10
3.047618035272027
 20
2.147736253534651
 42
-0.1989123673796363
 10
3.02640483183643
 20
2.138949456970248
 10
3.017919550462192
 20
2.138949456970248
 42
-0.4142135623730951
 10
2.987919550462194
 20
2.168949456970247
 10
2.987919550462191
 20
2.260000000000005
 42
-0.4142135623731
 10
3.037919550462191
 20
2.310000000000005
 10
3.365466876767218
 20
2.310000000000002
 42
0.4142135623730984
 10
3.415466876767219
 20
2.360000000000002
 10
3.415466876767215
 20
3.192000000000005
 42
0.4142135623730938
 10
3.365466876767214
 20
3.242000000000006
 10
3.306466876767224
 20
3.242000000000006
 42
0.4142135623730951
 10
3.212466876767223
 20
3.148000000000005
 10
3.212466876767223
 20
2.942951138029775
 42
-0.4142135623730951
 10
3.162466876767222
 20
2.892951138029774
 10
3.16096604599231
 20
2.892951138029774
 10
3.16096604599231
 20
2.976
 10
3.091466876767224
 20
2.976
 10
3.091466876767224
 20
2.954429951690821
 10
2.981527364734322
 20
2.994794216978265
 42
-0.3224291362977661
 10
2.964466876767222
 20
3.018500000000019
 10
2.964466876767218
 20
3.241500000000003
 10
3.013466876767225
 20
3.241500000000003
 42
-0.4142135623730951
 10
3.033466876767221
 20
3.221500000000007
 10
3.033466876767224
 20
3.2095
 10
3.004466876767221
 20
3.2095
 10
3.004466876767221
 20
3.132500000000002
 42
0.9999999999999998
  0
LWPOLYLINE
  5
23A1
330
22D1
100
AcDbEntity
  8
0
100
AcDbPolyline
 90
       38
 70
     1
 43
0.0
 10
1.390466876767213
 20
3.132500000000002
 10
1.390466876767213
 20
3.2095
 10
1.419466876767216
 20
3.2095
 10
1.390466876767213
 20
3.292000000000003
 10
1.337467751733292
 20
3.282000000000005
 10
1.326922297187834
 20
3.311999999999999
 10
1.087466876767216
 20
3.311999999999999
 10
1.087466876767216
 20
2.250000000000001
 10
1.515014203072247
 20
2.250000000000003
 10
1.515014203072247
 20
2.197836231204441
 10
1.478422985996644
 20
2.199114024661362
 42
0.6808757648995555
 10
1.471002923217753
 20
2.182049048579305
 10
1.505315718262409
 20
2.147736253534651
 42
0.1989123673796363
 10
1.526528921698005
 20
2.138949456970248
 10
1.535014203072243
 20
2.138949456970248
 42
0.4142135623730951
 10
1.565014203072244
 20
2.168949456970247
 10
1.565014203072244
 20
2.260000000000005
 42
0.4142135623731
 10
1.515014203072247
 20
2.310000000000005
 10
1.187466876767217
 20
2.310000000000002
 42
-0.4142135623730984
 10
1.13746687676722
 20
2.360000000000002
 10
1.13746687676722
 20
3.192000000000005
 42
-0.4142135623730938
 10
1.187466876767224
 20
3.242000000000006
 10
1.246466876767215
 20
3.242000000000006
 42
-0.4142135623730951
 10
1.340466876767216
 20
3.148000000000005
 10
1.340466876767216
 20
2.942951138029775
 42
0.4142135623730951
 10
1.390466876767213
 20
2.892951138029774
 10
1.391967707542129
 20
2.892951138029774
 10
1.391967707542129
 20
2.976
 10
1.461466876767211
 20
2.976
 10
1.461466876767211
 20
2.954429951690821
 10
1.571406388800113
 20
2.994794216978265
 42
0.3224291362977661
 10
1.588466876767213
 20
3.018500000000019
 10
1.58846687676722
 20
3.241500000000003
 10
1.539466876767214
 20
3.241500000000003
 42
0.4142135623730951
 10
1.519466876767218
 20
3.221500000000007
 10
1.519466876767211
 20
3.2095
 10
1.548466876767214
 20
3.2095
 10
1.548466876767214
 20
3.132500000000002
 42
-0.9999999999999998
  0
LINE
  5
23A2
330
22D1
100
AcDbEntity
  8
0
100
AcDbLine
 10
6.026466876767216
 20
2.249999999999999
 30
0.0
 11
3.037919550462191
 21
2.249999999999999
 31
0.0
  0
LINE
  5
23A3
330
22D1
100
AcDbEntity
  8
0
100
AcDbLine
 10
1.515014203072247
 20
2.249999999999998
 30
0.0
 11
0.0264668767672163
 21
2.249999999999998
 31
0.0
  0
LINE
  5
23A4
330
22D1
100
AcDbEntity
  8
0
100
AcDbLine
 10
2.987919550462191
 20
2.249999999999999
 30
0.0
 11
1.565014203072244
 21
2.249999999999998
 31
0.0
  0
LWPOLYLINE
  5
23A5
330
22D1
100
AcDbEntity
  8
0
100
AcDbPolyline
 90
        5
 70
     0
 43
0.0
 10
3.025884385433876
 20
2.303222613728168
 10
3.153463726680911
 20
2.452885498243086
 10
3.186745314842006
 20
2.685694469855102
 10
3.192292238926079
 20
2.835357380177113
 10
3.16096604599231
 20
2.892951138029774
  0
HATCH
  5
23A6
330
22D1
100
AcDbEntity
  8
0
100
AcDbHatch
 10
0.0
 20
0.0
 30
0.0
210
0.0
220
0.0
230
1.0
  2
ANSI31
 70
     0
 71
     0
 91
        9
 92
        7
 72
     1
 73
     1
 93
       14
 10
3.415466876767215
 20
3.192000000000005
 42
0.4142135623730912
 10
3.365466876767214
 20
3.242000000000006
 42
0.0
 10
3.306466876767224
 20
3.242000000000006
 42
0.4142135623730951
 10
3.212466876767223
 20
3.148000000000005
 42
0.0
 10
3.212466876767223
 20
2.942951138029775
 42
-0.4142135623730951
 10
3.162466876767222
 20
2.892951138029774
 42
0.0
 10
3.16096604599231
 20
2.892951138029774
 42
0.0
 10
3.192292238926079
 20
2.835357380177105
 42
0.0
 10
3.186745314842006
 20
2.68569446985513
 42
0.0
 10
3.153463726680911
 20
2.452885498243091
 42
0.0
 10
3.031284823536331
 20
2.30955784901123
 42
-0.0332840497040288
 10
3.037919550462191
 20
2.310000000000005
 42
0.0
 10
3.365466876767218
 20
2.310000000000002
 42
0.4142135623730973
 10
3.415466876767219
 20
2.360000000000002
 42
0.0
 97
        0
 92
        7
 72
     1
 73
     1
 93
        4
 10
3.037919550462191
 20
2.209999999999999
 42
-0.1989123673795734
 10
3.040848482650325
 20
2.21707106781186
 42
0.0
 10
3.073777414838453
 20
2.249999999999999
 42
0.0
 10
3.037919550462191
 20
2.249999999999999
 42
0.0
 97
        0
 92
        7
 72
     1
 73
     1
 93
       16
 10
2.928979338419566
 20
2.162949456970247
 42
0.4142135623730788
 10
2.958979338419563
 20
2.13294945697025
 42
0.0
 10
3.033369007432455
 20
2.132949456970249
 42
0.0
 10
3.083348482650333
 20
2.182928932188133
 42
0.6681786379192883
 10
3.076277414838465
 20
2.199999999999998
 42
0.0
 10
3.047919550462189
 20
2.199999999999998
 42
-0.4142135623731391
 10
3.037919550462191
 20
2.209999999999998
 42
0.0
 10
3.037919550462188
 20
2.197836231204441
 42
0.0
 10
3.074510767537795
 20
2.199114024661362
 42
-0.680875764899494
 10
3.081930830316686
 20
2.182049048579306
 42
0.0
 10
3.047618035272027
 20
2.147736253534651
 42
-0.1989123673796509
 10
3.02640483183643
 20
2.138949456970248
 42
0.0
 10
3.017919550462192
 20
2.138949456970248
 42
-0.4142135623730897
 10
2.987919550462194
 20
2.168949456970246
 42
0.0
 10
2.987919550462191
 20
2.249999999999999
 42
0.0
 10
2.928979338419566
 20
2.249999999999999
 42
0.0
 97
        0
 92
        7
 72
     1
 73
     1
 93
        9
 10
2.665848482650325
 20
2.217071067811862
 42
0.0
 10
2.698777414838456
 20
2.249999999999999
 42
0.0
 10
2.553979338419562
 20
2.249999999999999
 42
0.0
 10
2.553979338419566
 20
2.162949456970248
 42
0.4142135623730907
 10
2.583979338419563
 20
2.13294945697025
 42
0.0
 10
2.658369007432455
 20
2.132949456970249
 42
0.0
 10
2.708348482650333
 20
2.182928932188133
 42
0.6681786379192883
 10
2.701277414838465
 20
2.199999999999998
 42
0.0
 10
2.672919550462189
 20
2.199999999999998
 42
-0.6681786379192825
 97
        0
 92
        7
 72
     1
 73
     1
 93
       12
 10
2.095369007432463
 20
2.13294945697025
 42
0.0
 10
2.145348482650341
 20
2.182928932188133
 42
0.6681786379192985
 10
2.138277414838476
 20
2.199999999999998
 42
0.0
 10
2.109919550462201
 20
2.199999999999998
 42
-0.6681786379192727
 10
2.102848482650337
 20
2.217071067811862
 42
0.0
 10
2.135777414838464
 20
2.249999999999998
 42
0.0
 10
1.854156338695982
 20
2.249999999999998
 42
0.0
 10
1.887085270884114
 20
2.217071067811862
 42
-0.6681786379192828
 10
1.880014203072249
 20
2.199999999999998
 42
0.0
 10
1.851656338695974
 20
2.199999999999998
 42
0.6681786379192883
 10
1.844585270884106
 20
2.182928932188133
 42
0.0
 10
1.894564746101984
 20
2.132949456970249
 42
0.0
 97
        0
 92
        7
 72
     1
 73
     1
 93
        4
 10
1.515014203072247
 20
2.249999999999998
 42
0.0
 10
1.479156338695986
 20
2.249999999999999
 42
0.0
 10
1.512085270884114
 20
2.217071067811862
 42
-0.1989123673796369
 10
1.515014203072247
 20
2.209999999999998
 42
0.0
 97
        0
 92
        7
 72
     1
 73
     1
 93
       16
 10
1.623954415114873
 20
2.249999999999998
 42
0.0
 10
1.565014203072244
 20
2.249999999999998
 42
0.0
 10
1.565014203072244
 20
2.168949456970248
 42
-0.4142135623731017
 10
1.535014203072243
 20
2.138949456970248
 42
0.0
 10
1.526528921698005
 20
2.138949456970248
 42
-0.1989123673796383
 10
1.505315718262409
 20
2.147736253534652
 42
0.0
 10
1.471002923217753
 20
2.182049048579306
 42
-0.6808757648995041
 10
1.478422985996644
 20
2.199114024661362
 42
0.0
 10
1.515014203072247
 20
2.197836231204441
 42
0.0
 10
1.515014203072247
 20
2.209999999999997
 42
-0.4142135623730772
 10
1.505014203072246
 20
2.199999999999998
 42
0.0
 10
1.476656338695974
 20
2.199999999999998
 42
0.6681786379192883
 10
1.469585270884106
 20
2.182928932188133
 42
0.0
 10
1.519564746101988
 20
2.132949456970249
 42
0.0
 10
1.593954415114875
 20
2.13294945697025
 42
0.4142135623730973
 10
1.623954415114873
 20
2.162949456970249
 42
0.0
 97
        0
 92
        7
 72
     1
 73
     1
 93
        9
 10
1.240979338419592
 20
2.162949456970247
 42
0.4142135623730788
 10
1.270979338419589
 20
2.13294945697025
 42
0.0
 10
1.345369007432481
 20
2.132949456970249
 42
0.0
 10
1.395348482650359
 20
2.182928932188133
 42
0.6681786379192883
 10
1.388277414838491
 20
2.199999999999998
 42
0.0
 10
1.359919550462215
 20
2.199999999999998
 42
-0.6681786379192727
 10
1.352848482650351
 20
2.217071067811862
 42
0.0
 10
1.385777414838479
 20
2.249999999999998
 42
0.0
 10
1.240979338419588
 20
2.249999999999998
 42
0.0
 97
        0
 92
        7
 72
     1
 73
     1
 93
        9
 10
0.5670142030722758
 20
2.199999999999998
 42
0.0
 10
0.5386563386960006
 20
2.199999999999998
 42
0.6681786379193304
 10
0.5315852708841362
 20
2.182928932188131
 42
0.0
 10
0.5815647461020177
 20
2.132949456970249
 42
0.0
 10
0.655954415114902
 20
2.13294945697025
 42
0.4142135623731061
 10
0.6859544151149031
 20
2.16294945697025
 42
0.0
 10
0.6859544151149031
 20
2.249999999999998
 42
0.0
 10
0.5411563386960126
 20
2.249999999999998
 42
0.0
 10
0.5740852708841402
 20
2.217071067811861
 42
-0.6681786379192207
 97
        0
 75
     0
 76
     1
 52
0.0
 41
0.2
 77
     0
 78
     1
 53
45.0
 43
-12.27964219814504
 44
1.280988248130883
 45
-0.0176776695296637
 46
0.0176776695296637
 79
     0
 47
0.0036834598054012
 98
        9
 10
3.328502113656991
 20
2.851163294605226
 10
3.044678356989106
 20
2.236025515573915
 10
2.9488417513552
 20
2.19182398105549
 10
2.624471725024772
 20
2.180773616781204
 10
1.960987606055095
 20
2.18814053489976
 10
1.507606781239264
 20
2.239708961729649
 10
1.596071353718759
 20
2.213924761218249
 10
1.290131453931
 20
2.19182398105549
 10
0.6119032249958601
 20
2.20287437113687
  0
POINT
  5
23A7
330
22D1
100
AcDbEntity
  8
0
100
AcDbPoint
 10
6.026466876767216
 20
2.249999999999999
 30
0.0
  0
LWPOLYLINE
  5
23A8
330
22D1
100
AcDbEntity
  8
0
100
AcDbPolyline
 90
        4
 70
     0
 43
0.0
 10
2.526652521263386
 20
4.124999999999991
 10
2.526652521263386
 20
2.937499999999974
 10
2.776652521263386
 20
2.937499999999974
 10
2.776652521263386
 20
4.124999999999991
  0
LINE
  5
23A9
330
22D1
100
AcDbEntity
  8
0
100
AcDbLine
 10
2.026652521263386
 20
2.937499999999974
 30
0.0
 11
2.526652521263386
 21
2.937499999999974
 31
0.0
  0
LINE
  5
23AA
330
22D1
100
AcDbEntity
  8
0
100
AcDbLine
 10
2.026652521263386
 20
3.249160170541585
 30
0.0
 11
2.526652521263386
 21
3.249160170541585
 31
0.0
  0
INSERT
  5
23AB
330
22D1
100
AcDbEntity
  8
HIDDEN
100
AcDbBlockReference
  2
B028727
 10
3.556466876767192
 20
2.065175840187859
 30
0.0
 50
90.0
  0
INSERT
  5
23AC
330
22D1
100
AcDbEntity
  8
HIDDEN
100
AcDbBlockReference
  2
B028727
 10
4.80646687676721
 20
2.065175840187859
 30
0.0
 50
90.0
  0
LINE
  5
23AF
330
22D1
100
AcDbEntity
  8
0
100
AcDbLine
 10
3.465466876767223
 20
3.921663011064787
 30
0.0
 11
3.465466876767223
 21
4.124999999999992
 31
0.0
  0
DIMENSION
  5
23B4
330
22D1
100
AcDbEntity
  8
DIME
100
AcDbDimension
  2
*D25
 10
-1.131112766637102
 20
1.999999999999995
 30
0.0
 11
-1.360461334167798
 21
1.11077762619372
 31
0.0
 70
    32
  1
3/8"
 71
     5
 42
0.3749999999999822
  3
EXT_ON-ON
100
AcDbAlignedDimension
 13
-0.3135331232327658
 23
2.374999999999977
 33
0.0
 14
-0.2685331232327854
 24
1.999999999999995
 34
0.0
 50
90.0
100
AcDbRotatedDimension
  0
DIMENSION
  5
23B5
330
22D1
100
AcDbEntity
  8
DIME
100
AcDbDimension
  2
*D26
 10
-1.756112766637102
 20
3.312000000000001
 30
0.0
 11
-1.985376068137784
 21
2.655999999999997
 31
0.0
 70
    32
  1
1 5/16"
 71
     5
 42
1.312000000000005
  3
EXT_ON-ON
100
AcDbAlignedDimension
 13
-0.2685331232327854
 23
1.999999999999995
 33
0.0
 14
1.462466876767219
 24
3.312
 34
0.0
 50
90.0
100
AcDbRotatedDimension
  0
DIMENSION
  5
23B6
330
22D1
100
AcDbEntity
  8
DIME
100
AcDbDimension
  2
*D27
 10
-2.381092766637099
 20
1.999999999999996
 30
0.0
 11
-2.606604362817181
 21
0.999999999999998
 31
0.0
 70
    32
 71
     5
 42
1.999999999999995
  3
EXT_ON-ON
100
AcDbAlignedDimension
 13
0.0
 23
0.0
 33
0.0
 14
-0.2685331232327854
 24
1.999999999999995
 34
0.0
 50
90.0
100
AcDbRotatedDimension
  0
DIMENSION
  5
23B7
330
22D1
100
AcDbEntity
  8
DIME
100
AcDbDimension
  2
*D28
 10
-2.381092766637099
 20
4.124999999999992
 30
0.0
 11
-2.610441334167795
 21
3.062499999999993
 31
0.0
 70
    32
  1
{DLO}
 71
     5
 42
2.124999999999995
  3
EXT_ON-OFF
100
AcDbAlignedDimension
 13
-0.2685331232327854
 23
1.999999999999995
 33
0.0
 14
-0.2235331232327837
 24
4.124999999999991
 34
0.0
 50
90.0
100
AcDbRotatedDimension
  0
INSERT
  5
23B8
330
22D1
100
AcDbEntity
  8
0
100
AcDbBlockReference
  2
B601191
 10
-0.3485331232327802
 20
2.207500000000133
 30
0.0
  0
INSERT
  5
23B9
330
22D1
100
AcDbEntity
  8
HIDDEN
100
AcDbBlockReference
  2
B601079
 10
0.0
 20
0.0
 30
0.0
  0
INSERT
  5
23BA
330
22D1
100
AcDbEntity
  8
0
100
AcDbBlockReference
  2
B027074-M
 10
3.088416876767219
 20
3.053499999999994
 30
0.0
  0
INSERT
  5
23BB
330
22D1
100
AcDbEntity
  8
0
100
AcDbBlockReference
  2
B027074-M
 10
1.464888165759553
 20
3.053499999999994
 30
0.0
 41
-1.0
  0
ENDBLK
  5
2306
330
22D1
100
AcDbEntity
  8
0
100
AcDbBlockEnd
  0
BLOCK
  5
23CA
330
23C9
100
AcDbEntity
  8
0
100
AcDbBlockBegin
  2
*D25
 70
     1
 10
0.0
 20
0.0
 30
0.0
  3
*D25
  1

  0
LINE
  5
23CC
330
23C9
100
AcDbEntity
  8
DIME
 62
     0
370
    -2
100
AcDbLine
 10
-0.6885331232327658
 20
2.374999999999977
 30
0.0
 11
-1.311112766637102
 21
2.374999999999978
 31
0.0
  0
LINE
  5
23CD
330
23C9
100
AcDbEntity
  8
DIME
 62
     0
370
    -2
100
AcDbLine
 10
-0.6435331232327855
 20
1.999999999999995
 30
0.0
 11
-1.311112766637102
 21
1.999999999999995
 31
0.0
  0
LINE
  5
23CE
330
23C9
100
AcDbEntity
  8
DIME
 62
     0
370
    -2
100
AcDbLine
 10
-1.131112766637101
 20
2.624999999999978
 30
0.0
 11
-1.131112766637101
 21
2.874999999999978
 31
0.0
  0
LINE
  5
23CF
330
23C9
100
AcDbEntity
  8
DIME
 62
     0
370
    -2
100
AcDbLine
 10
-1.131112766637102
 20
1.749999999999995
 30
0.0
 11
-1.131112766637102
 21
0.7215552523874447
 31
0.0
  0
SOLID
  5
23D0
330
23C9
100
AcDbEntity
  8
DIME
 62
     0
100
AcDbTrace
 10
-1.172779433303768
 20
2.624999999999978
 30
0.0
 11
-1.089446099970435
 21
2.624999999999978
 31
0.0
 12
-1.131112766637102
 22
2.374999999999978
 32
0.0
 13
-1.131112766637102
 23
2.374999999999978
 33
0.0
  0
SOLID
  5
23D1
330
23C9
100
AcDbEntity
  8
DIME
 62
     0
100
AcDbTrace
 10
-1.172779433303768
 20
1.749999999999995
 30
0.0
 11
-1.089446099970435
 21
1.749999999999995
 31
0.0
 12
-1.131112766637102
 22
1.999999999999995
 32
0.0
 13
-1.131112766637102
 23
1.999999999999995
 33
0.0
  0
MTEXT
  5
23D2
330
23C9
100
AcDbEntity
  8
DIME
 62
     0
100
AcDbMText
 10
-1.360461334167798
 20
1.11077762619372
 30
0.0
 40
0.25
 41
0.0
 71
     5
 72
     1
  1
\A1;3/8"
 11
0.0000000000000001
 21
1.0
 31
0.0
 73
     1
 44
1.0
1001
ACAD
1000
MTEXTBEGIN
1070
    73
1070
     1
1070
    44
1040
1.0
1070
    74
1070
     0
1000
MTEXTEND
  0
POINT
  5
23D3
330
23C9
100
AcDbEntity
  8
Defpoints
 62
     0
100
AcDbPoint
 10
-0.3135331232327658
 20
2.374999999999977
 30
0.0
  0
POINT
  5
23D4
330
23C9
100
AcDbEntity
  8
Defpoints
 62
     0
100
AcDbPoint
 10
-0.2685331232327854
 20
1.999999999999995
 30
0.0
  0
POINT
  5
23D5
330
23C9
100
AcDbEntity
  8
Defpoints
 62
     0
100
AcDbPoint
 10
-1.131112766637102
 20
1.999999999999995
 30
0.0
  0
ENDBLK
  5
23CB
330
23C9
100
AcDbEntity
  8
0
100
AcDbBlockEnd
  0
BLOCK
  5
23D7
330
23D6
100
AcDbEntity
  8
0
100
AcDbBlockBegin
  2
*D26
 70
     1
 10
0.0
 20
0.0
 30
0.0
  3
*D26
  1

  0
LINE
  5
23D9
330
23D6
100
AcDbEntity
  8
DIME
 62
     0
370
    -2
100
AcDbLine
 10
-0.6435331232327855
 20
1.999999999999995
 30
0.0
 11
-1.936112766637102
 21
1.999999999999996
 31
0.0
  0
LINE
  5
23DA
330
23D6
100
AcDbEntity
  8
DIME
 62
     0
370
    -2
100
AcDbLine
 10
1.087466876767219
 20
3.312
 30
0.0
 11
-1.936112766637102
 21
3.312000000000001
 31
0.0
  0
LINE
  5
23DB
330
23D6
100
AcDbEntity
  8
DIME
 62
     0
370
    -2
100
AcDbLine
 10
-1.756112766637102
 20
2.249999999999996
 30
0.0
 11
-1.756112766637102
 21
3.062000000000001
 31
0.0
  0
SOLID
  5
23DC
330
23D6
100
AcDbEntity
  8
DIME
 62
     0
100
AcDbTrace
 10
-1.797779433303769
 20
2.249999999999996
 30
0.0
 11
-1.714446099970435
 21
2.249999999999996
 31
0.0
 12
-1.756112766637102
 22
1.999999999999996
 32
0.0
 13
-1.756112766637102
 23
1.999999999999996
 33
0.0
  0
SOLID
  5
23DD
330
23D6
100
AcDbEntity
  8
DIME
 62
     0
100
AcDbTrace
 10
-1.797779433303768
 20
3.062000000000001
 30
0.0
 11
-1.714446099970435
 21
3.062000000000001
 31
0.0
 12
-1.756112766637102
 22
3.312000000000001
 32
0.0
 13
-1.756112766637102
 23
3.312000000000001
 33
0.0
  0
MTEXT
  5
23DE
330
23D6
100
AcDbEntity
  8
DIME
 62
     0
100
AcDbMText
 10
-1.985376068137784
 20
2.655999999999997
 30
0.0
 40
0.25
 41
0.0
 71
     5
 72
     1
  1
\A1;1 5/16"
 11
0.0000000000000001
 21
1.0
 31
0.0
 73
     1
 44
1.0
1001
ACAD
1000
MTEXTBEGIN
1070
    73
1070
     1
1070
    44
1040
1.0
1070
    74
1070
     0
1000
MTEXTEND
  0
POINT
  5
23DF
330
23D6
100
AcDbEntity
  8
Defpoints
 62
     0
100
AcDbPoint
 10
-0.2685331232327854
 20
1.999999999999995
 30
0.0
  0
POINT
  5
23E0
330
23D6
100
AcDbEntity
  8
Defpoints
 62
     0
100
AcDbPoint
 10
1.462466876767219
 20
3.312
 30
0.0
  0
POINT
  5
23E1
330
23D6
100
AcDbEntity
  8
Defpoints
 62
     0
100
AcDbPoint
 10
-1.756112766637102
 20
3.312000000000001
 30
0.0
  0
ENDBLK
  5
23D8
330
23D6
100
AcDbEntity
  8
0
100
AcDbBlockEnd
  0
BLOCK
  5
23E3
330
23E2
100
AcDbEntity
  8
0
100
AcDbBlockBegin
  2
*D27
 70
     1
 10
0.0
 20
0.0
 30
0.0
  3
*D27
  1

  0
LINE
  5
23E5
330
23E2
100
AcDbEntity
  8
DIME
 62
     0
370
    -2
100
AcDbLine
 10
-0.375
 20
0.0000000000000001
 30
0.0
 11
-2.561092766637099
 21
0.0000000000000007
 31
0.0
  0
LINE
  5
23E6
330
23E2
100
AcDbEntity
  8
DIME
 62
     0
370
    -2
100
AcDbLine
 10
-0.6435331232327855
 20
1.999999999999995
 30
0.0
 11
-2.561092766637099
 21
1.999999999999996
 31
0.0
  0
LINE
  5
23E7
330
23E2
100
AcDbEntity
  8
DIME
 62
     0
370
    -2
100
AcDbLine
 10
-2.381092766637099
 20
0.2500000000000007
 30
0.0
 11
-2.381092766637099
 21
1.749999999999996
 31
0.0
  0
SOLID
  5
23E8
330
23E2
100
AcDbEntity
  8
DIME
 62
     0
100
AcDbTrace
 10
-2.422759433303766
 20
0.2500000000000007
 30
0.0
 11
-2.339426099970433
 21
0.2500000000000007
 31
0.0
 12
-2.381092766637099
 22
0.0000000000000007
 32
0.0
 13
-2.381092766637099
 23
0.0000000000000007
 33
0.0
  0
SOLID
  5
23E9
330
23E2
100
AcDbEntity
  8
DIME
 62
     0
100
AcDbTrace
 10
-2.422759433303765
 20
1.749999999999996
 30
0.0
 11
-2.339426099970432
 21
1.749999999999996
 31
0.0
 12
-2.381092766637099
 22
1.999999999999996
 32
0.0
 13
-2.381092766637099
 23
1.999999999999996
 33
0.0
  0
MTEXT
  5
23EA
330
23E2
100
AcDbEntity
  8
DIME
 62
     0
100
AcDbMText
 10
-2.606604362817181
 20
0.999999999999998
 30
0.0
 40
0.25
 41
0.0
 71
     5
 72
     1
  1
\A1;2"
 11
0.0000000000000001
 21
1.0
 31
0.0
 73
     1
 44
1.0
1001
ACAD
1000
MTEXTBEGIN
1070
    73
1070
     1
1070
    44
1040
1.0
1070
    74
1070
     0
1000
MTEXTEND
  0
POINT
  5
23EB
330
23E2
100
AcDbEntity
  8
Defpoints
 62
     0
100
AcDbPoint
 10
0.0
 20
0.0
 30
0.0
  0
POINT
  5
23EC
330
23E2
100
AcDbEntity
  8
Defpoints
 62
     0
100
AcDbPoint
 10
-0.2685331232327854
 20
1.999999999999995
 30
0.0
  0
POINT
  5
23ED
330
23E2
100
AcDbEntity
  8
Defpoints
 62
     0
100
AcDbPoint
 10
-2.381092766637099
 20
1.999999999999996
 30
0.0
  0
ENDBLK
  5
23E4
330
23E2
100
AcDbEntity
  8
0
100
AcDbBlockEnd
  0
BLOCK
  5
23EF
330
23EE
100
AcDbEntity
  8
0
100
AcDbBlockBegin
  2
*D28
 70
     1
 10
0.0
 20
0.0
 30
0.0
  3
*D28
  1

  0
LINE
  5
23F1
330
23EE
100
AcDbEntity
  8
DIME
 62
     0
370
    -2
100
AcDbLine
 10
-0.6435331232327855
 20
1.999999999999995
 30
0.0
 11
-2.561092766637099
 21
1.999999999999996
 31
0.0
  0
LINE
  5
23F2
330
23EE
100
AcDbEntity
  8
DIME
 62
     0
370
    -2
100
AcDbLine
 10
-2.381092766637099
 20
2.249999999999996
 30
0.0
 11
-2.381092766637099
 21
3.874999999999991
 31
0.0
  0
SOLID
  5
23F3
330
23EE
100
AcDbEntity
  8
DIME
 62
     0
100
AcDbTrace
 10
-2.422759433303766
 20
2.249999999999996
 30
0.0
 11
-2.339426099970433
 21
2.249999999999996
 31
0.0
 12
-2.381092766637099
 22
1.999999999999996
 32
0.0
 13
-2.381092766637099
 23
1.999999999999996
 33
0.0
  0
SOLID
  5
23F4
330
23EE
100
AcDbEntity
  8
DIME
 62
     0
100
AcDbTrace
 10
-2.422759433303765
 20
3.874999999999991
 30
0.0
 11
-2.339426099970432
 21
3.874999999999991
 31
0.0
 12
-2.381092766637099
 22
4.124999999999992
 32
0.0
 13
-2.381092766637099
 23
4.124999999999992
 33
0.0
  0
MTEXT
  5
23F5
330
23EE
100
AcDbEntity
  8
DIME
 62
     0
100
AcDbMText
 10
-2.610441334167795
 20
3.062499999999993
 30
0.0
 40
0.25
 41
0.0
 71
     5
 72
     1
  1
\A1;{DLO}
 11
0.0000000000000001
 21
1.0
 31
0.0
 73
     1
 44
1.0
1001
ACAD
1000
MTEXTBEGIN
1070
    73
1070
     1
1070
    44
1040
1.0
1070
    74
1070
     0
1000
MTEXTEND
  0
POINT
  5
23F6
330
23EE
100
AcDbEntity
  8
Defpoints
 62
     0
100
AcDbPoint
 10
-0.2685331232327854
 20
1.999999999999995
 30
0.0
  0
POINT
  5
23F7
330
23EE
100
AcDbEntity
  8
Defpoints
 62
     0
100
AcDbPoint
 10
-0.2235331232327837
 20
4.124999999999991
 30
0.0
  0
POINT
  5
23F8
330
23EE
100
AcDbEntity
  8
Defpoints
 62
     0
100
AcDbPoint
 10
-2.381092766637099
 20
4.124999999999992
 30
0.0
  0
ENDBLK
  5
23F0
330
23EE
100
AcDbEntity
  8
0
100
AcDbBlockEnd
  0
BLOCK
  5
2649
330
263D
100
AcDbEntity
  8
0
100
AcDbBlockBegin
  2
Kawneer Logo English
 70
     0
 10
0.0
 20
0.0
 30
0.0
  3
Kawneer Logo English
  1

  0
MTEXT
  5
263E
102
{ACAD_XDICTIONARY
360
26F0
102
}
330
263D
100
AcDbEntity
  8
Kawneer Logo-English
100
AcDbMText
 10
1.510096758583198
 20
0.0372523876656778
 30
0.0
 40
0.036
 41
0.6125900866323382
 71
     3
 72
     5
  1
{\fArial TUR|b0|i0|c0|p34;\T1.05;AN ARCONIC COMPANY}
 73
     1
 44
1.0
1001
ACAD
1000
ACAD_MTEXT_COLUMN_INFO_BEGIN
1070
    75
1070
     2
1070
    79
1070
     0
1070
    76
1070
     1
1070
    78
1070
     0
1070
    48
1040
0.6125900866323382
1070
    49
1040
1.0
1070
    50
1070
     1
1040
0.0
1000
ACAD_MTEXT_COLUMN_INFO_END
1000
MTEXTBEGIN
1070
    73
1070
     1
1070
    44
1040
1.0
1070
    74
1070
     0
1000
MTEXTEND
  0
HATCH
  5
263F
330
263D
100
AcDbEntity
  8
Kawneer Logo-English
100
AcDbHatch
 10
0.0
 20
0.0
 30
0.0
210
0.0
220
0.0
230
1.0
  2
SOLID
 70
     1
 71
     0
 91
        1
 92
        1
 93
       81
 72
     1
 10
0.2706169776412204
 20
0.0336337282279411
 11
0.2687512969786691
 21
0.0350329887248546
 72
     1
 10
0.2687512969786696
 20
0.0350329887248547
 11
0.2633408230572721
 21
0.039137486182467
 72
     1
 10
0.2633408230572729
 20
0.0391374861824669
 11
0.2550385441089194
 21
0.0453875164020133
 72
     1
 10
0.2550385441089191
 20
0.0453875164020132
 11
0.2442175962661241
 21
0.053596511317238
 72
     1
 10
0.2442175962661235
 20
0.0535965113172379
 11
0.2314376837276472
 21
0.0632980507625037
 72
     1
 10
0.2314376837276479
 20
0.0632980507625037
 11
0.2172585106922595
 21
0.0741189986052996
 72
     1
 10
0.2172585106922598
 20
0.0741189986052996
 11
0.2019599292593419
 21
0.0856862187131167
 72
     1
 10
0.201959929259341
 20
0.0856862187131167
 11
0.1862882116939105
 21
0.0976265749534437
 72
     1
 10
0.1862882116939102
 20
0.0976265749534437
 11
0.1706164941284813
 21
0.1095669311937706
 72
     1
 10
0.1706164941284811
 20
0.1095669311937709
 11
0.1553179126955632
 21
0.1211341513015875
 72
     1
 10
0.1553179126955642
 20
0.1211341513015876
 11
0.1411387396601757
 21
0.131955099144384
 72
     1
 10
0.1411387396601755
 20
0.1319550991443839
 11
0.1284521111548274
 21
0.141749922622777
 72
     1
 10
0.1284521111548278
 20
0.1417499226227768
 11
0.117631163312031
 21
0.1499589175380016
 72
     1
 10
0.1176311633120304
 20
0.1499589175380017
 11
0.1094221683968068
 21
0.1563022317906752
 72
     1
 10
0.1094221683968062
 20
0.1563022317906754
 11
0.1041049785085351
 21
0.1604067292482882
 72
     1
 10
0.1041049785085351
 20
0.1604067292482878
 11
0.1023325818791119
 21
0.1618992737783286
 72
     1
 10
0.1023325818791116
 20
0.1618992737783289
 11
0.1043848306079176
 21
0.1636716704077524
 72
     1
 10
0.1043848306079194
 20
0.1636716704077524
 11
0.1100751566286996
 21
0.1683358720641301
 72
     1
 10
0.1100751566286986
 20
0.1683358720641301
 11
0.1189371397758159
 21
0.1757053106812067
 72
     1
 10
0.1189371397758161
 20
0.1757053106812067
 11
0.1304110758505067
 21
0.1851269980270901
 72
     1
 10
0.1304110758505059
 20
0.1851269980270902
 11
0.1439372606540007
 21
0.1963210820023967
 72
     1
 10
0.1439372606540017
 20
0.1963210820023967
 11
0.1589559899875385
 21
0.2087278584083611
 72
     1
 10
0.1589559899875379
 20
0.2087278584083611
 11
0.1750941277186041
 21
0.2220674751456017
 72
     1
 10
0.1750941277186047
 20
0.2220674751456017
 11
0.19169868561531
 21
0.2358735120484796
 72
     1
 10
0.1916986856153105
 20
0.2358735120484796
 11
0.208303243512014
 21
0.2495862649182301
 72
     1
 10
0.2083032435120131
 20
0.2495862649182304
 11
0.2244413812430811
 21
0.2628325976223432
 72
     1
 10
0.2244413812430812
 20
0.2628325976223429
 11
0.239460110576618
 21
0.2753326580614352
 72
     1
 10
0.2394601105766174
 20
0.2753326580614351
 11
0.2529862953801122
 21
0.2864334580036143
 72
     1
 10
0.2529862953801132
 20
0.2864334580036143
 11
0.2643669474216756
 21
0.2958551453494973
 72
     1
 10
0.2643669474216757
 20
0.2958551453494973
 11
0.2731356465356649
 21
0.3031312999334466
 72
     1
 10
0.273135646535664
 20
0.3031312999334466
 11
0.2788259725564443
 21
0.3077955015898243
 72
     1
 10
0.278825972556445
 20
0.3077955015898246
 11
0.2807849372521245
 21
0.3094746141861208
 72
     1
 10
0.2807849372521249
 20
0.3094746141861205
 11
0.2798520969208501
 21
0.3094746141861205
 72
     1
 10
0.2798520969208496
 20
0.3094746141861205
 11
0.2769602918938953
 21
0.3095678982192478
 72
     1
 10
0.2769602918938943
 20
0.3095678982192481
 11
0.2724826583037715
 21
0.3095678982192481
 72
     1
 10
0.2724826583037729
 20
0.3095678982192481
 11
0.2666057642167363
 21
0.3095678982192481
 72
     1
 10
0.266605764216735
 20
0.3095678982192481
 11
0.2597027457652953
 21
0.3095678982192481
 72
     1
 10
0.2597027457652956
 20
0.3095678982192481
 11
0.2519601710157094
 21
0.3095678982192481
 72
     1
 10
0.2519601710157104
 20
0.3095678982192481
 11
0.2437511761004851
 21
0.3095678982192481
 72
     1
 10
0.243751176100484
 20
0.3095678982192481
 11
0.2351690450527495
 21
0.3095678982192481
 72
     1
 10
0.2351690450527495
 20
0.3095678982192481
 11
0.2266801980381413
 21
0.3095678982192481
 72
     1
 10
0.2266801980381423
 20
0.3095678982192481
 11
0.2183779190897905
 21
0.3094746141861208
 72
     1
 10
0.2183779190897899
 20
0.3094746141861205
 11
0.2106353443402037
 21
0.3094746141861205
 72
     1
 10
0.2106353443402029
 20
0.3094746141861205
 11
0.2037323258887632
 21
0.3094746141861205
 72
     1
 10
0.203732325888764
 20
0.3094746141861205
 11
0.1978554318017273
 21
0.3094746141861205
 72
     1
 10
0.1978554318017278
 20
0.3094746141861205
 11
0.1932845141784786
 21
0.3094746141861205
 72
     1
 10
0.1932845141784787
 20
0.3094746141861205
 11
0.1903927091515244
 21
0.3094746141861205
 72
     1
 10
0.1903927091515234
 20
0.3094746141861205
 11
0.1893665847871204
 21
0.3094746141861205
 72
     1
 10
0.1893665847871206
 20
0.3094746141861205
 11
0.1879673242902067
 21
0.3077955015898243
 72
     1
 10
0.1879673242902076
 20
0.3077955015898246
 11
0.1841426789319786
 21
0.3030380159003196
 72
     1
 10
0.1841426789319787
 20
0.3030380159003192
 11
0.1780792167786874
 21
0.29576186131637
 72
     1
 10
0.1780792167786873
 20
0.29576186131637
 11
0.170243357995973
 21
0.2862468899373593
 72
     1
 10
0.170243357995973
 20
0.2862468899373593
 11
0.1610082387163447
 21
0.2750528059620528
 72
     1
 10
0.1610082387163438
 20
0.2750528059620528
 11
0.1507469950723126
 21
0.2624594614898328
 72
     1
 10
0.1507469950723133
 20
0.2624594614898328
 11
0.1396461951301336
 21
0.2491198447525922
 72
     1
 10
0.1396461951301333
 20
0.2491198447525922
 11
0.1282655430885727
 21
0.2352205238165866
 72
     1
 10
0.1282655430885726
 20
0.2352205238165868
 11
0.1168848910470102
 21
0.2214144869137089
 72
     1
 10
0.1168848910470102
 20
0.2214144869137087
 11
0.1058773751379587
 21
0.2079815861433408
 72
     1
 10
0.105877375137958
 20
0.2079815861433408
 11
0.0955228474608004
 21
0.1954815257042486
 72
     1
 10
0.0955228474608019
 20
0.1954815257042488
 11
0.0862877281811736
 21
0.1842874417289424
 72
     1
 10
0.0862877281811727
 20
0.1842874417289424
 11
0.0784518693984583
 21
0.1747724703499316
 72
     1
 10
0.0784518693984584
 20
0.1747724703499314
 11
0.0723884072451672
 21
0.1674963157659821
 72
     1
 10
0.0723884072451671
 20
0.1674963157659822
 11
0.0685637618869363
 21
0.1627388300764767
 72
     1
 10
0.0685637618869364
 20
0.1627388300764767
 11
0.0671645013900242
 21
0.1611530015133082
 72
     1
 10
0.0671645013900251
 20
0.1611530015133082
 11
0.0680040576881734
 21
0.1596604569832674
 72
     1
 10
0.0680040576881726
 20
0.1596604569832674
 11
0.0704294425494878
 21
0.1556492435587824
 72
     1
 10
0.0704294425494871
 20
0.1556492435587824
 11
0.0742540879077179
 21
0.1493059293061089
 72
     1
 10
0.0742540879077192
 20
0.1493059293061089
 11
0.0791048576303511
 21
0.1411902184240116
 72
     1
 10
0.0791048576303508
 20
0.1411902184240116
 11
0.0848884676842594
 21
0.1314886789787458
 72
     1
 10
0.0848884676842596
 20
0.1314886789787459
 11
0.0913250659700619
 21
0.1207610151690772
 72
     1
 10
0.0913250659700613
 20
0.1207610151690775
 11
0.0982280844214992
 21
0.1091937950612604
 72
     1
 10
0.0982280844214985
 20
0.1091937950612603
 11
0.1053176709391927
 21
0.0973467228540611
 72
     1
 10
0.105317670939193
 20
0.0973467228540612
 11
0.1124072574568872
 21
0.0854996506468619
 72
     1
 10
0.1124072574568871
 20
0.0854996506468617
 11
0.1193102759083267
 21
0.0739324305390446
 72
     1
 10
0.1193102759083278
 20
0.0739324305390448
 11
0.1257468741941283
 21
0.0632047667293762
 72
     1
 10
0.1257468741941277
 20
0.063204766729376
 11
0.1315304842480362
 21
0.0535032272841102
 72
     1
 10
0.1315304842480365
 20
0.0535032272841104
 11
0.1363812539706702
 21
0.0453875164020132
 72
     1
 10
0.1363812539706699
 20
0.0453875164020132
 11
0.1402058993288989
 21
0.0391374861824667
 72
     1
 10
0.1402058993288988
 20
0.0391374861824669
 11
0.1426312841902157
 21
0.0350329887248546
 72
     1
 10
0.1426312841902164
 20
0.0350329887248547
 11
0.1434708404883648
 21
0.0336337282279412
 72
     1
 10
0.143470840488364
 20
0.0336337282279411
 11
0.2706169776412211
 21
0.0336337282279411
 97
        0
 75
     0
 76
     1
 98
        1
 10
-0.3743130907707726
 20
-0.2500502867693841
1001
ACAD
1010
0.0
1020
0.0
1030
0.0
  0
HATCH
  5
2640
330
263D
100
AcDbEntity
  8
Kawneer Logo-English
100
AcDbHatch
 10
0.0
 20
0.0
 30
0.0
210
0.0
220
0.0
230
1.0
  2
SOLID
 70
     1
 71
     0
 91
        1
 92
        1
 93
       18
 72
     1
 10
0.0001865656044393
 20
0.2563959993365415
 11
-0.0000000024618153
 21
0.113671428651383
 72
     1
 10
-0.0000000024618159
 20
0.1136714286513832
 11
0.0012126899688416
 21
0.1152572572145516
 72
     1
 10
0.0012126899688421
 20
0.1152572572145516
 11
0.0045709151614355
 21
0.1197348908046738
 72
     1
 10
0.004570915161435
 20
0.119734890804674
 11
0.0098881050497044
 21
0.1268244773223682
 72
     1
 10
0.0098881050497044
 20
0.1268244773223682
 11
0.0166978394680158
 21
0.1359663125688683
 72
     1
 10
0.016697839468016
 20
0.1359663125688683
 11
0.0248135503501131
 21
0.1467872604116651
 72
     1
 10
0.024813550350113
 20
0.1467872604116652
 11
0.0338621015634867
 21
0.1588209006851195
 72
     1
 10
0.0338621015634872
 20
0.1588209006851194
 11
0.0434703569756247
 21
0.1716940972567221
 72
     1
 10
0.0434703569756247
 20
0.1716940972567224
 11
0.0534517485202732
 21
0.1850337139939626
 72
     1
 10
0.0534517485202724
 20
0.1850337139939624
 11
0.0634331400649208
 21
0.1983733307312025
 72
     1
 10
0.0634331400649222
 20
0.1983733307312024
 11
0.0730413954770597
 21
0.2112465273028051
 72
     1
 10
0.0730413954770595
 20
0.2112465273028053
 11
0.0820899466904331
 21
0.2233734516093873
 72
     1
 10
0.0820899466904321
 20
0.2233734516093873
 11
0.0902056575725293
 21
0.2341943994521837
 72
     1
 10
0.0902056575725308
 20
0.2341943994521837
 11
0.0970153919908422
 21
0.2433362346986839
 72
     1
 10
0.0970153919908405
 20
0.2433362346986839
 11
0.1022392978459834
 21
0.2503325371832507
 72
     1
 10
0.1022392978459843
 20
0.2503325371832508
 11
0.1056908070717041
 21
0.2549034548065008
 72
     1
 10
0.1056908070717046
 20
0.254903454806501
 11
0.1069034995023621
 21
0.2564892833696694
 72
     1
 10
0.1069034995023625
 20
0.2564892833696695
 11
0.0001865656044399
 21
0.2563959993365418
 97
        0
 75
     0
 76
     1
 98
        1
 10
-0.3743130907707726
 20
-0.2500502867693841
1001
ACAD
1010
0.0
1020
0.0
1030
0.0
  0
HATCH
  5
2641
330
263D
100
AcDbEntity
  8
Kawneer Logo-English
100
AcDbHatch
 10
0.0
 20
0.0
 30
0.0
210
0.0
220
0.0
230
1.0
  2
SOLID
 70
     1
 71
     0
 91
        2
 92
       16
 93
       76
 72
     1
 10
1.358402087941634
 20
0.1650709309046659
 11
1.358402087941634
 21
0.16796273593162
 72
     1
 10
1.358402087941634
 20
0.1679627359316202
 11
1.358402087941634
 21
0.1729067896873803
 72
     1
 10
1.358402087941634
 20
0.1729067896873803
 11
1.358402087941634
 21
0.1791568199069267
 72
     1
 10
1.358402087941634
 20
0.1791568199069267
 11
1.358402087941634
 21
0.1861531223914932
 72
     1
 10
1.358402087941634
 20
0.186153122391493
 11
1.358402087941634
 21
0.1931494248760595
 72
     1
 10
1.358402087941634
 20
0.1931494248760596
 11
1.358402087941634
 21
0.1994927391287338
 72
     1
 10
1.358402087941634
 20
0.1994927391287336
 11
1.358402087941634
 21
0.2044367928844937
 72
     1
 10
1.358402087941634
 20
0.2044367928844937
 11
1.358402087941634
 21
0.2072353138783208
 72
     1
 10
1.358402087941634
 20
0.2072353138783208
 11
1.359894632471676
 21
0.2072353138783208
 72
     1
 10
1.359894632471676
 20
0.2072353138783208
 11
1.362693153465502
 21
0.2072353138783208
 72
     1
 10
1.362693153465502
 20
0.2072353138783208
 11
1.366424514790605
 21
0.2072353138783208
 72
     1
 10
1.366424514790606
 20
0.2072353138783208
 11
1.371088716446983
 21
0.2072353138783208
 72
     1
 10
1.371088716446982
 20
0.2072353138783208
 11
1.376405906335254
 21
0.2072353138783208
 72
     1
 10
1.376405906335254
 20
0.2072353138783208
 11
1.382282800422289
 21
0.2072353138783208
 72
     1
 10
1.38228280042229
 20
0.2072353138783208
 11
1.388346262575581
 21
0.2072353138783208
 72
     1
 10
1.388346262575579
 20
0.2072353138783208
 11
1.394596292795125
 21
0.2072353138783208
 72
     1
 10
1.394596292795125
 20
0.2072353138783208
 11
1.400753038981545
 21
0.2072353138783208
 72
     1
 10
1.400753038981546
 20
0.2072353138783208
 11
1.406723217101709
 21
0.2072353138783208
 72
     1
 10
1.406723217101708
 20
0.2072353138783208
 11
1.412320259089362
 21
0.2072353138783208
 72
     1
 10
1.412320259089362
 20
0.2072353138783208
 11
1.417264312845122
 21
0.2072353138783208
 72
     1
 10
1.417264312845123
 20
0.2072353138783208
 11
1.421368810302735
 21
0.2072353138783208
 72
     1
 10
1.421368810302734
 20
0.2072353138783208
 11
1.424540467429071
 21
0.2072353138783208
 72
     1
 10
1.424540467429072
 20
0.2072353138783208
 11
1.426592716157878
 21
0.2072353138783208
 72
     1
 10
1.426592716157878
 20
0.2072353138783208
 11
1.427338988422898
 21
0.2072353138783208
 72
     1
 10
1.427338988422898
 20
0.2072353138783208
 11
1.430977065714873
 21
0.207142029845193
 72
     1
 10
1.430977065714872
 20
0.207142029845193
 11
1.434335290907465
 21
0.2068621777458102
 72
     1
 10
1.434335290907465
 20
0.2068621777458102
 11
1.435921119470633
 21
0.2066756096795552
 72
     1
 10
1.435921119470633
 20
0.206675609679555
 11
1.437413664000673
 21
0.2063957575801723
 72
     1
 10
1.437413664000674
 20
0.2063957575801723
 11
1.438906208530714
 21
0.2061159054807895
 72
     1
 10
1.438906208530714
 20
0.2061159054807898
 11
1.440398753060756
 21
0.2056494853151523
 72
     1
 10
1.440398753060756
 20
0.2056494853151521
 11
1.441704729524542
 21
0.2050897811163865
 72
     1
 10
1.441704729524542
 20
0.2050897811163866
 11
1.443010705988328
 21
0.204530076917621
 72
     1
 10
1.443010705988329
 20
0.204530076917621
 11
1.444223398418986
 21
0.2036905206194736
 72
     1
 10
1.444223398418985
 20
0.2036905206194736
 11
1.445436090849643
 21
0.2028509643213252
 72
     1
 10
1.445436090849643
 20
0.2028509643213252
 11
1.446555499247174
 21
0.2018248399569224
 72
     1
 10
1.446555499247173
 20
0.2018248399569223
 11
1.447581623611576
 21
0.2007054315593917
 72
     1
 10
1.447581623611578
 20
0.2007054315593915
 11
1.448607747975981
 21
0.1993061710624781
 72
     1
 10
1.448607747975981
 20
0.1993061710624781
 11
1.449540588307258
 21
0.1978136265324374
 72
     1
 10
1.449540588307256
 20
0.1978136265324373
 11
1.450380144605403
 21
0.1961345139361415
 72
     1
 10
1.450380144605404
 20
0.1961345139361415
 11
1.451126416870426
 21
0.1944554013398453
 72
     1
 10
1.451126416870426
 20
0.1944554013398454
 11
1.451592837036063
 21
0.1929628568098046
 72
     1
 10
1.451592837036062
 20
0.1929628568098046
 11
1.451965973168573
 21
0.1913770282466361
 72
     1
 10
1.451965973168574
 20
0.1913770282466361
 11
1.452245825267955
 21
0.1899777677497231
 72
     1
 10
1.452245825267954
 20
0.1899777677497231
 11
1.452432393334211
 21
0.188671791285937
 72
     1
 10
1.452432393334211
 20
0.1886717912859369
 11
1.452432393334211
 21
0.1874590988552789
 72
     1
 10
1.452432393334211
 20
0.1874590988552789
 11
1.452525677367338
 21
0.1863396904577482
 72
     1
 10
1.452525677367337
 20
0.1863396904577481
 11
1.452432393334211
 21
0.1844740097951972
 72
     1
 10
1.452432393334211
 20
0.1844740097951974
 11
1.452245825267955
 21
0.1827948971989012
 72
     1
 10
1.452245825267954
 20
0.1827948971989009
 11
1.451872689135445
 21
0.1810225005694773
 72
     1
 10
1.451872689135446
 20
0.1810225005694774
 11
1.451406268969809
 21
0.1794366720063093
 72
     1
 10
1.451406268969809
 20
0.1794366720063094
 11
1.450846564771043
 21
0.1779441274762682
 72
     1
 10
1.450846564771041
 20
0.1779441274762681
 11
1.450100292506021
 21
0.1764515829462274
 72
     1
 10
1.450100292506023
 20
0.1764515829462275
 11
1.449260736207875
 21
0.1750523224493141
 72
     1
 10
1.449260736207873
 20
0.1750523224493139
 11
1.448327895876597
 21
0.1737463459855283
 72
     1
 10
1.448327895876596
 20
0.1737463459855281
 11
1.44702191941281
 21
0.1723470854886151
 72
     1
 10
1.447021919412811
 20
0.1723470854886151
 11
1.445715942949025
 21
0.1711343930579568
 72
     1
 10
1.445715942949026
 20
0.1711343930579568
 11
1.444316682452114
 21
0.1700149846604262
 72
     1
 10
1.444316682452114
 20
0.1700149846604259
 11
1.442824137922072
 21
0.168988860296023
 72
     1
 10
1.442824137922072
 20
0.168988860296023
 11
1.441238309358904
 21
0.1682425880310024
 72
     1
 10
1.441238309358902
 20
0.1682425880310024
 11
1.439559196762608
 21
0.1674963157659821
 72
     1
 10
1.439559196762608
 20
0.1674963157659822
 11
1.437880084166311
 21
0.1669366115672166
 72
     1
 10
1.437880084166311
 20
0.1669366115672167
 11
1.436107687536888
 21
0.1664701914015788
 72
     1
 10
1.436107687536888
 20
0.1664701914015789
 11
1.434242006874337
 21
0.166003771235941
 72
     1
 10
1.434242006874337
 20
0.1660037712359412
 11
1.432376326211786
 21
0.1657239191365588
 72
     1
 10
1.432376326211785
 20
0.1657239191365585
 11
1.430417361516107
 21
0.1655373510703035
 72
     1
 10
1.430417361516108
 20
0.1655373510703037
 11
1.428458396820429
 21
0.1653507830040482
 72
     1
 10
1.428458396820428
 20
0.1653507830040482
 11
1.424353899362817
 21
0.1651642149377932
 72
     1
 10
1.424353899362817
 20
0.1651642149377932
 11
1.420156117872077
 21
0.1650709309046658
 72
     1
 10
1.420156117872076
 20
0.1650709309046659
 11
1.41773073301076
 21
0.1650709309046659
 72
     1
 10
1.417730733010761
 20
0.1650709309046659
 11
1.411107566658704
 21
0.1650709309046659
 72
     1
 10
1.411107566658702
 20
0.1650709309046659
 11
1.401779163345947
 21
0.1650709309046659
 72
     1
 10
1.401779163345949
 20
0.1650709309046659
 11
1.390958215503152
 21
0.1650709309046659
 72
     1
 10
1.390958215503152
 20
0.1650709309046659
 11
1.379950699594101
 21
0.1650709309046659
 72
     1
 10
1.379950699594099
 20
0.1650709309046659
 11
1.369969308049451
 21
0.1650709309046659
 72
     1
 10
1.369969308049451
 20
0.1650709309046659
 11
1.362320017332992
 21
0.1650709309046659
 72
     1
 10
1.362320017332992
 20
0.1650709309046659
 11
1.358402087941635
 21
0.1650709309046659
 97
        0
 92
        1
 93
      107
 72
     1
 10
1.443756978253348
 20
0.1485596570410883
 11
1.446928635379685
 21
0.1492126452729816
 72
     1
 10
1.446928635379685
 20
0.1492126452729817
 11
1.449540588307256
 21
0.1498656335048746
 72
     1
 10
1.449540588307256
 20
0.1498656335048745
 11
1.451872689135445
 21
0.1506119057698948
 72
     1
 10
1.451872689135446
 20
0.1506119057698946
 11
1.45401822189738
 21
0.1514514620680426
 72
     1
 10
1.45401822189738
 20
0.1514514620680425
 11
1.455883902559929
 21
0.1521977343330632
 72
     1
 10
1.455883902559929
 20
0.1521977343330631
 11
1.457563015156225
 21
0.1530372906312111
 72
     1
 10
1.457563015156225
 20
0.1530372906312111
 11
1.459148843719394
 21
0.1539701309624869
 72
     1
 10
1.459148843719394
 20
0.1539701309624866
 11
1.460641388249434
 21
0.1549029712937624
 72
     1
 10
1.460641388249434
 20
0.1549029712937622
 11
1.462133932779476
 21
0.155835811625038
 72
     1
 10
1.462133932779476
 20
0.155835811625038
 11
1.463439909243262
 21
0.1568619359894408
 72
     1
 10
1.463439909243262
 20
0.1568619359894408
 11
1.464745885707048
 21
0.1579813443869714
 72
     1
 10
1.464745885707047
 20
0.1579813443869716
 11
1.465865294104579
 21
0.1591007527845022
 72
     1
 10
1.465865294104579
 20
0.1591007527845025
 11
1.466984702502109
 21
0.1602201611820331
 72
     1
 10
1.466984702502108
 20
0.1602201611820328
 11
1.468010826866511
 21
0.1613395695795634
 72
     1
 10
1.468010826866511
 20
0.1613395695795637
 11
1.468943667197788
 21
0.1625522620102216
 72
     1
 10
1.468943667197788
 20
0.1625522620102216
 11
1.469876507529063
 21
0.1636716704077522
 72
     1
 10
1.469876507529063
 20
0.1636716704077524
 11
1.470622779794084
 21
0.1648843628384107
 72
     1
 10
1.470622779794084
 20
0.1648843628384107
 11
1.471462336092232
 21
0.1661903393021964
 72
     1
 10
1.471462336092232
 20
0.1661903393021967
 11
1.472115324324125
 21
0.1674030317328546
 72
     1
 10
1.472115324324124
 20
0.1674030317328546
 11
1.472768312556016
 21
0.1686157241635125
 72
     1
 10
1.472768312556017
 20
0.1686157241635125
 11
1.473328016754783
 21
0.1699217006272986
 72
     1
 10
1.473328016754782
 20
0.1699217006272989
 11
1.47379443692042
 21
0.1711343930579568
 72
     1
 10
1.47379443692042
 20
0.1711343930579568
 11
1.474260857086057
 21
0.1724403695217425
 72
     1
 10
1.474260857086058
 20
0.1724403695217424
 11
1.474727277251697
 21
0.1736530619524008
 72
     1
 10
1.474727277251697
 20
0.173653061952401
 11
1.475380265483589
 21
0.1760784468137175
 72
     1
 10
1.475380265483588
 20
0.1760784468137173
 11
1.475846685649225
 21
0.1785038316750338
 72
     1
 10
1.475846685649226
 20
0.1785038316750335
 11
1.476219821781737
 21
0.1808359325032223
 72
     1
 10
1.476219821781738
 20
0.1808359325032223
 11
1.47649967388112
 21
0.1830747492982838
 72
     1
 10
1.47649967388112
 20
0.1830747492982838
 11
1.476592957914248
 21
0.1851269980270901
 72
     1
 10
1.476592957914248
 20
0.1851269980270902
 11
1.476686241947374
 21
0.1870859627227688
 72
     1
 10
1.476686241947375
 20
0.1870859627227687
 11
1.476592957914249
 21
0.1888583593521923
 72
     1
 10
1.476592957914248
 20
0.1888583593521922
 11
1.476499673881119
 21
0.1906307559816158
 72
     1
 10
1.47649967388112
 20
0.1906307559816159
 11
1.476406389847991
 21
0.1924031526110394
 72
     1
 10
1.476406389847991
 20
0.1924031526110394
 11
1.476126537748608
 21
0.1940822652073352
 72
     1
 10
1.476126537748608
 20
0.1940822652073352
 11
1.475846685649226
 21
0.195761377803631
 72
     1
 10
1.475846685649226
 20
0.1957613778036309
 11
1.475566833549843
 21
0.1974404903999272
 72
     1
 10
1.475566833549843
 20
0.1974404903999272
 11
1.475100413384206
 21
0.1990263189630953
 72
     1
 10
1.475100413384205
 20
0.1990263189630952
 11
1.474633993218568
 21
0.2006121475262637
 72
     1
 10
1.474633993218568
 20
0.2006121475262639
 11
1.47416757305293
 21
0.2021046920563051
 72
     1
 10
1.474167573052932
 20
0.2021046920563049
 11
1.473514584821038
 21
0.2035972365863457
 72
     1
 10
1.473514584821037
 20
0.2035972365863459
 11
1.472954880622271
 21
0.2050897811163867
 72
     1
 10
1.472954880622272
 20
0.2050897811163866
 11
1.472208608357252
 21
0.2064890416133
 72
     1
 10
1.472208608357252
 20
0.2064890416133001
 11
1.471462336092232
 21
0.2078883021102135
 72
     1
 10
1.471462336092232
 20
0.2078883021102136
 11
1.470622779794083
 21
0.2091942785739993
 72
     1
 10
1.470622779794084
 20
0.2091942785739991
 11
1.469783223495935
 21
0.2105002550377848
 72
     1
 10
1.469783223495934
 20
0.2105002550377851
 11
1.468850383164659
 21
0.2118062315015707
 72
     1
 10
1.468850383164661
 20
0.2118062315015709
 11
1.467917542833386
 21
0.2130189239322288
 72
     1
 10
1.467917542833385
 20
0.2130189239322289
 11
1.466891418468982
 21
0.2141383323297595
 72
     1
 10
1.466891418468982
 20
0.2141383323297595
 11
1.465772010071451
 21
0.2153510247604178
 72
     1
 10
1.46577201007145
 20
0.215351024760418
 11
1.464652601673919
 21
0.2163771491248209
 72
     1
 10
1.46465260167392
 20
0.2163771491248209
 11
1.463533193276389
 21
0.2174032734892238
 72
     1
 10
1.463533193276389
 20
0.2174032734892238
 11
1.462227216812603
 21
0.2184293978536266
 72
     1
 10
1.462227216812602
 20
0.2184293978536266
 11
1.461014524381945
 21
0.2193622381849024
 72
     1
 10
1.461014524381946
 20
0.2193622381849023
 11
1.459615263885032
 21
0.2202950785161781
 72
     1
 10
1.459615263885031
 20
0.2202950785161782
 11
1.458309287421245
 21
0.2211346348143262
 72
     1
 10
1.458309287421246
 20
0.221134634814326
 11
1.456816742891206
 21
0.221974191112474
 72
     1
 10
1.456816742891206
 20
0.2219741911124738
 11
1.455417482394292
 21
0.2227204633774945
 72
     1
 10
1.455417482394291
 20
0.2227204633774944
 11
1.453831653831122
 21
0.2233734516093874
 72
     1
 10
1.453831653831123
 20
0.2233734516093873
 11
1.452339109301082
 21
0.2240264398412803
 72
     1
 10
1.452339109301082
 20
0.2240264398412803
 11
1.450659996704785
 21
0.2245861440400459
 72
     1
 10
1.450659996704787
 20
0.2245861440400457
 11
1.44907416814162
 21
0.2251458482388108
 72
     1
 10
1.449074168141619
 20
0.2251458482388109
 11
1.447301771512194
 21
0.2256122684044489
 72
     1
 10
1.447301771512194
 20
0.2256122684044488
 11
1.445249522783388
 21
0.2261719726032139
 72
     1
 10
1.445249522783388
 20
0.226171972603214
 11
1.44329055808771
 21
0.2265451087357246
 72
     1
 10
1.443290558087712
 20
0.2265451087357244
 11
1.441145025325778
 21
0.2269182448682345
 72
     1
 10
1.441145025325776
 20
0.2269182448682345
 11
1.438906208530714
 21
0.2271980969676173
 72
     1
 10
1.438906208530714
 20
0.2271980969676173
 11
1.436387539636271
 21
0.2273846650338724
 72
     1
 10
1.436387539636271
 20
0.2273846650338724
 11
1.433495734609316
 21
0.2275712331001274
 72
     1
 10
1.433495734609317
 20
0.2275712331001274
 11
1.430044225383597
 21
0.2276645171332552
 72
     1
 10
1.430044225383597
 20
0.2276645171332549
 11
1.42612629599224
 21
0.2277578011663822
 72
     1
 10
1.42612629599224
 20
0.2277578011663825
 11
1.426033011959112
 21
0.2277578011663825
 72
     1
 10
1.426033011959111
 20
0.2277578011663825
 11
1.33489451159349
 21
0.2277578011663825
 72
     1
 10
1.334894511593491
 20
0.2277578011663825
 11
1.334894511593491
 21
0.0926825211976832
 72
     1
 10
1.334894511593491
 20
0.0926825211976832
 11
1.358588656007891
 21
0.0926825211976832
 72
     1
 10
1.358588656007891
 20
0.0926825211976832
 11
1.358588656007891
 21
0.0947347699264896
 72
     1
 10
1.358588656007891
 20
0.0947347699264896
 11
1.358588656007891
 21
0.1001452438478876
 72
     1
 10
1.358588656007891
 20
0.1001452438478875
 11
1.358588656007891
 21
0.1079811026306024
 72
     1
 10
1.358588656007891
 20
0.1079811026306024
 11
1.358588656007891
 21
0.1170296538439752
 72
     1
 10
1.358588656007891
 20
0.1170296538439753
 11
1.358588656007891
 21
0.1262647731236032
 72
     1
 10
1.358588656007891
 20
0.1262647731236031
 11
1.358588656007891
 21
0.1347536201382103
 72
     1
 10
1.358588656007891
 20
0.1347536201382104
 11
1.358588656007891
 21
0.1412835024571394
 72
     1
 10
1.358588656007891
 20
0.1412835024571393
 11
1.358588656007891
 21
0.1448282957159864
 72
     1
 10
1.358588656007891
 20
0.1448282957159865
 11
1.362320017332992
 21
0.1448282957159865
 72
     1
 10
1.362320017332992
 20
0.1448282957159865
 11
1.369409603850688
 21
0.1448282957159865
 72
     1
 10
1.369409603850688
 20
0.1448282957159865
 11
1.378738007163443
 21
0.1448282957159865
 72
     1
 10
1.378738007163443
 20
0.1448282957159865
 11
1.388999250807475
 21
0.1448282957159865
 72
     1
 10
1.388999250807473
 20
0.1448282957159865
 11
1.399260494451505
 21
0.1448282957159865
 72
     1
 10
1.399260494451506
 20
0.1448282957159865
 11
1.408215761631749
 21
0.1448282957159865
 72
     1
 10
1.408215761631748
 20
0.1448282957159865
 11
1.414745643950677
 21
0.1448282957159865
 72
     1
 10
1.414745643950678
 20
0.1448282957159865
 11
1.41773073301076
 21
0.1448282957159865
 72
     1
 10
1.417730733010761
 20
0.1448282957159865
 11
1.420062833838949
 21
0.1420297747221594
 72
     1
 10
1.420062833838949
 20
0.1420297747221597
 11
1.425193455660966
 21
0.1359663125688683
 72
     1
 10
1.425193455660965
 20
0.1359663125688683
 11
1.432283042178659
 21
0.1275707495873888
 72
     1
 10
1.432283042178659
 20
0.1275707495873886
 11
1.440305469027628
 21
0.1180557782083779
 72
     1
 10
1.440305469027629
 20
0.1180557782083781
 11
1.448234611843471
 21
0.1087273748956225
 72
     1
 10
1.448234611843471
 20
0.1087273748956225
 11
1.455044346261782
 21
0.1006116640135252
 72
     1
 10
1.455044346261782
 20
0.1006116640135252
 11
1.459895115984414
 21
0.0948280539596167
 72
     1
 10
1.459895115984414
 20
0.0948280539596169
 11
1.461760796646965
 21
0.0926825211976832
 72
     1
 10
1.461760796646967
 20
0.0926825211976832
 11
1.49254452757906
 21
0.0926825211976832
 72
     1
 10
1.492544527579059
 20
0.0926825211976832
 11
1.490678846916508
 21
0.0948280539596169
 72
     1
 10
1.490678846916508
 20
0.0948280539596169
 11
1.48564150912762
 21
0.100518379980398
 72
     1
 10
1.48564150912762
 20
0.1005183799803981
 11
1.478458638576797
 21
0.1088206589287502
 72
     1
 10
1.478458638576798
 20
0.1088206589287502
 11
1.470063075595318
 21
0.1183356303077609
 72
     1
 10
1.470063075595317
 20
0.118335630307761
 11
1.461480944547582
 21
0.1282237378192818
 72
     1
 10
1.461480944547582
 20
0.1282237378192818
 11
1.453551801731739
 21
0.1372722890326546
 72
     1
 10
1.45355180173174
 20
0.1372722890326546
 11
1.447395055545323
 21
0.1444551595834761
 72
     1
 10
1.447395055545323
 20
0.1444551595834759
 11
1.443756978253349
 21
0.1485596570410882
 97
        0
 75
     0
 76
     1
 98
        1
 10
-0.3743130907707726
 20
-0.2500502867693841
1001
ACAD
1010
0.0
1020
0.0
1030
0.0
  0
HATCH
  5
2642
330
263D
100
AcDbEntity
  8
Kawneer Logo-English
100
AcDbHatch
 10
0.0
 20
0.0
 30
0.0
210
0.0
220
0.0
230
1.0
  2
SOLID
 70
     1
 71
     0
 91
        1
 92
        1
 93
       87
 72
     1
 10
1.205602841678699
 20
0.1525708704655737
 11
1.207468522341251
 21
0.1525708704655737
 72
     1
 10
1.207468522341252
 20
0.1525708704655737
 11
1.211199883666355
 21
0.1525708704655737
 72
     1
 10
1.211199883666355
 20
0.1525708704655737
 11
1.216517073554626
 21
0.1525708704655737
 72
     1
 10
1.216517073554626
 20
0.1525708704655737
 11
1.223046955873555
 21
0.1525708704655737
 72
     1
 10
1.223046955873553
 20
0.1525708704655737
 11
1.230602962556885
 21
0.1525708704655737
 72
     1
 10
1.230602962556885
 20
0.1525708704655737
 11
1.238998525538365
 21
0.1525708704655737
 72
     1
 10
1.238998525538365
 20
0.1525708704655737
 11
1.247767224652354
 21
0.1525708704655737
 72
     1
 10
1.247767224652355
 20
0.1525708704655737
 11
1.256815775865728
 21
0.1525708704655737
 72
     1
 10
1.256815775865729
 20
0.1525708704655737
 11
1.265771043045974
 21
0.1525708704655737
 72
     1
 10
1.265771043045973
 20
0.1525708704655737
 11
1.274446458126836
 21
0.1525708704655737
 72
     1
 10
1.274446458126837
 20
0.1525708704655737
 11
1.282562169008935
 21
0.1525708704655737
 72
     1
 10
1.282562169008935
 20
0.1525708704655737
 11
1.289745039559756
 21
0.1525708704655737
 72
     1
 10
1.289745039559755
 20
0.1525708704655737
 11
1.295808501713046
 21
0.1525708704655737
 72
     1
 10
1.295808501713046
 20
0.1525708704655737
 11
1.300472703369423
 21
0.1525708704655737
 72
     1
 10
1.300472703369423
 20
0.1525708704655737
 11
1.303457792429505
 21
0.1525708704655737
 72
     1
 10
1.303457792429505
 20
0.1525708704655737
 11
1.304483916793908
 21
0.1525708704655737
 72
     1
 10
1.304483916793908
 20
0.1525708704655737
 11
1.304483916793908
 21
0.1730000737205081
 72
     1
 10
1.304483916793908
 20
0.1730000737205078
 11
1.303457792429505
 21
0.1730000737205078
 72
     1
 10
1.303457792429505
 20
0.1730000737205078
 11
1.300472703369423
 21
0.1730000737205078
 72
     1
 10
1.300472703369423
 20
0.1730000737205078
 11
1.295808501713045
 21
0.1730000737205078
 72
     1
 10
1.295808501713046
 20
0.1730000737205078
 11
1.289745039559754
 21
0.1730000737205078
 72
     1
 10
1.289745039559755
 20
0.1730000737205078
 11
1.282562169008934
 21
0.1730000737205078
 72
     1
 10
1.282562169008935
 20
0.1730000737205078
 11
1.274446458126837
 21
0.1730000737205078
 72
     1
 10
1.274446458126837
 20
0.1730000737205078
 11
1.265771043045975
 21
0.1730000737205078
 72
     1
 10
1.265771043045973
 20
0.1730000737205078
 11
1.256815775865728
 21
0.1730000737205078
 72
     1
 10
1.256815775865729
 20
0.1730000737205078
 11
1.247767224652355
 21
0.1730000737205078
 72
     1
 10
1.247767224652355
 20
0.1730000737205078
 11
1.238998525538365
 21
0.1730000737205078
 72
     1
 10
1.238998525538365
 20
0.1730000737205078
 11
1.230602962556885
 21
0.1730000737205078
 72
     1
 10
1.230602962556885
 20
0.1730000737205078
 11
1.223046955873553
 21
0.1730000737205078
 72
     1
 10
1.223046955873553
 20
0.1730000737205078
 11
1.216517073554625
 21
0.1730000737205078
 72
     1
 10
1.216517073554626
 20
0.1730000737205078
 11
1.211199883666355
 21
0.1730000737205078
 72
     1
 10
1.211199883666355
 20
0.1730000737205078
 11
1.207468522341252
 21
0.1730000737205078
 72
     1
 10
1.207468522341252
 20
0.1730000737205078
 11
1.205602841678701
 21
0.1730000737205078
 72
     1
 10
1.205602841678699
 20
0.1730000737205078
 11
1.205602841678699
 21
0.1754254585818243
 72
     1
 10
1.205602841678699
 20
0.1754254585818245
 11
1.205602841678699
 21
0.1794366720063095
 72
     1
 10
1.205602841678699
 20
0.1794366720063094
 11
1.205602841678699
 21
0.1843807257620694
 72
     1
 10
1.205602841678699
 20
0.1843807257620694
 11
1.205602841678699
 21
0.1898844837165951
 72
     1
 10
1.205602841678699
 20
0.1898844837165951
 11
1.205602841678699
 21
0.1952949576379935
 72
     1
 10
1.205602841678699
 20
0.1952949576379937
 11
1.205602841678699
 21
0.2003322954268815
 72
     1
 10
1.205602841678699
 20
0.2003322954268814
 11
1.205602841678699
 21
0.2042502248182386
 72
     1
 10
1.205602841678699
 20
0.2042502248182386
 11
1.205602841678699
 21
0.206675609679555
 72
     1
 10
1.205602841678699
 20
0.206675609679555
 11
1.207468522341251
 21
0.206675609679555
 72
     1
 10
1.207468522341252
 20
0.206675609679555
 11
1.211293167699483
 21
0.206675609679555
 72
     1
 10
1.211293167699483
 20
0.206675609679555
 11
1.21670364162088
 21
0.206675609679555
 72
     1
 10
1.216703641620879
 20
0.206675609679555
 11
1.223420092006063
 21
0.206675609679555
 72
     1
 10
1.223420092006064
 20
0.206675609679555
 11
1.231255950788778
 21
0.206675609679555
 72
     1
 10
1.231255950788778
 20
0.206675609679555
 11
1.239744797803386
 21
0.206675609679555
 72
     1
 10
1.239744797803385
 20
0.206675609679555
 11
1.248886633049885
 21
0.206675609679555
 72
     1
 10
1.248886633049885
 20
0.206675609679555
 11
1.258121752329513
 21
0.206675609679555
 72
     1
 10
1.258121752329514
 20
0.206675609679555
 11
1.267356871609143
 21
0.206675609679555
 72
     1
 10
1.267356871609142
 20
0.206675609679555
 11
1.276218854756259
 21
0.206675609679555
 72
     1
 10
1.276218854756259
 20
0.206675609679555
 11
1.284521133704611
 21
0.206675609679555
 72
     1
 10
1.284521133704611
 20
0.206675609679555
 11
1.291890572321688
 21
0.206675609679555
 72
     1
 10
1.291890572321688
 20
0.206675609679555
 11
1.298140602541234
 21
0.206675609679555
 72
     1
 10
1.298140602541234
 20
0.206675609679555
 11
1.30289808823074
 21
0.206675609679555
 72
     1
 10
1.30289808823074
 20
0.206675609679555
 11
1.305976461323949
 21
0.206675609679555
 72
     1
 10
1.305976461323949
 20
0.206675609679555
 11
1.30709586972148
 21
0.206675609679555
 72
     1
 10
1.307095869721479
 20
0.206675609679555
 11
1.307095869721479
 21
0.2277578011663822
 72
     1
 10
1.307095869721479
 20
0.2277578011663825
 11
1.304577200827036
 21
0.2277578011663825
 72
     1
 10
1.304577200827037
 20
0.2277578011663825
 11
1.182188549363684
 21
0.2277578011663825
 72
     1
 10
1.182188549363684
 20
0.2277578011663825
 11
1.182188549363684
 21
0.0926825211976832
 72
     1
 10
1.182188549363684
 20
0.0926825211976832
 11
1.311853355410986
 21
0.0926825211976832
 72
     1
 10
1.311853355410985
 20
0.0926825211976832
 11
1.311853355410985
 21
0.113671428651383
 72
     1
 10
1.311853355410985
 20
0.1136714286513832
 11
1.310733947013454
 21
0.1136714286513832
 72
     1
 10
1.310733947013455
 20
0.1136714286513832
 11
1.307469005853991
 21
0.1136714286513832
 72
     1
 10
1.307469005853991
 20
0.1136714286513832
 11
1.302431668065102
 21
0.1136714286513832
 72
     1
 10
1.302431668065103
 20
0.1136714286513832
 11
1.295901785746174
 21
0.1136714286513832
 72
     1
 10
1.295901785746174
 20
0.1136714286513832
 11
1.288159210996586
 21
0.1136714286513832
 72
     1
 10
1.288159210996587
 20
0.1136714286513832
 11
1.279483795915724
 21
0.1136714286513832
 72
     1
 10
1.279483795915723
 20
0.1136714286513832
 11
1.270155392602968
 21
0.1136714286513832
 72
     1
 10
1.270155392602969
 20
0.1136714286513832
 11
1.260547137190832
 21
0.1136714286513832
 72
     1
 10
1.260547137190831
 20
0.1136714286513832
 11
1.250752313712437
 21
0.1136714286513832
 72
     1
 10
1.250752313712437
 20
0.1136714286513832
 11
1.241330626366554
 21
0.1136714286513832
 72
     1
 10
1.241330626366555
 20
0.1136714286513832
 11
1.23237535918631
 21
0.1136714286513832
 72
     1
 10
1.232375359186308
 20
0.1136714286513832
 11
1.224166364271082
 21
0.1136714286513832
 72
     1
 10
1.224166364271083
 20
0.1136714286513832
 11
1.217170061786517
 21
0.1136714286513832
 72
     1
 10
1.217170061786517
 20
0.1136714286513832
 11
1.211479735765737
 21
0.1136714286513832
 72
     1
 10
1.211479735765737
 20
0.1136714286513832
 11
1.20756180637438
 21
0.1136714286513832
 72
     1
 10
1.207561806374379
 20
0.1136714286513832
 11
1.2056028416787
 21
0.1136714286513832
 72
     1
 10
1.205602841678699
 20
0.1136714286513832
 11
1.205602841678699
 21
0.1163766656120825
 72
     1
 10
1.205602841678699
 20
0.1163766656120823
 11
1.205602841678699
 21
0.1209475832353323
 72
     1
 10
1.205602841678699
 20
0.1209475832353325
 11
1.205602841678699
 21
0.1267311932892411
 72
     1
 10
1.205602841678699
 20
0.1267311932892408
 11
1.205602841678699
 21
0.1330745075419143
 72
     1
 10
1.205602841678699
 20
0.1330745075419144
 11
1.205602841678699
 21
0.1395111058277156
 72
     1
 10
1.205602841678699
 20
0.1395111058277158
 11
1.205602841678699
 21
0.1452947158816239
 72
     1
 10
1.205602841678699
 20
0.145294715881624
 11
1.205602841678699
 21
0.1498656335048746
 72
     1
 10
1.205602841678699
 20
0.1498656335048745
 11
1.205602841678699
 21
0.1525708704655738
 97
        0
 75
     0
 76
     1
 98
        1
 10
-0.3743130907707726
 20
-0.2500502867693841
1001
ACAD
1010
0.0
1020
0.0
1030
0.0
  0
HATCH
  5
2643
330
263D
100
AcDbEntity
  8
Kawneer Logo-English
100
AcDbHatch
 10
0.0
 20
0.0
 30
0.0
210
0.0
220
0.0
230
1.0
  2
SOLID
 70
     1
 71
     0
 91
        1
 92
        1
 93
       87
 72
     1
 10
1.049352086190046
 20
0.1525708704655737
 11
1.051217766852597
 21
0.1525708704655737
 72
     1
 10
1.051217766852596
 20
0.1525708704655737
 11
1.054949128177699
 21
0.1525708704655737
 72
     1
 10
1.0549491281777
 20
0.1525708704655737
 11
1.060173034032843
 21
0.1525708704655737
 72
     1
 10
1.060173034032843
 20
0.1525708704655737
 11
1.0667962003849
 21
0.1525708704655737
 72
     1
 10
1.0667962003849
 20
0.1525708704655737
 11
1.074352207068231
 21
0.1525708704655737
 72
     1
 10
1.074352207068232
 20
0.1525708704655737
 11
1.082747770049711
 21
0.1525708704655737
 72
     1
 10
1.082747770049711
 20
0.1525708704655737
 11
1.0915164691637
 21
0.1525708704655737
 72
     1
 10
1.091516469163701
 20
0.1525708704655737
 11
1.100565020377075
 21
0.1525708704655737
 72
     1
 10
1.100565020377073
 20
0.1525708704655737
 11
1.109520287557319
 21
0.1525708704655737
 72
     1
 10
1.10952028755732
 20
0.1525708704655737
 11
1.118195702638183
 21
0.1525708704655737
 72
     1
 10
1.118195702638182
 20
0.1525708704655737
 11
1.126218129487151
 21
0.1525708704655737
 72
     1
 10
1.126218129487152
 20
0.1525708704655737
 11
1.133401000037974
 21
0.1525708704655737
 72
     1
 10
1.133401000037974
 20
0.1525708704655737
 11
1.139557746224391
 21
0.1525708704655737
 72
     1
 10
1.139557746224392
 20
0.1525708704655737
 11
1.14422194788077
 21
0.1525708704655737
 72
     1
 10
1.144221947880769
 20
0.1525708704655737
 11
1.147207036940851
 21
0.1525708704655737
 72
     1
 10
1.147207036940852
 20
0.1525708704655737
 11
1.148233161305255
 21
0.1525708704655737
 72
     1
 10
1.148233161305255
 20
0.1525708704655737
 11
1.148233161305255
 21
0.1730000737205081
 72
     1
 10
1.148233161305255
 20
0.1730000737205078
 11
1.147207036940852
 21
0.1730000737205078
 72
     1
 10
1.147207036940852
 20
0.1730000737205078
 11
1.14422194788077
 21
0.1730000737205078
 72
     1
 10
1.144221947880769
 20
0.1730000737205078
 11
1.139557746224391
 21
0.1730000737205078
 72
     1
 10
1.139557746224392
 20
0.1730000737205078
 11
1.133494284071101
 21
0.1730000737205078
 72
     1
 10
1.133494284071101
 20
0.1730000737205078
 11
1.126218129487152
 21
0.1730000737205078
 72
     1
 10
1.126218129487152
 20
0.1730000737205078
 11
1.118195702638183
 21
0.1730000737205078
 72
     1
 10
1.118195702638182
 20
0.1730000737205078
 11
1.10952028755732
 21
0.1730000737205078
 72
     1
 10
1.10952028755732
 20
0.1730000737205078
 11
1.100565020377074
 21
0.1730000737205078
 72
     1
 10
1.100565020377073
 20
0.1730000737205078
 11
1.0915164691637
 21
0.1730000737205078
 72
     1
 10
1.091516469163701
 20
0.1730000737205078
 11
1.082747770049712
 21
0.1730000737205078
 72
     1
 10
1.082747770049711
 20
0.1730000737205078
 11
1.074352207068231
 21
0.1730000737205078
 72
     1
 10
1.074352207068232
 20
0.1730000737205078
 11
1.0667962003849
 21
0.1730000737205078
 72
     1
 10
1.0667962003849
 20
0.1730000737205078
 11
1.060173034032843
 21
0.1730000737205078
 72
     1
 10
1.060173034032843
 20
0.1730000737205078
 11
1.054949128177701
 21
0.1730000737205078
 72
     1
 10
1.0549491281777
 20
0.1730000737205078
 11
1.051217766852597
 21
0.1730000737205078
 72
     1
 10
1.051217766852596
 20
0.1730000737205078
 11
1.049352086190045
 21
0.1730000737205078
 72
     1
 10
1.049352086190046
 20
0.1730000737205078
 11
1.049352086190046
 21
0.1754254585818243
 72
     1
 10
1.049352086190046
 20
0.1754254585818245
 11
1.049352086190046
 21
0.1794366720063095
 72
     1
 10
1.049352086190046
 20
0.1794366720063094
 11
1.049352086190046
 21
0.1843807257620694
 72
     1
 10
1.049352086190046
 20
0.1843807257620694
 11
1.049352086190046
 21
0.1898844837165951
 72
     1
 10
1.049352086190046
 20
0.1898844837165951
 11
1.049352086190046
 21
0.1952949576379935
 72
     1
 10
1.049352086190046
 20
0.1952949576379937
 11
1.049352086190046
 21
0.2003322954268815
 72
     1
 10
1.049352086190046
 20
0.2003322954268814
 11
1.049352086190046
 21
0.2042502248182386
 72
     1
 10
1.049352086190046
 20
0.2042502248182386
 11
1.049352086190046
 21
0.206675609679555
 72
     1
 10
1.049352086190046
 20
0.206675609679555
 11
1.051217766852597
 21
0.206675609679555
 72
     1
 10
1.051217766852596
 20
0.206675609679555
 11
1.055042412210825
 21
0.206675609679555
 72
     1
 10
1.055042412210827
 20
0.206675609679555
 11
1.060452886132226
 21
0.206675609679555
 72
     1
 10
1.060452886132225
 20
0.206675609679555
 11
1.067169336517409
 21
0.206675609679555
 72
     1
 10
1.06716933651741
 20
0.206675609679555
 11
1.075005195300124
 21
0.206675609679555
 72
     1
 10
1.075005195300123
 20
0.206675609679555
 11
1.083494042314731
 21
0.206675609679555
 72
     1
 10
1.083494042314732
 20
0.206675609679555
 11
1.092542593528105
 21
0.206675609679555
 72
     1
 10
1.092542593528106
 20
0.206675609679555
 11
1.10187099684086
 21
0.206675609679555
 72
     1
 10
1.101870996840861
 20
0.206675609679555
 11
1.111106116120489
 21
0.206675609679555
 72
     1
 10
1.111106116120488
 20
0.206675609679555
 11
1.119968099267605
 21
0.206675609679555
 72
     1
 10
1.119968099267605
 20
0.206675609679555
 11
1.128270378215957
 21
0.206675609679555
 72
     1
 10
1.128270378215957
 20
0.206675609679555
 11
1.135639816833034
 21
0.206675609679555
 72
     1
 10
1.135639816833034
 20
0.206675609679555
 11
1.14188984705258
 21
0.206675609679555
 72
     1
 10
1.141889847052581
 20
0.206675609679555
 11
1.146647332742086
 21
0.206675609679555
 72
     1
 10
1.146647332742086
 20
0.206675609679555
 11
1.149725705835295
 21
0.206675609679555
 72
     1
 10
1.149725705835296
 20
0.206675609679555
 11
1.150845114232827
 21
0.206675609679555
 72
     1
 10
1.150845114232826
 20
0.206675609679555
 11
1.150845114232826
 21
0.2277578011663822
 72
     1
 10
1.150845114232826
 20
0.2277578011663825
 11
1.148326445338383
 21
0.2277578011663825
 72
     1
 10
1.148326445338383
 20
0.2277578011663825
 11
1.025937793875031
 21
0.2277578011663825
 72
     1
 10
1.025937793875032
 20
0.2277578011663825
 11
1.025937793875032
 21
0.0926825211976832
 72
     1
 10
1.025937793875032
 20
0.0926825211976832
 11
1.155602599922332
 21
0.0926825211976832
 72
     1
 10
1.155602599922332
 20
0.0926825211976832
 11
1.155602599922332
 21
0.113671428651383
 72
     1
 10
1.155602599922332
 20
0.1136714286513832
 11
1.154483191524801
 21
0.1136714286513832
 72
     1
 10
1.154483191524799
 20
0.1136714286513832
 11
1.151218250365336
 21
0.1136714286513832
 72
     1
 10
1.151218250365338
 20
0.1136714286513832
 11
1.146180912576449
 21
0.1136714286513832
 72
     1
 10
1.146180912576449
 20
0.1136714286513832
 11
1.13965103025752
 21
0.1136714286513832
 72
     1
 10
1.13965103025752
 20
0.1136714286513832
 11
1.131908455507932
 21
0.1136714286513832
 72
     1
 10
1.131908455507931
 20
0.1136714286513832
 11
1.12323304042707
 21
0.1136714286513832
 72
     1
 10
1.123233040427071
 20
0.1136714286513832
 11
1.113904637114314
 21
0.1136714286513832
 72
     1
 10
1.113904637114314
 20
0.1136714286513832
 11
1.104296381702177
 21
0.1136714286513832
 72
     1
 10
1.104296381702177
 20
0.1136714286513832
 11
1.094501558223783
 21
0.1136714286513832
 72
     1
 10
1.094501558223784
 20
0.1136714286513832
 11
1.085079870877901
 21
0.1136714286513832
 72
     1
 10
1.085079870877899
 20
0.1136714286513832
 11
1.076124603697654
 21
0.1136714286513832
 72
     1
 10
1.076124603697655
 20
0.1136714286513832
 11
1.067915608782429
 21
0.1136714286513832
 72
     1
 10
1.067915608782429
 20
0.1136714286513832
 11
1.060919306297863
 21
0.1136714286513832
 72
     1
 10
1.060919306297863
 20
0.1136714286513832
 11
1.055228980277083
 21
0.1136714286513832
 72
     1
 10
1.055228980277082
 20
0.1136714286513832
 11
1.051311050885725
 21
0.1136714286513832
 72
     1
 10
1.051311050885726
 20
0.1136714286513832
 11
1.049352086190046
 21
0.1136714286513832
 72
     1
 10
1.049352086190046
 20
0.1136714286513832
 11
1.049352086190046
 21
0.1163766656120825
 72
     1
 10
1.049352086190046
 20
0.1163766656120823
 11
1.049352086190046
 21
0.1209475832353323
 72
     1
 10
1.049352086190046
 20
0.1209475832353325
 11
1.049352086190046
 21
0.1267311932892411
 72
     1
 10
1.049352086190046
 20
0.1267311932892408
 11
1.049352086190046
 21
0.1330745075419143
 72
     1
 10
1.049352086190046
 20
0.1330745075419144
 11
1.049352086190046
 21
0.1395111058277156
 72
     1
 10
1.049352086190046
 20
0.1395111058277158
 11
1.049352086190046
 21
0.1452947158816239
 72
     1
 10
1.049352086190046
 20
0.145294715881624
 11
1.049352086190046
 21
0.1498656335048746
 72
     1
 10
1.049352086190046
 20
0.1498656335048745
 11
1.049352086190046
 21
0.1525708704655738
 97
        0
 75
     0
 76
     1
 98
        1
 10
-0.3743130907707726
 20
-0.2500502867693841
1001
ACAD
1010
0.0
1020
0.0
1030
0.0
  0
HATCH
  5
2644
330
263D
100
AcDbEntity
  8
Kawneer Logo-English
100
AcDbHatch
 10
0.0
 20
0.0
 30
0.0
210
0.0
220
0.0
230
1.0
  2
SOLID
 70
     1
 71
     0
 91
        1
 92
        1
 93
       42
 72
     1
 10
0.9725793269260698
 20
0.2277578011663825
 11
0.9725793269260698
 21
0.1354998924032311
 72
     1
 10
0.9725793269260698
 20
0.1354998924032311
 11
0.9729524630585808
 21
0.1264513411898582
 72
     1
 10
0.9729524630585796
 20
0.1264513411898583
 11
0.9729524630585796
 21
0.1255185008585825
 72
     1
 10
0.9729524630585796
 20
0.1255185008585824
 11
0.9731390311248343
 21
0.1238393882622866
 72
     1
 10
0.9731390311248349
 20
0.1238393882622866
 11
0.9717397706279211
 21
0.1254252168254551
 72
     1
 10
0.97173977062792
 20
0.1254252168254551
 11
0.9710867823960281
 21
0.1262647731236031
 72
     1
 10
0.9710867823960294
 20
0.1262647731236031
 11
0.9641837639445897
 21
0.1339140638400625
 72
     1
 10
0.9641837639445899
 20
0.1339140638400624
 11
0.8755639324734129
 21
0.2277578011663823
 72
     1
 10
0.8755639324734115
 20
0.2277578011663825
 11
0.8529891964565429
 21
0.2277578011663825
 72
     1
 10
0.8529891964565434
 20
0.2277578011663825
 11
0.8529891964565434
 21
0.0926825211976832
 72
     1
 10
0.8529891964565434
 20
0.0926825211976832
 11
0.8756572165065401
 21
0.0926825211976832
 72
     1
 10
0.875657216506541
 20
0.0926825211976832
 11
0.875657216506541
 21
0.1927762887435495
 72
     1
 10
0.875657216506541
 20
0.1927762887435495
 11
0.875657216506541
 21
0.1931494248760597
 72
     1
 10
0.875657216506541
 20
0.1931494248760596
 11
0.8755639324734129
 21
0.193988981174208
 72
     1
 10
0.8755639324734115
 20
0.1939889811742079
 11
0.8754706484402849
 21
0.1952949576379935
 72
     1
 10
0.8754706484402859
 20
0.1952949576379937
 11
0.8753773644071577
 21
0.1967875021680344
 72
     1
 10
0.875377364407158
 20
0.1967875021680343
 11
0.8755639324734126
 21
0.1965076500686515
 72
     1
 10
0.8755639324734115
 20
0.1965076500686517
 11
0.8756572165065396
 21
0.1963210820023967
 72
     1
 10
0.875657216506541
 20
0.1963210820023967
 11
0.8764967728046894
 21
0.1954815257042487
 72
     1
 10
0.8764967728046887
 20
0.1954815257042488
 11
0.8781758854009835
 21
0.1936158450416976
 72
     1
 10
0.8781758854009842
 20
0.1936158450416973
 11
0.8797617139641527
 21
0.1917501643791464
 72
     1
 10
0.879761713964152
 20
0.1917501643791466
 11
0.8805079862291723
 21
0.1909106080809982
 72
     1
 10
0.8805079862291727
 20
0.190910608080998
 11
0.8816273946267036
 21
0.1897911996834678
 72
     1
 10
0.8816273946267028
 20
0.1897911996834681
 11
0.884519199653657
 21
0.1867128265902584
 72
     1
 10
0.8845191996536581
 20
0.1867128265902582
 11
0.8891834013100353
 21
0.1818620568676254
 72
     1
 10
0.889183401310035
 20
0.1818620568676252
 11
0.8951535794301982
 21
0.1756120266480794
 72
     1
 10
0.8951535794301985
 20
0.1756120266480794
 11
0.9021498819147662
 21
0.1681493039978751
 72
     1
 10
0.9021498819147669
 20
0.1681493039978752
 11
0.9099857406974814
 21
0.1598470250495227
 72
     1
 10
0.9099857406974813
 20
0.1598470250495225
 11
0.9183813036789613
 21
0.1509850419024051
 72
     1
 10
0.9183813036789612
 20
0.1509850419024052
 11
0.9271500027929521
 21
0.1418432066559046
 72
     1
 10
0.9271500027929509
 20
0.1418432066559046
 11
0.9358254178738118
 21
0.1326080873762767
 72
     1
 10
0.9358254178738132
 20
0.1326080873762767
 11
0.9442209808552931
 21
0.1237461042291589
 72
     1
 10
0.9442209808552931
 20
0.1237461042291589
 11
0.9520568396380092
 21
0.1154438252808068
 72
     1
 10
0.9520568396380092
 20
0.1154438252808068
 11
0.9590531421225751
 21
0.1079811026306025
 72
     1
 10
0.959053142122574
 20
0.1079811026306024
 11
0.9650233202427372
 21
0.101731072411056
 72
     1
 10
0.9650233202427376
 20
0.101731072411056
 11
0.9695942378659868
 21
0.0968803026884232
 72
     1
 10
0.9695942378659871
 20
0.096880302688423
 11
0.9725793269260696
 21
0.0938019295952138
 72
     1
 10
0.9725793269260698
 20
0.093801929595214
 11
0.9736054512904727
 21
0.0926825211976834
 72
     1
 10
0.9736054512904726
 20
0.0926825211976832
 11
0.9952473469760661
 21
0.0926825211976832
 72
     1
 10
0.9952473469760651
 20
0.0926825211976832
 11
0.9952473469760651
 21
0.2277578011663825
 72
     1
 10
0.9952473469760651
 20
0.2277578011663825
 11
0.9927286780816201
 21
0.2277578011663825
 72
     1
 10
0.9927286780816203
 20
0.2277578011663825
 11
0.9725793269260686
 21
0.2277578011663825
 97
        0
 75
     0
 76
     1
 98
        1
 10
-0.3743130907707726
 20
-0.2500502867693841
1001
ACAD
1010
0.0
1020
0.0
1030
0.0
  0
HATCH
  5
2645
330
263D
100
AcDbEntity
  8
Kawneer Logo-English
100
AcDbHatch
 10
0.0
 20
0.0
 30
0.0
210
0.0
220
0.0
230
1.0
  2
SOLID
 70
     1
 71
     0
 91
        2
 92
       16
 93
       32
 72
     1
 10
0.5269615006757409
 20
0.144641727649731
 11
0.5290137494045469
 21
0.148652941074216
 72
     1
 10
0.5290137494045464
 20
0.1486529410742159
 11
0.5322786905640116
 21
0.1551828233931449
 72
     1
 10
0.532278690564012
 20
0.1551828233931452
 11
0.5364764720547521
 21
0.1633918183083696
 72
     1
 10
0.5364764720547526
 20
0.1633918183083696
 11
0.5409541056448736
 21
0.1722538014554874
 72
     1
 10
0.5409541056448726
 20
0.1722538014554873
 11
0.545338455201869
 21
0.1808359325032223
 72
     1
 10
0.5453384552018701
 20
0.1808359325032223
 11
0.5490698165269726
 21
0.1882053711202994
 72
     1
 10
0.549069816526973
 20
0.1882053711202996
 11
0.5515884854214162
 21
0.1932427089091875
 72
     1
 10
0.5515884854214148
 20
0.1932427089091872
 11
0.5526146097858177
 21
0.1952016736048658
 72
     1
 10
0.5526146097858194
 20
0.1952016736048658
 11
0.552801177852074
 21
0.195761377803631
 72
     1
 10
0.5528011778520723
 20
0.1957613778036309
 11
0.5533608820508379
 21
0.1970673542674166
 72
     1
 10
0.5533608820508378
 20
0.1970673542674169
 11
0.5542004383489863
 21
0.1990263189630955
 72
     1
 10
0.5542004383489872
 20
0.1990263189630952
 11
0.5550399946471356
 21
0.2012651357581567
 72
     1
 10
0.5550399946471352
 20
0.2012651357581567
 11
0.5555064148127727
 21
0.2001457273606265
 72
     1
 10
0.5555064148127729
 20
0.2001457273606264
 11
0.5560661190115385
 21
0.198933034929968
 72
     1
 10
0.5560661190115379
 20
0.198933034929968
 11
0.5567191072434298
 21
0.197533774433055
 72
     1
 10
0.5567191072434304
 20
0.197533774433055
 11
0.5574653795084506
 21
0.1959479458698865
 72
     1
 10
0.557465379508451
 20
0.1959479458698865
 11
0.5583049358065995
 21
0.1942688332735902
 72
     1
 10
0.5583049358065986
 20
0.1942688332735903
 11
0.5606370366347874
 21
0.1896046316172126
 72
     1
 10
0.5606370366347871
 20
0.1896046316172126
 11
0.5639952618273804
 21
0.1828881812320289
 72
     1
 10
0.5639952618273814
 20
0.1828881812320287
 11
0.5680064752518651
 21
0.1748657543830587
 72
     1
 10
0.5680064752518637
 20
0.1748657543830589
 11
0.57239082480886
 21
0.1661903393021966
 72
     1
 10
0.5723908248088612
 20
0.1661903393021967
 11
0.5765886062996012
 21
0.1577947763207168
 72
     1
 10
0.5765886062996
 20
0.1577947763207165
 11
0.5803199676247008
 21
0.1503320536705122
 72
     1
 10
0.5803199676247015
 20
0.1503320536705122
 11
0.5831184886185295
 21
0.144641727649731
 72
     1
 10
0.5831184886185295
 20
0.144641727649731
 11
0.5791072751940441
 21
0.144641727649731
 72
     1
 10
0.5791072751940436
 20
0.144641727649731
 11
0.5724841088419869
 21
0.144641727649731
 72
     1
 10
0.5724841088419872
 20
0.144641727649731
 11
0.5641818298936356
 21
0.144641727649731
 72
     1
 10
0.5641818298936352
 20
0.144641727649731
 11
0.5550399946471351
 21
0.144641727649731
 72
     1
 10
0.5550399946471352
 20
0.144641727649731
 11
0.5458981594006351
 21
0.144641727649731
 72
     1
 10
0.5458981594006352
 20
0.144641727649731
 11
0.5375958804522815
 21
0.144641727649731
 72
     1
 10
0.5375958804522814
 20
0.144641727649731
 11
0.5310659981333528
 21
0.144641727649731
 72
     1
 10
0.5310659981333524
 20
0.144641727649731
 11
0.5269615006757405
 21
0.144641727649731
 97
        0
 92
        1
 93
      141
 72
     1
 10
0.5656743744236757
 20
0.2277578011663825
 11
0.544405614870593
 21
0.2277578011663825
 72
     1
 10
0.544405614870593
 20
0.2277578011663825
 11
0.4748157261574382
 21
0.0934287934627039
 72
     1
 10
0.4748157261574378
 20
0.0934287934627039
 11
0.4729500454948865
 21
0.0955743262246376
 72
     1
 10
0.4729500454948874
 20
0.0955743262246376
 11
0.4699649564348049
 21
0.0991191194834847
 72
     1
 10
0.4699649564348043
 20
0.0991191194834847
 11
0.4661403110765752
 21
0.1036900371067346
 72
     1
 10
0.4661403110765754
 20
0.1036900371067347
 11
0.4615693934533244
 21
0.1091005110281331
 72
     1
 10
0.461569393453325
 20
0.109100511028133
 11
0.456345487598182
 21
0.1152572572145517
 72
     1
 10
0.4563454875981812
 20
0.1152572572145516
 11
0.4506551615774008
 21
0.1219737075997353
 72
     1
 10
0.4506551615774015
 20
0.1219737075997354
 11
0.4447782674903648
 21
0.1290632941174296
 72
     1
 10
0.4447782674903636
 20
0.1290632941174296
 11
0.4387148053370722
 21
0.1362461646682511
 72
     1
 10
0.4387148053370727
 20
0.1362461646682512
 11
0.4326513431837832
 21
0.1433357511859454
 72
     1
 10
0.4326513431837844
 20
0.1433357511859453
 11
0.4268677331298759
 21
0.1502387696373844
 72
     1
 10
0.4268677331298756
 20
0.1502387696373844
 11
0.4214572592084763
 21
0.1566753679231857
 72
     1
 10
0.4214572592084754
 20
0.1566753679231858
 11
0.4165132054527153
 21
0.1625522620102216
 72
     1
 10
0.4165132054527163
 20
0.1625522620102216
 11
0.4123154239619763
 21
0.1674963157659821
 72
     1
 10
0.4123154239619753
 20
0.1674963157659822
 11
0.4088639147362555
 21
0.1715075291904667
 72
     1
 10
0.4088639147362568
 20
0.1715075291904669
 11
0.4065318139080681
 21
0.1743993342174211
 72
     1
 10
0.4065318139080665
 20
0.1743993342174211
 11
0.405319121477409
 21
0.1757985947143345
 72
     1
 10
0.4053191214774104
 20
0.1757985947143345
 11
0.4067183819743243
 21
0.1769180031118651
 72
     1
 10
0.4067183819743235
 20
0.1769180031118651
 11
0.4094236189350213
 21
0.1788769678075437
 72
     1
 10
0.4094236189350218
 20
0.1788769678075437
 11
0.4132482642932526
 21
0.1816754888013702
 72
     1
 10
0.4132482642932525
 20
0.1816754888013703
 11
0.4179124659496298
 21
0.1852202820602174
 72
     1
 10
0.417912465949629
 20
0.1852202820602174
 11
0.4232296558379
 21
0.189138211451575
 72
     1
 10
0.4232296558379001
 20
0.1891382114515751
 11
0.4291065499249351
 21
0.1935225610085696
 72
     1
 10
0.4291065499249367
 20
0.1935225610085698
 11
0.4352632961113562
 21
0.1981867626649482
 72
     1
 10
0.4352632961113554
 20
0.1981867626649479
 11
0.4416066103640296
 21
0.2028509643213252
 72
     1
 10
0.4416066103640293
 20
0.2028509643213252
 11
0.4479499246167016
 21
0.2076084500108307
 72
     1
 10
0.4479499246167018
 20
0.2076084500108307
 11
0.4540133867699932
 21
0.2120860836009535
 72
     1
 10
0.4540133867699927
 20
0.2120860836009535
 11
0.4596104287576467
 21
0.2162838650916932
 72
     1
 10
0.4596104287576468
 20
0.216283865091693
 11
0.4646477665465351
 21
0.2200152264167952
 72
     1
 10
0.464647766546535
 20
0.2200152264167951
 11
0.4689388320704013
 21
0.223186883543132
 72
     1
 10
0.4689388320704016
 20
0.2231868835431323
 11
0.4721104891967386
 21
0.2256122684044488
 72
     1
 10
0.4721104891967376
 20
0.2256122684044488
 11
0.4742560219586717
 21
0.2271980969676172
 72
     1
 10
0.4742560219586727
 20
0.2271980969676173
 11
0.475002294223693
 21
0.2277578011663825
 72
     1
 10
0.4750022942236929
 20
0.2277578011663825
 11
0.4674462875403612
 21
0.2277578011663825
 72
     1
 10
0.4674462875403611
 20
0.2277578011663825
 11
0.4395543616352215
 21
0.2277578011663825
 72
     1
 10
0.439554361635222
 20
0.2277578011663825
 11
0.4386215213039473
 21
0.2270115289013622
 72
     1
 10
0.4386215213039466
 20
0.2270115289013622
 11
0.4359162843432469
 21
0.2250525642056836
 72
     1
 10
0.4359162843432465
 20
0.2250525642056836
 11
0.4318117868856346
 21
0.2220674751456017
 72
     1
 10
0.4318117868856351
 20
0.2220674751456017
 11
0.4264013129642376
 21
0.2180562617211167
 72
     1
 10
0.4264013129642379
 20
0.2180562617211168
 11
0.4200579987115638
 21
0.2132987760316117
 72
     1
 10
0.4200579987115641
 20
0.2132987760316114
 11
0.4128751281607416
 21
0.2079815861433408
 72
     1
 10
0.4128751281607408
 20
0.2079815861433408
 11
0.4051325534111546
 21
0.20229126012256
 72
     1
 10
0.4051325534111552
 20
0.20229126012256
 11
0.397016842529058
 21
0.1963210820023964
 72
     1
 10
0.3970168425290583
 20
0.1963210820023967
 11
0.3889011316469611
 21
0.1903509038822331
 72
     1
 10
0.3889011316469611
 20
0.190350903882233
 11
0.3808787047979902
 21
0.1844740097951972
 72
     1
 10
0.3808787047979898
 20
0.1844740097951974
 11
0.3733226981146581
 21
0.1787836837744166
 72
     1
 10
0.373322698114658
 20
0.1787836837744166
 11
0.3663263956300919
 21
0.173653061952401
 72
     1
 10
0.3663263956300931
 20
0.173653061952401
 11
0.3601696494436735
 21
0.169082144329151
 72
     1
 10
0.3601696494436726
 20
0.1690821443291508
 11
0.3550390276216579
 21
0.1653507830040483
 72
     1
 10
0.3550390276216584
 20
0.1653507830040482
 11
0.3513076662965558
 21
0.1625522620102218
 72
     1
 10
0.3513076662965551
 20
0.1625522620102216
 11
0.3490688495014928
 21
0.1609664334470531
 72
     1
 10
0.3490688495014926
 20
0.1609664334470531
 11
0.3490688495014926
 21
0.1631119662089868
 72
     1
 10
0.3490688495014926
 20
0.1631119662089868
 11
0.3490688495014926
 21
0.1662836233353237
 72
     1
 10
0.3490688495014926
 20
0.1662836233353238
 11
0.3490688495014926
 21
0.1702948367598088
 72
     1
 10
0.3490688495014926
 20
0.1702948367598088
 11
0.3490688495014926
 21
0.1749590384161865
 72
     1
 10
0.3490688495014926
 20
0.1749590384161865
 11
0.3490688495014926
 21
0.1801829442713294
 72
     1
 10
0.3490688495014926
 20
0.1801829442713296
 11
0.3490688495014926
 21
0.185779986258983
 72
     1
 10
0.3490688495014926
 20
0.1857799862589829
 11
0.3490688495014926
 21
0.1916568803460187
 72
     1
 10
0.3490688495014926
 20
0.1916568803460186
 11
0.3490688495014926
 21
0.1975337744330549
 72
     1
 10
0.3490688495014926
 20
0.197533774433055
 11
0.3490688495014926
 21
0.2033173844869632
 72
     1
 10
0.3490688495014926
 20
0.2033173844869631
 11
0.3490688495014926
 21
0.2088211424414888
 72
     1
 10
0.3490688495014926
 20
0.2088211424414888
 11
0.3490688495014926
 21
0.2139517642635044
 72
     1
 10
0.3490688495014926
 20
0.2139517642635044
 11
0.3490688495014926
 21
0.2185226818867544
 72
     1
 10
0.3490688495014926
 20
0.2185226818867545
 11
0.3490688495014926
 21
0.2222540432118567
 72
     1
 10
0.3490688495014926
 20
0.2222540432118567
 11
0.3490688495014926
 21
0.2252391322719387
 72
     1
 10
0.3490688495014926
 20
0.2252391322719387
 11
0.3490688495014926
 21
0.2271048129344895
 72
     1
 10
0.3490688495014926
 20
0.2271048129344895
 11
0.3490688495014926
 21
0.2277578011663825
 72
     1
 10
0.3490688495014926
 20
0.2277578011663825
 11
0.3258411252527322
 21
0.2277578011663825
 72
     1
 10
0.3258411252527336
 20
0.2277578011663825
 11
0.3258411252527336
 21
0.0926825211976832
 72
     1
 10
0.3258411252527336
 20
0.0926825211976832
 11
0.3486957133689848
 21
0.0926825211976832
 72
     1
 10
0.3486957133689845
 20
0.0926825211976832
 11
0.3486957133689845
 21
0.0943616337939795
 72
     1
 10
0.3486957133689845
 20
0.0943616337939795
 11
0.3486957133689845
 21
0.0988392673841017
 72
     1
 10
0.3486957133689845
 20
0.0988392673841017
 11
0.3486957133689845
 21
0.1051825816367752
 72
     1
 10
0.3486957133689845
 20
0.1051825816367753
 11
0.3486957133689845
 21
0.1125520202538523
 72
     1
 10
0.3486957133689845
 20
0.1125520202538524
 11
0.3486957133689845
 21
0.1200147429040567
 72
     1
 10
0.3486957133689845
 20
0.1200147429040567
 11
0.3486957133689845
 21
0.1267311932892408
 72
     1
 10
0.3486957133689845
 20
0.1267311932892408
 11
0.3486957133689845
 21
0.1317685310781287
 72
     1
 10
0.3486957133689845
 20
0.1317685310781289
 11
0.3486957133689845
 21
0.1342871999725727
 72
     1
 10
0.3486957133689845
 20
0.1342871999725725
 11
0.3507479620977905
 21
0.1356864604694859
 72
     1
 10
0.35074796209779
 20
0.1356864604694859
 11
0.3548524595554018
 21
0.1387648335626952
 72
     1
 10
0.3548524595554015
 20
0.1387648335626952
 11
0.3605427855761835
 21
0.1428693310203079
 72
     1
 10
0.3605427855761842
 20
0.1428693310203079
 11
0.3668860998288565
 21
0.1476268167098129
 72
     1
 10
0.3668860998288568
 20
0.1476268167098129
 11
0.373322698114659
 21
0.1522910183661906
 72
     1
 10
0.373322698114658
 20
0.1522910183661908
 11
0.3791995922016947
 21
0.1565820838900582
 72
     1
 10
0.3791995922016946
 20
0.1565820838900582
 11
0.3836772257918156
 21
0.1599403090826502
 72
     1
 10
0.3836772257918159
 20
0.1599403090826503
 11
0.386195894686261
 21
0.1618059897452011
 72
     1
 10
0.3861958946862609
 20
0.1618059897452011
 11
0.3873153030837921
 21
0.1604067292482882
 72
     1
 10
0.3873153030837915
 20
0.1604067292482878
 11
0.3894608358457238
 21
0.1577947763207163
 72
     1
 10
0.3894608358457248
 20
0.1577947763207165
 11
0.3925392089389353
 21
0.1541566990287417
 72
     1
 10
0.3925392089389348
 20
0.1541566990287417
 11
0.396457138330292
 21
0.149492497372364
 72
     1
 10
0.3964571383302933
 20
0.149492497372364
 11
0.4009347719204161
 21
0.1442685915172211
 72
     1
 10
0.4009347719204146
 20
0.1442685915172209
 11
0.4057855416430466
 21
0.138391697430185
 72
     1
 10
0.4057855416430463
 20
0.1383916974301853
 11
0.4109161634650628
 21
0.1322349512437666
 72
     1
 10
0.410916163465064
 20
0.1322349512437666
 11
0.4162333533533335
 21
0.1259849210242201
 72
     1
 10
0.4162333533533334
 20
0.1259849210242201
 11
0.4215505432416044
 21
0.1196416067715466
 72
     1
 10
0.4215505432416045
 20
0.1196416067715466
 11
0.4265878810304927
 21
0.113671428651383
 72
     1
 10
0.4265878810304931
 20
0.1136714286513832
 11
0.4312520826868704
 21
0.1079811026306024
 72
     1
 10
0.4312520826868696
 20
0.1079811026306024
 11
0.4355431482107378
 21
0.1029437648417141
 72
     1
 10
0.435543148210738
 20
0.1029437648417139
 11
0.4390879414695842
 21
0.0987459833509739
 72
     1
 10
0.4390879414695843
 20
0.0987459833509741
 11
0.4417931784302841
 21
0.0954810421915098
 72
     1
 10
0.4417931784302845
 20
0.0954810421915096
 11
0.4435655750597076
 21
0.0934287934627037
 72
     1
 10
0.4435655750597074
 20
0.0934287934627039
 11
0.4442185632915993
 21
0.0926825211976832
 72
     1
 10
0.4442185632915985
 20
0.0926825211976832
 11
0.4743493059918004
 21
0.0926825211976832
 72
     1
 10
0.4743493059918001
 20
0.0926825211976832
 11
0.4753754303562029
 21
0.0926825211976832
 72
     1
 10
0.4753754303562033
 20
0.0926825211976832
 11
0.5008419714000258
 21
0.0926825211976832
 72
     1
 10
0.5008419714000265
 20
0.0926825211976832
 11
0.5014949596319184
 21
0.0939884976614689
 72
     1
 10
0.501494959631919
 20
0.0939884976614688
 11
0.5031740722282155
 21
0.0973467228540609
 72
     1
 10
0.503174072228215
 20
0.0973467228540612
 11
0.5055061730564038
 21
0.1021042085435666
 72
     1
 10
0.505506173056403
 20
0.1021042085435665
 11
0.5083046940502291
 21
0.1077012505312196
 72
     1
 10
0.5083046940502292
 20
0.1077012505312194
 11
0.5111032150440553
 21
0.1134848605851279
 72
     1
 10
0.5111032150440549
 20
0.1134848605851281
 11
0.5137151679716264
 21
0.1186154824071433
 72
     1
 10
0.5137151679716277
 20
0.1186154824071433
 11
0.5156741326673071
 21
0.1226266958316283
 72
     1
 10
0.5156741326673076
 20
0.122626695831628
 11
0.5167002570317104
 21
0.1247722285935621
 72
     1
 10
0.5167002570317103
 20
0.1247722285935622
 11
0.5180062334954961
 21
0.1247722285935622
 72
     1
 10
0.5180062334954961
 20
0.1247722285935622
 11
0.5207114704561957
 21
0.1247722285935622
 72
     1
 10
0.5207114704561944
 20
0.1247722285935622
 11
0.5246293998475517
 21
0.1247722285935622
 72
     1
 10
0.5246293998475525
 20
0.1247722285935622
 11
0.5295734536033125
 21
0.1247722285935622
 72
     1
 10
0.5295734536033115
 20
0.1247722285935622
 11
0.5352637796240919
 21
0.1247722285935622
 72
     1
 10
0.5352637796240929
 20
0.1247722285935622
 11
0.5415138098436386
 21
0.1247722285935622
 72
     1
 10
0.5415138098436394
 20
0.1247722285935622
 11
0.5482302602288245
 21
0.1247722285935622
 72
     1
 10
0.5482302602288236
 20
0.1247722285935622
 11
0.5551332786802616
 21
0.1247722285935622
 72
     1
 10
0.5551332786802608
 20
0.1247722285935622
 11
0.5620362971317004
 21
0.1247722285935622
 72
     1
 10
0.5620362971317015
 20
0.1247722285935622
 11
0.5687527475168847
 21
0.1247722285935622
 72
     1
 10
0.5687527475168839
 20
0.1247722285935622
 11
0.5750027777364317
 21
0.1247722285935622
 72
     1
 10
0.5750027777364322
 20
0.1247722285935622
 11
0.5806931037572126
 21
0.1247722285935622
 72
     1
 10
0.5806931037572119
 20
0.1247722285935622
 11
0.585637157512972
 21
0.1247722285935622
 72
     1
 10
0.5856371575129727
 20
0.1247722285935622
 11
0.5895550869043299
 21
0.1247722285935622
 72
     1
 10
0.5895550869043289
 20
0.1247722285935622
 11
0.5922603238650286
 21
0.1247722285935622
 72
     1
 10
0.5922603238650291
 20
0.1247722285935622
 11
0.5935663003288148
 21
0.1247722285935622
 72
     1
 10
0.5935663003288148
 20
0.1247722285935622
 11
0.5945924246932176
 21
0.1226266958316281
 72
     1
 10
0.5945924246932175
 20
0.122626695831628
 11
0.5965513893888953
 21
0.1186154824071431
 72
     1
 10
0.5965513893888957
 20
0.1186154824071433
 11
0.5991633423164672
 21
0.1134848605851281
 72
     1
 10
0.5991633423164667
 20
0.1134848605851281
 11
0.6019618633102946
 21
0.1077012505312196
 72
     1
 10
0.6019618633102959
 20
0.1077012505312194
 11
0.604760384304122
 21
0.1021042085435664
 72
     1
 10
0.6047603843041221
 20
0.1021042085435665
 11
0.6070924851323109
 21
0.0973467228540611
 72
     1
 10
0.6070924851323101
 20
0.0973467228540612
 11
0.6087715977286067
 21
0.0939884976614691
 72
     1
 10
0.6087715977286062
 20
0.0939884976614688
 11
0.609424585960498
 21
0.0926825211976832
 72
     1
 10
0.6094245859604986
 20
0.0926825211976832
 11
0.6363836715343633
 21
0.0926825211976832
 72
     1
 10
0.6363836715343641
 20
0.0926825211976832
 11
0.5671669189537184
 21
0.2277578011663825
 72
     1
 10
0.5671669189537179
 20
0.2277578011663825
 11
0.5656743744236758
 21
0.2277578011663825
 97
        0
 75
     0
 76
     1
 98
        1
 10
-0.3743130907707726
 20
-0.2500502867693841
1001
ACAD
1010
0.0
1020
0.0
1030
0.0
  0
HATCH
  5
2646
330
263D
100
AcDbEntity
  8
Kawneer Logo-English
100
AcDbHatch
 10
0.0
 20
0.0
 30
0.0
210
0.0
220
0.0
230
1.0
  2
SOLID
 70
     1
 71
     0
 91
        1
 92
        1
 93
       69
 72
     1
 10
0.8092389849197205
 20
0.2277578011663825
 11
0.778921674153266
 21
0.1309289747799811
 72
     1
 10
0.778921674153267
 20
0.1309289747799809
 11
0.7781754018882468
 21
0.1287834420180468
 72
     1
 10
0.7781754018882468
 20
0.1287834420180467
 11
0.7776156976894812
 21
0.1270110453886236
 72
     1
 10
0.7776156976894813
 20
0.1270110453886237
 11
0.7771492775238438
 21
0.1253319327923275
 72
     1
 10
0.7771492775238436
 20
0.1253319327923274
 11
0.7766828573582045
 21
0.1238393882622867
 72
     1
 10
0.7766828573582046
 20
0.1238393882622866
 11
0.7764030052588217
 21
0.1248655126266895
 72
     1
 10
0.776403005258822
 20
0.1248655126266896
 11
0.7761231531594392
 21
0.1259849210242202
 72
     1
 10
0.7761231531594391
 20
0.1259849210242201
 11
0.7759365850931844
 21
0.1268244773223681
 72
     1
 10
0.7759365850931843
 20
0.1268244773223682
 11
0.7758433010600562
 21
0.1271976134548783
 72
     1
 10
0.7758433010600552
 20
0.1271976134548783
 11
0.7755634489606744
 21
0.1280371697530267
 72
     1
 10
0.775563448960674
 20
0.1280371697530267
 11
0.7750970287950349
 21
0.1291565781505569
 72
     1
 10
0.7750970287950363
 20
0.1291565781505568
 11
0.773977620397507
 21
0.1323282352768938
 72
     1
 10
0.7739776203975062
 20
0.1323282352768939
 11
0.7721119397349549
 21
0.1372722890326544
 72
     1
 10
0.7721119397349554
 20
0.1372722890326546
 11
0.7697798389067666
 21
0.1436156032853281
 72
     1
 10
0.769779838906767
 20
0.1436156032853281
 11
0.7670746019460673
 21
0.1511716099686602
 72
     1
 10
0.7670746019460668
 20
0.15117160996866
 11
0.7639962288528581
 21
0.1595671729501399
 72
     1
 10
0.7639962288528582
 20
0.15956717295014
 11
0.7606380036602665
 21
0.1686157241635125
 72
     1
 10
0.7606380036602652
 20
0.1686157241635125
 11
0.7572797784676718
 21
0.1778508434431408
 72
     1
 10
0.7572797784676726
 20
0.1778508434431408
 11
0.753921553275081
 21
0.187179246755896
 72
     1
 10
0.7539215532750814
 20
0.1871792467558961
 11
0.7505633280824898
 21
0.1962277979692689
 72
     1
 10
0.7505633280824902
 20
0.1962277979692689
 11
0.7474849549892814
 21
0.2046233609507488
 72
     1
 10
0.7474849549892797
 20
0.2046233609507488
 11
0.74477971802858
 21
0.2121793676340809
 72
     1
 10
0.7447797180285814
 20
0.2121793676340809
 11
0.7424476172003926
 21
0.2185226818867544
 72
     1
 10
0.7424476172003929
 20
0.2185226818867545
 11
0.7405819365378416
 21
0.2234667356425151
 72
     1
 10
0.7405819365378408
 20
0.2234667356425151
 11
0.7394625281403098
 21
0.2266383927688516
 72
     1
 10
0.7394625281403103
 20
0.2266383927688516
 11
0.7390893920078009
 21
0.2277578011663822
 72
     1
 10
0.7390893920078004
 20
0.2277578011663825
 11
0.7191266089185034
 21
0.2277578011663825
 72
     1
 10
0.7191266089185029
 20
0.2277578011663825
 11
0.6843316645619254
 21
0.1336342117406798
 72
     1
 10
0.6843316645619267
 20
0.1336342117406795
 11
0.6832122561643957
 21
0.130649122680598
 72
     1
 10
0.6832122561643961
 20
0.1306491226805981
 11
0.6823726998662476
 21
0.1282237378192816
 72
     1
 10
0.6823726998662468
 20
0.1282237378192818
 11
0.6817197116343549
 21
0.1260782050573481
 72
     1
 10
0.6817197116343552
 20
0.1260782050573481
 11
0.6811600074355896
 21
0.1241192403616695
 72
     1
 10
0.6811600074355884
 20
0.1241192403616695
 11
0.6808801553362055
 21
0.1250520806929446
 72
     1
 10
0.6808801553362059
 20
0.1250520806929445
 11
0.6805070192036949
 21
0.1261714890904751
 72
     1
 10
0.680507019203696
 20
0.1261714890904752
 11
0.6802271671043131
 21
0.1272908974880058
 72
     1
 10
0.680227167104313
 20
0.1272908974880061
 11
0.6798540309718037
 21
0.1286901579849195
 72
     1
 10
0.6798540309718031
 20
0.1286901579849194
 11
0.6794808948392922
 21
0.12980956638245
 72
     1
 10
0.6794808948392932
 20
0.1298095663824503
 11
0.6784547704748904
 21
0.1328879394756595
 72
     1
 10
0.67845477047489
 20
0.1328879394756595
 11
0.6769622259448497
 21
0.1378319932314196
 72
     1
 10
0.6769622259448496
 20
0.1378319932314196
 11
0.6750032612491701
 21
0.1441753074840938
 72
     1
 10
0.6750032612491697
 20
0.1441753074840937
 11
0.6725778763878547
 21
0.1516380301342981
 72
     1
 10
0.6725778763878556
 20
0.1516380301342981
 11
0.6699659234602841
 21
0.160033593115778
 72
     1
 10
0.6699659234602829
 20
0.160033593115778
 11
0.6671674024664549
 21
0.168988860296023
 72
     1
 10
0.6671674024664554
 20
0.168988860296023
 11
0.6642755974395012
 21
0.1782239795756509
 72
     1
 10
0.6642755974395019
 20
0.178223979575651
 11
0.6613837924125477
 21
0.1874590988552789
 72
     1
 10
0.6613837924125466
 20
0.1874590988552789
 11
0.6585852714187205
 21
0.1964143660355239
 72
     1
 10
0.6585852714187204
 20
0.1964143660355237
 11
0.6559733184911489
 21
0.2047166449838762
 72
     1
 10
0.6559733184911494
 20
0.2047166449838765
 11
0.6536412176629606
 21
0.2122726516672082
 72
     1
 10
0.6536412176629614
 20
0.2122726516672082
 11
0.6515889689341538
 21
0.2186159659198823
 72
     1
 10
0.6515889689341537
 20
0.2186159659198821
 11
0.6500964244041133
 21
0.2234667356425149
 72
     1
 10
0.6500964244041132
 20
0.2234667356425151
 11
0.6490703000397104
 21
0.2266383927688516
 72
     1
 10
0.6490703000397105
 20
0.2266383927688516
 11
0.6487904479403276
 21
0.2277578011663822
 72
     1
 10
0.648790447940328
 20
0.2277578011663825
 11
0.6237903270621445
 21
0.2277578011663825
 72
     1
 10
0.6237903270621437
 20
0.2277578011663825
 11
0.6676338226320932
 21
0.0926825211976832
 72
     1
 10
0.6676338226320926
 20
0.0926825211976832
 11
0.6922608073777669
 21
0.0926825211976832
 72
     1
 10
0.6922608073777666
 20
0.0926825211976832
 11
0.726029627369941
 21
0.1855001341596003
 72
     1
 10
0.7260296273699423
 20
0.1855001341596003
 11
0.7269624677012189
 21
0.1882986551534267
 72
     1
 10
0.7269624677012177
 20
0.1882986551534266
 11
0.7278020239993661
 21
0.1906307559816158
 72
     1
 10
0.727802023999367
 20
0.1906307559816159
 11
0.7284550122312589
 21
0.1927762887435496
 72
     1
 10
0.7284550122312581
 20
0.1927762887435495
 11
0.7290147164300237
 21
0.1947352534392281
 72
     1
 10
0.7290147164300232
 20
0.1947352534392282
 11
0.7298542727281716
 21
0.192216584544784
 72
     1
 10
0.729854272728173
 20
0.1922165845447839
 11
0.7306938290263214
 21
0.1894180635509575
 72
     1
 10
0.7306938290263206
 20
0.1894180635509575
 11
0.7318132374238499
 21
0.1863396904577483
 72
     1
 10
0.7318132374238511
 20
0.1863396904577481
 11
0.7331192138876387
 21
0.1827016131657736
 72
     1
 10
0.7331192138876382
 20
0.1827016131657737
 11
0.7654887733828987
 21
0.0926825211976834
 72
     1
 10
0.7654887733828986
 20
0.0926825211976832
 11
0.7895560539298075
 21
0.0926825211976832
 72
     1
 10
0.7895560539298075
 20
0.0926825211976832
 11
0.8341458217647785
 21
0.2277578011663825
 72
     1
 10
0.8341458217647783
 20
0.2277578011663825
 11
0.830601028505932
 21
0.2277578011663825
 72
     1
 10
0.8306010285059324
 20
0.2277578011663825
 11
0.8092389849197216
 21
0.2277578011663825
 97
        0
 75
     0
 76
     1
 98
        1
 10
-0.3743130907707726
 20
-0.2500502867693841
1001
ACAD
1010
0.0
1020
0.0
1030
0.0
  0
ENDBLK
  5
264A
330
263D
100
AcDbEntity
  8
0
100
AcDbBlockEnd
  0
ENDSEC
  0
SECTION
  2
ENTITIES
  0
MTEXT
  5
212
330
1F
100
AcDbEntity
  8
TEXT
 62
     2
100
AcDbMText
 10
10.1819283492814
 20
21.44661662958789
 30
0.0
 40
0.375
 41
5.2671
 71
     2
 72
     5
  1
DETAIL 1
 73
     1
 44
1.0
1001
ACAD
1000
MTEXTBEGIN
1070
    73
1070
     1
1070
    44
1040
1.0
1070
    74
1070
     0
1000
MTEXTEND
  0
TEXT
  5
89E
330
1F
100
AcDbEntity
  8
0
  6
Continuous
100
AcDbText
 10
31.83003996072635
 20
33.05137330501711
 30
0.0
 40
0.375
  1
TYPICAL ELEVATION
 72
     1
 11
34.4647602881479
 21
33.05137330501711
 31
0.0
100
AcDbText
  0
LINE
  5
89F
330
1F
100
AcDbEntity
  8
0
100
AcDbLine
 10
30.51911226712393
 20
35.61887072177984
 30
0.0
 11
38.03449753933835
 21
35.61887072177984
 31
0.0
  0
LINE
  5
8A0
330
1F
100
AcDbEntity
  8
0
100
AcDbLine
 10
30.51911226712393
 20
35.36887072177984
 30
0.0
 11
38.03449753933835
 21
35.36887072177984
 31
0.0
  0
ARC
  5
8A1
330
1F
100
AcDbEntity
  8
0
100
AcDbCircle
 10
34.27680490323114
 20
35.61887072177984
 30
0.0
 40
3.757692636107208
100
AcDbArc
 50
0.0
 51
180.0
  0
ARC
  5
8A2
330
1F
100
AcDbEntity
  8
0
100
AcDbCircle
 10
34.27680490323114
 20
35.61887072177984
 30
0.0
 40
3.507692636107208
100
AcDbArc
 50
0.0
 51
180.0
  0
LINE
  5
8A3
330
1F
100
AcDbEntity
  8
TEXT
 62
     2
100
AcDbLine
 10
31.77384264376505
 20
39.20724977410451
 30
0.0
 11
32.56929391517874
 21
38.05910059603404
 31
0.0
  0
LINE
  5
8A4
330
1F
100
AcDbEntity
  8
0
100
AcDbLine
 10
30.51911226712393
 20
35.61887072177984
 30
0.0
 11
30.51911226712393
 21
35.36887072177984
 31
0.0
  0
MTEXT
  5
8A5
330
1F
100
AcDbEntity
  8
TEXT
 62
     2
100
AcDbMText
 10
31.62016931146378
 20
39.61093528691543
 30
0.0
 40
0.25
 41
2.180903381531329
 71
     2
 72
     5
  1
DETAIL 1
 73
     1
 44
1.0
1001
ACAD
1000
MTEXTBEGIN
1070
    73
1070
     1
1070
    44
1040
1.0
1070
    74
1070
     0
1000
MTEXTEND
  0
LINE
  5
8A6
330
1F
100
AcDbEntity
  8
0
100
AcDbLine
 10
34.40180490323114
 20
35.61887072177984
 30
0.0
 11
34.40180490323114
 21
39.12433540273167
 31
0.0
  0
LINE
  5
8A7
330
1F
100
AcDbEntity
  8
0
100
AcDbLine
 10
34.15180490323114
 20
35.61887072177984
 30
0.0
 11
34.15180490323114
 21
39.12433540273167
 31
0.0
  0
LINE
  5
8A8
330
1F
100
AcDbEntity
  8
TEXT
 62
     2
100
AcDbLine
 10
36.01624909642503
 20
36.16023848867428
 30
0.0
 11
36.01624909642503
 21
34.74713176664188
 31
0.0
  0
MTEXT
  5
8A9
330
1F
100
AcDbEntity
  8
TEXT
 62
     2
100
AcDbMText
 10
36.0582937709562
 20
34.54866661097951
 30
0.0
 40
0.25
 41
2.198569703769044
 71
     2
 72
     5
  1
DETAIL 3
 73
     1
 44
1.0
1001
ACAD
1000
MTEXTBEGIN
1070
    73
1070
     1
1070
    44
1040
1.0
1070
    74
1070
     0
1000
MTEXTEND
  0
LINE
  5
8AA
330
1F
100
AcDbEntity
  8
TEXT
 62
     2
100
AcDbLine
 10
34.99983923528831
 20
37.35254723501784
 30
0.0
 11
33.76247070868706
 21
37.35254723501784
 31
0.0
  0
MTEXT
  5
8AB
330
1F
100
AcDbEntity
  8
TEXT
 62
     2
100
AcDbMText
 10
35.09008401335228
 20
37.44732545366689
 30
0.0
 40
0.25
 41
2.056517127752612
 71
     1
 72
     5
  1
DETAIL 2
 73
     1
 44
1.0
1001
ACAD
1000
MTEXTBEGIN
1070
    73
1070
     1
1070
    44
1040
1.0
1070
    74
1070
     0
1000
MTEXTEND
  0
LINE
  5
8AC
330
1F
100
AcDbEntity
  8
0
100
AcDbLine
 10
38.03449753933835
 20
35.61887072177984
 30
0.0
 11
38.03449753933835
 21
35.36887072177984
 31
0.0
  0
TEXT
  5
98C
330
1F
100
AcDbEntity
  8
0
  6
Continuous
100
AcDbText
 10
33.3672585828273
 20
32.26518561952085
 30
0.0
 40
0.375
  1
1" INFILL
 72
     1
 11
34.4647602881479
 21
32.26518561952085
 31
0.0
100
AcDbText
  0
LWPOLYLINE
  5
D5D
330
1F
100
AcDbEntity
  8
FORMAT
100
AcDbPolyline
 90
        3
 70
     0
 43
0.0
 10
78.11799311431099
 20
-0.0000000822457764
 10
0.0
 20
-0.0000000822457764
 10
0.0
 20
49.79040562797536
  0
MTEXT
  5
D86
330
1F
100
AcDbEntity
  8
0
 62
     2
100
AcDbMText
 10
32.76594924218182
 20
1.655382236582123
 30
0.0
 40
0.4375
 41
11.91800541288839
 71
     2
 72
     5
  1
DETAIL SCALE: 1" = 1"
 73
     1
 44
1.0
1001
ACAD
1000
MTEXTBEGIN
1070
    73
1070
     1
1070
    44
1040
1.0
1070
    74
1070
     0
1000
MTEXTEND
  0
MTEXT
  5
D87
330
1F
100
AcDbEntity
  8
0
 62
     2
100
AcDbMText
 10
32.73799082609175
 20
8.018525144801653
 30
0.0
 40
0.5
 41
35.90346687966988
 71
     2
 72
     5
  1
\A1;EnCORE™ FRAMING SYSTEM \P STOREFRONT 6" (CENTER GLAZED) CURVE\POVER\PTRIFAB™ VERSAGLAZE™ 601, 601T, 601UT FRAMING SYSTEM \PCURVING DETAILS\PSCREW SPLINE ASSEMBLY\P(1" INFILL)
 73
     1
 44
1.0
1001
ACAD
1000
MTEXTBEGIN
1070
    73
1070
     1
1070
    44
1040
1.0
1070
    74
1070
     0
1000
MTEXTEND
  0
MTEXT
  5
13DE
330
1F
100
AcDbEntity
  8
Defpoints
 62
    21
100
AcDbMText
 10
15.77044506085207
 20
15.18464710808184
 30
0.0
 40
0.375
 41
7.34375
 71
     2
 72
     5
  1
S601MD07
 73
     1
 44
1.0
1001
ACAD
1000
MTEXTBEGIN
1070
    73
1070
     1
1070
    44
1040
1.0
1070
    74
1070
     0
1000
MTEXTEND
  0
INSERT
  5
2089
330
1F
100
AcDbEntity
  8
0
100
AcDbBlockReference
 66
     1
  2
S601MD07
 10
14.92729384498725
 20
20.54911016391668
 30
0.0
  0
ATTRIB
  5
208A
330
2089
100
AcDbEntity
  8
P_ATTR
100
AcDbText
 10
18.71454291625054
 20
23.26955554822526
 30
0.0
 40
0.25
  1

 72
     4
 11
18.71454291625054
 21
23.26955554822526
 31
0.0
100
AcDbAttribute
  2
LIST
 70
     0
  0
ATTRIB
  5
208B
330
2089
100
AcDbEntity
  8
P_ATTR
100
AcDbText
 10
18.69942454237404
 20
20.76811016391669
 30
0.0
 40
0.25
  1

 72
     4
 11
18.69942454237404
 21
20.76811016391669
 31
0.0
100
AcDbAttribute
  2
LIST
 70
     0
  0
SEQEND
  5
208C
330
2089
100
AcDbEntity
  8
0
  0
MTEXT
  5
20FD
330
1F
100
AcDbEntity
  8
TEXT
100
AcDbMText
 10
13.86290306838372
 20
26.01093549972224
 30
0.0
 40
0.25
 41
5.937517053206001
 71
     1
 72
     5
  1
601188 MULLION  \P175186 COVER 
 73
     1
 44
1.0
1001
ACAD
1000
MTEXTBEGIN
1070
    73
1070
     1
1070
    44
1040
1.0
1070
    74
1070
     0
1000
MTEXTEND
  0
INSERT
  5
21C9
330
1F
100
AcDbEntity
  8
0
100
AcDbBlockReference
 66
     1
  2
S601MD08
 10
30.10914325872733
 20
20.55271829742853
 30
0.0
  0
ATTRIB
  5
21CA
330
21C9
100
AcDbEntity
  8
P_ATTR
100
AcDbText
 10
33.8587774970988
 20
22.04527870306638
 30
0.0
 40
0.25
  1

 72
     4
 11
33.8587774970988
 21
22.04527870306638
 31
0.0
100
AcDbAttribute
  2
LIST
 70
     0
  0
ATTRIB
  5
21CB
330
21C9
100
AcDbEntity
  8
P_ATTR
100
AcDbText
 10
33.88127395611412
 20
20.77171829742853
 30
0.0
 40
0.25
  1

 72
     4
 11
33.88127395611412
 21
20.77171829742853
 31
0.0
100
AcDbAttribute
  2
LIST
 70
     0
  0
SEQEND
  5
21CC
330
21C9
100
AcDbEntity
  8
0
  0
MTEXT
  5
222C
330
1F
100
AcDbEntity
  8
TEXT
100
AcDbMText
 10
28.91066753074713
 20
26.01093549972224
 30
0.0
 40
0.25
 41
5.937517053206001
 71
     1
 72
     5
  1
601187 MULLION  \P175186 COVER 
 73
     1
 44
1.0
1001
ACAD
1000
MTEXTBEGIN
1070
    73
1070
     1
1070
    44
1040
1.0
1070
    74
1070
     0
1000
MTEXTEND
  0
MTEXT
  5
2285
330
1F
100
AcDbEntity
  8
Defpoints
 62
    21
100
AcDbMText
 10
30.29209693803912
 20
16.20530360036813
 30
0.0
 40
0.375
 41
7.34375
 71
     2
 72
     5
  1
S601MD08
 73
     1
 44
1.0
1001
ACAD
1000
MTEXTBEGIN
1070
    73
1070
     1
1070
    44
1040
1.0
1070
    74
1070
     0
1000
MTEXTEND
  0
INSERT
  5
2307
330
1F
100
AcDbEntity
  8
0
100
AcDbBlockReference
 66
     1
  2
S601MD09
 10
44.03661151371392
 20
19.30360631489117
 30
0.0
  0
ATTRIB
  5
2308
330
2307
100
AcDbEntity
  8
P_ATTR
100
AcDbText
 10
45.890024053877
 20
24.25599649880637
 30
0.0
 40
0.25
  1

 72
     4
 11
45.890024053877
 21
24.25599649880637
 31
0.0
100
AcDbAttribute
  2
LIST
 70
     0
  0
ATTRIB
  5
2309
330
2307
100
AcDbEntity
  8
P_ATTR
100
AcDbText
 10
47.50426798689555
 20
24.25597105833628
 30
0.0
 40
0.25
  1

 72
     4
 11
47.50426798689555
 21
24.25597105833628
 31
0.0
100
AcDbAttribute
  2
LIST
 70
     0
  0
ATTRIB
  5
230A
330
2307
100
AcDbEntity
  8
P_ATTR
100
AcDbText
 10
49.59641321056075
 20
24.25597105833627
 30
0.0
 40
0.25
  1

 72
     4
 11
49.59641321056075
 21
24.25597105833627
 31
0.0
100
AcDbAttribute
  2
LIST
 70
     0
  0
ATTRIB
  5
230B
330
2307
100
AcDbEntity
  8
P_ATTR
100
AcDbText
 10
48.55605072677135
 20
24.25597105833627
 30
0.0
 40
0.25
  1

 72
     4
 11
48.55605072677135
 21
24.25597105833627
 31
0.0
100
AcDbAttribute
  2
LIST
 70
     0
  0
SEQEND
  5
230C
330
2307
100
AcDbEntity
  8
0
  0
MTEXT
  5
230D
330
1F
100
AcDbEntity
  8
TEXT
 62
     2
100
AcDbMText
 10
25.03582366254409
 20
21.44661662958789
 30
0.0
 40
0.375
 41
5.2671
 71
     2
 72
     5
  1
DETAIL 2
 73
     1
 44
1.0
1001
ACAD
1000
MTEXTBEGIN
1070
    73
1070
     1
1070
    44
1040
1.0
1070
    74
1070
     0
1000
MTEXTEND
  0
MTEXT
  5
230E
330
1F
100
AcDbEntity
  8
TEXT
 62
     2
100
AcDbMText
 10
39.3698268166188
 20
21.44661662958789
 30
0.0
 40
0.375
 41
5.2671
 71
     2
 72
     5
  1
DETAIL 3
 73
     1
 44
1.0
1001
ACAD
1000
MTEXTBEGIN
1070
    73
1070
     1
1070
    44
1040
1.0
1070
    74
1070
     0
1000
MTEXTEND
  0
MTEXT
  5
230F
330
1F
100
AcDbEntity
  8
Defpoints
 62
    21
100
AcDbMText
 10
47.24969926326392
 20
18.21397922272839
 30
0.0
 40
0.375
 41
7.34375
 71
     2
 72
     5
  1
S601MD09
 73
     1
 44
1.0
1001
ACAD
1000
MTEXTBEGIN
1070
    73
1070
     1
1070
    44
1040
1.0
1070
    74
1070
     0
1000
MTEXTEND
  0
MTEXT
  5
2385
330
1F
100
AcDbEntity
  8
TEXT
100
AcDbMText
 10
50.97147746105207
 20
23.33207517670303
 30
0.0
 40
0.25
 41
5.937517053206001
 71
     1
 72
     5
  1
\A1;601191 CURVE ADAPTER  \P175190 CURVE ADAPTER STOP\P128345 #10 X 9/16" B FHST\P028727 #8 X 1-1/4" FHTF
 73
     1
 44
1.0
1001
ACAD
1000
MTEXTBEGIN
1070
    73
1070
     1
1070
    44
1040
1.0
1070
    74
1070
     0
1000
MTEXTEND
  0
MTEXT
  5
257D
330
1F
100
AcDbEntity
  8
TEXT
100
AcDbMText
 10
1.0
 20
1.999999859885861
 30
0.0
 40
0.375
 41
14.22387531454843
 71
     1
 72
     5
  1
ENGINEERING CHANGE:  97910-087 (MARCH 2017)\PFILE NAME:  KCDC083C SHEET 09 OF 09.DWG
 73
     1
 44
1.0
1001
ACAD
1000
ACAD_MTEXT_COLUMN_INFO_BEGIN
1070
    75
1070
     2
1070
    79
1070
     0
1070
    76
1070
     1
1070
    78
1070
     0
1070
    48
1040
14.22387531454843
1070
    49
1040
1.25
1070
    50
1070
     1
1040
0.0
1000
ACAD_MTEXT_COLUMN_INFO_END
1000
MTEXTBEGIN
1070
    73
1070
     1
1070
    44
1040
1.0
1070
    74
1070
     0
1000
MTEXTEND
  0
INSERT
  5
264B
330
1F
100
AcDbEntity
  8
0
100
AcDbBlockReference
  2
Kawneer Logo English
 10
1.0
 20
2.5
 30
0.0
 41
5.337
 42
5.337
 43
5.337
  0
ENDSEC
  0
SECTION
  2
OBJECTS
  0
DICTIONARY
  5
C
330
0
100
AcDbDictionary
281
     1
  3
ACAD_CIP_PREVIOUS_PRODUCT_INFO
350
CA4
  3
ACAD_COLOR
350
A43
  3
ACAD_GROUP
350
D
  3
ACAD_LAYOUT
350
1A
  3
ACAD_MATERIAL
350
A42
  3
ACAD_MLEADERSTYLE
350
AD7
  3
ACAD_MLINESTYLE
350
17
  3
ACAD_PLOTSETTINGS
350
19
  3
ACAD_PLOTSTYLENAME
350
E
  3
ACAD_SCALELIST
350
AB5
  3
ACAD_TABLESTYLE
350
A44
  3
ACAD_VISUALSTYLE
350
AA4
  3
ACDB_RECOMPOSE_DATA
350
26F2
  3
AcDbVariableDictionary
350
A49
  3
DWGPROPS
350
26F3
  0
DICTIONARY
  5
B0B
330
8
100
AcDbDictionary
280
     1
281
     1
  0
DICTIONARY
  5
A6E
330
2
100
AcDbDictionary
280
     1
281
     1
  3
ACAD_LAYERSTATES
360
A6F
  0
DICTIONARY
  5
AE0
330
10
100
AcDbDictionary
280
     1
281
     1
  3
ADSK_XREC_LAYER_RECONCILED
360
AE1
  0
DICTIONARY
  5
EB7
330
EB6
100
AcDbDictionary
280
     1
281
     1
  0
DICTIONARY
  5
EB9
330
EB8
100
AcDbDictionary
280
     1
281
     1
  0
DICTIONARY
  5
EBD
330
EBC
100
AcDbDictionary
280
     1
281
     1
  0
DICTIONARY
  5
EC1
330
EC0
100
AcDbDictionary
280
     1
281
     1
  0
DICTIONARY
  5
1B20
330
1B1F
100
AcDbDictionary
280
     1
281
     1
  0
DICTIONARY
  5
BE5
330
BE4
100
AcDbDictionary
280
     1
281
     1
  3
ADSK_XREC_VTR_ANNOSCALE_DATA
360
BE6
  0
DICTIONARY
  5
4E8
330
1F
100
AcDbDictionary
280
     1
281
     1
  3
ACAD_LAYOUTSELFREF
360
A3F
  3
ACAD_SORTENTS
360
C86
  0
DICTIONARY
  5
4EA
330
1B
100
AcDbDictionary
280
     1
281
     1
  3
ACAD_LAYOUTSELFREF
360
A3E
  0
DICTIONARY
  5
4EC
330
23
100
AcDbDictionary
280
     1
281
     1
  3
ACAD_LAYOUTSELFREF
360
A40
  0
DICTIONARY
  5
DD1
330
DD0
100
AcDbDictionary
280
     1
281
     1
  3
ACAD_SORTENTS
360
DD2
  0
DICTIONARY
  5
1006
330
1005
100
AcDbDictionary
280
     1
281
     1
  0
DICTIONARY
  5
1031
330
1030
100
AcDbDictionary
280
     1
281
     1
  0
DICTIONARY
  5
1465
330
1457
100
AcDbDictionary
280
     1
281
     1
  0
DICTIONARY
  5
2028
330
2027
100
AcDbDictionary
280
     1
281
     1
  3
ACAD_SORTENTS
360
2029
  0
DICTIONARY
  5
212F
330
2059
100
AcDbDictionary
280
     1
281
     1
  0
DICTIONARY
  5
2190
330
218F
100
AcDbDictionary
280
     1
281
     1
  3
ACAD_SORTENTS
360
2191
  0
DICTIONARY
  5
225E
330
219C
100
AcDbDictionary
280
     1
281
     1
  3
ACAD_SORTENTS
360
2281
  0
DICTIONARY
  5
2287
330
2286
100
AcDbDictionary
280
     1
281
     1
  3
ACAD_SORTENTS
360
2288
  0
DICTIONARY
  5
22C4
330
22C3
100
AcDbDictionary
280
     1
281
     1
  3
ACAD_SORTENTS
360
22C5
  0
DICTIONARY
  5
23C8
330
22D1
100
AcDbDictionary
280
     1
281
     1
  3
ACAD_SORTENTS
360
23F9
  0
DICTIONARY
  5
2647
330
263D
100
AcDbDictionary
280
     1
281
     1
  3
ACAD_SORTENTS
360
2648
  0
DICTIONARY
  5
26F0
330
263E
100
AcDbDictionary
280
     1
281
     1
  3
ACAD_MTEXT_2008_RT
360
26F1
  0
XRECORD
  5
CA4
102
{ACAD_REACTORS
330
C
102
}
330
C
100
AcDbXrecord
280
     1
300
ACD
300
2012
300
85730ACD_2012_0F
  0
DICTIONARY
  5
A43
102
{ACAD_REACTORS
330
C
102
}
330
C
100
AcDbDictionary
281
     1
  0
DICTIONARY
  5
D
102
{ACAD_REACTORS
330
C
102
}
330
C
100
AcDbDictionary
281
     1
  0
DICTIONARY
  5
1A
102
{ACAD_REACTORS
330
C
102
}
330
C
100
AcDbDictionary
281
     1
  3
Layout1
350
1E
  3
Layout2
350
26
  3
Model
350
22
  0
DICTIONARY
  5
A42
102
{ACAD_REACTORS
330
C
102
}
330
C
100
AcDbDictionary
281
     1
  3
ByBlock
350
A94
  3
ByLayer
350
A8C
  3
Global
350
A9C
  0
DICTIONARY
  5
AD7
102
{ACAD_REACTORS
330
C
102
}
330
C
100
AcDbDictionary
281
     1
  3
Standard
350
AD8
  0
DICTIONARY
  5
17
102
{ACAD_REACTORS
330
C
102
}
330
C
100
AcDbDictionary
281
     1
  3
Standard
350
18
  0
DICTIONARY
  5
19
102
{ACAD_REACTORS
330
C
102
}
330
C
100
AcDbDictionary
281
     1
  0
ACDBDICTIONARYWDFLT
  5
E
102
{ACAD_REACTORS
330
C
102
}
330
C
100
AcDbDictionary
281
     1
  3
Normal
350
F
100
AcDbDictionaryWithDefault
340
F
  0
DICTIONARY
  5
AB5
102
{ACAD_REACTORS
330
C
102
}
330
C
100
AcDbDictionary
281
     1
  3
A0
350
AB6
  3
A1
350
2623
  3
A2
350
2624
  3
A3
350
2625
  3
A4
350
2626
  3
A5
350
2627
  3
A6
350
2628
  3
A7
350
2629
  3
A8
350
262A
  3
A9
350
262B
  3
B0
350
262C
  3
B1
350
262D
  3
B2
350
262E
  3
B3
350
262F
  3
B4
350
2630
  3
B5
350
2631
  3
B6
350
2632
  0
DICTIONARY
  5
A44
102
{ACAD_REACTORS
330
C
102
}
330
C
100
AcDbDictionary
281
     1
  3
Standard
350
A45
  0
DICTIONARY
  5
AA4
102
{ACAD_REACTORS
330
C
102
}
330
C
100
AcDbDictionary
281
     1
  3
2dWireframe
350
AAA
  3
3D Hidden
350
AAC
  3
3dWireframe
350
AAB
  3
Basic
350
AA9
  3
Brighten
350
AB0
  3
ColorChange
350
AB4
  3
Conceptual
350
AAD
  3
Dim
350
AAF
  3
EdgeColorOff
350
CA1
  3
Facepattern
350
AB3
  3
Flat
350
AA5
  3
FlatWithEdges
350
AA6
  3
Gouraud
350
AA7
  3
GouraudWithEdges
350
AA8
  3
Hidden
350
C99
  3
JitterOff
350
C9F
  3
Linepattern
350
AB2
  3
OverhangOff
350
CA0
  3
Realistic
350
AAE
  3
Shaded
350
C9E
  3
Shaded with edges
350
C9D
  3
Shades of Gray
350
C9A
  3
Sketchy
350
C9B
  3
Thicken
350
AB1
  3
Wireframe
350
C98
  3
X-Ray
350
C9C
  0
XRECORD
  5
26F2
102
{ACAD_REACTORS
330
C
102
}
330
C
100
AcDbXrecord
280
     1
 90
        1
330
A45
330
257D
330
263E
  0
DICTIONARY
  5
A49
102
{ACAD_REACTORS
330
C
102
}
330
C
100
AcDbDictionary
281
     1
  3
CANNOSCALE
350
B1D
  3
CMLEADERSTYLE
350
B1C
  3
CTABLESTYLE
350
A4A
  3
DIMASSOC
350
C95
  3
INDEXCTL
350
CF5
  3
LAYEREVAL
350
1A45
  3
LAYERNOTIFY
350
1A46
  3
LIGHTINGUNITS
350
1A44
  3
MSLTSCALE
350
1A43
  3
PROJECTNAME
350
C96
  3
SORTENTS
350
CF4
  3
XCLIPFRAME
350
26EC
  0
XRECORD
  5
26F3
102
{ACAD_REACTORS
330
C
102
}
330
C
100
AcDbXrecord
280
     1
  1
DWGPROPS COOKIE
  2

  3

  4

  6

  7

  8
quadiss
  9

300
=
301
=
302
=
303
=
304
=
305
=
306
=
307
=
308
=
309
=
 40
0.2199030324074074
 41
2452445.26815647
 42
2457799.485766377
  1

 90
        0
  0
DICTIONARY
  5
A6F
102
{ACAD_REACTORS
330
A6E
102
}
330
A6E
100
AcDbDictionary
281
     1
  0
XRECORD
  5
AE1
102
{ACAD_REACTORS
330
AE0
102
}
330
AE0
100
AcDbXrecord
280
     1
290
     1
  0
XRECORD
  5
BE6
102
{ACAD_REACTORS
330
BE5
102
}
330
BE5
100
AcDbXrecord
280
     1
340
AB6
  0
XRECORD
  5
A3F
102
{ACAD_REACTORS
330
4E8
102
}
330
4E8
100
AcDbXrecord
280
     1
340
1F
  0
SORTENTSTABLE
  5
C86
102
{ACAD_REACTORS
330
4E8
102
}
330
4E8
100
AcDbSortentsTable
330
1F
331
8A3
  5
8A3
331
D87
  5
D87
331
D5D
  5
D5D
331
8AC
  5
8AC
331
8A8
  5
8A8
331
212
  5
212
331
8A4
  5
8A4
331
8A0
  5
8A0
331
89E
  5
89E
331
8A9
  5
8A9
331
98C
  5
98C
331
8A5
  5
8A5
331
13DE
  5
13DE
331
8A1
  5
8A1
331
89F
  5
89F
331
8AA
  5
8AA
331
8A6
  5
8A6
331
8A2
  5
8A2
331
D86
  5
D86
331
8AB
  5
8AB
331
8A7
  5
8A7
  0
XRECORD
  5
A3E
102
{ACAD_REACTORS
330
4EA
102
}
330
4EA
100
AcDbXrecord
280
     1
340
1B
  0
XRECORD
  5
A40
102
{ACAD_REACTORS
330
4EC
102
}
330
4EC
100
AcDbXrecord
280
     1
340
23
  0
SORTENTSTABLE
  5
DD2
102
{ACAD_REACTORS
330
DD1
102
}
330
DD1
100
AcDbSortentsTable
330
DD0
  0
SORTENTSTABLE
  5
2029
102
{ACAD_REACTORS
330
2028
102
}
330
2028
100
AcDbSortentsTable
330
2027
  0
SORTENTSTABLE
  5
2191
102
{ACAD_REACTORS
330
2190
102
}
330
2190
100
AcDbSortentsTable
330
218F
  0
SORTENTSTABLE
  5
2281
102
{ACAD_REACTORS
330
225E
102
}
330
225E
100
AcDbSortentsTable
330
219C
331
224D
  5
223F
331
224E
  5
2240
331
224F
  5
2241
331
2250
  5
2242
331
223F
  5
2245
331
2251
  5
2243
331
2240
  5
2246
331
2252
  5
2244
331
2241
  5
2247
331
2242
  5
2248
331
2247
  5
224D
331
2248
  5
224E
331
2249
  5
224F
331
224A
  5
2250
331
224B
  5
2251
331
224C
  5
2252
  0
SORTENTSTABLE
  5
2288
102
{ACAD_REACTORS
330
2287
102
}
330
2287
100
AcDbSortentsTable
330
2286
  0
SORTENTSTABLE
  5
22C5
102
{ACAD_REACTORS
330
22C4
102
}
330
22C4
100
AcDbSortentsTable
330
22C3
  0
SORTENTSTABLE
  5
23F9
102
{ACAD_REACTORS
330
23C8
102
}
330
23C8
100
AcDbSortentsTable
330
22D1
  0
SORTENTSTABLE
  5
2648
102
{ACAD_REACTORS
330
2647
102
}
330
2647
100
AcDbSortentsTable
330
263D
  0
XRECORD
  5
26F1
102
{ACAD_REACTORS
330
26F0
102
}
330
26F0
100
AcDbXrecord
280
     1
 40
102645.0
  1
\pxqr;{\fArial TUR|b0|i0|c0|p34;\T1.05;AN ARCONIC COMPANY}
  0
LAYOUT
  5
1E
102
{ACAD_XDICTIONARY
360
26F4
102
}
102
{ACAD_REACTORS
330
1A
102
}
330
1A
100
AcDbPlotSettings
  1

  2
\\NOAKCI-SRV7\Marketing Communications - HP 5Si
  4

  6

 40
0.0
 41
0.0
 42
0.0
 43
0.0
 44
0.0
 45
0.0
 46
0.0
 47
0.0
 48
0.0
 49
0.0
140
0.0
141
0.0
142
1.0
143
1.0
 70
   688
 72
     0
 73
     0
 74
     5
  7
monochrome2.ctb
 75
    16
147
1.0
148
0.0
149
0.0
100
AcDbLayout
  1
Layout1
 70
     1
 71
     1
 10
0.0
 20
0.0
 11
12.0
 21
9.0
 12
0.0
 22
0.0
 32
0.0
 14
1.000000000000000E+20
 24
1.000000000000000E+20
 34
1.000000000000000E+20
 15
-1.000000000000000E+20
 25
-1.000000000000000E+20
 35
-1.000000000000000E+20
146
0.0
 13
0.0
 23
0.0
 33
0.0
 16
1.0
 26
0.0
 36
0.0
 17
0.0
 27
1.0
 37
0.0
 76
     0
330
1B
  0
LAYOUT
  5
26
102
{ACAD_XDICTIONARY
360
26F8
102
}
102
{ACAD_REACTORS
330
1A
102
}
330
1A
100
AcDbPlotSettings
  1

  2
\\NOAKCI-SRV7\Marketing Communications - HP 5Si
  4

  6

 40
0.0
 41
0.0
 42
0.0
 43
0.0
 44
0.0
 45
0.0
 46
0.0
 47
0.0
 48
0.0
 49
0.0
140
0.0
141
0.0
142
1.0
143
1.0
 70
   688
 72
     0
 73
     0
 74
     5
  7
monochrome2.ctb
 75
    16
147
1.0
148
0.0
149
0.0
100
AcDbLayout
  1
Layout2
 70
     1
 71
     2
 10
0.0
 20
0.0
 11
12.0
 21
9.0
 12
0.0
 22
0.0
 32
0.0
 14
0.0
 24
0.0
 34
0.0
 15
0.0
 25
0.0
 35
0.0
146
0.0
 13
0.0
 23
0.0
 33
0.0
 16
1.0
 26
0.0
 36
0.0
 17
0.0
 27
1.0
 37
0.0
 76
     0
330
23
  0
LAYOUT
  5
22
102
{ACAD_XDICTIONARY
360
26F6
102
}
102
{ACAD_REACTORS
330
1A
102
}
330
1A
100
AcDbPlotSettings
  1

  2
KCI_ENG1_SHARP_ARM355NB_PCL6_64.pc3
  4
11x17
  6

 40
6.349999904632568
 41
4.233306884765625
 42
6.3499755859375
 43
4.23333740234375
 44
279.3999938964844
 45
431.7999877929687
 46
0.0
 47
2.448952955119862
 48
0.0
 49
0.0
140
0.0
141
0.0
142
1.0
143
4.742521941853762
 70
 11828
 72
     0
 73
     3
 74
     1
  7
monochrome2.ctb
 75
     0
147
0.2108582758837208
148
0.1211002315352175
149
0.0771882713718725
100
AcDbLayout
  1
Model
 70
     1
 71
     0
 10
0.0
 20
0.0
 11
12.0
 21
9.0
 12
0.0
 22
0.0
 32
0.0
 14
0.0
 24
0.0
 34
0.0
 15
0.0
 25
0.0
 35
0.0
146
0.0
 13
0.0
 23
0.0
 33
0.0
 16
1.0
 26
0.0
 36
0.0
 17
0.0
 27
1.0
 37
0.0
 76
     0
330
1F
331
C8C
1001
ACAD_PSEXT
1000
KCI_ENG1_SHARP_ARM355NB_PCL6_64.pc3
1000
HP Universal Printing PCL 6 (v5.2)
1000
KCI
1000
KCI - Norcross, GA
1070
     0
  0
MATERIAL
  5
A94
102
{ACAD_XDICTIONARY
360
A95
102
}
102
{ACAD_REACTORS
330
A42
102
}
330
A42
100
AcDbMaterial
  1
ByBlock
 72
     0
 43
0.0208333333333333
 43
0.0
 43
0.0
 43
0.0
 43
0.0
 43
0.0208333333333333
 43
0.0
 43
0.0
 43
0.0
 43
0.0
 43
1.0
 43
0.0
 43
0.0
 43
0.0
 43
0.0
 43
1.0
 77
     0
 47
0.0208333333333333
 47
0.0
 47
0.0
 47
0.0
 47
0.0
 47
0.0208333333333333
 47
0.0
 47
0.0
 47
0.0
 47
0.0
 47
1.0
 47
0.0
 47
0.0
 47
0.0
 47
0.0
 47
1.0
171
     0
 49
0.0208333333333333
 49
0.0
 49
0.0
 49
0.0
 49
0.0
 49
0.0208333333333333
 49
0.0
 49
0.0
 49
0.0
 49
0.0
 49
1.0
 49
0.0
 49
0.0
 49
0.0
 49
0.0
 49
1.0
175
     0
142
0.0208333333333333
142
0.0
142
0.0
142
0.0
142
0.0
142
0.0208333333333333
142
0.0
142
0.0
142
0.0
142
0.0
142
1.0
142
0.0
142
0.0
142
0.0
142
0.0
142
1.0
179
     0
144
0.0208333333333333
144
0.0
144
0.0
144
0.0
144
0.0
144
0.0208333333333333
144
0.0
144
0.0
144
0.0
144
0.0
144
1.0
144
0.0
144
0.0
144
0.0
144
0.0
144
1.0
147
0.0208333333333333
147
0.0
147
0.0
147
0.0
147
0.0
147
0.0208333333333333
147
0.0
147
0.0
147
0.0
147
0.0
147
1.0
147
0.0
147
0.0
147
0.0
147
0.0
147
1.0
  0
MATERIAL
  5
A8C
102
{ACAD_XDICTIONARY
360
A8D
102
}
102
{ACAD_REACTORS
330
A42
102
}
330
A42
100
AcDbMaterial
  1
ByLayer
 72
     0
 43
0.0208333333333333
 43
0.0
 43
0.0
 43
0.0
 43
0.0
 43
0.0208333333333333
 43
0.0
 43
0.0
 43
0.0
 43
0.0
 43
1.0
 43
0.0
 43
0.0
 43
0.0
 43
0.0
 43
1.0
 77
     0
 47
0.0208333333333333
 47
0.0
 47
0.0
 47
0.0
 47
0.0
 47
0.0208333333333333
 47
0.0
 47
0.0
 47
0.0
 47
0.0
 47
1.0
 47
0.0
 47
0.0
 47
0.0
 47
0.0
 47
1.0
171
     0
 49
0.0208333333333333
 49
0.0
 49
0.0
 49
0.0
 49
0.0
 49
0.0208333333333333
 49
0.0
 49
0.0
 49
0.0
 49
0.0
 49
1.0
 49
0.0
 49
0.0
 49
0.0
 49
0.0
 49
1.0
175
     0
142
0.0208333333333333
142
0.0
142
0.0
142
0.0
142
0.0
142
0.0208333333333333
142
0.0
142
0.0
142
0.0
142
0.0
142
1.0
142
0.0
142
0.0
142
0.0
142
0.0
142
1.0
179
     0
144
0.0208333333333333
144
0.0
144
0.0
144
0.0
144
0.0
144
0.0208333333333333
144
0.0
144
0.0
144
0.0
144
0.0
144
1.0
144
0.0
144
0.0
144
0.0
144
0.0
144
1.0
147
0.0208333333333333
147
0.0
147
0.0
147
0.0
147
0.0
147
0.0208333333333333
147
0.0
147
0.0
147
0.0
147
0.0
147
1.0
147
0.0
147
0.0
147
0.0
147
0.0
147
1.0
  0
MATERIAL
  5
A9C
102
{ACAD_XDICTIONARY
360
A9D
102
}
102
{ACAD_REACTORS
330
A42
102
}
330
A42
100
AcDbMaterial
  1
Global
 72
     0
 43
0.0208333333333333
 43
0.0
 43
0.0
 43
0.0
 43
0.0
 43
0.0208333333333333
 43
0.0
 43
0.0
 43
0.0
 43
0.0
 43
1.0
 43
0.0
 43
0.0
 43
0.0
 43
0.0
 43
1.0
 77
     0
 47
0.0208333333333333
 47
0.0
 47
0.0
 47
0.0
 47
0.0
 47
0.0208333333333333
 47
0.0
 47
0.0
 47
0.0
 47
0.0
 47
1.0
 47
0.0
 47
0.0
 47
0.0
 47
0.0
 47
1.0
171
     0
 49
0.0208333333333333
 49
0.0
 49
0.0
 49
0.0
 49
0.0
 49
0.0208333333333333
 49
0.0
 49
0.0
 49
0.0
 49
0.0
 49
1.0
 49
0.0
 49
0.0
 49
0.0
 49
0.0
 49
1.0
175
     0
142
0.0208333333333333
142
0.0
142
0.0
142
0.0
142
0.0
142
0.0208333333333333
142
0.0
142
0.0
142
0.0
142
0.0
142
1.0
142
0.0
142
0.0
142
0.0
142
0.0
142
1.0
179
     0
144
0.0208333333333333
144
0.0
144
0.0
144
0.0
144
0.0
144
0.0208333333333333
144
0.0
144
0.0
144
0.0
144
0.0
144
1.0
144
0.0
144
0.0
144
0.0
144
0.0
144
1.0
147
0.0208333333333333
147
0.0
147
0.0
147
0.0
147
0.0
147
0.0208333333333333
147
0.0
147
0.0
147
0.0
147
0.0
147
1.0
147
0.0
147
0.0
147
0.0
147
0.0
147
1.0
  0
MLEADERSTYLE
  5
AD8
102
{ACAD_XDICTIONARY
360
26EE
102
}
102
{ACAD_REACTORS
330
AD7
102
}
330
AD7
100
AcDbMLeaderStyle
170
     2
171
     1
172
     0
 90
        2
 40
0.0
 41
0.0
173
     1
 91
-1056964608
340
14
 92
       -2
290
     1
 42
0.09
291
     1
 43
0.36
  3
Standard
 44
0.18
300

342
11
174
     1
178
     6
175
     1
176
     0
 93
-1056964608
 45
0.18
292
     0
297
     0
 46
0.18
 94
-1056964608
 47
1.0
 49
1.0
140
1.0
293
     1
141
0.0
294
     1
177
     0
142
1.0
295
     0
296
     0
143
0.125
1001
ACAD
1000
AcRTDxfName
1000
MLEADERSTYLE
1001
ACAD_MLEADERVER
1070
     2
  0
MLINESTYLE
  5
18
102
{ACAD_REACTORS
330
17
102
}
330
17
100
AcDbMlineStyle
  2
STANDARD
 70
     0
  3

 62
   256
 51
90.0
 52
90.0
 71
     2
 49
0.5
 62
   256
  6
BYLAYER
 49
-0.5
 62
   256
  6
BYLAYER
  0
ACDBPLACEHOLDER
  5
F
102
{ACAD_REACTORS
330
E
102
}
330
E
  0
SCALE
  5
AB6
102
{ACAD_REACTORS
330
AB5
102
}
330
AB5
100
AcDbScale
 70
     0
300
1:1
140
1.0
141
1.0
290
     1
1001
ACAD
1000
AcRTDxfName
1000
SCALE
  0
SCALE
  5
2623
102
{ACAD_REACTORS
330
AB5
102
}
330
AB5
100
AcDbScale
 70
     0
300
1/128" = 1'-0"
140
0.0078125
141
12.0
290
     0
  0
SCALE
  5
2624
102
{ACAD_REACTORS
330
AB5
102
}
330
AB5
100
AcDbScale
 70
     0
300
1/64" = 1'-0"
140
0.015625
141
12.0
290
     0
  0
SCALE
  5
2625
102
{ACAD_REACTORS
330
AB5
102
}
330
AB5
100
AcDbScale
 70
     0
300
1/32" = 1'-0"
140
0.03125
141
12.0
290
     0
  0
SCALE
  5
2626
102
{ACAD_REACTORS
330
AB5
102
}
330
AB5
100
AcDbScale
 70
     0
300
1/16" = 1'-0"
140
0.0625
141
12.0
290
     0
  0
SCALE
  5
2627
102
{ACAD_REACTORS
330
AB5
102
}
330
AB5
100
AcDbScale
 70
     0
300
3/32" = 1'-0"
140
0.09375
141
12.0
290
     0
  0
SCALE
  5
2628
102
{ACAD_REACTORS
330
AB5
102
}
330
AB5
100
AcDbScale
 70
     0
300
1/8" = 1'-0"
140
0.125
141
12.0
290
     0
  0
SCALE
  5
2629
102
{ACAD_REACTORS
330
AB5
102
}
330
AB5
100
AcDbScale
 70
     0
300
3/16" = 1'-0"
140
0.1875
141
12.0
290
     0
  0
SCALE
  5
262A
102
{ACAD_REACTORS
330
AB5
102
}
330
AB5
100
AcDbScale
 70
     0
300
1/4" = 1'-0"
140
0.25
141
12.0
290
     0
  0
SCALE
  5
262B
102
{ACAD_REACTORS
330
AB5
102
}
330
AB5
100
AcDbScale
 70
     0
300
3/8" = 1'-0"
140
0.375
141
12.0
290
     0
  0
SCALE
  5
262C
102
{ACAD_REACTORS
330
AB5
102
}
330
AB5
100
AcDbScale
 70
     0
300
1/2" = 1'-0"
140
0.5
141
12.0
290
     0
  0
SCALE
  5
262D
102
{ACAD_REACTORS
330
AB5
102
}
330
AB5
100
AcDbScale
 70
     0
300
3/4" = 1'-0"
140
0.75
141
12.0
290
     0
  0
SCALE
  5
262E
102
{ACAD_REACTORS
330
AB5
102
}
330
AB5
100
AcDbScale
 70
     0
300
1" = 1'-0"
140
1.0
141
12.0
290
     0
  0
SCALE
  5
262F
102
{ACAD_REACTORS
330
AB5
102
}
330
AB5
100
AcDbScale
 70
     0
300
1-1/2" = 1'-0"
140
1.5
141
12.0
290
     0
  0
SCALE
  5
2630
102
{ACAD_REACTORS
330
AB5
102
}
330
AB5
100
AcDbScale
 70
     0
300
3" = 1'-0"
140
3.0
141
12.0
290
     0
  0
SCALE
  5
2631
102
{ACAD_REACTORS
330
AB5
102
}
330
AB5
100
AcDbScale
 70
     0
300
6" = 1'-0"
140
6.0
141
12.0
290
     0
  0
SCALE
  5
2632
102
{ACAD_REACTORS
330
AB5
102
}
330
AB5
100
AcDbScale
 70
     0
300
1'-0" = 1'-0"
140
12.0
141
12.0
290
     0
  0
TABLESTYLE
  5
A45
102
{ACAD_XDICTIONARY
360
B08
102
}
102
{ACAD_REACTORS
330
A44
102
}
330
A44
100
AcDbTableStyle
  3
Standard
 70
     0
 71
     0
 40
0.06
 41
0.06
280
     0
281
     0
  7
Standard
140
0.18
170
     2
 62
     0
 63
     7
283
     0
274
    -2
284
     1
 64
     0
275
    -2
285
     1
 65
     0
276
    -2
286
     1
 66
     0
277
    -2
287
     1
 67
     0
278
    -2
288
     1
 68
     0
279
    -2
289
     1
 69
     0
  7
Standard
140
0.25
170
     5
 62
     0
 63
     7
283
     0
274
    -2
284
     1
 64
     0
275
    -2
285
     1
 65
     0
276
    -2
286
     1
 66
     0
277
    -2
287
     1
 67
     0
278
    -2
288
     1
 68
     0
279
    -2
289
     1
 69
     0
  7
Standard
140
0.18
170
     5
 62
     0
 63
     7
283
     0
274
    -2
284
     1
 64
     0
275
    -2
285
     1
 65
     0
276
    -2
286
     1
 66
     0
277
    -2
287
     1
 67
     0
278
    -2
288
     1
 68
     0
279
    -2
289
     1
 69
     0
  0
VISUALSTYLE
  5
AAA
102
{ACAD_XDICTIONARY
360
2708
102
}
102
{ACAD_REACTORS
330
AA4
102
}
330
AA4
100
AcDbVisualStyle
  2
2dWireframe
 70
     4
 71
     0
 72
     2
 73
     0
 90
        0
 40
-0.6
 41
-30.0
 62
     5
 63
     7
 74
     1
 91
        4
 64
     7
 65
   257
 75
     1
175
     1
 42
1.0
 92
        0
 66
   257
 43
1.0
 76
     1
 77
     6
 78
     2
 67
     7
 79
     5
170
     0
171
     0
290
     0
174
     0
 93
        1
 44
0.0
173
     0
291
     0
 45
0.0
1001
ACAD
1000
AcRTDxfName
1000
VISUALSTYLE
1000
AcDbSavedByObjectVersion
1070
     0
  0
VISUALSTYLE
  5
AAC
102
{ACAD_XDICTIONARY
360
270C
102
}
102
{ACAD_REACTORS
330
AA4
102
}
330
AA4
100
AcDbVisualStyle
  2
3D Hidden
 70
     6
 71
     1
 72
     2
 73
     2
 90
        0
 40
-0.6
 41
-30.0
 62
     5
 63
     7
 74
     2
 91
        2
 64
     7
 65
   257
 75
     2
175
     1
 42
40.0
 92
        0
 66
   257
 43
1.0
 76
     1
 77
     6
 78
     2
 67
     7
 79
     3
170
     0
171
     0
290
     0
174
     0
 93
        1
 44
0.0
173
     0
291
     0
 45
0.0
1001
ACAD
1000
AcRTDxfName
1000
VISUALSTYLE
1000
AcDbSavedByObjectVersion
1070
     0
  0
VISUALSTYLE
  5
AAB
102
{ACAD_XDICTIONARY
360
270A
102
}
102
{ACAD_REACTORS
330
AA4
102
}
330
AA4
100
AcDbVisualStyle
  2
3dWireframe
 70
     5
 71
     0
 72
     2
 73
     0
 90
        0
 40
-0.6
 41
-30.0
 62
     5
 63
     7
 74
     1
 91
        4
 64
     7
 65
   257
 75
     1
175
     1
 42
1.0
 92
        0
 66
   257
 43
1.0
 76
     1
 77
     6
 78
     2
 67
     7
 79
     5
170
     0
171
     0
290
     0
174
     0
 93
        1
 44
0.0
173
     0
291
     0
 45
0.0
1001
ACAD
1000
AcRTDxfName
1000
VISUALSTYLE
1000
AcDbSavedByObjectVersion
1070
     0
  0
VISUALSTYLE
  5
AA9
102
{ACAD_XDICTIONARY
360
2706
102
}
102
{ACAD_REACTORS
330
AA4
102
}
330
AA4
100
AcDbVisualStyle
  2
Basic
 70
     7
 71
     1
 72
     0
 73
     1
 90
        0
 40
-0.6
 41
-30.0
 62
     5
 63
     7
 74
     0
 91
        4
 64
     7
 65
   257
 75
     1
175
     1
 42
1.0
 92
        8
 66
     7
 43
1.0
 76
     1
 77
     6
 78
     2
 67
     7
 79
     5
170
     0
171
     0
290
     0
174
     0
 93
        1
 44
0.0
173
     0
291
     1
 45
0.0
1001
ACAD
1000
AcRTDxfName
1000
VISUALSTYLE
1000
AcDbSavedByObjectVersion
1070
     0
  0
VISUALSTYLE
  5
AB0
102
{ACAD_XDICTIONARY
360
2714
102
}
102
{ACAD_REACTORS
330
AA4
102
}
330
AA4
100
AcDbVisualStyle
  2
Brighten
 70
    12
 71
     2
 72
     2
 73
     0
 90
        0
 40
-0.6
 41
-30.0
 62
     5
 63
     7
 74
     1
 91
        4
 64
     7
 65
   257
 75
     1
175
     1
 42
1.0
 92
        8
 66
     7
 43
1.0
 76
     1
 77
     6
 78
     2
 67
     7
 79
     5
170
     0
171
     0
290
     0
174
     0
 93
        1
 44
50.0
173
     0
291
     1
 45
0.0
1001
ACAD
1000
AcRTDxfName
1000
VISUALSTYLE
1000
AcDbSavedByObjectVersion
1070
     0
  0
VISUALSTYLE
  5
AB4
102
{ACAD_XDICTIONARY
360
271C
102
}
102
{ACAD_REACTORS
330
AA4
102
}
330
AA4
100
AcDbVisualStyle
  2
ColorChange
 70
    16
 71
     2
 72
     2
 73
     3
 90
        0
 40
-0.6
 41
-30.0
 62
     5
 63
     8
 74
     1
 91
        4
 64
     7
 65
   257
 75
     1
175
     1
 42
1.0
 92
        8
 66
     8
 43
1.0
 76
     1
 77
     6
 78
     2
 67
     7
 79
     5
170
     0
171
     0
290
     0
174
     0
 93
        1
 44
0.0
173
     0
291
     1
 45
0.0
1001
ACAD
1000
AcRTDxfName
1000
VISUALSTYLE
1000
AcDbSavedByObjectVersion
1070
     0
  0
VISUALSTYLE
  5
AAD
102
{ACAD_XDICTIONARY
360
270E
102
}
102
{ACAD_REACTORS
330
AA4
102
}
330
AA4
100
AcDbVisualStyle
  2
Conceptual
 70
     9
 71
     3
 72
     2
 73
     0
 90
        0
 40
-0.6
 41
-30.0
 62
     5
 63
     7
 74
     2
 91
        2
 64
     7
 65
   257
 75
     1
175
     1
 42
40.0
 92
        8
 66
     7
 43
1.0
 76
     1
 77
     6
 78
     2
 67
     7
 79
     3
170
     0
171
     0
290
     0
174
     0
 93
        1
 44
0.0
173
     0
291
     0
 45
0.0
1001
ACAD
1000
AcRTDxfName
1000
VISUALSTYLE
1000
AcDbSavedByObjectVersion
1070
     0
  0
VISUALSTYLE
  5
AAF
102
{ACAD_XDICTIONARY
360
2712
102
}
102
{ACAD_REACTORS
330
AA4
102
}
330
AA4
100
AcDbVisualStyle
  2
Dim
 70
    11
 71
     2
 72
     2
 73
     0
 90
        0
 40
-0.6
 41
-30.0
 62
     5
 63
     7
 74
     1
 91
        4
 64
     7
 65
   257
 75
     1
175
     1
 42
1.0
 92
        8
 66
     7
 43
1.0
 76
     1
 77
     6
 78
     2
 67
     7
 79
     5
170
     0
171
     0
290
     0
174
     0
 93
        1
 44
-50.0
173
     0
291
     1
 45
0.0
1001
ACAD
1000
AcRTDxfName
1000
VISUALSTYLE
1000
AcDbSavedByObjectVersion
1070
     0
  0
VISUALSTYLE
  5
CA1
102
{ACAD_XDICTIONARY
360
2730
102
}
102
{ACAD_REACTORS
330
AA4
102
}
330
AA4
100
AcDbVisualStyle
  2
EdgeColorOff
 70
    22
 71
     2
 72
     2
 73
     0
 90
        0
 40
-0.6
 41
-30.0
 62
     5
 63
     7
 74
     1
 91
        4
 64
     7
 65
   257
 75
     1
175
     1
 42
1.0
 92
        8
 66
     7
 43
1.0
 76
     1
 77
     6
 78
     2
 67
     7
 79
     5
170
     0
171
     0
290
     0
174
     0
 93
        1
 44
0.0
173
     0
291
     1
 45
0.0
1001
ACAD
1000
AcDbSavedByObjectVersion
1070
     0
  0
VISUALSTYLE
  5
AB3
102
{ACAD_XDICTIONARY
360
271A
102
}
102
{ACAD_REACTORS
330
AA4
102
}
330
AA4
100
AcDbVisualStyle
  2
Facepattern
 70
    15
 71
     2
 72
     2
 73
     0
 90
        0
 40
-0.6
 41
-30.0
 62
     5
 63
     7
 74
     1
 91
        4
 64
     7
 65
   257
 75
     1
175
     1
 42
1.0
 92
        8
 66
     7
 43
1.0
 76
     1
 77
     6
 78
     2
 67
     7
 79
     5
170
     0
171
     0
290
     0
174
     0
 93
        1
 44
0.0
173
     0
291
     1
 45
0.0
1001
ACAD
1000
AcRTDxfName
1000
VISUALSTYLE
1000
AcDbSavedByObjectVersion
1070
     0
  0
VISUALSTYLE
  5
AA5
102
{ACAD_XDICTIONARY
360
26FE
102
}
102
{ACAD_REACTORS
330
AA4
102
}
330
AA4
100
AcDbVisualStyle
  2
Flat
 70
     0
 71
     2
 72
     1
 73
     1
 90
        2
 40
-0.6
 41
30.0
 62
     5
 63
     7
 74
     0
 91
        4
 64
     7
 65
   257
 75
     1
175
     1
 42
1.0
 92
        8
 66
     7
 43
1.0
 76
     1
 77
     6
 78
     2
 67
     7
 79
     5
170
     0
171
     0
290
     0
174
     0
 93
       13
 44
0.0
173
     0
291
     1
 45
0.0
1001
ACAD
1000
AcRTDxfName
1000
VISUALSTYLE
1000
AcDbSavedByObjectVersion
1070
     0
  0
VISUALSTYLE
  5
AA6
102
{ACAD_XDICTIONARY
360
2700
102
}
102
{ACAD_REACTORS
330
AA4
102
}
330
AA4
100
AcDbVisualStyle
  2
FlatWithEdges
 70
     1
 71
     2
 72
     1
 73
     1
 90
        2
 40
-0.6
 41
30.0
 62
     5
 63
     7
 74
     1
 91
        4
 64
     7
 65
   257
 75
     1
175
     1
 42
1.0
 92
        0
 66
   257
 43
1.0
 76
     1
 77
     6
 78
     2
 67
     7
 79
     5
170
     0
171
     0
290
     0
174
     0
 93
       13
 44
0.0
173
     0
291
     1
 45
0.0
1001
ACAD
1000
AcRTDxfName
1000
VISUALSTYLE
1000
AcDbSavedByObjectVersion
1070
     0
  0
VISUALSTYLE
  5
AA7
102
{ACAD_XDICTIONARY
360
2702
102
}
102
{ACAD_REACTORS
330
AA4
102
}
330
AA4
100
AcDbVisualStyle
  2
Gouraud
 70
     2
 71
     2
 72
     2
 73
     1
 90
        2
 40
-0.6
 41
30.0
 62
     5
 63
     7
 74
     0
 91
        4
 64
     7
 65
   257
 75
     1
175
     1
 42
1.0
 92
        0
 66
     7
 43
1.0
 76
     1
 77
     6
 78
     2
 67
     7
 79
     5
170
     0
171
     0
290
     0
174
     0
 93
       13
 44
0.0
173
     0
291
     1
 45
0.0
1001
ACAD
1000
AcRTDxfName
1000
VISUALSTYLE
1000
AcDbSavedByObjectVersion
1070
     0
  0
VISUALSTYLE
  5
AA8
102
{ACAD_XDICTIONARY
360
2704
102
}
102
{ACAD_REACTORS
330
AA4
102
}
330
AA4
100
AcDbVisualStyle
  2
GouraudWithEdges
 70
     3
 71
     2
 72
     2
 73
     1
 90
        2
 40
-0.6
 41
30.0
 62
     5
 63
     7
 74
     1
 91
        4
 64
     7
 65
   257
 75
     1
175
     1
 42
1.0
 92
        0
 66
   257
 43
1.0
 76
     1
 77
     6
 78
     2
 67
     7
 79
     5
170
     0
171
     0
290
     0
174
     0
 93
       13
 44
0.0
173
     0
291
     1
 45
0.0
1001
ACAD
1000
AcRTDxfName
1000
VISUALSTYLE
1000
AcDbSavedByObjectVersion
1070
     0
  0
VISUALSTYLE
  5
C99
102
{ACAD_XDICTIONARY
360
2720
102
}
102
{ACAD_REACTORS
330
AA4
102
}
330
AA4
100
AcDbVisualStyle
  2
Hidden
 70
     6
 71
     1
 72
     2
 73
     2
 90
        0
 40
-0.6
 41
-30.0
 62
     5
 63
     7
 74
     2
 91
        2
 64
     7
 65
   257
 75
     2
175
     1
 42
40.0
 92
        0
 66
   257
 43
1.0
 76
     1
 77
     6
 78
     2
 67
     7
 79
     3
170
     0
171
     0
290
     0
174
     0
 93
        1
 44
0.0
173
     0
291
     0
 45
0.0
1001
ACAD
1000
AcDbSavedByObjectVersion
1070
     0
  0
VISUALSTYLE
  5
C9F
102
{ACAD_XDICTIONARY
360
272C
102
}
102
{ACAD_REACTORS
330
AA4
102
}
330
AA4
100
AcDbVisualStyle
  2
JitterOff
 70
    20
 71
     2
 72
     2
 73
     0
 90
        0
 40
-0.6
 41
-30.0
 62
     5
 63
     7
 74
     1
 91
        4
 64
     7
 65
   257
 75
     1
175
     1
 42
1.0
 92
       10
 66
     7
 43
1.0
 76
     1
 77
     6
 78
     2
 67
     7
 79
     5
170
     0
171
     0
290
     0
174
     0
 93
        1
 44
0.0
173
     0
291
     1
 45
0.0
1001
ACAD
1000
AcDbSavedByObjectVersion
1070
     0
  0
VISUALSTYLE
  5
AB2
102
{ACAD_XDICTIONARY
360
2718
102
}
102
{ACAD_REACTORS
330
AA4
102
}
330
AA4
100
AcDbVisualStyle
  2
Linepattern
 70
    14
 71
     2
 72
     2
 73
     0
 90
        0
 40
-0.6
 41
-30.0
 62
     5
 63
     7
 74
     1
 91
        4
 64
     7
 65
   257
 75
     7
175
     7
 42
1.0
 92
        8
 66
     7
 43
1.0
 76
     1
 77
     6
 78
     2
 67
     7
 79
     5
170
     0
171
     0
290
     0
174
     0
 93
        1
 44
0.0
173
     0
291
     1
 45
0.0
1001
ACAD
1000
AcRTDxfName
1000
VISUALSTYLE
1000
AcDbSavedByObjectVersion
1070
     0
  0
VISUALSTYLE
  5
CA0
102
{ACAD_XDICTIONARY
360
272E
102
}
102
{ACAD_REACTORS
330
AA4
102
}
330
AA4
100
AcDbVisualStyle
  2
OverhangOff
 70
    21
 71
     2
 72
     2
 73
     0
 90
        0
 40
-0.6
 41
-30.0
 62
     5
 63
     7
 74
     1
 91
        4
 64
     7
 65
   257
 75
     1
175
     1
 42
1.0
 92
        9
 66
     7
 43
1.0
 76
     1
 77
     6
 78
     2
 67
     7
 79
     5
170
     0
171
     0
290
     0
174
     0
 93
        1
 44
0.0
173
     0
291
     1
 45
0.0
1001
ACAD
1000
AcDbSavedByObjectVersion
1070
     0
  0
VISUALSTYLE
  5
AAE
102
{ACAD_XDICTIONARY
360
2710
102
}
102
{ACAD_REACTORS
330
AA4
102
}
330
AA4
100
AcDbVisualStyle
  2
Realistic
 70
     8
 71
     2
 72
     2
 73
     0
 90
        0
 40
-0.6
 41
-30.0
 62
     5
 63
     7
 74
     1
 91
        0
 64
     7
 65
   257
 75
     1
175
     1
 42
1.0
 92
        8
 66
     8
 43
1.0
 76
     1
 77
     6
 78
     2
 67
     7
 79
     5
170
     0
171
     0
290
     0
174
     0
 93
       13
 44
0.0
173
     0
291
     0
 45
0.0
1001
ACAD
1000
AcRTDxfName
1000
VISUALSTYLE
1000
AcDbSavedByObjectVersion
1070
     0
  0
VISUALSTYLE
  5
C9E
102
{ACAD_XDICTIONARY
360
272A
102
}
102
{ACAD_REACTORS
330
AA4
102
}
330
AA4
100
AcDbVisualStyle
  2
Shaded
 70
    27
 71
     2
 72
     2
 73
     1
 90
        2
 40
-0.6
 41
30.0
 62
     5
 63
     7
 74
     0
 91
        4
 64
     7
 65
   257
 75
     1
175
     1
 42
1.0
 92
        8
 66
   257
 43
1.0
 76
     1
 77
     6
 78
     2
 67
     8
 79
     3
170
     0
171
     0
290
     0
174
     0
 93
        5
 44
0.0
173
     0
291
     0
 45
0.0
1001
ACAD
1000
AcDbSavedByObjectVersion
1070
     0
  0
VISUALSTYLE
  5
C9D
102
{ACAD_XDICTIONARY
360
2728
102
}
102
{ACAD_REACTORS
330
AA4
102
}
330
AA4
100
AcDbVisualStyle
  2
Shaded with edges
 70
    26
 71
     2
 72
     2
 73
     1
 90
        2
 40
-0.6
 41
30.0
 62
     5
 63
     7
 74
     1
 91
       10
 64
     7
 65
   257
 75
     2
175
     1
 42
1.0
 92
        8
 66
   257
 43
1.0
 76
     1
 77
     6
 78
     2
 67
     7
 79
     3
170
     0
171
     0
290
     0
174
     0
 93
        5
 44
0.0
173
     0
291
     0
 45
0.0
1001
ACAD
1000
AcDbSavedByObjectVersion
1070
     0
  0
VISUALSTYLE
  5
C9A
102
{ACAD_XDICTIONARY
360
2722
102
}
102
{ACAD_REACTORS
330
AA4
102
}
330
AA4
100
AcDbVisualStyle
  2
Shades of Gray
 70
    23
 71
     2
 72
     2
 73
     3
 90
        0
 40
-0.6
 41
-30.0
 62
     5
 63
     7
 74
     2
 91
        2
 64
     7
 65
     7
 75
     1
175
     1
 42
40.0
 92
        8
 66
     7
 43
1.0
 76
     1
 77
     6
 78
     2
 67
     7
 79
     3
170
     0
171
     0
290
     0
174
     0
 93
        1
 44
0.0
173
     0
291
     0
 45
0.0
1001
ACAD
1000
AcDbSavedByObjectVersion
1070
     0
  0
VISUALSTYLE
  5
C9B
102
{ACAD_XDICTIONARY
360
2724
102
}
102
{ACAD_REACTORS
330
AA4
102
}
330
AA4
100
AcDbVisualStyle
  2
Sketchy
 70
    24
 71
     1
 72
     2
 73
     2
 90
        0
 40
-0.6
 41
-30.0
 62
     5
 63
     7
 74
     2
 91
        2
 64
     7
 65
     7
 75
     1
175
     1
 42
40.0
 92
       11
 66
     7
 43
1.0
 76
     1
 77
     6
 78
     2
 67
     7
 79
     6
170
     0
171
     0
290
     0
174
     0
 93
        1
 44
0.0
173
     0
291
     0
 45
0.0
1001
ACAD
1000
AcDbSavedByObjectVersion
1070
     0
  0
VISUALSTYLE
  5
AB1
102
{ACAD_XDICTIONARY
360
2716
102
}
102
{ACAD_REACTORS
330
AA4
102
}
330
AA4
100
AcDbVisualStyle
  2
Thicken
 70
    13
 71
     2
 72
     2
 73
     0
 90
        0
 40
-0.6
 41
-30.0
 62
     5
 63
     7
 74
     1
 91
        4
 64
     7
 65
   257
 75
     1
175
     1
 42
1.0
 92
       12
 66
     7
 43
1.0
 76
     1
 77
     6
 78
     2
 67
     7
 79
     5
170
     0
171
     0
290
     0
174
     0
 93
        1
 44
0.0
173
     0
291
     1
 45
0.0
1001
ACAD
1000
AcRTDxfName
1000
VISUALSTYLE
1000
AcDbSavedByObjectVersion
1070
     0
  0
VISUALSTYLE
  5
C98
102
{ACAD_XDICTIONARY
360
271E
102
}
102
{ACAD_REACTORS
330
AA4
102
}
330
AA4
100
AcDbVisualStyle
  2
Wireframe
 70
     5
 71
     0
 72
     2
 73
     0
 90
        0
 40
-0.6
 41
-30.0
 62
     5
 63
     7
 74
     1
 91
        4
 64
     7
 65
   257
 75
     1
175
     1
 42
1.0
 92
        0
 66
   257
 43
1.0
 76
     1
 77
     6
 78
     2
 67
     7
 79
     3
170
     0
171
     0
290
     0
174
     0
 93
        1
 44
0.0
173
     0
291
     0
 45
0.0
1001
ACAD
1000
AcDbSavedByObjectVersion
1070
     0
  0
VISUALSTYLE
  5
C9C
102
{ACAD_XDICTIONARY
360
2726
102
}
102
{ACAD_REACTORS
330
AA4
102
}
330
AA4
100
AcDbVisualStyle
  2
X-Ray
 70
    25
 71
     2
 72
     2
 73
     1
 90
        1
 40
0.5
 41
-30.0
 62
     5
 63
     7
 74
     1
 91
        0
 64
     7
 65
   257
 75
     1
175
     1
 42
1.0
 92
        8
 66
     7
 43
1.0
 76
     1
 77
     6
 78
     2
 67
     7
 79
     3
170
     0
171
     0
290
     0
174
     0
 93
       13
 44
0.0
173
     0
291
     0
 45
0.0
1001
ACAD
1000
AcDbSavedByObjectVersion
1070
     0
  0
DICTIONARYVAR
  5
B1D
102
{ACAD_REACTORS
330
A49
102
}
330
A49
100
DictionaryVariables
280
     0
  1
1:1
  0
DICTIONARYVAR
  5
B1C
102
{ACAD_REACTORS
330
A49
102
}
330
A49
100
DictionaryVariables
280
     0
  1
STANDARD
  0
DICTIONARYVAR
  5
A4A
102
{ACAD_REACTORS
330
A49
102
}
330
A49
100
DictionaryVariables
280
     0
  1
STANDARD
  0
DICTIONARYVAR
  5
C95
102
{ACAD_REACTORS
330
A49
102
}
330
A49
100
DictionaryVariables
280
     0
  1
1
  0
DICTIONARYVAR
  5
CF5
102
{ACAD_REACTORS
330
A49
102
}
330
A49
100
DictionaryVariables
280
     0
  1
0
  0
DICTIONARYVAR
  5
1A45
102
{ACAD_REACTORS
330
A49
102
}
330
A49
100
DictionaryVariables
280
     0
  1
1
  0
DICTIONARYVAR
  5
1A46
102
{ACAD_REACTORS
330
A49
102
}
330
A49
100
DictionaryVariables
280
     0
  1
15
  0
DICTIONARYVAR
  5
1A44
102
{ACAD_REACTORS
330
A49
102
}
330
A49
100
DictionaryVariables
280
     0
  1
0
  0
DICTIONARYVAR
  5
1A43
102
{ACAD_REACTORS
330
A49
102
}
330
A49
100
DictionaryVariables
280
     0
  1
0
  0
DICTIONARYVAR
  5
C96
102
{ACAD_REACTORS
330
A49
102
}
330
A49
100
DictionaryVariables
280
     0
  1

  0
DICTIONARYVAR
  5
CF4
102
{ACAD_REACTORS
330
A49
102
}
330
A49
100
DictionaryVariables
280
     0
  1
127
  0
DICTIONARYVAR
  5
26EC
102
{ACAD_REACTORS
330
A49
102
}
330
A49
100
DictionaryVariables
280
     0
  1
2
  0
DICTIONARY
  5
26F4
330
1E
100
AcDbDictionary
280
     1
281
     1
  3
ACAD_XREC_ROUNDTRIP
360
26F5
  0
DICTIONARY
  5
26F8
330
26
100
AcDbDictionary
280
     1
281
     1
  3
ACAD_XREC_ROUNDTRIP
360
26F9
  0
DICTIONARY
  5
26F6
330
22
100
AcDbDictionary
280
     1
281
     1
  3
ACAD_XREC_ROUNDTRIP
360
26F7
  0
DICTIONARY
  5
A95
330
A94
100
AcDbDictionary
280
     1
281
     1
  3
ACAD_XREC_ROUNDTRIP
360
26FC
  3
BUMPTILE
360
A97
  3
DIFFUSETILE
360
A96
  3
OPACITYTILE
360
A9A
  3
REFLECTIONTILE
360
A99
  3
REFRACTIONTILE
360
A9B
  3
SPECULARTILE
360
A98
  0
DICTIONARY
  5
A8D
330
A8C
100
AcDbDictionary
280
     1
281
     1
  3
ACAD_XREC_ROUNDTRIP
360
26FB
  3
BUMPTILE
360
A8F
  3
DIFFUSETILE
360
A8E
  3
OPACITYTILE
360
A92
  3
REFLECTIONTILE
360
A91
  3
REFRACTIONTILE
360
A93
  3
SPECULARTILE
360
A90
  0
DICTIONARY
  5
A9D
330
A9C
100
AcDbDictionary
280
     1
281
     1
  3
ACAD_XREC_ROUNDTRIP
360
26FD
  3
BUMPTILE
360
A9F
  3
DIFFUSETILE
360
A9E
  3
OPACITYTILE
360
AA2
  3
REFLECTIONTILE
360
AA1
  3
REFRACTIONTILE
360
AA3
  3
SPECULARTILE
360
AA0
  0
DICTIONARY
  5
26EE
330
AD8
100
AcDbDictionary
280
     1
281
     1
  3
ACAD_XREC_ROUNDTRIP
360
26EF
  0
DICTIONARY
  5
B08
330
A45
100
AcDbDictionary
280
     1
281
     1
  3
ACAD_ROUNDTRIP_2008_TABLESTYLE_CELLSTYLEMAP
360
26ED
  3
ACAD_XREC_ROUNDTRIP
360
26FA
  0
DICTIONARY
  5
2708
330
AAA
100
AcDbDictionary
280
     1
281
     1
  3
ACAD_XREC_ROUNDTRIP
360
2709
  0
DICTIONARY
  5
270C
330
AAC
100
AcDbDictionary
280
     1
281
     1
  3
ACAD_XREC_ROUNDTRIP
360
270D
  0
DICTIONARY
  5
270A
330
AAB
100
AcDbDictionary
280
     1
281
     1
  3
ACAD_XREC_ROUNDTRIP
360
270B
  0
DICTIONARY
  5
2706
330
AA9
100
AcDbDictionary
280
     1
281
     1
  3
ACAD_XREC_ROUNDTRIP
360
2707
  0
DICTIONARY
  5
2714
330
AB0
100
AcDbDictionary
280
     1
281
     1
  3
ACAD_XREC_ROUNDTRIP
360
2715
  0
DICTIONARY
  5
271C
330
AB4
100
AcDbDictionary
280
     1
281
     1
  3
ACAD_XREC_ROUNDTRIP
360
271D
  0
DICTIONARY
  5
270E
330
AAD
100
AcDbDictionary
280
     1
281
     1
  3
ACAD_XREC_ROUNDTRIP
360
270F
  0
DICTIONARY
  5
2712
330
AAF
100
AcDbDictionary
280
     1
281
     1
  3
ACAD_XREC_ROUNDTRIP
360
2713
  0
DICTIONARY
  5
2730
330
CA1
100
AcDbDictionary
280
     1
281
     1
  3
ACAD_XREC_ROUNDTRIP
360
2731
  0
DICTIONARY
  5
271A
330
AB3
100
AcDbDictionary
280
     1
281
     1
  3
ACAD_XREC_ROUNDTRIP
360
271B
  0
DICTIONARY
  5
26FE
330
AA5
100
AcDbDictionary
280
     1
281
     1
  3
ACAD_XREC_ROUNDTRIP
360
26FF
  0
DICTIONARY
  5
2700
330
AA6
100
AcDbDictionary
280
     1
281
     1
  3
ACAD_XREC_ROUNDTRIP
360
2701
  0
DICTIONARY
  5
2702
330
AA7
100
AcDbDictionary
280
     1
281
     1
  3
ACAD_XREC_ROUNDTRIP
360
2703
  0
DICTIONARY
  5
2704
330
AA8
100
AcDbDictionary
280
     1
281
     1
  3
ACAD_XREC_ROUNDTRIP
360
2705
  0
DICTIONARY
  5
2720
330
C99
100
AcDbDictionary
280
     1
281
     1
  3
ACAD_XREC_ROUNDTRIP
360
2721
  0
DICTIONARY
  5
272C
330
C9F
100
AcDbDictionary
280
     1
281
     1
  3
ACAD_XREC_ROUNDTRIP
360
272D
  0
DICTIONARY
  5
2718
330
AB2
100
AcDbDictionary
280
     1
281
     1
  3
ACAD_XREC_ROUNDTRIP
360
2719
  0
DICTIONARY
  5
272E
330
CA0
100
AcDbDictionary
280
     1
281
     1
  3
ACAD_XREC_ROUNDTRIP
360
272F
  0
DICTIONARY
  5
2710
330
AAE
100
AcDbDictionary
280
     1
281
     1
  3
ACAD_XREC_ROUNDTRIP
360
2711
  0
DICTIONARY
  5
272A
330
C9E
100
AcDbDictionary
280
     1
281
     1
  3
ACAD_XREC_ROUNDTRIP
360
272B
  0
DICTIONARY
  5
2728
330
C9D
100
AcDbDictionary
280
     1
281
     1
  3
ACAD_XREC_ROUNDTRIP
360
2729
  0
DICTIONARY
  5
2722
330
C9A
100
AcDbDictionary
280
     1
281
     1
  3
ACAD_XREC_ROUNDTRIP
360
2723
  0
DICTIONARY
  5
2724
330
C9B
100
AcDbDictionary
280
     1
281
     1
  3
ACAD_XREC_ROUNDTRIP
360
2725
  0
DICTIONARY
  5
2716
330
AB1
100
AcDbDictionary
280
     1
281
     1
  3
ACAD_XREC_ROUNDTRIP
360
2717
  0
DICTIONARY
  5
271E
330
C98
100
AcDbDictionary
280
     1
281
     1
  3
ACAD_XREC_ROUNDTRIP
360
271F
  0
DICTIONARY
  5
2726
330
C9C
100
AcDbDictionary
280
     1
281
     1
  3
ACAD_XREC_ROUNDTRIP
360
2727
  0
XRECORD
  5
26F5
102
{ACAD_REACTORS
330
26F4
102
}
330
26F4
100
AcDbXrecord
280
     1
102
SHADEPLOT
 70
     0
102
SHADEPLOTRESLEVEL
 70
     2
102
SHADEPLOTCUSTOMDPI
 70
   300
  0
XRECORD
  5
26F9
102
{ACAD_REACTORS
330
26F8
102
}
330
26F8
100
AcDbXrecord
280
     1
102
SHADEPLOT
 70
     0
102
SHADEPLOTRESLEVEL
 70
     2
102
SHADEPLOTCUSTOMDPI
 70
   300
  0
XRECORD
  5
26F7
102
{ACAD_REACTORS
330
26F6
102
}
330
26F6
100
AcDbXrecord
280
     1
102
SHADEPLOT
 70
     0
102
SHADEPLOTRESLEVEL
 70
     2
102
SHADEPLOTCUSTOMDPI
 70
   300
  0
XRECORD
  5
26FC
102
{ACAD_REACTORS
330
A95
102
}
330
A95
100
AcDbXrecord
280
     1
102
MATERIAL
148
0.0
149
0.0
149
0.0
 93
        0
 94
      127
282
     0
 72
     0
 77
     0
171
     0
175
     0
179
     0
273
     0
  0
XRECORD
  5
A97
102
{ACAD_REACTORS
330
A95
102
}
330
A95
100
AcDbXrecord
280
     1
270
     1
271
     1
  0
XRECORD
  5
A96
102
{ACAD_REACTORS
330
A95
102
}
330
A95
100
AcDbXrecord
280
     1
270
     1
271
     1
  0
XRECORD
  5
A9A
102
{ACAD_REACTORS
330
A95
102
}
330
A95
100
AcDbXrecord
280
     1
270
     1
271
     1
  0
XRECORD
  5
A99
102
{ACAD_REACTORS
330
A95
102
}
330
A95
100
AcDbXrecord
280
     1
270
     1
271
     1
  0
XRECORD
  5
A9B
102
{ACAD_REACTORS
330
A95
102
}
330
A95
100
AcDbXrecord
280
     1
270
     1
271
     1
  0
XRECORD
  5
A98
102
{ACAD_REACTORS
330
A95
102
}
330
A95
100
AcDbXrecord
280
     1
270
     1
271
     1
  0
XRECORD
  5
26FB
102
{ACAD_REACTORS
330
A8D
102
}
330
A8D
100
AcDbXrecord
280
     1
102
MATERIAL
148
0.0
149
0.0
149
0.0
 93
        0
 94
      127
282
     0
 72
     0
 77
     0
171
     0
175
     0
179
     0
273
     0
  0
XRECORD
  5
A8F
102
{ACAD_REACTORS
330
A8D
102
}
330
A8D
100
AcDbXrecord
280
     1
270
     1
271
     1
  0
XRECORD
  5
A8E
102
{ACAD_REACTORS
330
A8D
102
}
330
A8D
100
AcDbXrecord
280
     1
270
     1
271
     1
  0
XRECORD
  5
A92
102
{ACAD_REACTORS
330
A8D
102
}
330
A8D
100
AcDbXrecord
280
     1
270
     1
271
     1
  0
XRECORD
  5
A91
102
{ACAD_REACTORS
330
A8D
102
}
330
A8D
100
AcDbXrecord
280
     1
270
     1
271
     1
  0
XRECORD
  5
A93
102
{ACAD_REACTORS
330
A8D
102
}
330
A8D
100
AcDbXrecord
280
     1
270
     1
271
     1
  0
XRECORD
  5
A90
102
{ACAD_REACTORS
330
A8D
102
}
330
A8D
100
AcDbXrecord
280
     1
270
     1
271
     1
  0
XRECORD
  5
26FD
102
{ACAD_REACTORS
330
A9D
102
}
330
A9D
100
AcDbXrecord
280
     1
102
MATERIAL
148
0.0
149
0.0
149
0.0
 93
        0
 94
      127
282
     0
 72
     0
 77
     0
171
     0
175
     0
179
     0
273
     0
  0
XRECORD
  5
A9F
102
{ACAD_REACTORS
330
A9D
102
}
330
A9D
100
AcDbXrecord
280
     1
270
     1
271
     1
  0
XRECORD
  5
A9E
102
{ACAD_REACTORS
330
A9D
102
}
330
A9D
100
AcDbXrecord
280
     1
270
     1
271
     1
  0
XRECORD
  5
AA2
102
{ACAD_REACTORS
330
A9D
102
}
330
A9D
100
AcDbXrecord
280
     1
270
     1
271
     1
  0
XRECORD
  5
AA1
102
{ACAD_REACTORS
330
A9D
102
}
330
A9D
100
AcDbXrecord
280
     1
270
     1
271
     1
  0
XRECORD
  5
AA3
102
{ACAD_REACTORS
330
A9D
102
}
330
A9D
100
AcDbXrecord
280
     1
270
     1
271
     1
  0
XRECORD
  5
AA0
102
{ACAD_REACTORS
330
A9D
102
}
330
A9D
100
AcDbXrecord
280
     1
270
     1
271
     1
  0
XRECORD
  5
26EF
102
{ACAD_REACTORS
330
26EE
102
}
330
26EE
100
AcDbXrecord
280
     1
102
ACAD_ROUNDTRIP_2012_MLEADER_STYLE
298
     1
  0
CELLSTYLEMAP
  5
26ED
102
{ACAD_REACTORS
330
B08
102
}
330
B08
100
AcDbCellStyleMap
 90
        3
300
CELLSTYLE
  1
TABLEFORMAT_BEGIN
 90
        5
170
     1
 91
        0
 92
    32768
 62
   257
 93
        1
300
CONTENTFORMAT
  1
CONTENTFORMAT_BEGIN
 90
        0
 91
        0
 92
        4
 93
        0
300

 40
0.0
140
1.0
 94
        5
 62
     0
340
11
144
0.25
309
CONTENTFORMAT_END
171
     1
301
MARGIN
  1
CELLMARGIN_BEGIN
 40
0.06
 40
0.06
 40
0.06
 40
0.06
 40
0.18
 40
0.18
309
CELLMARGIN_END
 94
        6
 95
        1
302
GRIDFORMAT
  1
GRIDFORMAT_BEGIN
 90
        0
 91
        1
 62
     0
 92
       -2
340
0
 93
        0
 40
0.045
309
GRIDFORMAT_END
 95
        2
302
GRIDFORMAT
  1
GRIDFORMAT_BEGIN
 90
        0
 91
        1
 62
     0
 92
       -2
340
0
 93
        0
 40
0.045
309
GRIDFORMAT_END
 95
        4
302
GRIDFORMAT
  1
GRIDFORMAT_BEGIN
 90
        0
 91
        1
 62
     0
 92
       -2
340
0
 93
        0
 40
0.045
309
GRIDFORMAT_END
 95
        8
302
GRIDFORMAT
  1
GRIDFORMAT_BEGIN
 90
        0
 91
        1
 62
     0
 92
       -2
340
0
 93
        0
 40
0.045
309
GRIDFORMAT_END
 95
       16
302
GRIDFORMAT
  1
GRIDFORMAT_BEGIN
 90
        0
 91
        1
 62
     0
 92
       -2
340
0
 93
        0
 40
0.045
309
GRIDFORMAT_END
 95
       32
302
GRIDFORMAT
  1
GRIDFORMAT_BEGIN
 90
        0
 91
        1
 62
     0
 92
       -2
340
0
 93
        0
 40
0.045
309
GRIDFORMAT_END
309
TABLEFORMAT_END
  1
CELLSTYLE_BEGIN
 90
        1
 91
        1
300
_TITLE
309
CELLSTYLE_END
300
CELLSTYLE
  1
TABLEFORMAT_BEGIN
 90
        5
170
     1
 91
        0
 92
        0
 62
   257
 93
        1
300
CONTENTFORMAT
  1
CONTENTFORMAT_BEGIN
 90
        0
 91
        0
 92
        4
 93
        0
300

 40
0.0
140
1.0
 94
        5
 62
     0
340
11
144
0.18
309
CONTENTFORMAT_END
171
     1
301
MARGIN
  1
CELLMARGIN_BEGIN
 40
0.06
 40
0.06
 40
0.06
 40
0.06
 40
0.18
 40
0.18
309
CELLMARGIN_END
 94
        6
 95
        1
302
GRIDFORMAT
  1
GRIDFORMAT_BEGIN
 90
        0
 91
        1
 62
     0
 92
       -2
340
0
 93
        0
 40
0.045
309
GRIDFORMAT_END
 95
        2
302
GRIDFORMAT
  1
GRIDFORMAT_BEGIN
 90
        0
 91
        1
 62
     0
 92
       -2
340
0
 93
        0
 40
0.045
309
GRIDFORMAT_END
 95
        4
302
GRIDFORMAT
  1
GRIDFORMAT_BEGIN
 90
        0
 91
        1
 62
     0
 92
       -2
340
0
 93
        0
 40
0.045
309
GRIDFORMAT_END
 95
        8
302
GRIDFORMAT
  1
GRIDFORMAT_BEGIN
 90
        0
 91
        1
 62
     0
 92
       -2
340
0
 93
        0
 40
0.045
309
GRIDFORMAT_END
 95
       16
302
GRIDFORMAT
  1
GRIDFORMAT_BEGIN
 90
        0
 91
        1
 62
     0
 92
       -2
340
0
 93
        0
 40
0.045
309
GRIDFORMAT_END
 95
       32
302
GRIDFORMAT
  1
GRIDFORMAT_BEGIN
 90
        0
 91
        1
 62
     0
 92
       -2
340
0
 93
        0
 40
0.045
309
GRIDFORMAT_END
309
TABLEFORMAT_END
  1
CELLSTYLE_BEGIN
 90
        2
 91
        1
300
_HEADER
309
CELLSTYLE_END
300
CELLSTYLE
  1
TABLEFORMAT_BEGIN
 90
        5
170
     1
 91
        0
 92
        0
 62
   257
 93
        1
300
CONTENTFORMAT
  1
CONTENTFORMAT_BEGIN
 90
        0
 91
        0
 92
        4
 93
        0
300

 40
0.0
140
1.0
 94
        2
 62
     0
340
11
144
0.18
309
CONTENTFORMAT_END
171
     1
301
MARGIN
  1
CELLMARGIN_BEGIN
 40
0.06
 40
0.06
 40
0.06
 40
0.06
 40
0.18
 40
0.18
309
CELLMARGIN_END
 94
        6
 95
        1
302
GRIDFORMAT
  1
GRIDFORMAT_BEGIN
 90
        0
 91
        1
 62
     0
 92
       -2
340
0
 93
        0
 40
0.045
309
GRIDFORMAT_END
 95
        2
302
GRIDFORMAT
  1
GRIDFORMAT_BEGIN
 90
        0
 91
        1
 62
     0
 92
       -2
340
0
 93
        0
 40
0.045
309
GRIDFORMAT_END
 95
        4
302
GRIDFORMAT
  1
GRIDFORMAT_BEGIN
 90
        0
 91
        1
 62
     0
 92
       -2
340
0
 93
        0
 40
0.045
309
GRIDFORMAT_END
 95
        8
302
GRIDFORMAT
  1
GRIDFORMAT_BEGIN
 90
        0
 91
        1
 62
     0
 92
       -2
340
0
 93
        0
 40
0.045
309
GRIDFORMAT_END
 95
       16
302
GRIDFORMAT
  1
GRIDFORMAT_BEGIN
 90
        0
 91
        1
 62
     0
 92
       -2
340
0
 93
        0
 40
0.045
309
GRIDFORMAT_END
 95
       32
302
GRIDFORMAT
  1
GRIDFORMAT_BEGIN
 90
        0
 91
        1
 62
     0
 92
       -2
340
0
 93
        0
 40
0.045
309
GRIDFORMAT_END
309
TABLEFORMAT_END
  1
CELLSTYLE_BEGIN
 90
        3
 91
        2
300
_DATA
309
CELLSTYLE_END
  0
XRECORD
  5
26FA
102
{ACAD_REACTORS
330
B08
102
}
330
B08
100
AcDbXrecord
280
     1
102
ACAD_ROUNDTRIP_PRE2007_TABLESTYLE
 90
        4
 91
        0
  1

 92
        4
 93
        0
  2

 94
        4
 95
        0
  3

  0
XRECORD
  5
2709
102
{ACAD_REACTORS
330
2708
102
}
330
2708
100
AcDbXrecord
280
     1
102
RTVSPropertyOp0
 70
     1
102
RTVSPropertyOp1
 70
     1
102
RTVSPropertyOp2
 70
     1
102
RTVSPropertyOp3
 70
     1
102
RTVSPropertyOp4
 70
     1
102
RTVSPropertyOp5
 70
     1
102
RTVSPropertyOp6
 70
     1
102
RTVSPropertyOp7
 70
     1
102
RTVSPropertyOp8
 70
     1
102
RTVSPropertyOp9
 70
     1
102
RTVSPropertyOp10
 70
     1
102
RTVSPropertyOp11
 70
     1
102
RTVSPropertyOp12
 70
     1
102
RTVSPropertyOp13
 70
     1
102
RTVSPropertyOp14
 70
     1
102
RTVSPropertyOp15
 70
     1
102
RTVSPropertyOp16
 70
     1
102
RTVSPropertyOp17
 70
     1
102
RTVSPropertyOp18
 70
     1
102
RTVSPropertyOp19
 70
     1
102
RTVSPropertyOp20
 70
     1
102
RTVSPropertyOp21
 70
     1
102
RTVSPropertyOp22
 70
     1
102
RTVSPropertyOp23
 70
     1
102
RTVSPropertyOp24
 70
     1
102
RTVSPropertyOp25
 70
     1
102
RTVSPropertyOp26
 70
     1
102
RTVSPropertyOp27
 70
     1
102
RTVSPropertyOp28
 70
     1
102
RTVSPropertyOp29
 70
     1
102
RTVSPropertyOp30
 70
     1
102
RTVSPropertyOp31
 70
     1
102
RTVSPropertyOp32
 70
     1
  0
XRECORD
  5
270D
102
{ACAD_REACTORS
330
270C
102
}
330
270C
100
AcDbXrecord
280
     1
102
RTVSPropertyOp0
 70
     1
102
RTVSPropertyOp1
 70
     1
102
RTVSPropertyOp2
 70
     1
102
RTVSPropertyOp3
 70
     1
102
RTVSPropertyOp4
 70
     1
102
RTVSPropertyOp5
 70
     1
102
RTVSPropertyOp6
 70
     1
102
RTVSPropertyOp7
 70
     1
102
RTVSPropertyOp8
 70
     1
102
RTVSPropertyOp9
 70
     1
102
RTVSPropertyOp10
 70
     1
102
RTVSPropertyOp11
 70
     1
102
RTVSPropertyOp12
 70
     1
102
RTVSPropertyOp13
 70
     1
102
RTVSPropertyOp14
 70
     1
102
RTVSPropertyOp15
 70
     1
102
RTVSPropertyOp16
 70
     1
102
RTVSPropertyOp17
 70
     1
102
RTVSPropertyOp18
 70
     1
102
RTVSPropertyOp19
 70
     1
102
RTVSPropertyOp20
 70
     1
102
RTVSPropertyOp21
 70
     1
102
RTVSPropertyOp22
 70
     1
102
RTVSPropertyOp23
 70
     1
102
RTVSPropertyOp24
 70
     1
102
RTVSPropertyOp25
 70
     1
102
RTVSPropertyOp26
 70
     1
102
RTVSPropertyOp27
 70
     1
102
RTVSPropertyOp28
 70
     1
102
RTVSPropertyOp29
 70
     1
102
RTVSPropertyOp30
 70
     1
102
RTVSPropertyOp31
 70
     1
102
RTVSPropertyOp32
 70
     1
  0
XRECORD
  5
270B
102
{ACAD_REACTORS
330
270A
102
}
330
270A
100
AcDbXrecord
280
     1
102
RTVSPropertyOp0
 70
     1
102
RTVSPropertyOp1
 70
     1
102
RTVSPropertyOp2
 70
     1
102
RTVSPropertyOp3
 70
     1
102
RTVSPropertyOp4
 70
     1
102
RTVSPropertyOp5
 70
     1
102
RTVSPropertyOp6
 70
     1
102
RTVSPropertyOp7
 70
     1
102
RTVSPropertyOp8
 70
     1
102
RTVSPropertyOp9
 70
     1
102
RTVSPropertyOp10
 70
     1
102
RTVSPropertyOp11
 70
     1
102
RTVSPropertyOp12
 70
     1
102
RTVSPropertyOp13
 70
     1
102
RTVSPropertyOp14
 70
     1
102
RTVSPropertyOp15
 70
     1
102
RTVSPropertyOp16
 70
     1
102
RTVSPropertyOp17
 70
     1
102
RTVSPropertyOp18
 70
     1
102
RTVSPropertyOp19
 70
     1
102
RTVSPropertyOp20
 70
     1
102
RTVSPropertyOp21
 70
     1
102
RTVSPropertyOp22
 70
     1
102
RTVSPropertyOp23
 70
     1
102
RTVSPropertyOp24
 70
     1
102
RTVSPropertyOp25
 70
     1
102
RTVSPropertyOp26
 70
     1
102
RTVSPropertyOp27
 70
     1
102
RTVSPropertyOp28
 70
     1
102
RTVSPropertyOp29
 70
     1
102
RTVSPropertyOp30
 70
     1
102
RTVSPropertyOp31
 70
     1
102
RTVSPropertyOp32
 70
     1
  0
XRECORD
  5
2707
102
{ACAD_REACTORS
330
2706
102
}
330
2706
100
AcDbXrecord
280
     1
102
RTVSPropertyOp0
 70
     1
102
RTVSPropertyOp1
 70
     1
102
RTVSPropertyOp2
 70
     1
102
RTVSPropertyOp3
 70
     1
102
RTVSPropertyOp4
 70
     1
102
RTVSPropertyOp5
 70
     1
102
RTVSPropertyOp6
 70
     1
102
RTVSPropertyOp7
 70
     1
102
RTVSPropertyOp8
 70
     1
102
RTVSPropertyOp9
 70
     1
102
RTVSPropertyOp10
 70
     1
102
RTVSPropertyOp11
 70
     1
102
RTVSPropertyOp12
 70
     1
102
RTVSPropertyOp13
 70
     1
102
RTVSPropertyOp14
 70
     1
102
RTVSPropertyOp15
 70
     1
102
RTVSPropertyOp16
 70
     1
102
RTVSPropertyOp17
 70
     1
102
RTVSPropertyOp18
 70
     1
102
RTVSPropertyOp19
 70
     1
102
RTVSPropertyOp20
 70
     1
102
RTVSPropertyOp21
 70
     1
102
RTVSPropertyOp22
 70
     1
102
RTVSPropertyOp23
 70
     1
102
RTVSPropertyOp24
 70
     1
102
RTVSPropertyOp25
 70
     1
102
RTVSPropertyOp26
 70
     1
102
RTVSPropertyOp27
 70
     1
102
RTVSPropertyOp28
 70
     1
102
RTVSPropertyOp29
 70
     1
102
RTVSPropertyOp30
 70
     1
102
RTVSPropertyOp31
 70
     1
102
RTVSPropertyOp32
 70
     1
  0
XRECORD
  5
2715
102
{ACAD_REACTORS
330
2714
102
}
330
2714
100
AcDbXrecord
280
     1
102
RTVSPropertyOp0
 70
     1
102
RTVSPropertyOp1
 70
     1
102
RTVSPropertyOp2
 70
     1
102
RTVSPropertyOp3
 70
     1
102
RTVSPropertyOp4
 70
     1
102
RTVSPropertyOp5
 70
     1
102
RTVSPropertyOp6
 70
     1
102
RTVSPropertyOp7
 70
     1
102
RTVSPropertyOp8
 70
     1
102
RTVSPropertyOp9
 70
     1
102
RTVSPropertyOp10
 70
     1
102
RTVSPropertyOp11
 70
     1
102
RTVSPropertyOp12
 70
     1
102
RTVSPropertyOp13
 70
     1
102
RTVSPropertyOp14
 70
     1
102
RTVSPropertyOp15
 70
     1
102
RTVSPropertyOp16
 70
     1
102
RTVSPropertyOp17
 70
     1
102
RTVSPropertyOp18
 70
     1
102
RTVSPropertyOp19
 70
     1
102
RTVSPropertyOp20
 70
     1
102
RTVSPropertyOp21
 70
     1
102
RTVSPropertyOp22
 70
     1
102
RTVSPropertyOp23
 70
     1
102
RTVSPropertyOp24
 70
     1
102
RTVSPropertyOp25
 70
     1
102
RTVSPropertyOp26
 70
     1
102
RTVSPropertyOp27
 70
     1
102
RTVSPropertyOp28
 70
     1
102
RTVSPropertyOp29
 70
     1
102
RTVSPropertyOp30
 70
     1
102
RTVSPropertyOp31
 70
     1
102
RTVSPropertyOp32
 70
     1
  0
XRECORD
  5
271D
102
{ACAD_REACTORS
330
271C
102
}
330
271C
100
AcDbXrecord
280
     1
102
RTVSPropertyOp0
 70
     1
102
RTVSPropertyOp1
 70
     1
102
RTVSPropertyOp2
 70
     1
102
RTVSPropertyOp3
 70
     1
102
RTVSPropertyOp4
 70
     1
102
RTVSPropertyOp5
 70
     1
102
RTVSPropertyOp6
 70
     1
102
RTVSPropertyOp7
 70
     1
102
RTVSPropertyOp8
 70
     1
102
RTVSPropertyOp9
 70
     1
102
RTVSPropertyOp10
 70
     1
102
RTVSPropertyOp11
 70
     1
102
RTVSPropertyOp12
 70
     1
102
RTVSPropertyOp13
 70
     1
102
RTVSPropertyOp14
 70
     1
102
RTVSPropertyOp15
 70
     1
102
RTVSPropertyOp16
 70
     1
102
RTVSPropertyOp17
 70
     1
102
RTVSPropertyOp18
 70
     1
102
RTVSPropertyOp19
 70
     1
102
RTVSPropertyOp20
 70
     1
102
RTVSPropertyOp21
 70
     1
102
RTVSPropertyOp22
 70
     1
102
RTVSPropertyOp23
 70
     1
102
RTVSPropertyOp24
 70
     1
102
RTVSPropertyOp25
 70
     1
102
RTVSPropertyOp26
 70
     1
102
RTVSPropertyOp27
 70
     1
102
RTVSPropertyOp28
 70
     1
102
RTVSPropertyOp29
 70
     1
102
RTVSPropertyOp30
 70
     1
102
RTVSPropertyOp31
 70
     1
102
RTVSPropertyOp32
 70
     1
  0
XRECORD
  5
270F
102
{ACAD_REACTORS
330
270E
102
}
330
270E
100
AcDbXrecord
280
     1
102
RTVSPropertyOp0
 70
     1
102
RTVSPropertyOp1
 70
     1
102
RTVSPropertyOp2
 70
     1
102
RTVSPropertyOp3
 70
     1
102
RTVSPropertyOp4
 70
     1
102
RTVSPropertyOp5
 70
     1
102
RTVSPropertyOp6
 70
     1
102
RTVSPropertyOp7
 70
     1
102
RTVSPropertyOp8
 70
     1
102
RTVSPropertyOp9
 70
     1
102
RTVSPropertyOp10
 70
     1
102
RTVSPropertyOp11
 70
     1
102
RTVSPropertyOp12
 70
     1
102
RTVSPropertyOp13
 70
     1
102
RTVSPropertyOp14
 70
     1
102
RTVSPropertyOp15
 70
     1
102
RTVSPropertyOp16
 70
     1
102
RTVSPropertyOp17
 70
     1
102
RTVSPropertyOp18
 70
     1
102
RTVSPropertyOp19
 70
     1
102
RTVSPropertyOp20
 70
     1
102
RTVSPropertyOp21
 70
     1
102
RTVSPropertyOp22
 70
     1
102
RTVSPropertyOp23
 70
     1
102
RTVSPropertyOp24
 70
     1
102
RTVSPropertyOp25
 70
     1
102
RTVSPropertyOp26
 70
     1
102
RTVSPropertyOp27
 70
     1
102
RTVSPropertyOp28
 70
     1
102
RTVSPropertyOp29
 70
     1
102
RTVSPropertyOp30
 70
     1
102
RTVSPropertyOp31
 70
     1
102
RTVSPropertyOp32
 70
     1
  0
XRECORD
  5
2713
102
{ACAD_REACTORS
330
2712
102
}
330
2712
100
AcDbXrecord
280
     1
102
RTVSPropertyOp0
 70
     1
102
RTVSPropertyOp1
 70
     1
102
RTVSPropertyOp2
 70
     1
102
RTVSPropertyOp3
 70
     1
102
RTVSPropertyOp4
 70
     1
102
RTVSPropertyOp5
 70
     1
102
RTVSPropertyOp6
 70
     1
102
RTVSPropertyOp7
 70
     1
102
RTVSPropertyOp8
 70
     1
102
RTVSPropertyOp9
 70
     1
102
RTVSPropertyOp10
 70
     1
102
RTVSPropertyOp11
 70
     1
102
RTVSPropertyOp12
 70
     1
102
RTVSPropertyOp13
 70
     1
102
RTVSPropertyOp14
 70
     1
102
RTVSPropertyOp15
 70
     1
102
RTVSPropertyOp16
 70
     1
102
RTVSPropertyOp17
 70
     1
102
RTVSPropertyOp18
 70
     1
102
RTVSPropertyOp19
 70
     1
102
RTVSPropertyOp20
 70
     1
102
RTVSPropertyOp21
 70
     1
102
RTVSPropertyOp22
 70
     1
102
RTVSPropertyOp23
 70
     1
102
RTVSPropertyOp24
 70
     1
102
RTVSPropertyOp25
 70
     1
102
RTVSPropertyOp26
 70
     1
102
RTVSPropertyOp27
 70
     1
102
RTVSPropertyOp28
 70
     1
102
RTVSPropertyOp29
 70
     1
102
RTVSPropertyOp30
 70
     1
102
RTVSPropertyOp31
 70
     1
102
RTVSPropertyOp32
 70
     1
  0
XRECORD
  5
2731
102
{ACAD_REACTORS
330
2730
102
}
330
2730
100
AcDbXrecord
280
     1
102
RTVSPropertyOp0
 70
     0
102
RTVSPropertyOp1
 70
     0
102
RTVSPropertyOp2
 70
     0
102
RTVSPropertyOp3
 70
     0
102
RTVSPropertyOp4
 70
     0
102
RTVSPropertyOp5
 70
     0
102
RTVSPropertyOp6
 70
     0
102
RTVSPropertyOp7
 70
     0
102
RTVSPropertyOp8
 70
     0
102
RTVSPropertyOp9
 70
     0
102
RTVSPropertyOp10
 70
     0
102
RTVSPropertyOp11
 70
     0
102
RTVSPropertyOp12
 70
     0
102
RTVSPropertyOp13
 70
     0
102
RTVSPropertyOp14
 70
     2
102
RTVSPropertyOp15
 70
     0
102
RTVSPropertyOp16
 70
     0
102
RTVSPropertyOp17
 70
     0
102
RTVSPropertyOp18
 70
     0
102
RTVSPropertyOp19
 70
     0
102
RTVSPropertyOp20
 70
     0
102
RTVSPropertyOp21
 70
     0
102
RTVSPropertyOp22
 70
     0
102
RTVSPropertyOp23
 70
     0
102
RTVSPropertyOp24
 70
     0
102
RTVSPropertyOp25
 70
     0
102
RTVSPropertyOp26
 70
     0
102
RTVSPropertyOp27
 70
     0
102
RTVSPropertyOp28
 70
     1
102
RTVSPropertyOp29
 70
     1
102
RTVSPropertyOp30
 70
     1
102
RTVSPropertyOp31
 70
     1
102
RTVSPropertyOp32
 70
     1
  0
XRECORD
  5
271B
102
{ACAD_REACTORS
330
271A
102
}
330
271A
100
AcDbXrecord
280
     1
102
RTVSPropertyOp0
 70
     1
102
RTVSPropertyOp1
 70
     1
102
RTVSPropertyOp2
 70
     1
102
RTVSPropertyOp3
 70
     1
102
RTVSPropertyOp4
 70
     1
102
RTVSPropertyOp5
 70
     1
102
RTVSPropertyOp6
 70
     1
102
RTVSPropertyOp7
 70
     1
102
RTVSPropertyOp8
 70
     1
102
RTVSPropertyOp9
 70
     1
102
RTVSPropertyOp10
 70
     1
102
RTVSPropertyOp11
 70
     1
102
RTVSPropertyOp12
 70
     1
102
RTVSPropertyOp13
 70
     1
102
RTVSPropertyOp14
 70
     1
102
RTVSPropertyOp15
 70
     1
102
RTVSPropertyOp16
 70
     1
102
RTVSPropertyOp17
 70
     1
102
RTVSPropertyOp18
 70
     1
102
RTVSPropertyOp19
 70
     1
102
RTVSPropertyOp20
 70
     1
102
RTVSPropertyOp21
 70
     1
102
RTVSPropertyOp22
 70
     1
102
RTVSPropertyOp23
 70
     1
102
RTVSPropertyOp24
 70
     1
102
RTVSPropertyOp25
 70
     1
102
RTVSPropertyOp26
 70
     1
102
RTVSPropertyOp27
 70
     1
102
RTVSPropertyOp28
 70
     1
102
RTVSPropertyOp29
 70
     1
102
RTVSPropertyOp30
 70
     1
102
RTVSPropertyOp31
 70
     1
102
RTVSPropertyOp32
 70
     1
  0
XRECORD
  5
26FF
102
{ACAD_REACTORS
330
26FE
102
}
330
26FE
100
AcDbXrecord
280
     1
102
RTVSPropertyOp0
 70
     1
102
RTVSPropertyOp1
 70
     1
102
RTVSPropertyOp2
 70
     1
102
RTVSPropertyOp3
 70
     1
102
RTVSPropertyOp4
 70
     1
102
RTVSPropertyOp5
 70
     1
102
RTVSPropertyOp6
 70
     1
102
RTVSPropertyOp7
 70
     1
102
RTVSPropertyOp8
 70
     1
102
RTVSPropertyOp9
 70
     1
102
RTVSPropertyOp10
 70
     1
102
RTVSPropertyOp11
 70
     1
102
RTVSPropertyOp12
 70
     1
102
RTVSPropertyOp13
 70
     1
102
RTVSPropertyOp14
 70
     1
102
RTVSPropertyOp15
 70
     1
102
RTVSPropertyOp16
 70
     1
102
RTVSPropertyOp17
 70
     1
102
RTVSPropertyOp18
 70
     1
102
RTVSPropertyOp19
 70
     1
102
RTVSPropertyOp20
 70
     1
102
RTVSPropertyOp21
 70
     1
102
RTVSPropertyOp22
 70
     1
102
RTVSPropertyOp23
 70
     1
102
RTVSPropertyOp24
 70
     1
102
RTVSPropertyOp25
 70
     1
102
RTVSPropertyOp26
 70
     1
102
RTVSPropertyOp27
 70
     1
102
RTVSPropertyOp28
 70
     1
102
RTVSPropertyOp29
 70
     1
102
RTVSPropertyOp30
 70
     1
102
RTVSPropertyOp31
 70
     1
102
RTVSPropertyOp32
 70
     1
  0
XRECORD
  5
2701
102
{ACAD_REACTORS
330
2700
102
}
330
2700
100
AcDbXrecord
280
     1
102
RTVSPropertyOp0
 70
     1
102
RTVSPropertyOp1
 70
     1
102
RTVSPropertyOp2
 70
     1
102
RTVSPropertyOp3
 70
     1
102
RTVSPropertyOp4
 70
     1
102
RTVSPropertyOp5
 70
     1
102
RTVSPropertyOp6
 70
     1
102
RTVSPropertyOp7
 70
     1
102
RTVSPropertyOp8
 70
     1
102
RTVSPropertyOp9
 70
     1
102
RTVSPropertyOp10
 70
     1
102
RTVSPropertyOp11
 70
     1
102
RTVSPropertyOp12
 70
     1
102
RTVSPropertyOp13
 70
     1
102
RTVSPropertyOp14
 70
     1
102
RTVSPropertyOp15
 70
     1
102
RTVSPropertyOp16
 70
     1
102
RTVSPropertyOp17
 70
     1
102
RTVSPropertyOp18
 70
     1
102
RTVSPropertyOp19
 70
     1
102
RTVSPropertyOp20
 70
     1
102
RTVSPropertyOp21
 70
     1
102
RTVSPropertyOp22
 70
     1
102
RTVSPropertyOp23
 70
     1
102
RTVSPropertyOp24
 70
     1
102
RTVSPropertyOp25
 70
     1
102
RTVSPropertyOp26
 70
     1
102
RTVSPropertyOp27
 70
     1
102
RTVSPropertyOp28
 70
     1
102
RTVSPropertyOp29
 70
     1
102
RTVSPropertyOp30
 70
     1
102
RTVSPropertyOp31
 70
     1
102
RTVSPropertyOp32
 70
     1
  0
XRECORD
  5
2703
102
{ACAD_REACTORS
330
2702
102
}
330
2702
100
AcDbXrecord
280
     1
102
RTVSPropertyOp0
 70
     1
102
RTVSPropertyOp1
 70
     1
102
RTVSPropertyOp2
 70
     1
102
RTVSPropertyOp3
 70
     1
102
RTVSPropertyOp4
 70
     1
102
RTVSPropertyOp5
 70
     1
102
RTVSPropertyOp6
 70
     1
102
RTVSPropertyOp7
 70
     1
102
RTVSPropertyOp8
 70
     1
102
RTVSPropertyOp9
 70
     1
102
RTVSPropertyOp10
 70
     1
102
RTVSPropertyOp11
 70
     1
102
RTVSPropertyOp12
 70
     1
102
RTVSPropertyOp13
 70
     1
102
RTVSPropertyOp14
 70
     1
102
RTVSPropertyOp15
 70
     1
102
RTVSPropertyOp16
 70
     1
102
RTVSPropertyOp17
 70
     1
102
RTVSPropertyOp18
 70
     1
102
RTVSPropertyOp19
 70
     1
102
RTVSPropertyOp20
 70
     1
102
RTVSPropertyOp21
 70
     1
102
RTVSPropertyOp22
 70
     1
102
RTVSPropertyOp23
 70
     1
102
RTVSPropertyOp24
 70
     1
102
RTVSPropertyOp25
 70
     1
102
RTVSPropertyOp26
 70
     1
102
RTVSPropertyOp27
 70
     1
102
RTVSPropertyOp28
 70
     1
102
RTVSPropertyOp29
 70
     1
102
RTVSPropertyOp30
 70
     1
102
RTVSPropertyOp31
 70
     1
102
RTVSPropertyOp32
 70
     1
  0
XRECORD
  5
2705
102
{ACAD_REACTORS
330
2704
102
}
330
2704
100
AcDbXrecord
280
     1
102
RTVSPropertyOp0
 70
     1
102
RTVSPropertyOp1
 70
     1
102
RTVSPropertyOp2
 70
     1
102
RTVSPropertyOp3
 70
     1
102
RTVSPropertyOp4
 70
     1
102
RTVSPropertyOp5
 70
     1
102
RTVSPropertyOp6
 70
     1
102
RTVSPropertyOp7
 70
     1
102
RTVSPropertyOp8
 70
     1
102
RTVSPropertyOp9
 70
     1
102
RTVSPropertyOp10
 70
     1
102
RTVSPropertyOp11
 70
     1
102
RTVSPropertyOp12
 70
     1
102
RTVSPropertyOp13
 70
     1
102
RTVSPropertyOp14
 70
     1
102
RTVSPropertyOp15
 70
     1
102
RTVSPropertyOp16
 70
     1
102
RTVSPropertyOp17
 70
     1
102
RTVSPropertyOp18
 70
     1
102
RTVSPropertyOp19
 70
     1
102
RTVSPropertyOp20
 70
     1
102
RTVSPropertyOp21
 70
     1
102
RTVSPropertyOp22
 70
     1
102
RTVSPropertyOp23
 70
     1
102
RTVSPropertyOp24
 70
     1
102
RTVSPropertyOp25
 70
     1
102
RTVSPropertyOp26
 70
     1
102
RTVSPropertyOp27
 70
     1
102
RTVSPropertyOp28
 70
     1
102
RTVSPropertyOp29
 70
     1
102
RTVSPropertyOp30
 70
     1
102
RTVSPropertyOp31
 70
     1
102
RTVSPropertyOp32
 70
     1
  0
XRECORD
  5
2721
102
{ACAD_REACTORS
330
2720
102
}
330
2720
100
AcDbXrecord
280
     1
102
RTVSPropertyOp0
 70
     1
102
RTVSPropertyOp1
 70
     1
102
RTVSPropertyOp2
 70
     1
102
RTVSPropertyOp3
 70
     1
102
RTVSPropertyOp4
 70
     1
102
RTVSPropertyOp5
 70
     1
102
RTVSPropertyOp6
 70
     1
102
RTVSPropertyOp7
 70
     1
102
RTVSPropertyOp8
 70
     1
102
RTVSPropertyOp9
 70
     1
102
RTVSPropertyOp10
 70
     1
102
RTVSPropertyOp11
 70
     1
102
RTVSPropertyOp12
 70
     1
102
RTVSPropertyOp13
 70
     1
102
RTVSPropertyOp14
 70
     1
102
RTVSPropertyOp15
 70
     1
102
RTVSPropertyOp16
 70
     1
102
RTVSPropertyOp17
 70
     1
102
RTVSPropertyOp18
 70
     1
102
RTVSPropertyOp19
 70
     1
102
RTVSPropertyOp20
 70
     1
102
RTVSPropertyOp21
 70
     1
102
RTVSPropertyOp22
 70
     1
102
RTVSPropertyOp23
 70
     1
102
RTVSPropertyOp24
 70
     1
102
RTVSPropertyOp25
 70
     1
102
RTVSPropertyOp26
 70
     1
102
RTVSPropertyOp27
 70
     1
102
RTVSPropertyOp28
 70
     1
102
RTVSPropertyOp29
 70
     1
102
RTVSPropertyOp30
 70
     1
102
RTVSPropertyOp31
 70
     1
102
RTVSPropertyOp32
 70
     1
  0
XRECORD
  5
272D
102
{ACAD_REACTORS
330
272C
102
}
330
272C
100
AcDbXrecord
280
     1
102
RTVSPropertyOp0
 70
     0
102
RTVSPropertyOp1
 70
     0
102
RTVSPropertyOp2
 70
     0
102
RTVSPropertyOp3
 70
     0
102
RTVSPropertyOp4
 70
     0
102
RTVSPropertyOp5
 70
     0
102
RTVSPropertyOp6
 70
     0
102
RTVSPropertyOp7
 70
     0
102
RTVSPropertyOp8
 70
     0
102
RTVSPropertyOp9
 70
     0
102
RTVSPropertyOp10
 70
     0
102
RTVSPropertyOp11
 70
     0
102
RTVSPropertyOp12
 70
     0
102
RTVSPropertyOp13
 70
     0
102
RTVSPropertyOp14
 70
     2
102
RTVSPropertyOp15
 70
     0
102
RTVSPropertyOp16
 70
     0
102
RTVSPropertyOp17
 70
     0
102
RTVSPropertyOp18
 70
     0
102
RTVSPropertyOp19
 70
     0
102
RTVSPropertyOp20
 70
     0
102
RTVSPropertyOp21
 70
     0
102
RTVSPropertyOp22
 70
     0
102
RTVSPropertyOp23
 70
     0
102
RTVSPropertyOp24
 70
     0
102
RTVSPropertyOp25
 70
     0
102
RTVSPropertyOp26
 70
     0
102
RTVSPropertyOp27
 70
     0
102
RTVSPropertyOp28
 70
     1
102
RTVSPropertyOp29
 70
     1
102
RTVSPropertyOp30
 70
     1
102
RTVSPropertyOp31
 70
     1
102
RTVSPropertyOp32
 70
     1
  0
XRECORD
  5
2719
102
{ACAD_REACTORS
330
2718
102
}
330
2718
100
AcDbXrecord
280
     1
102
RTVSPropertyOp0
 70
     1
102
RTVSPropertyOp1
 70
     1
102
RTVSPropertyOp2
 70
     1
102
RTVSPropertyOp3
 70
     1
102
RTVSPropertyOp4
 70
     1
102
RTVSPropertyOp5
 70
     1
102
RTVSPropertyOp6
 70
     1
102
RTVSPropertyOp7
 70
     1
102
RTVSPropertyOp8
 70
     1
102
RTVSPropertyOp9
 70
     1
102
RTVSPropertyOp10
 70
     1
102
RTVSPropertyOp11
 70
     1
102
RTVSPropertyOp12
 70
     1
102
RTVSPropertyOp13
 70
     1
102
RTVSPropertyOp14
 70
     1
102
RTVSPropertyOp15
 70
     1
102
RTVSPropertyOp16
 70
     1
102
RTVSPropertyOp17
 70
     1
102
RTVSPropertyOp18
 70
     1
102
RTVSPropertyOp19
 70
     1
102
RTVSPropertyOp20
 70
     1
102
RTVSPropertyOp21
 70
     1
102
RTVSPropertyOp22
 70
     1
102
RTVSPropertyOp23
 70
     1
102
RTVSPropertyOp24
 70
     1
102
RTVSPropertyOp25
 70
     1
102
RTVSPropertyOp26
 70
     1
102
RTVSPropertyOp27
 70
     1
102
RTVSPropertyOp28
 70
     1
102
RTVSPropertyOp29
 70
     1
102
RTVSPropertyOp30
 70
     1
102
RTVSPropertyOp31
 70
     1
102
RTVSPropertyOp32
 70
     1
  0
XRECORD
  5
272F
102
{ACAD_REACTORS
330
272E
102
}
330
272E
100
AcDbXrecord
280
     1
102
RTVSPropertyOp0
 70
     0
102
RTVSPropertyOp1
 70
     0
102
RTVSPropertyOp2
 70
     0
102
RTVSPropertyOp3
 70
     0
102
RTVSPropertyOp4
 70
     0
102
RTVSPropertyOp5
 70
     0
102
RTVSPropertyOp6
 70
     0
102
RTVSPropertyOp7
 70
     0
102
RTVSPropertyOp8
 70
     0
102
RTVSPropertyOp9
 70
     0
102
RTVSPropertyOp10
 70
     0
102
RTVSPropertyOp11
 70
     0
102
RTVSPropertyOp12
 70
     0
102
RTVSPropertyOp13
 70
     0
102
RTVSPropertyOp14
 70
     2
102
RTVSPropertyOp15
 70
     0
102
RTVSPropertyOp16
 70
     0
102
RTVSPropertyOp17
 70
     0
102
RTVSPropertyOp18
 70
     0
102
RTVSPropertyOp19
 70
     0
102
RTVSPropertyOp20
 70
     0
102
RTVSPropertyOp21
 70
     0
102
RTVSPropertyOp22
 70
     0
102
RTVSPropertyOp23
 70
     0
102
RTVSPropertyOp24
 70
     0
102
RTVSPropertyOp25
 70
     0
102
RTVSPropertyOp26
 70
     0
102
RTVSPropertyOp27
 70
     0
102
RTVSPropertyOp28
 70
     1
102
RTVSPropertyOp29
 70
     1
102
RTVSPropertyOp30
 70
     1
102
RTVSPropertyOp31
 70
     1
102
RTVSPropertyOp32
 70
     1
  0
XRECORD
  5
2711
102
{ACAD_REACTORS
330
2710
102
}
330
2710
100
AcDbXrecord
280
     1
102
RTVSPropertyOp0
 70
     1
102
RTVSPropertyOp1
 70
     1
102
RTVSPropertyOp2
 70
     1
102
RTVSPropertyOp3
 70
     1
102
RTVSPropertyOp4
 70
     1
102
RTVSPropertyOp5
 70
     1
102
RTVSPropertyOp6
 70
     1
102
RTVSPropertyOp7
 70
     1
102
RTVSPropertyOp8
 70
     1
102
RTVSPropertyOp9
 70
     1
102
RTVSPropertyOp10
 70
     1
102
RTVSPropertyOp11
 70
     1
102
RTVSPropertyOp12
 70
     1
102
RTVSPropertyOp13
 70
     1
102
RTVSPropertyOp14
 70
     1
102
RTVSPropertyOp15
 70
     1
102
RTVSPropertyOp16
 70
     1
102
RTVSPropertyOp17
 70
     1
102
RTVSPropertyOp18
 70
     1
102
RTVSPropertyOp19
 70
     1
102
RTVSPropertyOp20
 70
     1
102
RTVSPropertyOp21
 70
     1
102
RTVSPropertyOp22
 70
     1
102
RTVSPropertyOp23
 70
     1
102
RTVSPropertyOp24
 70
     1
102
RTVSPropertyOp25
 70
     1
102
RTVSPropertyOp26
 70
     1
102
RTVSPropertyOp27
 70
     1
102
RTVSPropertyOp28
 70
     1
102
RTVSPropertyOp29
 70
     1
102
RTVSPropertyOp30
 70
     1
102
RTVSPropertyOp31
 70
     1
102
RTVSPropertyOp32
 70
     1
  0
XRECORD
  5
272B
102
{ACAD_REACTORS
330
272A
102
}
330
272A
100
AcDbXrecord
280
     1
102
RTVSPropertyOp0
 70
     1
102
RTVSPropertyOp1
 70
     1
102
RTVSPropertyOp2
 70
     1
102
RTVSPropertyOp3
 70
     1
102
RTVSPropertyOp4
 70
     1
102
RTVSPropertyOp5
 70
     1
102
RTVSPropertyOp6
 70
     1
102
RTVSPropertyOp7
 70
     1
102
RTVSPropertyOp8
 70
     1
102
RTVSPropertyOp9
 70
     1
102
RTVSPropertyOp10
 70
     1
102
RTVSPropertyOp11
 70
     1
102
RTVSPropertyOp12
 70
     1
102
RTVSPropertyOp13
 70
     1
102
RTVSPropertyOp14
 70
     1
102
RTVSPropertyOp15
 70
     1
102
RTVSPropertyOp16
 70
     1
102
RTVSPropertyOp17
 70
     1
102
RTVSPropertyOp18
 70
     1
102
RTVSPropertyOp19
 70
     1
102
RTVSPropertyOp20
 70
     1
102
RTVSPropertyOp21
 70
     1
102
RTVSPropertyOp22
 70
     1
102
RTVSPropertyOp23
 70
     1
102
RTVSPropertyOp24
 70
     1
102
RTVSPropertyOp25
 70
     1
102
RTVSPropertyOp26
 70
     1
102
RTVSPropertyOp27
 70
     1
102
RTVSPropertyOp28
 70
     1
102
RTVSPropertyOp29
 70
     1
102
RTVSPropertyOp30
 70
     1
102
RTVSPropertyOp31
 70
     1
102
RTVSPropertyOp32
 70
     1
  0
XRECORD
  5
2729
102
{ACAD_REACTORS
330
2728
102
}
330
2728
100
AcDbXrecord
280
     1
102
RTVSPropertyOp0
 70
     1
102
RTVSPropertyOp1
 70
     1
102
RTVSPropertyOp2
 70
     1
102
RTVSPropertyOp3
 70
     1
102
RTVSPropertyOp4
 70
     1
102
RTVSPropertyOp5
 70
     1
102
RTVSPropertyOp6
 70
     1
102
RTVSPropertyOp7
 70
     1
102
RTVSPropertyOp8
 70
     1
102
RTVSPropertyOp9
 70
     1
102
RTVSPropertyOp10
 70
     1
102
RTVSPropertyOp11
 70
     1
102
RTVSPropertyOp12
 70
     1
102
RTVSPropertyOp13
 70
     1
102
RTVSPropertyOp14
 70
     1
102
RTVSPropertyOp15
 70
     1
102
RTVSPropertyOp16
 70
     1
102
RTVSPropertyOp17
 70
     1
102
RTVSPropertyOp18
 70
     1
102
RTVSPropertyOp19
 70
     1
102
RTVSPropertyOp20
 70
     1
102
RTVSPropertyOp21
 70
     1
102
RTVSPropertyOp22
 70
     1
102
RTVSPropertyOp23
 70
     1
102
RTVSPropertyOp24
 70
     1
102
RTVSPropertyOp25
 70
     1
102
RTVSPropertyOp26
 70
     1
102
RTVSPropertyOp27
 70
     1
102
RTVSPropertyOp28
 70
     1
102
RTVSPropertyOp29
 70
     1
102
RTVSPropertyOp30
 70
     1
102
RTVSPropertyOp31
 70
     1
102
RTVSPropertyOp32
 70
     1
  0
XRECORD
  5
2723
102
{ACAD_REACTORS
330
2722
102
}
330
2722
100
AcDbXrecord
280
     1
102
RTVSPropertyOp0
 70
     1
102
RTVSPropertyOp1
 70
     1
102
RTVSPropertyOp2
 70
     1
102
RTVSPropertyOp3
 70
     1
102
RTVSPropertyOp4
 70
     1
102
RTVSPropertyOp5
 70
     1
102
RTVSPropertyOp6
 70
     1
102
RTVSPropertyOp7
 70
     1
102
RTVSPropertyOp8
 70
     1
102
RTVSPropertyOp9
 70
     1
102
RTVSPropertyOp10
 70
     1
102
RTVSPropertyOp11
 70
     1
102
RTVSPropertyOp12
 70
     1
102
RTVSPropertyOp13
 70
     1
102
RTVSPropertyOp14
 70
     1
102
RTVSPropertyOp15
 70
     1
102
RTVSPropertyOp16
 70
     1
102
RTVSPropertyOp17
 70
     1
102
RTVSPropertyOp18
 70
     1
102
RTVSPropertyOp19
 70
     1
102
RTVSPropertyOp20
 70
     1
102
RTVSPropertyOp21
 70
     1
102
RTVSPropertyOp22
 70
     1
102
RTVSPropertyOp23
 70
     1
102
RTVSPropertyOp24
 70
     1
102
RTVSPropertyOp25
 70
     1
102
RTVSPropertyOp26
 70
     1
102
RTVSPropertyOp27
 70
     1
102
RTVSPropertyOp28
 70
     1
102
RTVSPropertyOp29
 70
     1
102
RTVSPropertyOp30
 70
     1
102
RTVSPropertyOp31
 70
     1
102
RTVSPropertyOp32
 70
     1
  0
XRECORD
  5
2725
102
{ACAD_REACTORS
330
2724
102
}
330
2724
100
AcDbXrecord
280
     1
102
RTVSPropertyOp0
 70
     1
102
RTVSPropertyOp1
 70
     1
102
RTVSPropertyOp2
 70
     1
102
RTVSPropertyOp3
 70
     1
102
RTVSPropertyOp4
 70
     1
102
RTVSPropertyOp5
 70
     1
102
RTVSPropertyOp6
 70
     1
102
RTVSPropertyOp7
 70
     1
102
RTVSPropertyOp8
 70
     1
102
RTVSPropertyOp9
 70
     1
102
RTVSPropertyOp10
 70
     1
102
RTVSPropertyOp11
 70
     1
102
RTVSPropertyOp12
 70
     1
102
RTVSPropertyOp13
 70
     1
102
RTVSPropertyOp14
 70
     1
102
RTVSPropertyOp15
 70
     1
102
RTVSPropertyOp16
 70
     1
102
RTVSPropertyOp17
 70
     1
102
RTVSPropertyOp18
 70
     1
102
RTVSPropertyOp19
 70
     1
102
RTVSPropertyOp20
 70
     1
102
RTVSPropertyOp21
 70
     1
102
RTVSPropertyOp22
 70
     1
102
RTVSPropertyOp23
 70
     1
102
RTVSPropertyOp24
 70
     1
102
RTVSPropertyOp25
 70
     1
102
RTVSPropertyOp26
 70
     1
102
RTVSPropertyOp27
 70
     1
102
RTVSPropertyOp28
 70
     1
102
RTVSPropertyOp29
 70
     1
102
RTVSPropertyOp30
 70
     1
102
RTVSPropertyOp31
 70
     1
102
RTVSPropertyOp32
 70
     1
  0
XRECORD
  5
2717
102
{ACAD_REACTORS
330
2716
102
}
330
2716
100
AcDbXrecord
280
     1
102
RTVSPropertyOp0
 70
     1
102
RTVSPropertyOp1
 70
     1
102
RTVSPropertyOp2
 70
     1
102
RTVSPropertyOp3
 70
     1
102
RTVSPropertyOp4
 70
     1
102
RTVSPropertyOp5
 70
     1
102
RTVSPropertyOp6
 70
     1
102
RTVSPropertyOp7
 70
     1
102
RTVSPropertyOp8
 70
     1
102
RTVSPropertyOp9
 70
     1
102
RTVSPropertyOp10
 70
     1
102
RTVSPropertyOp11
 70
     1
102
RTVSPropertyOp12
 70
     1
102
RTVSPropertyOp13
 70
     1
102
RTVSPropertyOp14
 70
     1
102
RTVSPropertyOp15
 70
     1
102
RTVSPropertyOp16
 70
     1
102
RTVSPropertyOp17
 70
     1
102
RTVSPropertyOp18
 70
     1
102
RTVSPropertyOp19
 70
     1
102
RTVSPropertyOp20
 70
     1
102
RTVSPropertyOp21
 70
     1
102
RTVSPropertyOp22
 70
     1
102
RTVSPropertyOp23
 70
     1
102
RTVSPropertyOp24
 70
     1
102
RTVSPropertyOp25
 70
     1
102
RTVSPropertyOp26
 70
     1
102
RTVSPropertyOp27
 70
     1
102
RTVSPropertyOp28
 70
     1
102
RTVSPropertyOp29
 70
     1
102
RTVSPropertyOp30
 70
     1
102
RTVSPropertyOp31
 70
     1
102
RTVSPropertyOp32
 70
     1
  0
XRECORD
  5
271F
102
{ACAD_REACTORS
330
271E
102
}
330
271E
100
AcDbXrecord
280
     1
102
RTVSPropertyOp0
 70
     1
102
RTVSPropertyOp1
 70
     1
102
RTVSPropertyOp2
 70
     1
102
RTVSPropertyOp3
 70
     1
102
RTVSPropertyOp4
 70
     1
102
RTVSPropertyOp5
 70
     1
102
RTVSPropertyOp6
 70
     1
102
RTVSPropertyOp7
 70
     1
102
RTVSPropertyOp8
 70
     1
102
RTVSPropertyOp9
 70
     1
102
RTVSPropertyOp10
 70
     1
102
RTVSPropertyOp11
 70
     1
102
RTVSPropertyOp12
 70
     1
102
RTVSPropertyOp13
 70
     1
102
RTVSPropertyOp14
 70
     1
102
RTVSPropertyOp15
 70
     1
102
RTVSPropertyOp16
 70
     1
102
RTVSPropertyOp17
 70
     1
102
RTVSPropertyOp18
 70
     1
102
RTVSPropertyOp19
 70
     1
102
RTVSPropertyOp20
 70
     1
102
RTVSPropertyOp21
 70
     1
102
RTVSPropertyOp22
 70
     1
102
RTVSPropertyOp23
 70
     1
102
RTVSPropertyOp24
 70
     1
102
RTVSPropertyOp25
 70
     1
102
RTVSPropertyOp26
 70
     1
102
RTVSPropertyOp27
 70
     1
102
RTVSPropertyOp28
 70
     1
102
RTVSPropertyOp29
 70
     1
102
RTVSPropertyOp30
 70
     1
102
RTVSPropertyOp31
 70
     1
102
RTVSPropertyOp32
 70
     1
  0
XRECORD
  5
2727
102
{ACAD_REACTORS
330
2726
102
}
330
2726
100
AcDbXrecord
280
     1
102
RTVSPropertyOp0
 70
     1
102
RTVSPropertyOp1
 70
     1
102
RTVSPropertyOp2
 70
     1
102
RTVSPropertyOp3
 70
     1
102
RTVSPropertyOp4
 70
     1
102
RTVSPropertyOp5
 70
     1
102
RTVSPropertyOp6
 70
     1
102
RTVSPropertyOp7
 70
     1
102
RTVSPropertyOp8
 70
     1
102
RTVSPropertyOp9
 70
     1
102
RTVSPropertyOp10
 70
     1
102
RTVSPropertyOp11
 70
     1
102
RTVSPropertyOp12
 70
     1
102
RTVSPropertyOp13
 70
     1
102
RTVSPropertyOp14
 70
     1
102
RTVSPropertyOp15
 70
     1
102
RTVSPropertyOp16
 70
     1
102
RTVSPropertyOp17
 70
     1
102
RTVSPropertyOp18
 70
     1
102
RTVSPropertyOp19
 70
     1
102
RTVSPropertyOp20
 70
     1
102
RTVSPropertyOp21
 70
     1
102
RTVSPropertyOp22
 70
     1
102
RTVSPropertyOp23
 70
     1
102
RTVSPropertyOp24
 70
     1
102
RTVSPropertyOp25
 70
     1
102
RTVSPropertyOp26
 70
     1
102
RTVSPropertyOp27
 70
     1
102
RTVSPropertyOp28
 70
     1
102
RTVSPropertyOp29
 70
     1
102
RTVSPropertyOp30
 70
     1
102
RTVSPropertyOp31
 70
     1
102
RTVSPropertyOp32
 70
     1
  0
ENDSEC
  0
EOF
