  0
SECTION
  2
HEADER
  9
$ACADVER
  1
AC1015
  9
$ACADMAINTVER
 70
    20
  9
$DWGCODEPAGE
  3
ANSI_1252
  9
$INSBASE
 10
204.6336936376816
 20
-59.55384410362842
 30
0.0
  9
$EXTMIN
 10
0.0
 20
0.0
 30
0.0
  9
$EXTMAX
 10
49.26945957373391
 20
26.21338692818333
 30
0.0
  9
$LIMMIN
 10
0.0
 20
0.0
  9
$LIMMAX
 10
49.26945957373391
 20
26.21338692818333
  9
$ORTHOMODE
 70
     0
  9
$REGENMODE
 70
     1
  9
$FILLMODE
 70
     1
  9
$QTEXTMODE
 70
     0
  9
$MIRRTEXT
 70
     0
  9
$LTSCALE
 40
1.0
  9
$ATTMODE
 70
     1
  9
$TEXTSIZE
 40
0.375
  9
$TRACEWID
 40
0.01
  9
$TEXTSTYLE
  7
STANDARD
  9
$CLAYER
  8
0
  9
$CELTYPE
  6
BYLAYER
  9
$CECOLOR
 62
   256
  9
$CELTSCALE
 40
1.0
  9
$DISPSILH
 70
     0
  9
$DIMSCALE
 40
1.0
  9
$DIMASZ
 40
0.18
  9
$DIMEXO
 40
0.0625
  9
$DIMDLI
 40
0.38
  9
$DIMRND
 40
0.0
  9
$DIMDLE
 40
0.0
  9
$DIMEXE
 40
0.18
  9
$DIMTP
 40
0.0
  9
$DIMTM
 40
0.0
  9
$DIMTXT
 40
0.18
  9
$DIMCEN
 40
0.09
  9
$DIMTSZ
 40
0.0
  9
$DIMTOL
 70
     0
  9
$DIMLIM
 70
     0
  9
$DIMTIH
 70
     0
  9
$DIMTOH
 70
     0
  9
$DIMSE1
 70
     0
  9
$DIMSE2
 70
     0
  9
$DIMTAD
 70
     1
  9
$DIMZIN
 70
     0
  9
$DIMBLK
  1

  9
$DIMASO
 70
     1
  9
$DIMSHO
 70
     1
  9
$DIMPOST
  1

  9
$DIMAPOST
  1

  9
$DIMALT
 70
     0
  9
$DIMALTD
 70
     2
  9
$DIMALTF
 40
25.4
  9
$DIMLFAC
 40
1.0
  9
$DIMTOFL
 70
     0
  9
$DIMTVP
 40
0.0
  9
$DIMTIX
 70
     0
  9
$DIMSOXD
 70
     0
  9
$DIMSAH
 70
     0
  9
$DIMBLK1
  1

  9
$DIMBLK2
  1

  9
$DIMSTYLE
  2
Standard
  9
$DIMCLRD
 70
     0
  9
$DIMCLRE
 70
     0
  9
$DIMCLRT
 70
     0
  9
$DIMTFAC
 40
1.0
  9
$DIMGAP
 40
0.09
  9
$DIMJUST
 70
     0
  9
$DIMSD1
 70
     0
  9
$DIMSD2
 70
     0
  9
$DIMTOLJ
 70
     1
  9
$DIMTZIN
 70
     0
  9
$DIMALTZ
 70
     0
  9
$DIMALTTZ
 70
     0
  9
$DIMUPT
 70
     0
  9
$DIMDEC
 70
     4
  9
$DIMTDEC
 70
     4
  9
$DIMALTU
 70
     2
  9
$DIMALTTD
 70
     2
  9
$DIMTXSTY
  7
STANDARD
  9
$DIMAUNIT
 70
     0
  9
$DIMADEC
 70
     0
  9
$DIMALTRND
 40
0.0
  9
$DIMAZIN
 70
     0
  9
$DIMDSEP
 70
    46
  9
$DIMATFIT
 70
     3
  9
$DIMFRAC
 70
     2
  9
$DIMLDRBLK
  1

  9
$DIMLUNIT
 70
     4
  9
$DIMLWD
 70
    -2
  9
$DIMLWE
 70
    -2
  9
$DIMTMOVE
 70
     0
  9
$LUNITS
 70
     2
  9
$LUPREC
 70
     5
  9
$SKETCHINC
 40
0.1
  9
$FILLETRAD
 40
0.031
  9
$AUNITS
 70
     0
  9
$AUPREC
 70
     0
  9
$MENU
  1
ACAD
  9
$ELEVATION
 40
0.0
  9
$PELEVATION
 40
0.0
  9
$THICKNESS
 40
0.0
  9
$LIMCHECK
 70
     0
  9
$CHAMFERA
 40
0.0
  9
$CHAMFERB
 40
0.0
  9
$CHAMFERC
 40
0.0
  9
$CHAMFERD
 40
0.0
  9
$SKPOLY
 70
     0
  9
$TDCREATE
 40
2450361.590484606
  9
$TDUCREATE
 40
2450361.798817940
  9
$TDUPDATE
 40
2457807.411305764
  9
$TDUUPDATE
 40
2457807.619639097
  9
$TDINDWG
 40
1.2360150116
  9
$TDUSRTIMER
 40
1.2360150116
  9
$USRTIMER
 70
     1
  9
$ANGBASE
 50
0.0
  9
$ANGDIR
 70
     0
  9
$PDMODE
 70
     0
  9
$PDSIZE
 40
0.0
  9
$PLINEWID
 40
0.0
  9
$SPLFRAME
 70
     0
  9
$SPLINETYPE
 70
     6
  9
$SPLINESEGS
 70
     8
  9
$HANDSEED
  5
C2A
  9
$SURFTAB1
 70
     6
  9
$SURFTAB2
 70
     6
  9
$SURFTYPE
 70
     6
  9
$SURFU
 70
     6
  9
$SURFV
 70
     6
  9
$UCSBASE
  2

  9
$UCSNAME
  2

  9
$UCSORG
 10
0.0
 20
0.0
 30
0.0
  9
$UCSXDIR
 10
1.0
 20
0.0
 30
0.0
  9
$UCSYDIR
 10
0.0
 20
1.0
 30
0.0
  9
$UCSORTHOREF
  2

  9
$UCSORTHOVIEW
 70
     0
  9
$UCSORGTOP
 10
0.0
 20
0.0
 30
0.0
  9
$UCSORGBOTTOM
 10
0.0
 20
0.0
 30
0.0
  9
$UCSORGLEFT
 10
0.0
 20
0.0
 30
0.0
  9
$UCSORGRIGHT
 10
0.0
 20
0.0
 30
0.0
  9
$UCSORGFRONT
 10
0.0
 20
0.0
 30
0.0
  9
$UCSORGBACK
 10
0.0
 20
0.0
 30
0.0
  9
$PUCSBASE
  2

  9
$PUCSNAME
  2

  9
$PUCSORG
 10
0.0
 20
0.0
 30
0.0
  9
$PUCSXDIR
 10
1.0
 20
0.0
 30
0.0
  9
$PUCSYDIR
 10
0.0
 20
1.0
 30
0.0
  9
$PUCSORTHOREF
  2

  9
$PUCSORTHOVIEW
 70
     0
  9
$PUCSORGTOP
 10
0.0
 20
0.0
 30
0.0
  9
$PUCSORGBOTTOM
 10
0.0
 20
0.0
 30
0.0
  9
$PUCSORGLEFT
 10
0.0
 20
0.0
 30
0.0
  9
$PUCSORGRIGHT
 10
0.0
 20
0.0
 30
0.0
  9
$PUCSORGFRONT
 10
0.0
 20
0.0
 30
0.0
  9
$PUCSORGBACK
 10
0.0
 20
0.0
 30
0.0
  9
$USERI1
 70
  2000
  9
$USERI2
 70
     0
  9
$USERI3
 70
     0
  9
$USERI4
 70
     0
  9
$USERI5
 70
     0
  9
$USERR1
 40
1.0
  9
$USERR2
 40
0.0
  9
$USERR3
 40
0.0
  9
$USERR4
 40
0.0
  9
$USERR5
 40
0.0
  9
$WORLDVIEW
 70
     1
  9
$SHADEDGE
 70
     3
  9
$SHADEDIF
 70
    70
  9
$TILEMODE
 70
     1
  9
$MAXACTVP
 70
    16
  9
$PINSBASE
 10
0.0
 20
0.0
 30
0.0
  9
$PLIMCHECK
 70
     0
  9
$PEXTMIN
 10
1.000000000000000E+20
 20
1.000000000000000E+20
 30
1.000000000000000E+20
  9
$PEXTMAX
 10
-1.000000000000000E+20
 20
-1.000000000000000E+20
 30
-1.000000000000000E+20
  9
$PLIMMIN
 10
0.0
 20
0.0
  9
$PLIMMAX
 10
12.0
 20
9.0
  9
$UNITMODE
 70
     0
  9
$VISRETAIN
 70
     0
  9
$PLINEGEN
 70
     0
  9
$PSLTSCALE
 70
     0
  9
$TREEDEPTH
 70
  3020
  9
$CMLSTYLE
  2
STANDARD
  9
$CMLJUST
 70
     0
  9
$CMLSCALE
 40
1.0
  9
$PROXYGRAPHICS
 70
     1
  9
$MEASUREMENT
 70
     0
  9
$CELWEIGHT
370
    -1
  9
$ENDCAPS
280
     0
  9
$JOINSTYLE
280
     0
  9
$LWDISPLAY
290
     0
  9
$INSUNITS
 70
     0
  9
$HYPERLINKBASE
  1

  9
$STYLESHEET
  1
HP5000N.CTB
  9
$XEDIT
290
     1
  9
$CEPSNTYPE
380
     0
  9
$PSTYLEMODE
290
     1
  9
$FINGERPRINTGUID
  2
{A07CD9FB-3AEE-4EF7-A290-F63C7B7BF9B5}
  9
$VERSIONGUID
  2
{54605537-93A4-47AD-93C3-0DE4BB643B61}
  9
$EXTNAMES
290
     1
  9
$PSVPSCALE
 40
0.0
  9
$OLESTARTUP
290
     0
  0
ENDSEC
  0
SECTION
  2
CLASSES
  0
CLASS
  1
ACDBDICTIONARYWDFLT
  2
AcDbDictionaryWithDefault
  3
ObjectDBX Classes
 90
        0
280
     0
281
     0
  0
CLASS
  1
DICTIONARYVAR
  2
AcDbDictionaryVar
  3
ObjectDBX Classes
 90
        0
280
     0
281
     0
  0
CLASS
  1
ACDBPLACEHOLDER
  2
AcDbPlaceHolder
  3
ObjectDBX Classes
 90
        0
280
     0
281
     0
  0
CLASS
  1
LAYOUT
  2
AcDbLayout
  3
ObjectDBX Classes
 90
        0
280
     0
281
     0
  0
CLASS
  1
TABLESTYLE
  2
AcDbTableStyle
  3
ObjectDBX Classes
 90
     4095
280
     0
281
     0
  0
CLASS
  1
SORTENTSTABLE
  2
AcDbSortentsTable
  3
ObjectDBX Classes
 90
        0
280
     0
281
     0
  0
CLASS
  1
MATERIAL
  2
AcDbMaterial
  3
ObjectDBX Classes
 90
     1153
280
     0
281
     0
  0
CLASS
  1
VISUALSTYLE
  2
AcDbVisualStyle
  3
ObjectDBX Classes
 90
     4095
280
     0
281
     0
  0
CLASS
  1
SCALE
  2
AcDbScale
  3
ObjectDBX Classes
 90
     1153
280
     0
281
     0
  0
CLASS
  1
MLEADERSTYLE
  2
AcDbMLeaderStyle
  3
ACDB_MLEADERSTYLE_CLASS
 90
     4095
280
     0
281
     0
  0
CLASS
  1
CELLSTYLEMAP
  2
AcDbCellStyleMap
  3
ObjectDBX Classes
 90
     1152
280
     0
281
     0
  0
CLASS
  1
EXACXREFPANELOBJECT
  2
ExAcXREFPanelObject
  3
EXAC_ESW
 90
     1025
280
     0
281
     0
  0
CLASS
  1
NPOCOLLECTION
  2
AcDbImpNonPersistentObjectsCollection
  3
ObjectDBX Classes
 90
     1153
280
     0
281
     0
  0
CLASS
  1
FIELD
  2
AcDbField
  3
ObjectDBX Classes
 90
    33920
280
     0
281
     0
  0
CLASS
  1
FIELDLIST
  2
AcDbFieldList
  3
ObjectDBX Classes
 90
     1152
280
     0
281
     0
  0
ENDSEC
  0
SECTION
  2
TABLES
  0
TABLE
  2
VPORT
  5
3C
102
{ACAD_XDICTIONARY
360
334
102
}
330
0
100
AcDbSymbolTable
 70
     1
  0
VPORT
  5
2C8
330
3C
100
AcDbSymbolTableRecord
100
AcDbViewportTableRecord
  2
*Active
 70
     0
 10
0.0
 20
0.0
 11
1.0
 21
1.0
 12
112.1998313497871
 22
15.7779742806577
 13
0.0
 23
0.0
 14
1.0
 24
1.0
 15
0.0
 25
0.0
 16
0.0
 26
0.0
 36
1.0
 17
0.0
 27
0.0
 37
0.0
 40
31.72826857007653
 41
7.235576923076923
 42
50.0
 43
0.0
 44
0.0
 50
0.0
 51
0.0
 71
     0
 72
  1000
 73
     1
 74
     0
 75
     0
 76
     0
 77
     0
 78
     0
281
     0
 65
     1
110
0.0
120
0.0
130
0.0
111
1.0
121
0.0
131
0.0
112
0.0
122
1.0
132
0.0
 79
     0
146
0.0
1001
ACAD_NAV_VCDISPLAY
1070
     3
  0
ENDTAB
  0
TABLE
  2
LTYPE
  5
37
330
0
100
AcDbSymbolTable
 70
     3
  0
LTYPE
  5
38
330
37
100
AcDbSymbolTableRecord
100
AcDbLinetypeTableRecord
  2
BYBLOCK
 70
     0
  3

 72
    65
 73
     0
 40
0.0
  0
LTYPE
  5
39
330
37
100
AcDbSymbolTableRecord
100
AcDbLinetypeTableRecord
  2
BYLAYER
 70
     0
  3

 72
    65
 73
     0
 40
0.0
  0
LTYPE
  5
8
330
37
100
AcDbSymbolTableRecord
100
AcDbLinetypeTableRecord
  2
CONTINUOUS
 70
     0
  3
SOLID LINE
 72
    65
 73
     0
 40
0.0
  0
LTYPE
  5
A61
330
37
100
AcDbSymbolTableRecord
100
AcDbLinetypeTableRecord
  2
DASHED
 70
     0
  3
Dashed __ __ __ __ __ __ __ __ __ __ __ __ __ _
 72
    65
 73
     2
 40
0.75
 49
0.5
 74
     0
 49
-0.25
 74
     0
  0
LTYPE
  5
A62
330
37
100
AcDbSymbolTableRecord
100
AcDbLinetypeTableRecord
  2
DOT
 70
     0
  3
Dot . . . . . . . . . . . . . . . . . . . . . .
 72
    65
 73
     2
 40
0.25
 49
0.0
 74
     0
 49
-0.25
 74
     0
  0
ENDTAB
  0
TABLE
  2
LAYER
  5
14
102
{ACAD_XDICTIONARY
360
15
102
}
330
0
100
AcDbSymbolTable
 70
     9
  0
LAYER
  5
4
102
{ACAD_XDICTIONARY
360
31D
102
}
330
14
100
AcDbSymbolTableRecord
100
AcDbLayerTableRecord
  2
0
 70
     0
 62
     7
  6
CONTINUOUS
370
    -3
390
5
  0
LAYER
  5
5D
330
14
100
AcDbSymbolTableRecord
100
AcDbLayerTableRecord
  2
Defpoints
 70
     0
 62
     7
  6
CONTINUOUS
290
     0
370
    -3
390
5
  0
LAYER
  5
50
102
{ACAD_XDICTIONARY
360
31F
102
}
330
14
100
AcDbSymbolTableRecord
100
AcDbLayerTableRecord
  2
R-SWTS-DET1
 70
     0
 62
     1
  6
CONTINUOUS
370
    -3
390
5
  0
LAYER
  5
55
102
{ACAD_XDICTIONARY
360
321
102
}
330
14
100
AcDbSymbolTableRecord
100
AcDbLayerTableRecord
  2
R-ANNO-DIMS
 70
     0
 62
     3
  6
CONTINUOUS
370
    -3
390
5
  0
LAYER
  5
FC
102
{ACAD_XDICTIONARY
360
323
102
}
330
14
100
AcDbSymbolTableRecord
100
AcDbLayerTableRecord
  2
R-SWTS-DET2
 70
     0
 62
     4
  6
CONTINUOUS
370
    -3
390
5
  0
LAYER
  5
4D
102
{ACAD_XDICTIONARY
360
325
102
}
330
14
100
AcDbSymbolTableRecord
100
AcDbLayerTableRecord
  2
R-SWTS-DET3
 70
     0
 62
     5
  6
CONTINUOUS
370
    -3
390
5
  0
LAYER
  5
4B
102
{ACAD_XDICTIONARY
360
327
102
}
330
14
100
AcDbSymbolTableRecord
100
AcDbLayerTableRecord
  2
PART_NUMBERS
 70
     0
 62
     6
  6
CONTINUOUS
370
    -3
390
5
  0
LAYER
  5
588
330
14
100
AcDbSymbolTableRecord
100
AcDbLayerTableRecord
  2
TEXT
 70
     0
 62
     3
  6
CONTINUOUS
370
    -3
390
5
  0
LAYER
  5
A63
330
14
100
AcDbSymbolTableRecord
100
AcDbLayerTableRecord
  2
Kawneer Logo-English
 70
     0
 62
     7
  6
CONTINUOUS
370
    -3
390
5
1001
AcAecLayerStandard
1000

1000

1001
AcCmTransparency
1071
        0
  0
ENDTAB
  0
TABLE
  2
STYLE
  5
34
330
0
100
AcDbSymbolTable
 70
     1
  0
STYLE
  5
35
330
34
100
AcDbSymbolTableRecord
100
AcDbTextStyleTableRecord
  2
STANDARD
 70
     0
 40
0.0
 41
1.0
 50
0.0
 71
     0
 42
0.375
  3
arial.ttf
  4

1001
ACAD
1000
Arial
1071
       34
  0
ENDTAB
  0
TABLE
  2
VIEW
  5
3A
330
0
100
AcDbSymbolTable
 70
     0
  0
ENDTAB
  0
TABLE
  2
UCS
  5
3B
330
0
100
AcDbSymbolTable
 70
     0
  0
ENDTAB
  0
TABLE
  2
APPID
  5
3E
330
0
100
AcDbSymbolTable
 70
    15
  0
APPID
  5
3F
330
3E
100
AcDbSymbolTableRecord
100
AcDbRegAppTableRecord
  2
ACAD
 70
     0
  0
APPID
  5
3CE
330
3E
100
AcDbSymbolTableRecord
100
AcDbRegAppTableRecord
  2
ACAD_NAV_VCDISPLAY
 70
     0
  0
APPID
  5
A64
330
3E
100
AcDbSymbolTableRecord
100
AcDbRegAppTableRecord
  2
ACAD_EXEMPT_FROM_CAD_STANDARDS
 70
     0
  0
APPID
  5
A65
330
3E
100
AcDbSymbolTableRecord
100
AcDbRegAppTableRecord
  2
GradientColor1ACI
 70
     0
  0
APPID
  5
A66
330
3E
100
AcDbSymbolTableRecord
100
AcDbRegAppTableRecord
  2
GradientColor2ACI
 70
     0
  0
APPID
  5
A67
330
3E
100
AcDbSymbolTableRecord
100
AcDbRegAppTableRecord
  2
ACAD_MLEADERVER
 70
     0
  0
APPID
  5
A68
330
3E
100
AcDbSymbolTableRecord
100
AcDbRegAppTableRecord
  2
ACAD_PSEXT
 70
     0
  0
APPID
  5
A69
330
3E
100
AcDbSymbolTableRecord
100
AcDbRegAppTableRecord
  2
ACAD_DSTYLE_DIMJAG
 70
     0
  0
APPID
  5
A6A
330
3E
100
AcDbSymbolTableRecord
100
AcDbRegAppTableRecord
  2
ACAD_DSTYLE_DIMTALN
 70
     0
  0
APPID
  5
A6B
330
3E
100
AcDbSymbolTableRecord
100
AcDbRegAppTableRecord
  2
ACAD_DSTYLE_DIMBREAK
 70
     0
  0
APPID
  5
A6C
330
3E
100
AcDbSymbolTableRecord
100
AcDbRegAppTableRecord
  2
AcDbDynamicBlockGUID
 70
     0
  0
APPID
  5
A6D
330
3E
100
AcDbSymbolTableRecord
100
AcDbRegAppTableRecord
  2
ACAUTHENVIRON
 70
     0
  0
APPID
  5
A6E
330
3E
100
AcDbSymbolTableRecord
100
AcDbRegAppTableRecord
  2
AcDbDynamicBlockTrueName
 70
     0
  0
APPID
  5
A6F
330
3E
100
AcDbSymbolTableRecord
100
AcDbRegAppTableRecord
  2
AcAecLayerStandard
 70
     0
  0
APPID
  5
A70
330
3E
100
AcDbSymbolTableRecord
100
AcDbRegAppTableRecord
  2
AcCmTransparency
 70
     0
  0
ENDTAB
  0
TABLE
  2
DIMSTYLE
  5
40
330
0
100
AcDbSymbolTable
 70
     2
100
AcDbDimStyleTable
 71
     2
340
41
340
42
  0
DIMSTYLE
105
41
102
{ACAD_REACTORS
330
C2
330
EA
330
9A
330
DD
330
106
330
119
330
143
330
160
330
16D
330
19B
102
}
330
40
100
AcDbSymbolTableRecord
100
AcDbDimStyleTableRecord
  2
Standard
 70
     0
 73
     0
 74
     0
 77
     1
276
     2
277
     4
340
35
  0
DIMSTYLE
105
42
102
{ACAD_REACTORS
330
8E
330
B3
330
82
330
A7
330
187
330
152
330
54
330
66
102
}
330
40
100
AcDbSymbolTableRecord
100
AcDbDimStyleTableRecord
  2
EXT_ON_OFF
 70
     0
 73
     0
 74
     0
 76
     1
 77
     1
276
     2
277
     4
340
35
  0
ENDTAB
  0
TABLE
  2
BLOCK_RECORD
  5
1
330
0
100
AcDbSymbolTable
 70
    19
  0
BLOCK_RECORD
  5
2
330
1
100
AcDbSymbolTableRecord
100
AcDbBlockTableRecord
  2
*MODEL_SPACE
340
A
  0
BLOCK_RECORD
  5
E
330
1
100
AcDbSymbolTableRecord
100
AcDbBlockTableRecord
  2
*PAPER_SPACE
340
11
  0
BLOCK_RECORD
  5
1C2
330
1
100
AcDbSymbolTableRecord
100
AcDbBlockTableRecord
  2
*D0
340
0
  0
BLOCK_RECORD
  5
1CE
330
1
100
AcDbSymbolTableRecord
100
AcDbBlockTableRecord
  2
*D1
340
0
  0
BLOCK_RECORD
  5
1D9
330
1
100
AcDbSymbolTableRecord
100
AcDbBlockTableRecord
  2
*D2
340
0
  0
BLOCK_RECORD
  5
1E5
330
1
100
AcDbSymbolTableRecord
100
AcDbBlockTableRecord
  2
*D3
340
0
  0
BLOCK_RECORD
  5
1F1
330
1
100
AcDbSymbolTableRecord
100
AcDbBlockTableRecord
  2
*D4
340
0
  0
BLOCK_RECORD
  5
1FC
330
1
100
AcDbSymbolTableRecord
100
AcDbBlockTableRecord
  2
*D5
340
0
  0
BLOCK_RECORD
  5
208
330
1
100
AcDbSymbolTableRecord
100
AcDbBlockTableRecord
  2
*D6
340
0
  0
BLOCK_RECORD
  5
215
330
1
100
AcDbSymbolTableRecord
100
AcDbBlockTableRecord
  2
*D7
340
0
  0
BLOCK_RECORD
  5
221
330
1
100
AcDbSymbolTableRecord
100
AcDbBlockTableRecord
  2
*D8
340
0
  0
BLOCK_RECORD
  5
22D
330
1
100
AcDbSymbolTableRecord
100
AcDbBlockTableRecord
  2
*D9
340
0
  0
BLOCK_RECORD
  5
239
330
1
100
AcDbSymbolTableRecord
100
AcDbBlockTableRecord
  2
*D10
340
0
  0
BLOCK_RECORD
  5
245
330
1
100
AcDbSymbolTableRecord
100
AcDbBlockTableRecord
  2
*D11
340
0
  0
BLOCK_RECORD
  5
250
330
1
100
AcDbSymbolTableRecord
100
AcDbBlockTableRecord
  2
*D12
340
0
  0
BLOCK_RECORD
  5
25B
330
1
100
AcDbSymbolTableRecord
100
AcDbBlockTableRecord
  2
*D13
340
0
  0
BLOCK_RECORD
  5
267
330
1
100
AcDbSymbolTableRecord
100
AcDbBlockTableRecord
  2
*D14
340
0
  0
BLOCK_RECORD
  5
272
330
1
100
AcDbSymbolTableRecord
100
AcDbBlockTableRecord
  2
*D15
340
0
  0
BLOCK_RECORD
  5
27D
330
1
100
AcDbSymbolTableRecord
100
AcDbBlockTableRecord
  2
*D16
340
0
  0
BLOCK_RECORD
  5
288
330
1
100
AcDbSymbolTableRecord
100
AcDbBlockTableRecord
  2
*D17
340
0
  0
BLOCK_RECORD
  5
A71
102
{ACAD_XDICTIONARY
360
A7B
102
}
330
1
100
AcDbSymbolTableRecord
100
AcDbBlockTableRecord
  2
Kawneer Logo English
340
0
102
{BLKREFS
331
A7F
102
}
1001
ACAD
1000
DesignCenter Data
1002
{
1070
     1
1070
     1
1002
}
  0
ENDTAB
  0
ENDSEC
  0
SECTION
  2
BLOCKS
  0
BLOCK
  5
3
330
2
100
AcDbEntity
  8
0
100
AcDbBlockBegin
  2
*MODEL_SPACE
 70
     0
 10
0.0
 20
0.0
 30
0.0
  3
*MODEL_SPACE
  1

  0
ENDBLK
  5
9
330
2
100
AcDbEntity
  8
0
100
AcDbBlockEnd
  0
BLOCK
  5
F
330
E
100
AcDbEntity
 67
     1
  8
0
100
AcDbBlockBegin
  2
*PAPER_SPACE
 70
     0
 10
0.0
 20
0.0
 30
0.0
  3
*PAPER_SPACE
  1

  0
ENDBLK
  5
10
330
E
100
AcDbEntity
 67
     1
  8
0
100
AcDbBlockEnd
  0
BLOCK
  5
1CC
330
1C2
100
AcDbEntity
  8
0
100
AcDbBlockBegin
  2
*D0
 70
     1
 10
0.0
 20
0.0
 30
0.0
  3
*D0
  1

  0
LINE
  5
1C3
330
1C2
100
AcDbEntity
  8
R-ANNO-DIMS
 62
     0
370
    -2
100
AcDbLine
 10
35.28697948018248
 20
15.40232868106992
 30
0.0
 11
33.67447948018273
 21
15.40232868106992
 31
0.0
  0
LINE
  5
1C4
330
1C2
100
AcDbEntity
  8
R-ANNO-DIMS
 62
     0
370
    -2
100
AcDbLine
 10
35.2869794801826
 20
17.1523286810698
 30
0.0
 11
33.67447948018273
 21
17.1523286810698
 31
0.0
  0
LINE
  5
1C5
330
1C2
100
AcDbEntity
  8
R-ANNO-DIMS
 62
     0
370
    -2
100
AcDbLine
 10
33.85447948018273
 20
15.58232868106992
 30
0.0
 11
33.85447948018273
 21
16.9723286810698
 31
0.0
  0
SOLID
  5
1C6
330
1C2
100
AcDbEntity
  8
R-ANNO-DIMS
 62
     0
100
AcDbTrace
 10
33.82447948018273
 20
15.58232868106992
 30
0.0
 11
33.88447948018273
 21
15.58232868106992
 31
0.0
 12
33.85447948018273
 22
15.40232868106992
 32
0.0
 13
33.85447948018273
 23
15.40232868106992
 33
0.0
  0
SOLID
  5
1C7
330
1C2
100
AcDbEntity
  8
R-ANNO-DIMS
 62
     0
100
AcDbTrace
 10
33.82447948018273
 20
16.9723286810698
 30
0.0
 11
33.88447948018273
 21
16.9723286810698
 31
0.0
 12
33.85447948018273
 22
17.1523286810698
 32
0.0
 13
33.85447948018273
 23
17.1523286810698
 33
0.0
  0
MTEXT
  5
1C8
330
1C2
100
AcDbEntity
  8
R-ANNO-DIMS
 62
     0
100
AcDbMText
 10
33.67447948018273
 20
16.27732868106986
 30
0.0
 40
0.18
 41
0.0
 71
     5
 72
     1
  1
\A1;1 3/4"
 11
0.0000000000000001
 21
1.0
 31
0.0
 73
     1
 44
1.0
1001
ACAD
1000
MTEXTBEGIN
1070
    73
1070
     1
1070
    44
1040
1.0
1070
    74
1070
     0
1000
MTEXTEND
  0
POINT
  5
1C9
330
1C2
100
AcDbEntity
  8
Defpoints
 62
     0
100
AcDbPoint
 10
35.34947948018248
 20
15.40232868106992
 30
0.0
  0
POINT
  5
1CA
330
1C2
100
AcDbEntity
  8
Defpoints
 62
     0
100
AcDbPoint
 10
35.3494794801826
 20
17.1523286810698
 30
0.0
  0
POINT
  5
1CB
330
1C2
100
AcDbEntity
  8
Defpoints
 62
     0
100
AcDbPoint
 10
33.85447948018273
 20
17.1523286810698
 30
0.0
  0
ENDBLK
  5
1CD
330
1C2
100
AcDbEntity
  8
0
100
AcDbBlockEnd
  0
BLOCK
  5
1D7
330
1CE
100
AcDbEntity
  8
0
100
AcDbBlockBegin
  2
*D1
 70
     1
 10
0.0
 20
0.0
 30
0.0
  3
*D1
  1

  0
LINE
  5
1CF
330
1CE
100
AcDbEntity
  8
R-ANNO-DIMS
 62
     0
370
    -2
100
AcDbLine
 10
35.2869794801826
 20
17.1523286810698
 30
0.0
 11
33.67447948018282
 21
17.1523286810698
 31
0.0
  0
LINE
  5
1D0
330
1CE
100
AcDbEntity
  8
R-ANNO-DIMS
 62
     0
370
    -2
100
AcDbLine
 10
33.85447948018282
 20
17.3323286810698
 30
0.0
 11
33.85447948018282
 21
18.97234432604396
 31
0.0
  0
SOLID
  5
1D1
330
1CE
100
AcDbEntity
  8
R-ANNO-DIMS
 62
     0
100
AcDbTrace
 10
33.82447948018282
 20
17.3323286810698
 30
0.0
 11
33.88447948018282
 21
17.3323286810698
 31
0.0
 12
33.85447948018282
 22
17.1523286810698
 32
0.0
 13
33.85447948018282
 23
17.1523286810698
 33
0.0
  0
SOLID
  5
1D2
330
1CE
100
AcDbEntity
  8
R-ANNO-DIMS
 62
     0
100
AcDbTrace
 10
33.82447948018282
 20
18.97234432604396
 30
0.0
 11
33.88447948018282
 21
18.97234432604396
 31
0.0
 12
33.85447948018282
 22
19.15234432604396
 32
0.0
 13
33.85447948018282
 23
19.15234432604396
 33
0.0
  0
MTEXT
  5
1D3
330
1CE
100
AcDbEntity
  8
R-ANNO-DIMS
 62
     0
100
AcDbMText
 10
33.67447948018281
 20
18.15233650355688
 30
0.0
 40
0.18
 41
0.0
 71
     5
 72
     1
  1
\A1;D.L.O.
 11
0.0000000000000001
 21
1.0
 31
0.0
 73
     1
 44
1.0
1001
ACAD
1000
MTEXTBEGIN
1070
    73
1070
     1
1070
    44
1040
1.0
1070
    74
1070
     0
1000
MTEXTEND
  0
POINT
  5
1D4
330
1CE
100
AcDbEntity
  8
Defpoints
 62
     0
100
AcDbPoint
 10
35.3494794801826
 20
17.1523286810698
 30
0.0
  0
POINT
  5
1D5
330
1CE
100
AcDbEntity
  8
Defpoints
 62
     0
100
AcDbPoint
 10
35.34947948018265
 20
19.15234432604396
 30
0.0
  0
POINT
  5
1D6
330
1CE
100
AcDbEntity
  8
Defpoints
 62
     0
100
AcDbPoint
 10
33.85447948018282
 20
19.15234432604396
 30
0.0
  0
ENDBLK
  5
1D8
330
1CE
100
AcDbEntity
  8
0
100
AcDbBlockEnd
  0
BLOCK
  5
1E3
330
1D9
100
AcDbEntity
  8
0
100
AcDbBlockBegin
  2
*D2
 70
     1
 10
0.0
 20
0.0
 30
0.0
  3
*D2
  1

  0
LINE
  5
1DA
330
1D9
100
AcDbEntity
  8
R-ANNO-DIMS
 62
     0
370
    -2
100
AcDbLine
 10
38.91147948018204
 20
11.77782868107023
 30
0.0
 11
38.91147948018204
 21
10.16532868107038
 31
0.0
  0
LINE
  5
1DB
330
1D9
100
AcDbEntity
  8
R-ANNO-DIMS
 62
     0
370
    -2
100
AcDbLine
 10
40.66147948018192
 20
11.77782868107023
 30
0.0
 11
40.66147948018192
 21
10.16532868107038
 31
0.0
  0
LINE
  5
1DC
330
1D9
100
AcDbEntity
  8
R-ANNO-DIMS
 62
     0
370
    -2
100
AcDbLine
 10
39.09147948018204
 20
10.34532868107038
 30
0.0
 11
40.48147948018192
 21
10.34532868107038
 31
0.0
  0
SOLID
  5
1DD
330
1D9
100
AcDbEntity
  8
R-ANNO-DIMS
 62
     0
100
AcDbTrace
 10
39.09147948018204
 20
10.37532868107038
 30
0.0
 11
39.09147948018204
 21
10.31532868107038
 31
0.0
 12
38.91147948018204
 22
10.34532868107038
 32
0.0
 13
38.91147948018204
 23
10.34532868107038
 33
0.0
  0
SOLID
  5
1DE
330
1D9
100
AcDbEntity
  8
R-ANNO-DIMS
 62
     0
100
AcDbTrace
 10
40.48147948018192
 20
10.37532868107038
 30
0.0
 11
40.48147948018192
 21
10.31532868107038
 31
0.0
 12
40.66147948018192
 22
10.34532868107038
 32
0.0
 13
40.66147948018192
 23
10.34532868107038
 33
0.0
  0
MTEXT
  5
1DF
330
1D9
100
AcDbEntity
  8
R-ANNO-DIMS
 62
     0
100
AcDbMText
 10
39.78647948018198
 20
10.52532868107038
 30
0.0
 40
0.18
 41
0.0
 71
     5
 72
     1
  1
\A1;1 3/4"
 73
     1
 44
1.0
1001
ACAD
1000
MTEXTBEGIN
1070
    73
1070
     1
1070
    44
1040
1.0
1070
    74
1070
     0
1000
MTEXTEND
  0
POINT
  5
1E0
330
1D9
100
AcDbEntity
  8
Defpoints
 62
     0
100
AcDbPoint
 10
38.91147948018204
 20
11.84032868107023
 30
0.0
  0
POINT
  5
1E1
330
1D9
100
AcDbEntity
  8
Defpoints
 62
     0
100
AcDbPoint
 10
40.66147948018192
 20
11.84032868107023
 30
0.0
  0
POINT
  5
1E2
330
1D9
100
AcDbEntity
  8
Defpoints
 62
     0
100
AcDbPoint
 10
40.66147948018192
 20
10.34532868107038
 30
0.0
  0
ENDBLK
  5
1E4
330
1D9
100
AcDbEntity
  8
0
100
AcDbBlockEnd
  0
BLOCK
  5
1EF
330
1E5
100
AcDbEntity
  8
0
100
AcDbBlockBegin
  2
*D3
 70
     1
 10
0.0
 20
0.0
 30
0.0
  3
*D3
  1

  0
LINE
  5
1E6
330
1E5
100
AcDbEntity
  8
R-ANNO-DIMS
 62
     0
370
    -2
100
AcDbLine
 10
35.34947948018248
 20
11.77782868107025
 30
0.0
 11
35.34947948018248
 21
10.16532868107038
 31
0.0
  0
LINE
  5
1E7
330
1E5
100
AcDbEntity
  8
R-ANNO-DIMS
 62
     0
370
    -2
100
AcDbLine
 10
38.91147948018204
 20
11.77782868107023
 30
0.0
 11
38.91147948018204
 21
10.16532868107038
 31
0.0
  0
LINE
  5
1E8
330
1E5
100
AcDbEntity
  8
R-ANNO-DIMS
 62
     0
370
    -2
100
AcDbLine
 10
35.52947948018247
 20
10.34532868107038
 30
0.0
 11
38.73147948018204
 21
10.34532868107038
 31
0.0
  0
SOLID
  5
1E9
330
1E5
100
AcDbEntity
  8
R-ANNO-DIMS
 62
     0
100
AcDbTrace
 10
35.52947948018247
 20
10.37532868107038
 30
0.0
 11
35.52947948018247
 21
10.31532868107038
 31
0.0
 12
35.34947948018248
 22
10.34532868107038
 32
0.0
 13
35.34947948018248
 23
10.34532868107038
 33
0.0
  0
SOLID
  5
1EA
330
1E5
100
AcDbEntity
  8
R-ANNO-DIMS
 62
     0
100
AcDbTrace
 10
38.73147948018204
 20
10.37532868107038
 30
0.0
 11
38.73147948018204
 21
10.31532868107038
 31
0.0
 12
38.91147948018204
 22
10.34532868107038
 32
0.0
 13
38.91147948018204
 23
10.34532868107038
 33
0.0
  0
MTEXT
  5
1EB
330
1E5
100
AcDbEntity
  8
R-ANNO-DIMS
 62
     0
100
AcDbMText
 10
37.13047948018226
 20
10.52532868107038
 30
0.0
 40
0.18
 41
0.0
 71
     5
 72
     1
  1
\A1;3 9/16" (REF.)
 73
     1
 44
1.0
1001
ACAD
1000
MTEXTBEGIN
1070
    73
1070
     1
1070
    44
1040
1.0
1070
    74
1070
     0
1000
MTEXTEND
  0
POINT
  5
1EC
330
1E5
100
AcDbEntity
  8
Defpoints
 62
     0
100
AcDbPoint
 10
35.34947948018248
 20
11.84032868107024
 30
0.0
  0
POINT
  5
1ED
330
1E5
100
AcDbEntity
  8
Defpoints
 62
     0
100
AcDbPoint
 10
38.91147948018204
 20
11.84032868107023
 30
0.0
  0
POINT
  5
1EE
330
1E5
100
AcDbEntity
  8
Defpoints
 62
     0
100
AcDbPoint
 10
38.91147948018204
 20
10.34532868107038
 30
0.0
  0
ENDBLK
  5
1F0
330
1E5
100
AcDbEntity
  8
0
100
AcDbBlockEnd
  0
BLOCK
  5
1FA
330
1F1
100
AcDbEntity
  8
0
100
AcDbBlockBegin
  2
*D4
 70
     1
 10
0.0
 20
0.0
 30
0.0
  3
*D4
  1

  0
LINE
  5
1F2
330
1F1
100
AcDbEntity
  8
R-ANNO-DIMS
 62
     0
370
    -2
100
AcDbLine
 10
35.28697948018237
 20
11.84032868107024
 30
0.0
 11
32.92447948018281
 21
11.84032868107024
 31
0.0
  0
LINE
  5
1F3
330
1F1
100
AcDbEntity
  8
R-ANNO-DIMS
 62
     0
370
    -2
100
AcDbLine
 10
33.10447948018281
 20
12.02032868107024
 30
0.0
 11
33.10447948018282
 21
18.97234432604396
 31
0.0
  0
SOLID
  5
1F4
330
1F1
100
AcDbEntity
  8
R-ANNO-DIMS
 62
     0
100
AcDbTrace
 10
33.07447948018281
 20
12.02032868107024
 30
0.0
 11
33.13447948018281
 21
12.02032868107024
 31
0.0
 12
33.10447948018281
 22
11.84032868107024
 32
0.0
 13
33.10447948018281
 23
11.84032868107024
 33
0.0
  0
SOLID
  5
1F5
330
1F1
100
AcDbEntity
  8
R-ANNO-DIMS
 62
     0
100
AcDbTrace
 10
33.07447948018282
 20
18.97234432604396
 30
0.0
 11
33.13447948018282
 21
18.97234432604396
 31
0.0
 12
33.10447948018282
 22
19.15234432604396
 32
0.0
 13
33.10447948018282
 23
19.15234432604396
 33
0.0
  0
MTEXT
  5
1F6
330
1F1
100
AcDbEntity
  8
R-ANNO-DIMS
 62
     0
100
AcDbMText
 10
32.92447948018281
 20
15.49633650355711
 30
0.0
 40
0.18
 41
0.0
 71
     5
 72
     1
  1
\A1;F.W.
 11
0.0000000000000001
 21
1.0
 31
0.0
 73
     1
 44
1.0
1001
ACAD
1000
MTEXTBEGIN
1070
    73
1070
     1
1070
    44
1040
1.0
1070
    74
1070
     0
1000
MTEXTEND
  0
POINT
  5
1F7
330
1F1
100
AcDbEntity
  8
Defpoints
 62
     0
100
AcDbPoint
 10
35.34947948018237
 20
11.84032868107024
 30
0.0
  0
POINT
  5
1F8
330
1F1
100
AcDbEntity
  8
Defpoints
 62
     0
100
AcDbPoint
 10
35.34947948018265
 20
19.15234432604396
 30
0.0
  0
POINT
  5
1F9
330
1F1
100
AcDbEntity
  8
Defpoints
 62
     0
100
AcDbPoint
 10
33.10447948018282
 20
19.15234432604396
 30
0.0
  0
ENDBLK
  5
1FB
330
1F1
100
AcDbEntity
  8
0
100
AcDbBlockEnd
  0
BLOCK
  5
206
330
1FC
100
AcDbEntity
  8
0
100
AcDbBlockBegin
  2
*D5
 70
     1
 10
0.0
 20
0.0
 30
0.0
  3
*D5
  1

  0
LINE
  5
1FD
330
1FC
100
AcDbEntity
  8
R-ANNO-DIMS
 62
     0
370
    -2
100
AcDbLine
 10
35.28697948018237
 20
11.84032868107036
 30
0.0
 11
33.67447948018265
 21
11.84032868107036
 31
0.0
  0
LINE
  5
1FE
330
1FC
100
AcDbEntity
  8
R-ANNO-DIMS
 62
     0
370
    -2
100
AcDbLine
 10
35.28697948018248
 20
15.40232868106992
 30
0.0
 11
33.67447948018265
 21
15.40232868106992
 31
0.0
  0
LINE
  5
1FF
330
1FC
100
AcDbEntity
  8
R-ANNO-DIMS
 62
     0
370
    -2
100
AcDbLine
 10
33.85447948018265
 20
12.02032868107036
 30
0.0
 11
33.85447948018265
 21
15.22232868106992
 31
0.0
  0
SOLID
  5
200
330
1FC
100
AcDbEntity
  8
R-ANNO-DIMS
 62
     0
100
AcDbTrace
 10
33.82447948018265
 20
12.02032868107036
 30
0.0
 11
33.88447948018265
 21
12.02032868107036
 31
0.0
 12
33.85447948018265
 22
11.84032868107036
 32
0.0
 13
33.85447948018265
 23
11.84032868107036
 33
0.0
  0
SOLID
  5
201
330
1FC
100
AcDbEntity
  8
R-ANNO-DIMS
 62
     0
100
AcDbTrace
 10
33.82447948018265
 20
15.22232868106992
 30
0.0
 11
33.88447948018265
 21
15.22232868106992
 31
0.0
 12
33.85447948018265
 22
15.40232868106992
 32
0.0
 13
33.85447948018265
 23
15.40232868106992
 33
0.0
  0
MTEXT
  5
202
330
1FC
100
AcDbEntity
  8
R-ANNO-DIMS
 62
     0
100
AcDbMText
 10
33.67447948018265
 20
13.62132868107014
 30
0.0
 40
0.18
 41
0.0
 71
     5
 72
     1
  1
\A1;3 9/16" (REF.)
 11
0.0000000000000001
 21
1.0
 31
0.0
 73
     1
 44
1.0
1001
ACAD
1000
MTEXTBEGIN
1070
    73
1070
     1
1070
    44
1040
1.0
1070
    74
1070
     0
1000
MTEXTEND
  0
POINT
  5
203
330
1FC
100
AcDbEntity
  8
Defpoints
 62
     0
100
AcDbPoint
 10
35.34947948018237
 20
11.84032868107036
 30
0.0
  0
POINT
  5
204
330
1FC
100
AcDbEntity
  8
Defpoints
 62
     0
100
AcDbPoint
 10
35.34947948018248
 20
15.40232868106992
 30
0.0
  0
POINT
  5
205
330
1FC
100
AcDbEntity
  8
Defpoints
 62
     0
100
AcDbPoint
 10
33.85447948018265
 20
15.40232868106992
 30
0.0
  0
ENDBLK
  5
207
330
1FC
100
AcDbEntity
  8
0
100
AcDbBlockEnd
  0
BLOCK
  5
213
330
208
100
AcDbEntity
  8
0
100
AcDbBlockBegin
  2
*D6
 70
     1
 10
0.0
 20
0.0
 30
0.0
  3
*D6
  1

  0
LINE
  5
209
330
208
100
AcDbEntity
  8
R-ANNO-DIMS
 62
     0
370
    -2
100
AcDbLine
 10
15.70887399143925
 20
15.84534432604522
 30
0.0
 11
16.59137399144034
 21
15.84534432604522
 31
0.0
  0
LINE
  5
20A
330
208
100
AcDbEntity
  8
R-ANNO-DIMS
 62
     0
370
    -2
100
AcDbLine
 10
15.70887399143925
 20
14.97034432604528
 30
0.0
 11
16.59137399144034
 21
14.97034432604528
 31
0.0
  0
LINE
  5
20B
330
208
100
AcDbEntity
  8
R-ANNO-DIMS
 62
     0
370
    -2
100
AcDbLine
 10
16.41137399144034
 20
15.66534432604522
 30
0.0
 11
16.41137399144034
 21
15.15034432604528
 31
0.0
  0
LINE
  5
20C
330
208
100
AcDbEntity
  8
R-ANNO-DIMS
 62
     0
370
    -2
100
AcDbLine
 10
16.41137399144034
 20
14.97034432604528
 30
0.0
 11
16.41137399144034
 21
14.00789516367992
 31
0.0
  0
SOLID
  5
20D
330
208
100
AcDbEntity
  8
R-ANNO-DIMS
 62
     0
100
AcDbTrace
 10
16.38137399144033
 20
15.66534432604522
 30
0.0
 11
16.44137399144035
 21
15.66534432604522
 31
0.0
 12
16.41137399144034
 22
15.84534432604522
 32
0.0
 13
16.41137399144034
 23
15.84534432604522
 33
0.0
  0
SOLID
  5
20E
330
208
100
AcDbEntity
  8
R-ANNO-DIMS
 62
     0
100
AcDbTrace
 10
16.38137399144033
 20
15.15034432604528
 30
0.0
 11
16.44137399144035
 21
15.15034432604528
 31
0.0
 12
16.41137399144034
 22
14.97034432604528
 32
0.0
 13
16.41137399144034
 23
14.97034432604528
 33
0.0
  0
MTEXT
  5
20F
330
208
100
AcDbEntity
  8
R-ANNO-DIMS
 62
     0
100
AcDbMText
 10
16.23137399144034
 20
14.39789516367992
 30
0.0
 40
0.18
 41
0.0
 71
     5
 72
     1
  1
\A1;7/8"
 11
0.0000000000000001
 21
1.0
 31
0.0
 73
     1
 44
1.0
1001
ACAD
1000
MTEXTBEGIN
1070
    73
1070
     1
1070
    44
1040
1.0
1070
    74
1070
     0
1000
MTEXTEND
  0
POINT
  5
210
330
208
100
AcDbEntity
  8
Defpoints
 62
     0
100
AcDbPoint
 10
15.64637399143925
 20
15.84534432604522
 30
0.0
  0
POINT
  5
211
330
208
100
AcDbEntity
  8
Defpoints
 62
     0
100
AcDbPoint
 10
15.64637399143925
 20
14.97034432604528
 30
0.0
  0
POINT
  5
212
330
208
100
AcDbEntity
  8
Defpoints
 62
     0
100
AcDbPoint
 10
16.41137399144034
 20
14.97034432604528
 30
0.0
  0
ENDBLK
  5
214
330
208
100
AcDbEntity
  8
0
100
AcDbBlockEnd
  0
BLOCK
  5
21F
330
215
100
AcDbEntity
  8
0
100
AcDbBlockBegin
  2
*D7
 70
     1
 10
0.0
 20
0.0
 30
0.0
  3
*D7
  1

  0
LINE
  5
216
330
215
100
AcDbEntity
  8
R-ANNO-DIMS
 62
     0
370
    -2
100
AcDbLine
 10
10.77137399144061
 20
19.90784432604391
 30
0.0
 11
10.77137399144061
 21
20.79034432604406
 31
0.0
  0
LINE
  5
217
330
215
100
AcDbEntity
  8
R-ANNO-DIMS
 62
     0
370
    -2
100
AcDbLine
 10
11.64637399144055
 20
19.90784432604391
 30
0.0
 11
11.64637399144055
 21
20.79034432604406
 31
0.0
  0
LINE
  5
218
330
215
100
AcDbEntity
  8
R-ANNO-DIMS
 62
     0
370
    -2
100
AcDbLine
 10
10.95137399144061
 20
20.61034432604406
 30
0.0
 11
11.46637399144055
 21
20.61034432604406
 31
0.0
  0
SOLID
  5
219
330
215
100
AcDbEntity
  8
R-ANNO-DIMS
 62
     0
100
AcDbTrace
 10
10.95137399144061
 20
20.64034432604406
 30
0.0
 11
10.95137399144061
 21
20.58034432604406
 31
0.0
 12
10.77137399144061
 22
20.61034432604406
 32
0.0
 13
10.77137399144061
 23
20.61034432604406
 33
0.0
  0
SOLID
  5
21A
330
215
100
AcDbEntity
  8
R-ANNO-DIMS
 62
     0
100
AcDbTrace
 10
11.46637399144055
 20
20.64034432604406
 30
0.0
 11
11.46637399144055
 21
20.58034432604406
 31
0.0
 12
11.64637399144055
 22
20.61034432604406
 32
0.0
 13
11.64637399144055
 23
20.61034432604406
 33
0.0
  0
MTEXT
  5
21B
330
215
100
AcDbEntity
  8
R-ANNO-DIMS
 62
     0
100
AcDbMText
 10
11.20887399144058
 20
20.79034432604406
 30
0.0
 40
0.18
 41
0.0
 71
     5
 72
     1
  1
\A1;7/8"
 73
     1
 44
1.0
1001
ACAD
1000
MTEXTBEGIN
1070
    73
1070
     1
1070
    44
1040
1.0
1070
    74
1070
     0
1000
MTEXTEND
  0
POINT
  5
21C
330
215
100
AcDbEntity
  8
Defpoints
 62
     0
100
AcDbPoint
 10
10.77137399144061
 20
19.84534432604391
 30
0.0
  0
POINT
  5
21D
330
215
100
AcDbEntity
  8
Defpoints
 62
     0
100
AcDbPoint
 10
11.64637399144055
 20
19.84534432604391
 30
0.0
  0
POINT
  5
21E
330
215
100
AcDbEntity
  8
Defpoints
 62
     0
100
AcDbPoint
 10
11.64637399144055
 20
20.61034432604406
 30
0.0
  0
ENDBLK
  5
220
330
215
100
AcDbEntity
  8
0
100
AcDbBlockEnd
  0
BLOCK
  5
22B
330
221
100
AcDbEntity
  8
0
100
AcDbBlockBegin
  2
*D8
 70
     1
 10
0.0
 20
0.0
 30
0.0
  3
*D8
  1

  0
LINE
  5
222
330
221
100
AcDbEntity
  8
R-ANNO-DIMS
 62
     0
370
    -2
100
AcDbLine
 10
11.58387399144044
 20
14.09534432604528
 30
0.0
 11
5.966358346466683
 21
14.09534432604528
 31
0.0
  0
LINE
  5
223
330
221
100
AcDbEntity
  8
R-ANNO-DIMS
 62
     0
370
    -2
100
AcDbLine
 10
7.833858346466683
 20
15.84534432604489
 30
0.0
 11
5.966358346466683
 21
15.84534432604489
 31
0.0
  0
LINE
  5
224
330
221
100
AcDbEntity
  8
R-ANNO-DIMS
 62
     0
370
    -2
100
AcDbLine
 10
6.146358346466683
 20
14.27534432604528
 30
0.0
 11
6.146358346466683
 21
15.66534432604489
 31
0.0
  0
SOLID
  5
225
330
221
100
AcDbEntity
  8
R-ANNO-DIMS
 62
     0
100
AcDbTrace
 10
6.116358346466682
 20
14.27534432604528
 30
0.0
 11
6.176358346466683
 21
14.27534432604528
 31
0.0
 12
6.146358346466683
 22
14.09534432604528
 32
0.0
 13
6.146358346466683
 23
14.09534432604528
 33
0.0
  0
SOLID
  5
226
330
221
100
AcDbEntity
  8
R-ANNO-DIMS
 62
     0
100
AcDbTrace
 10
6.116358346466682
 20
15.66534432604489
 30
0.0
 11
6.176358346466683
 21
15.66534432604489
 31
0.0
 12
6.146358346466683
 22
15.84534432604489
 32
0.0
 13
6.146358346466683
 23
15.84534432604489
 33
0.0
  0
MTEXT
  5
227
330
221
100
AcDbEntity
  8
R-ANNO-DIMS
 62
     0
100
AcDbMText
 10
5.966358346466681
 20
14.97034432604509
 30
0.0
 40
0.18
 41
0.0
 71
     5
 72
     1
  1
\A1;1 3/4"
 11
0.0000000000000001
 21
1.0
 31
0.0
 73
     1
 44
1.0
1001
ACAD
1000
MTEXTBEGIN
1070
    73
1070
     1
1070
    44
1040
1.0
1070
    74
1070
     0
1000
MTEXTEND
  0
POINT
  5
228
330
221
100
AcDbEntity
  8
Defpoints
 62
     0
100
AcDbPoint
 10
11.64637399144044
 20
14.09534432604528
 30
0.0
  0
POINT
  5
229
330
221
100
AcDbEntity
  8
Defpoints
 62
     0
100
AcDbPoint
 10
7.896358346466683
 20
15.84534432604489
 30
0.0
  0
POINT
  5
22A
330
221
100
AcDbEntity
  8
Defpoints
 62
     0
100
AcDbPoint
 10
6.146358346466683
 20
15.84534432604489
 30
0.0
  0
ENDBLK
  5
22C
330
221
100
AcDbEntity
  8
0
100
AcDbBlockEnd
  0
BLOCK
  5
237
330
22D
100
AcDbEntity
  8
0
100
AcDbBlockBegin
  2
*D9
 70
     1
 10
0.0
 20
0.0
 30
0.0
  3
*D9
  1

  0
LINE
  5
22E
330
22D
100
AcDbEntity
  8
R-ANNO-DIMS
 62
     0
370
    -2
100
AcDbLine
 10
7.833873991440952
 20
19.86034432604405
 30
0.0
 11
5.966358346466684
 21
19.86034432604405
 31
0.0
  0
LINE
  5
22F
330
22D
100
AcDbEntity
  8
R-ANNO-DIMS
 62
     0
370
    -2
100
AcDbLine
 10
7.833858346466683
 20
15.84534432604489
 30
0.0
 11
5.966358346466683
 21
15.84534432604489
 31
0.0
  0
LINE
  5
230
330
22D
100
AcDbEntity
  8
R-ANNO-DIMS
 62
     0
370
    -2
100
AcDbLine
 10
6.146358346466683
 20
19.68034432604406
 30
0.0
 11
6.146358346466683
 21
16.0253443260449
 31
0.0
  0
SOLID
  5
231
330
22D
100
AcDbEntity
  8
R-ANNO-DIMS
 62
     0
100
AcDbTrace
 10
6.116358346466682
 20
19.68034432604406
 30
0.0
 11
6.176358346466684
 21
19.68034432604406
 31
0.0
 12
6.146358346466683
 22
19.86034432604405
 32
0.0
 13
6.146358346466683
 23
19.86034432604405
 33
0.0
  0
SOLID
  5
232
330
22D
100
AcDbEntity
  8
R-ANNO-DIMS
 62
     0
100
AcDbTrace
 10
6.116358346466682
 20
16.0253443260449
 30
0.0
 11
6.176358346466683
 21
16.0253443260449
 31
0.0
 12
6.146358346466683
 22
15.84534432604489
 32
0.0
 13
6.146358346466683
 23
15.84534432604489
 33
0.0
  0
MTEXT
  5
233
330
22D
100
AcDbEntity
  8
R-ANNO-DIMS
 62
     0
100
AcDbMText
 10
5.966358346466681
 20
17.85284432604447
 30
0.0
 40
0.18
 41
0.0
 71
     5
 72
     1
  1
\A1;4"
 11
0.0000000000000001
 21
1.0
 31
0.0
 73
     1
 44
1.0
1001
ACAD
1000
MTEXTBEGIN
1070
    73
1070
     1
1070
    44
1040
1.0
1070
    74
1070
     0
1000
MTEXTEND
  0
POINT
  5
234
330
22D
100
AcDbEntity
  8
Defpoints
 62
     0
100
AcDbPoint
 10
7.896373991440952
 20
19.86034432604405
 30
0.0
  0
POINT
  5
235
330
22D
100
AcDbEntity
  8
Defpoints
 62
     0
100
AcDbPoint
 10
7.896358346466683
 20
15.84534432604489
 30
0.0
  0
POINT
  5
236
330
22D
100
AcDbEntity
  8
Defpoints
 62
     0
100
AcDbPoint
 10
6.146358346466683
 20
15.84534432604489
 30
0.0
  0
ENDBLK
  5
238
330
22D
100
AcDbEntity
  8
0
100
AcDbBlockEnd
  0
BLOCK
  5
243
330
239
100
AcDbEntity
  8
0
100
AcDbBlockBegin
  2
*D10
 70
     1
 10
0.0
 20
0.0
 30
0.0
  3
*D10
  1

  0
LINE
  5
23A
330
239
100
AcDbEntity
  8
R-ANNO-DIMS
 62
     0
370
    -2
100
AcDbLine
 10
15.66137399144034
 20
12.03284432604538
 30
0.0
 11
15.66137399144034
 21
10.16532868107074
 31
0.0
  0
LINE
  5
23B
330
239
100
AcDbEntity
  8
R-ANNO-DIMS
 62
     0
370
    -2
100
AcDbLine
 10
11.64637399144118
 20
12.03282868107074
 30
0.0
 11
11.64637399144118
 21
10.16532868107074
 31
0.0
  0
LINE
  5
23C
330
239
100
AcDbEntity
  8
R-ANNO-DIMS
 62
     0
370
    -2
100
AcDbLine
 10
15.48137399144034
 20
10.34532868107074
 30
0.0
 11
11.82637399144118
 21
10.34532868107074
 31
0.0
  0
SOLID
  5
23D
330
239
100
AcDbEntity
  8
R-ANNO-DIMS
 62
     0
100
AcDbTrace
 10
15.48137399144034
 20
10.37532868107074
 30
0.0
 11
15.48137399144034
 21
10.31532868107074
 31
0.0
 12
15.66137399144034
 22
10.34532868107074
 32
0.0
 13
15.66137399144034
 23
10.34532868107074
 33
0.0
  0
SOLID
  5
23E
330
239
100
AcDbEntity
  8
R-ANNO-DIMS
 62
     0
100
AcDbTrace
 10
11.82637399144118
 20
10.37532868107074
 30
0.0
 11
11.82637399144118
 21
10.31532868107074
 31
0.0
 12
11.64637399144118
 22
10.34532868107074
 32
0.0
 13
11.64637399144118
 23
10.34532868107074
 33
0.0
  0
MTEXT
  5
23F
330
239
100
AcDbEntity
  8
R-ANNO-DIMS
 62
     0
100
AcDbMText
 10
13.65387399144076
 20
10.52532868107074
 30
0.0
 40
0.18
 41
0.0
 71
     5
 72
     1
  1
\A1;4"
 73
     1
 44
1.0
1001
ACAD
1000
MTEXTBEGIN
1070
    73
1070
     1
1070
    44
1040
1.0
1070
    74
1070
     0
1000
MTEXTEND
  0
POINT
  5
240
330
239
100
AcDbEntity
  8
Defpoints
 62
     0
100
AcDbPoint
 10
15.66137399144034
 20
12.09534432604538
 30
0.0
  0
POINT
  5
241
330
239
100
AcDbEntity
  8
Defpoints
 62
     0
100
AcDbPoint
 10
11.64637399144118
 20
12.09532868107074
 30
0.0
  0
POINT
  5
242
330
239
100
AcDbEntity
  8
Defpoints
 62
     0
100
AcDbPoint
 10
11.64637399144118
 20
10.34532868107074
 30
0.0
  0
ENDBLK
  5
244
330
239
100
AcDbEntity
  8
0
100
AcDbBlockEnd
  0
BLOCK
  5
24E
330
245
100
AcDbEntity
  8
0
100
AcDbBlockBegin
  2
*D11
 70
     1
 10
0.0
 20
0.0
 30
0.0
  3
*D11
  1

  0
LINE
  5
246
330
245
100
AcDbEntity
  8
R-ANNO-DIMS
 62
     0
370
    -2
100
AcDbLine
 10
15.66137399144034
 20
12.03284432604538
 30
0.0
 11
15.66137399144034
 21
9.415328681070368
 31
0.0
  0
LINE
  5
247
330
245
100
AcDbEntity
  8
R-ANNO-DIMS
 62
     0
370
    -2
100
AcDbLine
 10
15.48137399144034
 20
9.59532868107037
 30
0.0
 11
8.076358346467022
 21
9.59532868107037
 31
0.0
  0
SOLID
  5
248
330
245
100
AcDbEntity
  8
R-ANNO-DIMS
 62
     0
100
AcDbTrace
 10
15.48137399144034
 20
9.625328681070367
 30
0.0
 11
15.48137399144034
 21
9.565328681070369
 31
0.0
 12
15.66137399144034
 22
9.59532868107037
 32
0.0
 13
15.66137399144034
 23
9.59532868107037
 33
0.0
  0
SOLID
  5
249
330
245
100
AcDbEntity
  8
R-ANNO-DIMS
 62
     0
100
AcDbTrace
 10
8.076358346467022
 20
9.625328681070367
 30
0.0
 11
8.076358346467022
 21
9.565328681070369
 31
0.0
 12
7.896358346467025
 22
9.59532868107037
 32
0.0
 13
7.896358346467025
 23
9.59532868107037
 33
0.0
  0
MTEXT
  5
24A
330
245
100
AcDbEntity
  8
R-ANNO-DIMS
 62
     0
100
AcDbMText
 10
11.77886616895368
 20
9.775328681070366
 30
0.0
 40
0.18
 41
0.0
 71
     5
 72
     1
  1
\A1;F.W.
 73
     1
 44
1.0
1001
ACAD
1000
MTEXTBEGIN
1070
    73
1070
     1
1070
    44
1040
1.0
1070
    74
1070
     0
1000
MTEXTEND
  0
POINT
  5
24B
330
245
100
AcDbEntity
  8
Defpoints
 62
     0
100
AcDbPoint
 10
15.66137399144034
 20
12.09534432604538
 30
0.0
  0
POINT
  5
24C
330
245
100
AcDbEntity
  8
Defpoints
 62
     0
100
AcDbPoint
 10
7.896358346467025
 20
15.84534432604413
 30
0.0
  0
POINT
  5
24D
330
245
100
AcDbEntity
  8
Defpoints
 62
     0
100
AcDbPoint
 10
7.896358346467025
 20
9.59532868107037
 30
0.0
  0
ENDBLK
  5
24F
330
245
100
AcDbEntity
  8
0
100
AcDbBlockEnd
  0
BLOCK
  5
259
330
250
100
AcDbEntity
  8
0
100
AcDbBlockBegin
  2
*D12
 70
     1
 10
0.0
 20
0.0
 30
0.0
  3
*D12
  1

  0
LINE
  5
251
330
250
100
AcDbEntity
  8
R-ANNO-DIMS
 62
     0
370
    -2
100
AcDbLine
 10
7.833873991440952
 20
19.86034432604405
 30
0.0
 11
5.216358346466684
 21
19.86034432604405
 31
0.0
  0
LINE
  5
252
330
250
100
AcDbEntity
  8
R-ANNO-DIMS
 62
     0
370
    -2
100
AcDbLine
 10
5.396358346466683
 20
19.68034432604406
 30
0.0
 11
5.396358346466683
 21
12.27532868107109
 31
0.0
  0
SOLID
  5
253
330
250
100
AcDbEntity
  8
R-ANNO-DIMS
 62
     0
100
AcDbTrace
 10
5.366358346466684
 20
19.68034432604406
 30
0.0
 11
5.426358346466686
 21
19.68034432604406
 31
0.0
 12
5.396358346466683
 22
19.86034432604405
 32
0.0
 13
5.396358346466683
 23
19.86034432604405
 33
0.0
  0
SOLID
  5
254
330
250
100
AcDbEntity
  8
R-ANNO-DIMS
 62
     0
100
AcDbTrace
 10
5.366358346466683
 20
12.27532868107109
 30
0.0
 11
5.426358346466683
 21
12.27532868107109
 31
0.0
 12
5.396358346466683
 22
12.09532868107109
 32
0.0
 13
5.396358346466683
 23
12.09532868107109
 33
0.0
  0
MTEXT
  5
255
330
250
100
AcDbEntity
  8
R-ANNO-DIMS
 62
     0
100
AcDbMText
 10
5.216358346466681
 20
15.97783650355757
 30
0.0
 40
0.18
 41
0.0
 71
     5
 72
     1
  1
\A1;F.W.
 11
0.0000000000000001
 21
1.0
 31
0.0
 73
     1
 44
1.0
1001
ACAD
1000
MTEXTBEGIN
1070
    73
1070
     1
1070
    44
1040
1.0
1070
    74
1070
     0
1000
MTEXTEND
  0
POINT
  5
256
330
250
100
AcDbEntity
  8
Defpoints
 62
     0
100
AcDbPoint
 10
7.896373991440952
 20
19.86034432604405
 30
0.0
  0
POINT
  5
257
330
250
100
AcDbEntity
  8
Defpoints
 62
     0
100
AcDbPoint
 10
11.64637399144044
 20
12.09532868107109
 30
0.0
  0
POINT
  5
258
330
250
100
AcDbEntity
  8
Defpoints
 62
     0
100
AcDbPoint
 10
5.396358346466683
 20
12.09532868107109
 30
0.0
  0
ENDBLK
  5
25A
330
250
100
AcDbEntity
  8
0
100
AcDbBlockEnd
  0
BLOCK
  5
265
330
25B
100
AcDbEntity
  8
0
100
AcDbBlockBegin
  2
*D13
 70
     1
 10
0.0
 20
0.0
 30
0.0
  3
*D13
  1

  0
LINE
  5
25C
330
25B
100
AcDbEntity
  8
R-ANNO-DIMS
 62
     0
370
    -2
100
AcDbLine
 10
9.896373991441206
 20
15.78284432604433
 30
0.0
 11
9.896373991441206
 21
10.16532868107074
 31
0.0
  0
LINE
  5
25D
330
25B
100
AcDbEntity
  8
R-ANNO-DIMS
 62
     0
370
    -2
100
AcDbLine
 10
11.64637399144118
 20
12.03282868107074
 30
0.0
 11
11.64637399144118
 21
10.16532868107074
 31
0.0
  0
LINE
  5
25E
330
25B
100
AcDbEntity
  8
R-ANNO-DIMS
 62
     0
370
    -2
100
AcDbLine
 10
10.07637399144121
 20
10.34532868107074
 30
0.0
 11
11.46637399144118
 21
10.34532868107074
 31
0.0
  0
SOLID
  5
25F
330
25B
100
AcDbEntity
  8
R-ANNO-DIMS
 62
     0
100
AcDbTrace
 10
10.07637399144121
 20
10.37532868107074
 30
0.0
 11
10.07637399144121
 21
10.31532868107074
 31
0.0
 12
9.896373991441206
 22
10.34532868107074
 32
0.0
 13
9.896373991441206
 23
10.34532868107074
 33
0.0
  0
SOLID
  5
260
330
25B
100
AcDbEntity
  8
R-ANNO-DIMS
 62
     0
100
AcDbTrace
 10
11.46637399144118
 20
10.37532868107074
 30
0.0
 11
11.46637399144118
 21
10.31532868107074
 31
0.0
 12
11.64637399144118
 22
10.34532868107074
 32
0.0
 13
11.64637399144118
 23
10.34532868107074
 33
0.0
  0
MTEXT
  5
261
330
25B
100
AcDbEntity
  8
R-ANNO-DIMS
 62
     0
100
AcDbMText
 10
10.77137399144119
 20
10.52532868107074
 30
0.0
 40
0.18
 41
0.0
 71
     5
 72
     1
  1
\A1;1 3/4"
 73
     1
 44
1.0
1001
ACAD
1000
MTEXTBEGIN
1070
    73
1070
     1
1070
    44
1040
1.0
1070
    74
1070
     0
1000
MTEXTEND
  0
POINT
  5
262
330
25B
100
AcDbEntity
  8
Defpoints
 62
     0
100
AcDbPoint
 10
9.896373991441206
 20
15.84534432604433
 30
0.0
  0
POINT
  5
263
330
25B
100
AcDbEntity
  8
Defpoints
 62
     0
100
AcDbPoint
 10
11.64637399144118
 20
12.09532868107074
 30
0.0
  0
POINT
  5
264
330
25B
100
AcDbEntity
  8
Defpoints
 62
     0
100
AcDbPoint
 10
11.64637399144118
 20
10.34532868107074
 30
0.0
  0
ENDBLK
  5
266
330
25B
100
AcDbEntity
  8
0
100
AcDbBlockEnd
  0
BLOCK
  5
270
330
267
100
AcDbEntity
  8
0
100
AcDbBlockBegin
  2
*D14
 70
     1
 10
0.0
 20
0.0
 30
0.0
  3
*D14
  1

  0
LINE
  5
268
330
267
100
AcDbEntity
  8
R-ANNO-DIMS
 62
     0
370
    -2
100
AcDbLine
 10
9.896373991441206
 20
15.78284432604433
 30
0.0
 11
9.896373991441206
 21
10.16532868107037
 31
0.0
  0
LINE
  5
269
330
267
100
AcDbEntity
  8
R-ANNO-DIMS
 62
     0
370
    -2
100
AcDbLine
 10
9.716373991441207
 20
10.34532868107037
 30
0.0
 11
8.076358346467022
 21
10.34532868107037
 31
0.0
  0
SOLID
  5
26A
330
267
100
AcDbEntity
  8
R-ANNO-DIMS
 62
     0
100
AcDbTrace
 10
9.716373991441207
 20
10.37532868107037
 30
0.0
 11
9.716373991441207
 21
10.31532868107037
 31
0.0
 12
9.896373991441206
 22
10.34532868107037
 32
0.0
 13
9.896373991441206
 23
10.34532868107037
 33
0.0
  0
SOLID
  5
26B
330
267
100
AcDbEntity
  8
R-ANNO-DIMS
 62
     0
100
AcDbTrace
 10
8.076358346467022
 20
10.37532868107037
 30
0.0
 11
8.076358346467022
 21
10.31532868107037
 31
0.0
 12
7.896358346467025
 22
10.34532868107037
 32
0.0
 13
7.896358346467025
 23
10.34532868107037
 33
0.0
  0
MTEXT
  5
26C
330
267
100
AcDbEntity
  8
R-ANNO-DIMS
 62
     0
100
AcDbMText
 10
8.896366168954116
 20
10.52532868107037
 30
0.0
 40
0.18
 41
0.0
 71
     5
 72
     1
  1
\A1;D.L.O.
 73
     1
 44
1.0
1001
ACAD
1000
MTEXTBEGIN
1070
    73
1070
     1
1070
    44
1040
1.0
1070
    74
1070
     0
1000
MTEXTEND
  0
POINT
  5
26D
330
267
100
AcDbEntity
  8
Defpoints
 62
     0
100
AcDbPoint
 10
9.896373991441206
 20
15.84534432604433
 30
0.0
  0
POINT
  5
26E
330
267
100
AcDbEntity
  8
Defpoints
 62
     0
100
AcDbPoint
 10
7.896358346467025
 20
15.84534432604413
 30
0.0
  0
POINT
  5
26F
330
267
100
AcDbEntity
  8
Defpoints
 62
     0
100
AcDbPoint
 10
7.896358346467025
 20
10.34532868107037
 30
0.0
  0
ENDBLK
  5
271
330
267
100
AcDbEntity
  8
0
100
AcDbBlockEnd
  0
BLOCK
  5
27B
330
272
100
AcDbEntity
  8
0
100
AcDbBlockBegin
  2
*D15
 70
     1
 10
0.0
 20
0.0
 30
0.0
  3
*D15
  1

  0
LINE
  5
273
330
272
100
AcDbEntity
  8
R-ANNO-DIMS
 62
     0
370
    -2
100
AcDbLine
 10
11.58387399144044
 20
14.09534432604528
 30
0.0
 11
5.966358346466684
 21
14.09534432604528
 31
0.0
  0
LINE
  5
274
330
272
100
AcDbEntity
  8
R-ANNO-DIMS
 62
     0
370
    -2
100
AcDbLine
 10
6.146358346466683
 20
13.91534432604528
 30
0.0
 11
6.146358346466683
 21
12.27532868107109
 31
0.0
  0
SOLID
  5
275
330
272
100
AcDbEntity
  8
R-ANNO-DIMS
 62
     0
100
AcDbTrace
 10
6.116358346466682
 20
13.91534432604528
 30
0.0
 11
6.176358346466683
 21
13.91534432604528
 31
0.0
 12
6.146358346466683
 22
14.09534432604528
 32
0.0
 13
6.146358346466683
 23
14.09534432604528
 33
0.0
  0
SOLID
  5
276
330
272
100
AcDbEntity
  8
R-ANNO-DIMS
 62
     0
100
AcDbTrace
 10
6.116358346466682
 20
12.27532868107109
 30
0.0
 11
6.176358346466683
 21
12.27532868107109
 31
0.0
 12
6.146358346466683
 22
12.09532868107109
 32
0.0
 13
6.146358346466683
 23
12.09532868107109
 33
0.0
  0
MTEXT
  5
277
330
272
100
AcDbEntity
  8
R-ANNO-DIMS
 62
     0
100
AcDbMText
 10
5.966358346466683
 20
13.09533650355819
 30
0.0
 40
0.18
 41
0.0
 71
     5
 72
     1
  1
\A1;D.L.O.
 11
0.0000000000000001
 21
1.0
 31
0.0
 73
     1
 44
1.0
1001
ACAD
1000
MTEXTBEGIN
1070
    73
1070
     1
1070
    44
1040
1.0
1070
    74
1070
     0
1000
MTEXTEND
  0
POINT
  5
278
330
272
100
AcDbEntity
  8
Defpoints
 62
     0
100
AcDbPoint
 10
11.64637399144044
 20
14.09534432604528
 30
0.0
  0
POINT
  5
279
330
272
100
AcDbEntity
  8
Defpoints
 62
     0
100
AcDbPoint
 10
11.64637399144044
 20
12.09532868107109
 30
0.0
  0
POINT
  5
27A
330
272
100
AcDbEntity
  8
Defpoints
 62
     0
100
AcDbPoint
 10
6.146358346466683
 20
12.09532868107109
 30
0.0
  0
ENDBLK
  5
27C
330
272
100
AcDbEntity
  8
0
100
AcDbBlockEnd
  0
BLOCK
  5
286
330
27D
100
AcDbEntity
  8
0
100
AcDbBlockBegin
  2
*D16
 70
     1
 10
0.0
 20
0.0
 30
0.0
  3
*D16
  1

  0
LINE
  5
27E
330
27D
100
AcDbEntity
  8
R-ANNO-DIMS
 62
     0
370
    -2
100
AcDbLine
 10
35.34947948018237
 20
11.77782868107025
 30
0.0
 11
35.34947948018237
 21
9.415328681070368
 31
0.0
  0
LINE
  5
27F
330
27D
100
AcDbEntity
  8
R-ANNO-DIMS
 62
     0
370
    -2
100
AcDbLine
 10
35.52947948018237
 20
9.59532868107037
 30
0.0
 11
42.48149512515608
 21
9.59532868107037
 31
0.0
  0
SOLID
  5
280
330
27D
100
AcDbEntity
  8
R-ANNO-DIMS
 62
     0
100
AcDbTrace
 10
35.52947948018237
 20
9.625328681070367
 30
0.0
 11
35.52947948018237
 21
9.565328681070369
 31
0.0
 12
35.34947948018237
 22
9.59532868107037
 32
0.0
 13
35.34947948018237
 23
9.59532868107037
 33
0.0
  0
SOLID
  5
281
330
27D
100
AcDbEntity
  8
R-ANNO-DIMS
 62
     0
100
AcDbTrace
 10
42.48149512515608
 20
9.625328681070367
 30
0.0
 11
42.48149512515608
 21
9.565328681070369
 31
0.0
 12
42.66149512515608
 22
9.59532868107037
 32
0.0
 13
42.66149512515608
 23
9.59532868107037
 33
0.0
  0
MTEXT
  5
282
330
27D
100
AcDbEntity
  8
R-ANNO-DIMS
 62
     0
100
AcDbMText
 10
39.00548730266923
 20
9.775328681070366
 30
0.0
 40
0.18
 41
0.0
 71
     5
 72
     1
  1
\A1;F.W.
 73
     1
 44
1.0
1001
ACAD
1000
MTEXTBEGIN
1070
    73
1070
     1
1070
    44
1040
1.0
1070
    74
1070
     0
1000
MTEXTEND
  0
POINT
  5
283
330
27D
100
AcDbEntity
  8
Defpoints
 62
     0
100
AcDbPoint
 10
35.34947948018237
 20
11.84032868107024
 30
0.0
  0
POINT
  5
284
330
27D
100
AcDbEntity
  8
Defpoints
 62
     0
100
AcDbPoint
 10
42.66149512515608
 20
11.8403286810702
 30
0.0
  0
POINT
  5
285
330
27D
100
AcDbEntity
  8
Defpoints
 62
     0
100
AcDbPoint
 10
42.66149512515608
 20
9.59532868107037
 30
0.0
  0
ENDBLK
  5
287
330
27D
100
AcDbEntity
  8
0
100
AcDbBlockEnd
  0
BLOCK
  5
291
330
288
100
AcDbEntity
  8
0
100
AcDbBlockBegin
  2
*D17
 70
     1
 10
0.0
 20
0.0
 30
0.0
  3
*D17
  1

  0
LINE
  5
289
330
288
100
AcDbEntity
  8
R-ANNO-DIMS
 62
     0
370
    -2
100
AcDbLine
 10
40.66147948018192
 20
11.77782868107023
 30
0.0
 11
40.66147948018192
 21
10.16532868107038
 31
0.0
  0
LINE
  5
28A
330
288
100
AcDbEntity
  8
R-ANNO-DIMS
 62
     0
370
    -2
100
AcDbLine
 10
40.84147948018192
 20
10.34532868107038
 30
0.0
 11
42.48149512515608
 21
10.34532868107038
 31
0.0
  0
SOLID
  5
28B
330
288
100
AcDbEntity
  8
R-ANNO-DIMS
 62
     0
100
AcDbTrace
 10
40.84147948018192
 20
10.37532868107038
 30
0.0
 11
40.84147948018192
 21
10.31532868107038
 31
0.0
 12
40.66147948018192
 22
10.34532868107038
 32
0.0
 13
40.66147948018192
 23
10.34532868107038
 33
0.0
  0
SOLID
  5
28C
330
288
100
AcDbEntity
  8
R-ANNO-DIMS
 62
     0
100
AcDbTrace
 10
42.48149512515608
 20
10.37532868107038
 30
0.0
 11
42.48149512515608
 21
10.31532868107038
 31
0.0
 12
42.66149512515608
 22
10.34532868107038
 32
0.0
 13
42.66149512515608
 23
10.34532868107038
 33
0.0
  0
MTEXT
  5
28D
330
288
100
AcDbEntity
  8
R-ANNO-DIMS
 62
     0
100
AcDbMText
 10
41.661487302669
 20
10.52532868107038
 30
0.0
 40
0.18
 41
0.0
 71
     5
 72
     1
  1
\A1;D.L.O.
 73
     1
 44
1.0
1001
ACAD
1000
MTEXTBEGIN
1070
    73
1070
     1
1070
    44
1040
1.0
1070
    74
1070
     0
1000
MTEXTEND
  0
POINT
  5
28E
330
288
100
AcDbEntity
  8
Defpoints
 62
     0
100
AcDbPoint
 10
40.66147948018192
 20
11.84032868107023
 30
0.0
  0
POINT
  5
28F
330
288
100
AcDbEntity
  8
Defpoints
 62
     0
100
AcDbPoint
 10
42.66149512515608
 20
11.8403286810702
 30
0.0
  0
POINT
  5
290
330
288
100
AcDbEntity
  8
Defpoints
 62
     0
100
AcDbPoint
 10
42.66149512515608
 20
10.34532868107038
 30
0.0
  0
ENDBLK
  5
292
330
288
100
AcDbEntity
  8
0
100
AcDbBlockEnd
  0
BLOCK
  5
A7D
330
A71
100
AcDbEntity
  8
0
100
AcDbBlockBegin
  2
Kawneer Logo English
 70
     0
 10
0.0
 20
0.0
 30
0.0
  3
Kawneer Logo English
  1

  0
MTEXT
  5
A72
102
{ACAD_XDICTIONARY
360
BEA
102
}
330
A71
100
AcDbEntity
  8
Kawneer Logo-English
100
AcDbMText
 10
1.510096758583198
 20
0.0372523876656778
 30
0.0
 40
0.036
 41
0.6125900866323382
 71
     3
 72
     5
  1
{\fArial TUR|b0|i0|c0|p34;\T1.05;AN ARCONIC COMPANY}
 73
     1
 44
1.0
1001
ACAD
1000
ACAD_MTEXT_COLUMN_INFO_BEGIN
1070
    75
1070
     2
1070
    79
1070
     0
1070
    76
1070
     1
1070
    78
1070
     0
1070
    48
1040
0.6125900866323382
1070
    49
1040
1.0
1070
    50
1070
     1
1040
0.0
1000
ACAD_MTEXT_COLUMN_INFO_END
1000
MTEXTBEGIN
1070
    73
1070
     1
1070
    44
1040
1.0
1070
    74
1070
     0
1000
MTEXTEND
  0
HATCH
  5
A73
330
A71
100
AcDbEntity
  8
Kawneer Logo-English
100
AcDbHatch
 10
0.0
 20
0.0
 30
0.0
210
0.0
220
0.0
230
1.0
  2
SOLID
 70
     1
 71
     0
 91
        1
 92
        1
 93
       81
 72
     1
 10
0.2706169776412204
 20
0.0336337282279411
 11
0.2687512969786691
 21
0.0350329887248546
 72
     1
 10
0.2687512969786696
 20
0.0350329887248547
 11
0.2633408230572721
 21
0.039137486182467
 72
     1
 10
0.2633408230572729
 20
0.0391374861824669
 11
0.2550385441089194
 21
0.0453875164020133
 72
     1
 10
0.2550385441089191
 20
0.0453875164020132
 11
0.2442175962661241
 21
0.053596511317238
 72
     1
 10
0.2442175962661235
 20
0.0535965113172379
 11
0.2314376837276472
 21
0.0632980507625037
 72
     1
 10
0.2314376837276479
 20
0.0632980507625037
 11
0.2172585106922595
 21
0.0741189986052996
 72
     1
 10
0.2172585106922598
 20
0.0741189986052996
 11
0.2019599292593419
 21
0.0856862187131167
 72
     1
 10
0.201959929259341
 20
0.0856862187131167
 11
0.1862882116939105
 21
0.0976265749534437
 72
     1
 10
0.1862882116939102
 20
0.0976265749534437
 11
0.1706164941284813
 21
0.1095669311937706
 72
     1
 10
0.1706164941284811
 20
0.1095669311937709
 11
0.1553179126955632
 21
0.1211341513015875
 72
     1
 10
0.1553179126955642
 20
0.1211341513015876
 11
0.1411387396601757
 21
0.131955099144384
 72
     1
 10
0.1411387396601755
 20
0.1319550991443839
 11
0.1284521111548274
 21
0.141749922622777
 72
     1
 10
0.1284521111548278
 20
0.1417499226227768
 11
0.117631163312031
 21
0.1499589175380016
 72
     1
 10
0.1176311633120304
 20
0.1499589175380017
 11
0.1094221683968068
 21
0.1563022317906752
 72
     1
 10
0.1094221683968062
 20
0.1563022317906754
 11
0.1041049785085351
 21
0.1604067292482882
 72
     1
 10
0.1041049785085351
 20
0.1604067292482878
 11
0.1023325818791119
 21
0.1618992737783286
 72
     1
 10
0.1023325818791116
 20
0.1618992737783289
 11
0.1043848306079176
 21
0.1636716704077524
 72
     1
 10
0.1043848306079194
 20
0.1636716704077524
 11
0.1100751566286996
 21
0.1683358720641301
 72
     1
 10
0.1100751566286986
 20
0.1683358720641301
 11
0.1189371397758159
 21
0.1757053106812067
 72
     1
 10
0.1189371397758161
 20
0.1757053106812067
 11
0.1304110758505067
 21
0.1851269980270901
 72
     1
 10
0.1304110758505059
 20
0.1851269980270902
 11
0.1439372606540007
 21
0.1963210820023967
 72
     1
 10
0.1439372606540017
 20
0.1963210820023967
 11
0.1589559899875385
 21
0.2087278584083611
 72
     1
 10
0.1589559899875379
 20
0.2087278584083611
 11
0.1750941277186041
 21
0.2220674751456017
 72
     1
 10
0.1750941277186047
 20
0.2220674751456017
 11
0.19169868561531
 21
0.2358735120484796
 72
     1
 10
0.1916986856153105
 20
0.2358735120484796
 11
0.208303243512014
 21
0.2495862649182301
 72
     1
 10
0.2083032435120131
 20
0.2495862649182304
 11
0.2244413812430811
 21
0.2628325976223432
 72
     1
 10
0.2244413812430812
 20
0.2628325976223429
 11
0.239460110576618
 21
0.2753326580614352
 72
     1
 10
0.2394601105766174
 20
0.2753326580614351
 11
0.2529862953801122
 21
0.2864334580036143
 72
     1
 10
0.2529862953801132
 20
0.2864334580036143
 11
0.2643669474216756
 21
0.2958551453494973
 72
     1
 10
0.2643669474216757
 20
0.2958551453494973
 11
0.2731356465356649
 21
0.3031312999334466
 72
     1
 10
0.273135646535664
 20
0.3031312999334466
 11
0.2788259725564443
 21
0.3077955015898243
 72
     1
 10
0.278825972556445
 20
0.3077955015898246
 11
0.2807849372521245
 21
0.3094746141861208
 72
     1
 10
0.2807849372521249
 20
0.3094746141861205
 11
0.2798520969208501
 21
0.3094746141861205
 72
     1
 10
0.2798520969208496
 20
0.3094746141861205
 11
0.2769602918938953
 21
0.3095678982192478
 72
     1
 10
0.2769602918938943
 20
0.3095678982192481
 11
0.2724826583037715
 21
0.3095678982192481
 72
     1
 10
0.2724826583037729
 20
0.3095678982192481
 11
0.2666057642167363
 21
0.3095678982192481
 72
     1
 10
0.266605764216735
 20
0.3095678982192481
 11
0.2597027457652953
 21
0.3095678982192481
 72
     1
 10
0.2597027457652956
 20
0.3095678982192481
 11
0.2519601710157094
 21
0.3095678982192481
 72
     1
 10
0.2519601710157104
 20
0.3095678982192481
 11
0.2437511761004851
 21
0.3095678982192481
 72
     1
 10
0.243751176100484
 20
0.3095678982192481
 11
0.2351690450527495
 21
0.3095678982192481
 72
     1
 10
0.2351690450527495
 20
0.3095678982192481
 11
0.2266801980381413
 21
0.3095678982192481
 72
     1
 10
0.2266801980381423
 20
0.3095678982192481
 11
0.2183779190897905
 21
0.3094746141861208
 72
     1
 10
0.2183779190897899
 20
0.3094746141861205
 11
0.2106353443402037
 21
0.3094746141861205
 72
     1
 10
0.2106353443402029
 20
0.3094746141861205
 11
0.2037323258887632
 21
0.3094746141861205
 72
     1
 10
0.2037323258887639
 20
0.3094746141861205
 11
0.1978554318017273
 21
0.3094746141861205
 72
     1
 10
0.1978554318017278
 20
0.3094746141861205
 11
0.1932845141784786
 21
0.3094746141861205
 72
     1
 10
0.1932845141784787
 20
0.3094746141861205
 11
0.1903927091515244
 21
0.3094746141861205
 72
     1
 10
0.1903927091515234
 20
0.3094746141861205
 11
0.1893665847871204
 21
0.3094746141861205
 72
     1
 10
0.1893665847871206
 20
0.3094746141861205
 11
0.1879673242902067
 21
0.3077955015898243
 72
     1
 10
0.1879673242902076
 20
0.3077955015898246
 11
0.1841426789319786
 21
0.3030380159003196
 72
     1
 10
0.1841426789319787
 20
0.3030380159003192
 11
0.1780792167786874
 21
0.29576186131637
 72
     1
 10
0.1780792167786873
 20
0.29576186131637
 11
0.170243357995973
 21
0.2862468899373593
 72
     1
 10
0.170243357995973
 20
0.2862468899373593
 11
0.1610082387163447
 21
0.2750528059620528
 72
     1
 10
0.1610082387163438
 20
0.2750528059620528
 11
0.1507469950723126
 21
0.2624594614898328
 72
     1
 10
0.1507469950723133
 20
0.2624594614898328
 11
0.1396461951301336
 21
0.2491198447525922
 72
     1
 10
0.1396461951301333
 20
0.2491198447525922
 11
0.1282655430885727
 21
0.2352205238165866
 72
     1
 10
0.1282655430885726
 20
0.2352205238165868
 11
0.1168848910470102
 21
0.2214144869137089
 72
     1
 10
0.1168848910470102
 20
0.2214144869137087
 11
0.1058773751379587
 21
0.2079815861433408
 72
     1
 10
0.105877375137958
 20
0.2079815861433408
 11
0.0955228474608004
 21
0.1954815257042486
 72
     1
 10
0.0955228474608019
 20
0.1954815257042488
 11
0.0862877281811736
 21
0.1842874417289424
 72
     1
 10
0.0862877281811727
 20
0.1842874417289424
 11
0.0784518693984583
 21
0.1747724703499316
 72
     1
 10
0.0784518693984584
 20
0.1747724703499314
 11
0.0723884072451672
 21
0.1674963157659821
 72
     1
 10
0.0723884072451671
 20
0.1674963157659822
 11
0.0685637618869363
 21
0.1627388300764767
 72
     1
 10
0.0685637618869364
 20
0.1627388300764767
 11
0.0671645013900242
 21
0.1611530015133082
 72
     1
 10
0.0671645013900251
 20
0.1611530015133082
 11
0.0680040576881734
 21
0.1596604569832674
 72
     1
 10
0.0680040576881726
 20
0.1596604569832674
 11
0.0704294425494878
 21
0.1556492435587824
 72
     1
 10
0.0704294425494871
 20
0.1556492435587824
 11
0.0742540879077179
 21
0.1493059293061089
 72
     1
 10
0.0742540879077192
 20
0.1493059293061089
 11
0.0791048576303511
 21
0.1411902184240116
 72
     1
 10
0.0791048576303508
 20
0.1411902184240116
 11
0.0848884676842594
 21
0.1314886789787458
 72
     1
 10
0.0848884676842596
 20
0.1314886789787459
 11
0.0913250659700619
 21
0.1207610151690772
 72
     1
 10
0.0913250659700613
 20
0.1207610151690775
 11
0.0982280844214992
 21
0.1091937950612604
 72
     1
 10
0.0982280844214985
 20
0.1091937950612603
 11
0.1053176709391927
 21
0.0973467228540611
 72
     1
 10
0.105317670939193
 20
0.0973467228540612
 11
0.1124072574568872
 21
0.0854996506468619
 72
     1
 10
0.1124072574568871
 20
0.0854996506468617
 11
0.1193102759083267
 21
0.0739324305390446
 72
     1
 10
0.1193102759083278
 20
0.0739324305390448
 11
0.1257468741941283
 21
0.0632047667293762
 72
     1
 10
0.1257468741941277
 20
0.063204766729376
 11
0.1315304842480362
 21
0.0535032272841102
 72
     1
 10
0.1315304842480365
 20
0.0535032272841104
 11
0.1363812539706702
 21
0.0453875164020132
 72
     1
 10
0.1363812539706699
 20
0.0453875164020132
 11
0.1402058993288989
 21
0.0391374861824667
 72
     1
 10
0.1402058993288988
 20
0.0391374861824669
 11
0.1426312841902157
 21
0.0350329887248546
 72
     1
 10
0.1426312841902164
 20
0.0350329887248547
 11
0.1434708404883648
 21
0.0336337282279412
 72
     1
 10
0.143470840488364
 20
0.0336337282279411
 11
0.2706169776412211
 21
0.0336337282279411
 97
        0
 75
     0
 76
     1
 98
        1
 10
-0.3743130907707726
 20
-0.2500502867693841
1001
ACAD
1010
0.0
1020
0.0
1030
0.0
  0
HATCH
  5
A74
330
A71
100
AcDbEntity
  8
Kawneer Logo-English
100
AcDbHatch
 10
0.0
 20
0.0
 30
0.0
210
0.0
220
0.0
230
1.0
  2
SOLID
 70
     1
 71
     0
 91
        1
 92
        1
 93
       18
 72
     1
 10
0.0001865656044393
 20
0.2563959993365415
 11
-0.0000000024618153
 21
0.113671428651383
 72
     1
 10
-0.0000000024618159
 20
0.1136714286513832
 11
0.0012126899688416
 21
0.1152572572145516
 72
     1
 10
0.0012126899688421
 20
0.1152572572145516
 11
0.0045709151614355
 21
0.1197348908046738
 72
     1
 10
0.004570915161435
 20
0.119734890804674
 11
0.0098881050497044
 21
0.1268244773223682
 72
     1
 10
0.0098881050497044
 20
0.1268244773223682
 11
0.0166978394680158
 21
0.1359663125688683
 72
     1
 10
0.016697839468016
 20
0.1359663125688683
 11
0.0248135503501131
 21
0.1467872604116651
 72
     1
 10
0.024813550350113
 20
0.1467872604116652
 11
0.0338621015634867
 21
0.1588209006851195
 72
     1
 10
0.0338621015634872
 20
0.1588209006851194
 11
0.0434703569756247
 21
0.1716940972567221
 72
     1
 10
0.0434703569756247
 20
0.1716940972567224
 11
0.0534517485202732
 21
0.1850337139939626
 72
     1
 10
0.0534517485202724
 20
0.1850337139939624
 11
0.0634331400649208
 21
0.1983733307312025
 72
     1
 10
0.0634331400649222
 20
0.1983733307312024
 11
0.0730413954770597
 21
0.2112465273028051
 72
     1
 10
0.0730413954770595
 20
0.2112465273028053
 11
0.0820899466904331
 21
0.2233734516093873
 72
     1
 10
0.0820899466904321
 20
0.2233734516093873
 11
0.0902056575725293
 21
0.2341943994521837
 72
     1
 10
0.0902056575725308
 20
0.2341943994521837
 11
0.0970153919908422
 21
0.2433362346986839
 72
     1
 10
0.0970153919908405
 20
0.2433362346986839
 11
0.1022392978459834
 21
0.2503325371832507
 72
     1
 10
0.1022392978459843
 20
0.2503325371832508
 11
0.1056908070717041
 21
0.2549034548065008
 72
     1
 10
0.1056908070717046
 20
0.254903454806501
 11
0.1069034995023621
 21
0.2564892833696694
 72
     1
 10
0.1069034995023625
 20
0.2564892833696695
 11
0.0001865656044399
 21
0.2563959993365418
 97
        0
 75
     0
 76
     1
 98
        1
 10
-0.3743130907707726
 20
-0.2500502867693841
1001
ACAD
1010
0.0
1020
0.0
1030
0.0
  0
HATCH
  5
A75
330
A71
100
AcDbEntity
  8
Kawneer Logo-English
100
AcDbHatch
 10
0.0
 20
0.0
 30
0.0
210
0.0
220
0.0
230
1.0
  2
SOLID
 70
     1
 71
     0
 91
        2
 92
       16
 93
       76
 72
     1
 10
1.358402087941634
 20
0.1650709309046659
 11
1.358402087941634
 21
0.16796273593162
 72
     1
 10
1.358402087941634
 20
0.1679627359316202
 11
1.358402087941634
 21
0.1729067896873803
 72
     1
 10
1.358402087941634
 20
0.1729067896873803
 11
1.358402087941634
 21
0.1791568199069267
 72
     1
 10
1.358402087941634
 20
0.1791568199069267
 11
1.358402087941634
 21
0.1861531223914932
 72
     1
 10
1.358402087941634
 20
0.186153122391493
 11
1.358402087941634
 21
0.1931494248760595
 72
     1
 10
1.358402087941634
 20
0.1931494248760596
 11
1.358402087941634
 21
0.1994927391287338
 72
     1
 10
1.358402087941634
 20
0.1994927391287336
 11
1.358402087941634
 21
0.2044367928844937
 72
     1
 10
1.358402087941634
 20
0.2044367928844937
 11
1.358402087941634
 21
0.2072353138783208
 72
     1
 10
1.358402087941634
 20
0.2072353138783208
 11
1.359894632471676
 21
0.2072353138783208
 72
     1
 10
1.359894632471676
 20
0.2072353138783208
 11
1.362693153465502
 21
0.2072353138783208
 72
     1
 10
1.362693153465502
 20
0.2072353138783208
 11
1.366424514790605
 21
0.2072353138783208
 72
     1
 10
1.366424514790606
 20
0.2072353138783208
 11
1.371088716446982
 21
0.2072353138783208
 72
     1
 10
1.371088716446982
 20
0.2072353138783208
 11
1.376405906335254
 21
0.2072353138783208
 72
     1
 10
1.376405906335254
 20
0.2072353138783208
 11
1.382282800422289
 21
0.2072353138783208
 72
     1
 10
1.38228280042229
 20
0.2072353138783208
 11
1.388346262575581
 21
0.2072353138783208
 72
     1
 10
1.388346262575578
 20
0.2072353138783208
 11
1.394596292795124
 21
0.2072353138783208
 72
     1
 10
1.394596292795124
 20
0.2072353138783208
 11
1.400753038981545
 21
0.2072353138783208
 72
     1
 10
1.400753038981545
 20
0.2072353138783208
 11
1.406723217101709
 21
0.2072353138783208
 72
     1
 10
1.406723217101708
 20
0.2072353138783208
 11
1.412320259089361
 21
0.2072353138783208
 72
     1
 10
1.412320259089361
 20
0.2072353138783208
 11
1.417264312845121
 21
0.2072353138783208
 72
     1
 10
1.417264312845123
 20
0.2072353138783208
 11
1.421368810302734
 21
0.2072353138783208
 72
     1
 10
1.421368810302733
 20
0.2072353138783208
 11
1.424540467429071
 21
0.2072353138783208
 72
     1
 10
1.424540467429071
 20
0.2072353138783208
 11
1.426592716157878
 21
0.2072353138783208
 72
     1
 10
1.426592716157878
 20
0.2072353138783208
 11
1.427338988422897
 21
0.2072353138783208
 72
     1
 10
1.427338988422897
 20
0.2072353138783208
 11
1.430977065714873
 21
0.207142029845193
 72
     1
 10
1.430977065714871
 20
0.207142029845193
 11
1.434335290907465
 21
0.2068621777458102
 72
     1
 10
1.434335290907465
 20
0.2068621777458102
 11
1.435921119470632
 21
0.2066756096795552
 72
     1
 10
1.435921119470632
 20
0.206675609679555
 11
1.437413664000672
 21
0.2063957575801723
 72
     1
 10
1.437413664000674
 20
0.2063957575801723
 11
1.438906208530714
 21
0.2061159054807895
 72
     1
 10
1.438906208530714
 20
0.2061159054807898
 11
1.440398753060755
 21
0.2056494853151523
 72
     1
 10
1.440398753060755
 20
0.2056494853151521
 11
1.441704729524541
 21
0.2050897811163865
 72
     1
 10
1.441704729524541
 20
0.2050897811163866
 11
1.443010705988328
 21
0.204530076917621
 72
     1
 10
1.443010705988329
 20
0.204530076917621
 11
1.444223398418985
 21
0.2036905206194736
 72
     1
 10
1.444223398418984
 20
0.2036905206194736
 11
1.445436090849643
 21
0.2028509643213252
 72
     1
 10
1.445436090849643
 20
0.2028509643213252
 11
1.446555499247173
 21
0.2018248399569224
 72
     1
 10
1.446555499247172
 20
0.2018248399569223
 11
1.447581623611575
 21
0.2007054315593917
 72
     1
 10
1.447581623611577
 20
0.2007054315593915
 11
1.44860774797598
 21
0.1993061710624781
 72
     1
 10
1.44860774797598
 20
0.1993061710624781
 11
1.449540588307258
 21
0.1978136265324374
 72
     1
 10
1.449540588307255
 20
0.1978136265324373
 11
1.450380144605403
 21
0.1961345139361415
 72
     1
 10
1.450380144605404
 20
0.1961345139361415
 11
1.451126416870425
 21
0.1944554013398453
 72
     1
 10
1.451126416870425
 20
0.1944554013398454
 11
1.451592837036063
 21
0.1929628568098046
 72
     1
 10
1.451592837036061
 20
0.1929628568098046
 11
1.451965973168573
 21
0.1913770282466361
 72
     1
 10
1.451965973168573
 20
0.1913770282466361
 11
1.452245825267955
 21
0.1899777677497231
 72
     1
 10
1.452245825267954
 20
0.1899777677497231
 11
1.45243239333421
 21
0.188671791285937
 72
     1
 10
1.45243239333421
 20
0.1886717912859369
 11
1.45243239333421
 21
0.1874590988552789
 72
     1
 10
1.45243239333421
 20
0.1874590988552789
 11
1.452525677367338
 21
0.1863396904577482
 72
     1
 10
1.452525677367336
 20
0.1863396904577481
 11
1.45243239333421
 21
0.1844740097951972
 72
     1
 10
1.45243239333421
 20
0.1844740097951974
 11
1.452245825267955
 21
0.1827948971989012
 72
     1
 10
1.452245825267954
 20
0.1827948971989009
 11
1.451872689135444
 21
0.1810225005694773
 72
     1
 10
1.451872689135445
 20
0.1810225005694774
 11
1.451406268969809
 21
0.1794366720063093
 72
     1
 10
1.451406268969809
 20
0.1794366720063094
 11
1.450846564771043
 21
0.1779441274762682
 72
     1
 10
1.45084656477104
 20
0.1779441274762681
 11
1.45010029250602
 21
0.1764515829462274
 72
     1
 10
1.450100292506023
 20
0.1764515829462275
 11
1.449260736207875
 21
0.1750523224493141
 72
     1
 10
1.449260736207872
 20
0.1750523224493139
 11
1.448327895876596
 21
0.1737463459855283
 72
     1
 10
1.448327895876595
 20
0.1737463459855281
 11
1.44702191941281
 21
0.1723470854886151
 72
     1
 10
1.447021919412811
 20
0.1723470854886151
 11
1.445715942949024
 21
0.1711343930579568
 72
     1
 10
1.445715942949025
 20
0.1711343930579568
 11
1.444316682452113
 21
0.1700149846604262
 72
     1
 10
1.444316682452113
 20
0.1700149846604259
 11
1.442824137922071
 21
0.168988860296023
 72
     1
 10
1.442824137922071
 20
0.168988860296023
 11
1.441238309358904
 21
0.1682425880310024
 72
     1
 10
1.441238309358902
 20
0.1682425880310024
 11
1.439559196762608
 21
0.1674963157659821
 72
     1
 10
1.439559196762608
 20
0.1674963157659822
 11
1.437880084166311
 21
0.1669366115672166
 72
     1
 10
1.437880084166311
 20
0.1669366115672167
 11
1.436107687536888
 21
0.1664701914015788
 72
     1
 10
1.436107687536888
 20
0.1664701914015789
 11
1.434242006874336
 21
0.166003771235941
 72
     1
 10
1.434242006874336
 20
0.1660037712359412
 11
1.432376326211785
 21
0.1657239191365588
 72
     1
 10
1.432376326211784
 20
0.1657239191365585
 11
1.430417361516107
 21
0.1655373510703035
 72
     1
 10
1.430417361516108
 20
0.1655373510703037
 11
1.428458396820428
 21
0.1653507830040482
 72
     1
 10
1.428458396820428
 20
0.1653507830040482
 11
1.424353899362816
 21
0.1651642149377932
 72
     1
 10
1.424353899362816
 20
0.1651642149377932
 11
1.420156117872076
 21
0.1650709309046658
 72
     1
 10
1.420156117872076
 20
0.1650709309046659
 11
1.41773073301076
 21
0.1650709309046659
 72
     1
 10
1.41773073301076
 20
0.1650709309046659
 11
1.411107566658704
 21
0.1650709309046659
 72
     1
 10
1.411107566658701
 20
0.1650709309046659
 11
1.401779163345946
 21
0.1650709309046659
 72
     1
 10
1.401779163345949
 20
0.1650709309046659
 11
1.390958215503151
 21
0.1650709309046659
 72
     1
 10
1.390958215503151
 20
0.1650709309046659
 11
1.3799506995941
 21
0.1650709309046659
 72
     1
 10
1.379950699594099
 20
0.1650709309046659
 11
1.36996930804945
 21
0.1650709309046659
 72
     1
 10
1.36996930804945
 20
0.1650709309046659
 11
1.362320017332991
 21
0.1650709309046659
 72
     1
 10
1.362320017332991
 20
0.1650709309046659
 11
1.358402087941634
 21
0.1650709309046659
 97
        0
 92
        1
 93
      107
 72
     1
 10
1.443756978253348
 20
0.1485596570410883
 11
1.446928635379685
 21
0.1492126452729816
 72
     1
 10
1.446928635379685
 20
0.1492126452729817
 11
1.449540588307255
 21
0.1498656335048746
 72
     1
 10
1.449540588307255
 20
0.1498656335048745
 11
1.451872689135444
 21
0.1506119057698948
 72
     1
 10
1.451872689135445
 20
0.1506119057698946
 11
1.454018221897379
 21
0.1514514620680426
 72
     1
 10
1.454018221897379
 20
0.1514514620680425
 11
1.455883902559928
 21
0.1521977343330632
 72
     1
 10
1.455883902559928
 20
0.1521977343330631
 11
1.457563015156224
 21
0.1530372906312111
 72
     1
 10
1.457563015156224
 20
0.1530372906312111
 11
1.459148843719393
 21
0.1539701309624869
 72
     1
 10
1.459148843719393
 20
0.1539701309624866
 11
1.460641388249434
 21
0.1549029712937624
 72
     1
 10
1.460641388249434
 20
0.1549029712937622
 11
1.462133932779475
 21
0.155835811625038
 72
     1
 10
1.462133932779475
 20
0.155835811625038
 11
1.463439909243261
 21
0.1568619359894408
 72
     1
 10
1.463439909243261
 20
0.1568619359894408
 11
1.464745885707048
 21
0.1579813443869714
 72
     1
 10
1.464745885707047
 20
0.1579813443869716
 11
1.465865294104579
 21
0.1591007527845022
 72
     1
 10
1.465865294104579
 20
0.1591007527845025
 11
1.466984702502109
 21
0.1602201611820331
 72
     1
 10
1.466984702502108
 20
0.1602201611820328
 11
1.468010826866511
 21
0.1613395695795634
 72
     1
 10
1.468010826866511
 20
0.1613395695795637
 11
1.468943667197788
 21
0.1625522620102216
 72
     1
 10
1.468943667197788
 20
0.1625522620102216
 11
1.469876507529063
 21
0.1636716704077522
 72
     1
 10
1.469876507529063
 20
0.1636716704077524
 11
1.470622779794084
 21
0.1648843628384107
 72
     1
 10
1.470622779794084
 20
0.1648843628384107
 11
1.471462336092231
 21
0.1661903393021964
 72
     1
 10
1.471462336092231
 20
0.1661903393021967
 11
1.472115324324124
 21
0.1674030317328546
 72
     1
 10
1.472115324324124
 20
0.1674030317328546
 11
1.472768312556015
 21
0.1686157241635125
 72
     1
 10
1.472768312556016
 20
0.1686157241635125
 11
1.473328016754783
 21
0.1699217006272986
 72
     1
 10
1.473328016754781
 20
0.1699217006272989
 11
1.473794436920419
 21
0.1711343930579568
 72
     1
 10
1.473794436920419
 20
0.1711343930579568
 11
1.474260857086056
 21
0.1724403695217425
 72
     1
 10
1.474260857086058
 20
0.1724403695217424
 11
1.474727277251696
 21
0.1736530619524008
 72
     1
 10
1.474727277251696
 20
0.173653061952401
 11
1.475380265483589
 21
0.1760784468137175
 72
     1
 10
1.475380265483588
 20
0.1760784468137173
 11
1.475846685649225
 21
0.1785038316750338
 72
     1
 10
1.475846685649225
 20
0.1785038316750335
 11
1.476219821781736
 21
0.1808359325032223
 72
     1
 10
1.476219821781738
 20
0.1808359325032223
 11
1.47649967388112
 21
0.1830747492982838
 72
     1
 10
1.47649967388112
 20
0.1830747492982838
 11
1.476592957914248
 21
0.1851269980270901
 72
     1
 10
1.476592957914248
 20
0.1851269980270902
 11
1.476686241947374
 21
0.1870859627227688
 72
     1
 10
1.476686241947374
 20
0.1870859627227687
 11
1.476592957914248
 21
0.1888583593521923
 72
     1
 10
1.476592957914248
 20
0.1888583593521922
 11
1.476499673881119
 21
0.1906307559816158
 72
     1
 10
1.47649967388112
 20
0.1906307559816159
 11
1.47640638984799
 21
0.1924031526110394
 72
     1
 10
1.47640638984799
 20
0.1924031526110394
 11
1.476126537748608
 21
0.1940822652073352
 72
     1
 10
1.476126537748608
 20
0.1940822652073352
 11
1.475846685649225
 21
0.195761377803631
 72
     1
 10
1.475846685649225
 20
0.1957613778036309
 11
1.475566833549843
 21
0.1974404903999272
 72
     1
 10
1.475566833549843
 20
0.1974404903999272
 11
1.475100413384206
 21
0.1990263189630953
 72
     1
 10
1.475100413384205
 20
0.1990263189630952
 11
1.474633993218567
 21
0.2006121475262637
 72
     1
 10
1.474633993218567
 20
0.2006121475262639
 11
1.47416757305293
 21
0.2021046920563051
 72
     1
 10
1.474167573052931
 20
0.2021046920563049
 11
1.473514584821038
 21
0.2035972365863457
 72
     1
 10
1.473514584821036
 20
0.2035972365863459
 11
1.47295488062227
 21
0.2050897811163867
 72
     1
 10
1.472954880622271
 20
0.2050897811163866
 11
1.472208608357251
 21
0.2064890416133
 72
     1
 10
1.472208608357251
 20
0.2064890416133001
 11
1.471462336092231
 21
0.2078883021102135
 72
     1
 10
1.471462336092231
 20
0.2078883021102136
 11
1.470622779794083
 21
0.2091942785739993
 72
     1
 10
1.470622779794084
 20
0.2091942785739991
 11
1.469783223495935
 21
0.2105002550377848
 72
     1
 10
1.469783223495934
 20
0.2105002550377851
 11
1.468850383164659
 21
0.2118062315015707
 72
     1
 10
1.46885038316466
 20
0.2118062315015709
 11
1.467917542833386
 21
0.2130189239322288
 72
     1
 10
1.467917542833384
 20
0.2130189239322289
 11
1.466891418468982
 21
0.2141383323297595
 72
     1
 10
1.466891418468982
 20
0.2141383323297595
 11
1.465772010071451
 21
0.2153510247604178
 72
     1
 10
1.465772010071449
 20
0.215351024760418
 11
1.464652601673918
 21
0.2163771491248209
 72
     1
 10
1.464652601673919
 20
0.2163771491248209
 11
1.463533193276389
 21
0.2174032734892238
 72
     1
 10
1.463533193276389
 20
0.2174032734892238
 11
1.462227216812603
 21
0.2184293978536266
 72
     1
 10
1.462227216812601
 20
0.2184293978536266
 11
1.461014524381945
 21
0.2193622381849024
 72
     1
 10
1.461014524381946
 20
0.2193622381849023
 11
1.459615263885031
 21
0.2202950785161781
 72
     1
 10
1.459615263885031
 20
0.2202950785161782
 11
1.458309287421244
 21
0.2211346348143262
 72
     1
 10
1.458309287421245
 20
0.221134634814326
 11
1.456816742891206
 21
0.221974191112474
 72
     1
 10
1.456816742891206
 20
0.2219741911124738
 11
1.455417482394292
 21
0.2227204633774945
 72
     1
 10
1.455417482394291
 20
0.2227204633774944
 11
1.453831653831121
 21
0.2233734516093874
 72
     1
 10
1.453831653831123
 20
0.2233734516093873
 11
1.452339109301081
 21
0.2240264398412803
 72
     1
 10
1.452339109301081
 20
0.2240264398412803
 11
1.450659996704784
 21
0.2245861440400459
 72
     1
 10
1.450659996704786
 20
0.2245861440400457
 11
1.44907416814162
 21
0.2251458482388108
 72
     1
 10
1.449074168141619
 20
0.2251458482388109
 11
1.447301771512194
 21
0.2256122684044489
 72
     1
 10
1.447301771512194
 20
0.2256122684044488
 11
1.445249522783388
 21
0.2261719726032139
 72
     1
 10
1.445249522783388
 20
0.2261719726032139
 11
1.443290558087709
 21
0.2265451087357246
 72
     1
 10
1.443290558087712
 20
0.2265451087357244
 11
1.441145025325778
 21
0.2269182448682345
 72
     1
 10
1.441145025325775
 20
0.2269182448682345
 11
1.438906208530714
 21
0.2271980969676173
 72
     1
 10
1.438906208530714
 20
0.2271980969676173
 11
1.436387539636271
 21
0.2273846650338724
 72
     1
 10
1.436387539636271
 20
0.2273846650338724
 11
1.433495734609316
 21
0.2275712331001274
 72
     1
 10
1.433495734609316
 20
0.2275712331001274
 11
1.430044225383596
 21
0.2276645171332552
 72
     1
 10
1.430044225383596
 20
0.2276645171332549
 11
1.42612629599224
 21
0.2277578011663822
 72
     1
 10
1.42612629599224
 20
0.2277578011663825
 11
1.426033011959111
 21
0.2277578011663825
 72
     1
 10
1.42603301195911
 20
0.2277578011663825
 11
1.33489451159349
 21
0.2277578011663825
 72
     1
 10
1.33489451159349
 20
0.2277578011663825
 11
1.33489451159349
 21
0.0926825211976832
 72
     1
 10
1.33489451159349
 20
0.0926825211976832
 11
1.358588656007891
 21
0.0926825211976832
 72
     1
 10
1.358588656007891
 20
0.0926825211976832
 11
1.358588656007891
 21
0.0947347699264896
 72
     1
 10
1.358588656007891
 20
0.0947347699264896
 11
1.358588656007891
 21
0.1001452438478876
 72
     1
 10
1.358588656007891
 20
0.1001452438478875
 11
1.358588656007891
 21
0.1079811026306024
 72
     1
 10
1.358588656007891
 20
0.1079811026306024
 11
1.358588656007891
 21
0.1170296538439752
 72
     1
 10
1.358588656007891
 20
0.1170296538439753
 11
1.358588656007891
 21
0.1262647731236032
 72
     1
 10
1.358588656007891
 20
0.1262647731236031
 11
1.358588656007891
 21
0.1347536201382103
 72
     1
 10
1.358588656007891
 20
0.1347536201382104
 11
1.358588656007891
 21
0.1412835024571394
 72
     1
 10
1.358588656007891
 20
0.1412835024571393
 11
1.358588656007891
 21
0.1448282957159864
 72
     1
 10
1.358588656007891
 20
0.1448282957159865
 11
1.362320017332991
 21
0.1448282957159865
 72
     1
 10
1.362320017332991
 20
0.1448282957159865
 11
1.369409603850687
 21
0.1448282957159865
 72
     1
 10
1.369409603850687
 20
0.1448282957159865
 11
1.378738007163442
 21
0.1448282957159865
 72
     1
 10
1.378738007163442
 20
0.1448282957159865
 11
1.388999250807475
 21
0.1448282957159865
 72
     1
 10
1.388999250807472
 20
0.1448282957159865
 11
1.399260494451505
 21
0.1448282957159865
 72
     1
 10
1.399260494451505
 20
0.1448282957159865
 11
1.408215761631748
 21
0.1448282957159865
 72
     1
 10
1.408215761631748
 20
0.1448282957159865
 11
1.414745643950676
 21
0.1448282957159865
 72
     1
 10
1.414745643950678
 20
0.1448282957159865
 11
1.41773073301076
 21
0.1448282957159865
 72
     1
 10
1.41773073301076
 20
0.1448282957159865
 11
1.420062833838948
 21
0.1420297747221594
 72
     1
 10
1.420062833838948
 20
0.1420297747221597
 11
1.425193455660965
 21
0.1359663125688683
 72
     1
 10
1.425193455660965
 20
0.1359663125688683
 11
1.432283042178659
 21
0.1275707495873888
 72
     1
 10
1.432283042178659
 20
0.1275707495873886
 11
1.440305469027628
 21
0.1180557782083779
 72
     1
 10
1.440305469027629
 20
0.1180557782083781
 11
1.448234611843471
 21
0.1087273748956225
 72
     1
 10
1.448234611843471
 20
0.1087273748956225
 11
1.455044346261782
 21
0.1006116640135252
 72
     1
 10
1.455044346261782
 20
0.1006116640135252
 11
1.459895115984414
 21
0.0948280539596167
 72
     1
 10
1.459895115984414
 20
0.0948280539596169
 11
1.461760796646965
 21
0.0926825211976832
 72
     1
 10
1.461760796646967
 20
0.0926825211976832
 11
1.49254452757906
 21
0.0926825211976832
 72
     1
 10
1.492544527579059
 20
0.0926825211976832
 11
1.490678846916507
 21
0.0948280539596169
 72
     1
 10
1.490678846916507
 20
0.0948280539596169
 11
1.48564150912762
 21
0.100518379980398
 72
     1
 10
1.48564150912762
 20
0.1005183799803981
 11
1.478458638576797
 21
0.1088206589287502
 72
     1
 10
1.478458638576798
 20
0.1088206589287502
 11
1.470063075595318
 21
0.1183356303077609
 72
     1
 10
1.470063075595316
 20
0.118335630307761
 11
1.461480944547581
 21
0.1282237378192818
 72
     1
 10
1.461480944547581
 20
0.1282237378192818
 11
1.453551801731738
 21
0.1372722890326546
 72
     1
 10
1.453551801731739
 20
0.1372722890326546
 11
1.447395055545323
 21
0.1444551595834761
 72
     1
 10
1.447395055545323
 20
0.1444551595834759
 11
1.443756978253349
 21
0.1485596570410882
 97
        0
 75
     0
 76
     1
 98
        1
 10
-0.3743130907707726
 20
-0.2500502867693841
1001
ACAD
1010
0.0
1020
0.0
1030
0.0
  0
HATCH
  5
A76
330
A71
100
AcDbEntity
  8
Kawneer Logo-English
100
AcDbHatch
 10
0.0
 20
0.0
 30
0.0
210
0.0
220
0.0
230
1.0
  2
SOLID
 70
     1
 71
     0
 91
        1
 92
        1
 93
       87
 72
     1
 10
1.205602841678699
 20
0.1525708704655737
 11
1.20746852234125
 21
0.1525708704655737
 72
     1
 10
1.207468522341252
 20
0.1525708704655737
 11
1.211199883666355
 21
0.1525708704655737
 72
     1
 10
1.211199883666355
 20
0.1525708704655737
 11
1.216517073554626
 21
0.1525708704655737
 72
     1
 10
1.216517073554626
 20
0.1525708704655737
 11
1.223046955873555
 21
0.1525708704655737
 72
     1
 10
1.223046955873553
 20
0.1525708704655737
 11
1.230602962556885
 21
0.1525708704655737
 72
     1
 10
1.230602962556885
 20
0.1525708704655737
 11
1.238998525538364
 21
0.1525708704655737
 72
     1
 10
1.238998525538364
 20
0.1525708704655737
 11
1.247767224652353
 21
0.1525708704655737
 72
     1
 10
1.247767224652355
 20
0.1525708704655737
 11
1.256815775865727
 21
0.1525708704655737
 72
     1
 10
1.256815775865729
 20
0.1525708704655737
 11
1.265771043045974
 21
0.1525708704655737
 72
     1
 10
1.265771043045972
 20
0.1525708704655737
 11
1.274446458126835
 21
0.1525708704655737
 72
     1
 10
1.274446458126836
 20
0.1525708704655737
 11
1.282562169008935
 21
0.1525708704655737
 72
     1
 10
1.282562169008935
 20
0.1525708704655737
 11
1.289745039559755
 21
0.1525708704655737
 72
     1
 10
1.289745039559754
 20
0.1525708704655737
 11
1.295808501713045
 21
0.1525708704655737
 72
     1
 10
1.295808501713045
 20
0.1525708704655737
 11
1.300472703369422
 21
0.1525708704655737
 72
     1
 10
1.300472703369422
 20
0.1525708704655737
 11
1.303457792429504
 21
0.1525708704655737
 72
     1
 10
1.303457792429504
 20
0.1525708704655737
 11
1.304483916793907
 21
0.1525708704655737
 72
     1
 10
1.304483916793907
 20
0.1525708704655737
 11
1.304483916793907
 21
0.1730000737205081
 72
     1
 10
1.304483916793907
 20
0.1730000737205078
 11
1.303457792429504
 21
0.1730000737205078
 72
     1
 10
1.303457792429504
 20
0.1730000737205078
 11
1.300472703369422
 21
0.1730000737205078
 72
     1
 10
1.300472703369422
 20
0.1730000737205078
 11
1.295808501713044
 21
0.1730000737205078
 72
     1
 10
1.295808501713045
 20
0.1730000737205078
 11
1.289745039559754
 21
0.1730000737205078
 72
     1
 10
1.289745039559754
 20
0.1730000737205078
 11
1.282562169008934
 21
0.1730000737205078
 72
     1
 10
1.282562169008935
 20
0.1730000737205078
 11
1.274446458126836
 21
0.1730000737205078
 72
     1
 10
1.274446458126836
 20
0.1730000737205078
 11
1.265771043045975
 21
0.1730000737205078
 72
     1
 10
1.265771043045972
 20
0.1730000737205078
 11
1.256815775865727
 21
0.1730000737205078
 72
     1
 10
1.256815775865729
 20
0.1730000737205078
 11
1.247767224652355
 21
0.1730000737205078
 72
     1
 10
1.247767224652355
 20
0.1730000737205078
 11
1.238998525538364
 21
0.1730000737205078
 72
     1
 10
1.238998525538364
 20
0.1730000737205078
 11
1.230602962556885
 21
0.1730000737205078
 72
     1
 10
1.230602962556885
 20
0.1730000737205078
 11
1.223046955873553
 21
0.1730000737205078
 72
     1
 10
1.223046955873553
 20
0.1730000737205078
 11
1.216517073554625
 21
0.1730000737205078
 72
     1
 10
1.216517073554626
 20
0.1730000737205078
 11
1.211199883666355
 21
0.1730000737205078
 72
     1
 10
1.211199883666355
 20
0.1730000737205078
 11
1.207468522341252
 21
0.1730000737205078
 72
     1
 10
1.207468522341252
 20
0.1730000737205078
 11
1.2056028416787
 21
0.1730000737205078
 72
     1
 10
1.205602841678699
 20
0.1730000737205078
 11
1.205602841678699
 21
0.1754254585818243
 72
     1
 10
1.205602841678699
 20
0.1754254585818245
 11
1.205602841678699
 21
0.1794366720063095
 72
     1
 10
1.205602841678699
 20
0.1794366720063094
 11
1.205602841678699
 21
0.1843807257620694
 72
     1
 10
1.205602841678699
 20
0.1843807257620694
 11
1.205602841678699
 21
0.1898844837165951
 72
     1
 10
1.205602841678699
 20
0.1898844837165951
 11
1.205602841678699
 21
0.1952949576379935
 72
     1
 10
1.205602841678699
 20
0.1952949576379937
 11
1.205602841678699
 21
0.2003322954268815
 72
     1
 10
1.205602841678699
 20
0.2003322954268814
 11
1.205602841678699
 21
0.2042502248182386
 72
     1
 10
1.205602841678699
 20
0.2042502248182386
 11
1.205602841678699
 21
0.206675609679555
 72
     1
 10
1.205602841678699
 20
0.206675609679555
 11
1.20746852234125
 21
0.206675609679555
 72
     1
 10
1.207468522341252
 20
0.206675609679555
 11
1.211293167699482
 21
0.206675609679555
 72
     1
 10
1.211293167699482
 20
0.206675609679555
 11
1.216703641620879
 21
0.206675609679555
 72
     1
 10
1.216703641620879
 20
0.206675609679555
 11
1.223420092006062
 21
0.206675609679555
 72
     1
 10
1.223420092006063
 20
0.206675609679555
 11
1.231255950788778
 21
0.206675609679555
 72
     1
 10
1.231255950788778
 20
0.206675609679555
 11
1.239744797803385
 21
0.206675609679555
 72
     1
 10
1.239744797803384
 20
0.206675609679555
 11
1.248886633049885
 21
0.206675609679555
 72
     1
 10
1.248886633049885
 20
0.206675609679555
 11
1.258121752329512
 21
0.206675609679555
 72
     1
 10
1.258121752329514
 20
0.206675609679555
 11
1.267356871609143
 21
0.206675609679555
 72
     1
 10
1.267356871609142
 20
0.206675609679555
 11
1.276218854756258
 21
0.206675609679555
 72
     1
 10
1.276218854756258
 20
0.206675609679555
 11
1.28452113370461
 21
0.206675609679555
 72
     1
 10
1.28452113370461
 20
0.206675609679555
 11
1.291890572321688
 21
0.206675609679555
 72
     1
 10
1.291890572321688
 20
0.206675609679555
 11
1.298140602541234
 21
0.206675609679555
 72
     1
 10
1.298140602541234
 20
0.206675609679555
 11
1.302898088230739
 21
0.206675609679555
 72
     1
 10
1.302898088230739
 20
0.206675609679555
 11
1.305976461323948
 21
0.206675609679555
 72
     1
 10
1.305976461323948
 20
0.206675609679555
 11
1.30709586972148
 21
0.206675609679555
 72
     1
 10
1.307095869721478
 20
0.206675609679555
 11
1.307095869721478
 21
0.2277578011663822
 72
     1
 10
1.307095869721478
 20
0.2277578011663825
 11
1.304577200827035
 21
0.2277578011663825
 72
     1
 10
1.304577200827037
 20
0.2277578011663825
 11
1.182188549363684
 21
0.2277578011663825
 72
     1
 10
1.182188549363684
 20
0.2277578011663825
 11
1.182188549363684
 21
0.0926825211976832
 72
     1
 10
1.182188549363684
 20
0.0926825211976832
 11
1.311853355410985
 21
0.0926825211976832
 72
     1
 10
1.311853355410985
 20
0.0926825211976832
 11
1.311853355410985
 21
0.113671428651383
 72
     1
 10
1.311853355410985
 20
0.1136714286513832
 11
1.310733947013454
 21
0.1136714286513832
 72
     1
 10
1.310733947013455
 20
0.1136714286513832
 11
1.30746900585399
 21
0.1136714286513832
 72
     1
 10
1.30746900585399
 20
0.1136714286513832
 11
1.302431668065102
 21
0.1136714286513832
 72
     1
 10
1.302431668065102
 20
0.1136714286513832
 11
1.295901785746174
 21
0.1136714286513832
 72
     1
 10
1.295901785746174
 20
0.1136714286513832
 11
1.288159210996586
 21
0.1136714286513832
 72
     1
 10
1.288159210996586
 20
0.1136714286513832
 11
1.279483795915724
 21
0.1136714286513832
 72
     1
 10
1.279483795915722
 20
0.1136714286513832
 11
1.270155392602968
 21
0.1136714286513832
 72
     1
 10
1.270155392602968
 20
0.1136714286513832
 11
1.260547137190832
 21
0.1136714286513832
 72
     1
 10
1.260547137190831
 20
0.1136714286513832
 11
1.250752313712437
 21
0.1136714286513832
 72
     1
 10
1.250752313712437
 20
0.1136714286513832
 11
1.241330626366554
 21
0.1136714286513832
 72
     1
 10
1.241330626366554
 20
0.1136714286513832
 11
1.23237535918631
 21
0.1136714286513832
 72
     1
 10
1.232375359186307
 20
0.1136714286513832
 11
1.224166364271082
 21
0.1136714286513832
 72
     1
 10
1.224166364271082
 20
0.1136714286513832
 11
1.217170061786517
 21
0.1136714286513832
 72
     1
 10
1.217170061786517
 20
0.1136714286513832
 11
1.211479735765736
 21
0.1136714286513832
 72
     1
 10
1.211479735765736
 20
0.1136714286513832
 11
1.207561806374379
 21
0.1136714286513832
 72
     1
 10
1.207561806374379
 20
0.1136714286513832
 11
1.205602841678699
 21
0.1136714286513832
 72
     1
 10
1.205602841678699
 20
0.1136714286513832
 11
1.205602841678699
 21
0.1163766656120825
 72
     1
 10
1.205602841678699
 20
0.1163766656120823
 11
1.205602841678699
 21
0.1209475832353323
 72
     1
 10
1.205602841678699
 20
0.1209475832353325
 11
1.205602841678699
 21
0.1267311932892411
 72
     1
 10
1.205602841678699
 20
0.1267311932892408
 11
1.205602841678699
 21
0.1330745075419143
 72
     1
 10
1.205602841678699
 20
0.1330745075419144
 11
1.205602841678699
 21
0.1395111058277156
 72
     1
 10
1.205602841678699
 20
0.1395111058277158
 11
1.205602841678699
 21
0.1452947158816239
 72
     1
 10
1.205602841678699
 20
0.145294715881624
 11
1.205602841678699
 21
0.1498656335048746
 72
     1
 10
1.205602841678699
 20
0.1498656335048745
 11
1.205602841678699
 21
0.1525708704655738
 97
        0
 75
     0
 76
     1
 98
        1
 10
-0.3743130907707726
 20
-0.2500502867693841
1001
ACAD
1010
0.0
1020
0.0
1030
0.0
  0
HATCH
  5
A77
330
A71
100
AcDbEntity
  8
Kawneer Logo-English
100
AcDbHatch
 10
0.0
 20
0.0
 30
0.0
210
0.0
220
0.0
230
1.0
  2
SOLID
 70
     1
 71
     0
 91
        1
 92
        1
 93
       87
 72
     1
 10
1.049352086190045
 20
0.1525708704655737
 11
1.051217766852597
 21
0.1525708704655737
 72
     1
 10
1.051217766852595
 20
0.1525708704655737
 11
1.054949128177699
 21
0.1525708704655737
 72
     1
 10
1.054949128177699
 20
0.1525708704655737
 11
1.060173034032843
 21
0.1525708704655737
 72
     1
 10
1.060173034032843
 20
0.1525708704655737
 11
1.0667962003849
 21
0.1525708704655737
 72
     1
 10
1.0667962003849
 20
0.1525708704655737
 11
1.07435220706823
 21
0.1525708704655737
 72
     1
 10
1.074352207068232
 20
0.1525708704655737
 11
1.08274777004971
 21
0.1525708704655737
 72
     1
 10
1.08274777004971
 20
0.1525708704655737
 11
1.091516469163699
 21
0.1525708704655737
 72
     1
 10
1.0915164691637
 20
0.1525708704655737
 11
1.100565020377074
 21
0.1525708704655737
 72
     1
 10
1.100565020377072
 20
0.1525708704655737
 11
1.109520287557319
 21
0.1525708704655737
 72
     1
 10
1.10952028755732
 20
0.1525708704655737
 11
1.118195702638182
 21
0.1525708704655737
 72
     1
 10
1.118195702638182
 20
0.1525708704655737
 11
1.12621812948715
 21
0.1525708704655737
 72
     1
 10
1.126218129487152
 20
0.1525708704655737
 11
1.133401000037974
 21
0.1525708704655737
 72
     1
 10
1.133401000037974
 20
0.1525708704655737
 11
1.13955774622439
 21
0.1525708704655737
 72
     1
 10
1.139557746224391
 20
0.1525708704655737
 11
1.14422194788077
 21
0.1525708704655737
 72
     1
 10
1.144221947880769
 20
0.1525708704655737
 11
1.14720703694085
 21
0.1525708704655737
 72
     1
 10
1.147207036940852
 20
0.1525708704655737
 11
1.148233161305254
 21
0.1525708704655737
 72
     1
 10
1.148233161305254
 20
0.1525708704655737
 11
1.148233161305254
 21
0.1730000737205081
 72
     1
 10
1.148233161305254
 20
0.1730000737205078
 11
1.147207036940852
 21
0.1730000737205078
 72
     1
 10
1.147207036940852
 20
0.1730000737205078
 11
1.14422194788077
 21
0.1730000737205078
 72
     1
 10
1.144221947880769
 20
0.1730000737205078
 11
1.13955774622439
 21
0.1730000737205078
 72
     1
 10
1.139557746224391
 20
0.1730000737205078
 11
1.1334942840711
 21
0.1730000737205078
 72
     1
 10
1.1334942840711
 20
0.1730000737205078
 11
1.126218129487152
 21
0.1730000737205078
 72
     1
 10
1.126218129487152
 20
0.1730000737205078
 11
1.118195702638182
 21
0.1730000737205078
 72
     1
 10
1.118195702638182
 20
0.1730000737205078
 11
1.10952028755732
 21
0.1730000737205078
 72
     1
 10
1.10952028755732
 20
0.1730000737205078
 11
1.100565020377074
 21
0.1730000737205078
 72
     1
 10
1.100565020377072
 20
0.1730000737205078
 11
1.091516469163699
 21
0.1730000737205078
 72
     1
 10
1.0915164691637
 20
0.1730000737205078
 11
1.082747770049712
 21
0.1730000737205078
 72
     1
 10
1.08274777004971
 20
0.1730000737205078
 11
1.07435220706823
 21
0.1730000737205078
 72
     1
 10
1.074352207068232
 20
0.1730000737205078
 11
1.0667962003849
 21
0.1730000737205078
 72
     1
 10
1.0667962003849
 20
0.1730000737205078
 11
1.060173034032843
 21
0.1730000737205078
 72
     1
 10
1.060173034032843
 20
0.1730000737205078
 11
1.054949128177701
 21
0.1730000737205078
 72
     1
 10
1.054949128177699
 20
0.1730000737205078
 11
1.051217766852597
 21
0.1730000737205078
 72
     1
 10
1.051217766852595
 20
0.1730000737205078
 11
1.049352086190044
 21
0.1730000737205078
 72
     1
 10
1.049352086190045
 20
0.1730000737205078
 11
1.049352086190045
 21
0.1754254585818243
 72
     1
 10
1.049352086190045
 20
0.1754254585818245
 11
1.049352086190045
 21
0.1794366720063095
 72
     1
 10
1.049352086190045
 20
0.1794366720063094
 11
1.049352086190045
 21
0.1843807257620694
 72
     1
 10
1.049352086190045
 20
0.1843807257620694
 11
1.049352086190045
 21
0.1898844837165951
 72
     1
 10
1.049352086190045
 20
0.1898844837165951
 11
1.049352086190045
 21
0.1952949576379935
 72
     1
 10
1.049352086190045
 20
0.1952949576379937
 11
1.049352086190045
 21
0.2003322954268815
 72
     1
 10
1.049352086190045
 20
0.2003322954268814
 11
1.049352086190045
 21
0.2042502248182386
 72
     1
 10
1.049352086190045
 20
0.2042502248182386
 11
1.049352086190045
 21
0.206675609679555
 72
     1
 10
1.049352086190045
 20
0.206675609679555
 11
1.051217766852597
 21
0.206675609679555
 72
     1
 10
1.051217766852595
 20
0.206675609679555
 11
1.055042412210824
 21
0.206675609679555
 72
     1
 10
1.055042412210827
 20
0.206675609679555
 11
1.060452886132225
 21
0.206675609679555
 72
     1
 10
1.060452886132224
 20
0.206675609679555
 11
1.067169336517409
 21
0.206675609679555
 72
     1
 10
1.067169336517409
 20
0.206675609679555
 11
1.075005195300124
 21
0.206675609679555
 72
     1
 10
1.075005195300122
 20
0.206675609679555
 11
1.08349404231473
 21
0.206675609679555
 72
     1
 10
1.083494042314732
 20
0.206675609679555
 11
1.092542593528105
 21
0.206675609679555
 72
     1
 10
1.092542593528105
 20
0.206675609679555
 11
1.10187099684086
 21
0.206675609679555
 72
     1
 10
1.10187099684086
 20
0.206675609679555
 11
1.111106116120488
 21
0.206675609679555
 72
     1
 10
1.111106116120488
 20
0.206675609679555
 11
1.119968099267604
 21
0.206675609679555
 72
     1
 10
1.119968099267604
 20
0.206675609679555
 11
1.128270378215956
 21
0.206675609679555
 72
     1
 10
1.128270378215956
 20
0.206675609679555
 11
1.135639816833034
 21
0.206675609679555
 72
     1
 10
1.135639816833034
 20
0.206675609679555
 11
1.14188984705258
 21
0.206675609679555
 72
     1
 10
1.141889847052581
 20
0.206675609679555
 11
1.146647332742085
 21
0.206675609679555
 72
     1
 10
1.146647332742085
 20
0.206675609679555
 11
1.149725705835294
 21
0.206675609679555
 72
     1
 10
1.149725705835295
 20
0.206675609679555
 11
1.150845114232827
 21
0.206675609679555
 72
     1
 10
1.150845114232825
 20
0.206675609679555
 11
1.150845114232825
 21
0.2277578011663822
 72
     1
 10
1.150845114232825
 20
0.2277578011663825
 11
1.148326445338383
 21
0.2277578011663825
 72
     1
 10
1.148326445338383
 20
0.2277578011663825
 11
1.02593779387503
 21
0.2277578011663825
 72
     1
 10
1.025937793875031
 20
0.2277578011663825
 11
1.025937793875031
 21
0.0926825211976832
 72
     1
 10
1.025937793875031
 20
0.0926825211976832
 11
1.155602599922332
 21
0.0926825211976832
 72
     1
 10
1.155602599922332
 20
0.0926825211976832
 11
1.155602599922332
 21
0.113671428651383
 72
     1
 10
1.155602599922332
 20
0.1136714286513832
 11
1.154483191524801
 21
0.1136714286513832
 72
     1
 10
1.154483191524799
 20
0.1136714286513832
 11
1.151218250365335
 21
0.1136714286513832
 72
     1
 10
1.151218250365337
 20
0.1136714286513832
 11
1.146180912576448
 21
0.1136714286513832
 72
     1
 10
1.146180912576448
 20
0.1136714286513832
 11
1.13965103025752
 21
0.1136714286513832
 72
     1
 10
1.13965103025752
 20
0.1136714286513832
 11
1.131908455507932
 21
0.1136714286513832
 72
     1
 10
1.131908455507931
 20
0.1136714286513832
 11
1.12323304042707
 21
0.1136714286513832
 72
     1
 10
1.12323304042707
 20
0.1136714286513832
 11
1.113904637114313
 21
0.1136714286513832
 72
     1
 10
1.113904637114313
 20
0.1136714286513832
 11
1.104296381702176
 21
0.1136714286513832
 72
     1
 10
1.104296381702176
 20
0.1136714286513832
 11
1.094501558223782
 21
0.1136714286513832
 72
     1
 10
1.094501558223784
 20
0.1136714286513832
 11
1.0850798708779
 21
0.1136714286513832
 72
     1
 10
1.085079870877899
 20
0.1136714286513832
 11
1.076124603697653
 21
0.1136714286513832
 72
     1
 10
1.076124603697655
 20
0.1136714286513832
 11
1.067915608782429
 21
0.1136714286513832
 72
     1
 10
1.067915608782429
 20
0.1136714286513832
 11
1.060919306297863
 21
0.1136714286513832
 72
     1
 10
1.060919306297863
 20
0.1136714286513832
 11
1.055228980277083
 21
0.1136714286513832
 72
     1
 10
1.055228980277082
 20
0.1136714286513832
 11
1.051311050885725
 21
0.1136714286513832
 72
     1
 10
1.051311050885725
 20
0.1136714286513832
 11
1.049352086190045
 21
0.1136714286513832
 72
     1
 10
1.049352086190045
 20
0.1136714286513832
 11
1.049352086190045
 21
0.1163766656120825
 72
     1
 10
1.049352086190045
 20
0.1163766656120823
 11
1.049352086190045
 21
0.1209475832353323
 72
     1
 10
1.049352086190045
 20
0.1209475832353325
 11
1.049352086190045
 21
0.1267311932892411
 72
     1
 10
1.049352086190045
 20
0.1267311932892408
 11
1.049352086190045
 21
0.1330745075419143
 72
     1
 10
1.049352086190045
 20
0.1330745075419144
 11
1.049352086190045
 21
0.1395111058277156
 72
     1
 10
1.049352086190045
 20
0.1395111058277158
 11
1.049352086190045
 21
0.1452947158816239
 72
     1
 10
1.049352086190045
 20
0.145294715881624
 11
1.049352086190045
 21
0.1498656335048746
 72
     1
 10
1.049352086190045
 20
0.1498656335048745
 11
1.049352086190045
 21
0.1525708704655738
 97
        0
 75
     0
 76
     1
 98
        1
 10
-0.3743130907707726
 20
-0.2500502867693841
1001
ACAD
1010
0.0
1020
0.0
1030
0.0
  0
HATCH
  5
A78
330
A71
100
AcDbEntity
  8
Kawneer Logo-English
100
AcDbHatch
 10
0.0
 20
0.0
 30
0.0
210
0.0
220
0.0
230
1.0
  2
SOLID
 70
     1
 71
     0
 91
        1
 92
        1
 93
       42
 72
     1
 10
0.9725793269260698
 20
0.2277578011663825
 11
0.9725793269260698
 21
0.1354998924032311
 72
     1
 10
0.9725793269260698
 20
0.1354998924032311
 11
0.9729524630585808
 21
0.1264513411898582
 72
     1
 10
0.9729524630585796
 20
0.1264513411898583
 11
0.9729524630585796
 21
0.1255185008585825
 72
     1
 10
0.9729524630585796
 20
0.1255185008585824
 11
0.9731390311248343
 21
0.1238393882622866
 72
     1
 10
0.9731390311248347
 20
0.1238393882622866
 11
0.9717397706279211
 21
0.1254252168254551
 72
     1
 10
0.97173977062792
 20
0.1254252168254551
 11
0.9710867823960279
 21
0.1262647731236031
 72
     1
 10
0.9710867823960294
 20
0.1262647731236031
 11
0.9641837639445896
 21
0.1339140638400625
 72
     1
 10
0.9641837639445899
 20
0.1339140638400624
 11
0.8755639324734129
 21
0.2277578011663823
 72
     1
 10
0.8755639324734115
 20
0.2277578011663825
 11
0.8529891964565429
 21
0.2277578011663825
 72
     1
 10
0.8529891964565432
 20
0.2277578011663825
 11
0.8529891964565432
 21
0.0926825211976832
 72
     1
 10
0.8529891964565432
 20
0.0926825211976832
 11
0.8756572165065399
 21
0.0926825211976832
 72
     1
 10
0.8756572165065408
 20
0.0926825211976832
 11
0.8756572165065408
 21
0.1927762887435495
 72
     1
 10
0.8756572165065408
 20
0.1927762887435495
 11
0.8756572165065408
 21
0.1931494248760597
 72
     1
 10
0.8756572165065408
 20
0.1931494248760596
 11
0.8755639324734129
 21
0.193988981174208
 72
     1
 10
0.8755639324734115
 20
0.1939889811742079
 11
0.8754706484402849
 21
0.1952949576379935
 72
     1
 10
0.8754706484402859
 20
0.1952949576379937
 11
0.8753773644071577
 21
0.1967875021680344
 72
     1
 10
0.8753773644071578
 20
0.1967875021680343
 11
0.8755639324734126
 21
0.1965076500686515
 72
     1
 10
0.8755639324734115
 20
0.1965076500686517
 11
0.8756572165065396
 21
0.1963210820023967
 72
     1
 10
0.8756572165065408
 20
0.1963210820023967
 11
0.8764967728046894
 21
0.1954815257042487
 72
     1
 10
0.8764967728046887
 20
0.1954815257042488
 11
0.8781758854009835
 21
0.1936158450416976
 72
     1
 10
0.8781758854009842
 20
0.1936158450416973
 11
0.8797617139641527
 21
0.1917501643791464
 72
     1
 10
0.879761713964152
 20
0.1917501643791466
 11
0.8805079862291723
 21
0.1909106080809982
 72
     1
 10
0.8805079862291727
 20
0.190910608080998
 11
0.8816273946267035
 21
0.1897911996834678
 72
     1
 10
0.8816273946267028
 20
0.1897911996834681
 11
0.8845191996536568
 21
0.1867128265902584
 72
     1
 10
0.8845191996536581
 20
0.1867128265902582
 11
0.8891834013100352
 21
0.1818620568676254
 72
     1
 10
0.889183401310035
 20
0.1818620568676252
 11
0.8951535794301982
 21
0.1756120266480794
 72
     1
 10
0.8951535794301983
 20
0.1756120266480794
 11
0.9021498819147662
 21
0.1681493039978751
 72
     1
 10
0.9021498819147668
 20
0.1681493039978752
 11
0.9099857406974813
 21
0.1598470250495227
 72
     1
 10
0.9099857406974811
 20
0.1598470250495225
 11
0.9183813036789612
 21
0.1509850419024051
 72
     1
 10
0.9183813036789612
 20
0.1509850419024052
 11
0.9271500027929519
 21
0.1418432066559046
 72
     1
 10
0.9271500027929507
 20
0.1418432066559046
 11
0.9358254178738118
 21
0.1326080873762767
 72
     1
 10
0.9358254178738132
 20
0.1326080873762767
 11
0.9442209808552931
 21
0.1237461042291589
 72
     1
 10
0.9442209808552931
 20
0.1237461042291589
 11
0.9520568396380092
 21
0.1154438252808068
 72
     1
 10
0.9520568396380092
 20
0.1154438252808068
 11
0.9590531421225751
 21
0.1079811026306025
 72
     1
 10
0.9590531421225742
 20
0.1079811026306024
 11
0.9650233202427372
 21
0.101731072411056
 72
     1
 10
0.9650233202427376
 20
0.101731072411056
 11
0.9695942378659868
 21
0.0968803026884232
 72
     1
 10
0.9695942378659871
 20
0.096880302688423
 11
0.9725793269260696
 21
0.0938019295952138
 72
     1
 10
0.9725793269260698
 20
0.093801929595214
 11
0.9736054512904727
 21
0.0926825211976834
 72
     1
 10
0.9736054512904726
 20
0.0926825211976832
 11
0.995247346976066
 21
0.0926825211976832
 72
     1
 10
0.9952473469760651
 20
0.0926825211976832
 11
0.9952473469760651
 21
0.2277578011663825
 72
     1
 10
0.9952473469760651
 20
0.2277578011663825
 11
0.9927286780816199
 21
0.2277578011663825
 72
     1
 10
0.9927286780816203
 20
0.2277578011663825
 11
0.9725793269260686
 21
0.2277578011663825
 97
        0
 75
     0
 76
     1
 98
        1
 10
-0.3743130907707726
 20
-0.2500502867693841
1001
ACAD
1010
0.0
1020
0.0
1030
0.0
  0
HATCH
  5
A79
330
A71
100
AcDbEntity
  8
Kawneer Logo-English
100
AcDbHatch
 10
0.0
 20
0.0
 30
0.0
210
0.0
220
0.0
230
1.0
  2
SOLID
 70
     1
 71
     0
 91
        2
 92
       16
 93
       32
 72
     1
 10
0.5269615006757409
 20
0.144641727649731
 11
0.5290137494045469
 21
0.148652941074216
 72
     1
 10
0.5290137494045464
 20
0.1486529410742159
 11
0.5322786905640116
 21
0.1551828233931449
 72
     1
 10
0.532278690564012
 20
0.1551828233931452
 11
0.5364764720547522
 21
0.1633918183083696
 72
     1
 10
0.5364764720547526
 20
0.1633918183083696
 11
0.5409541056448736
 21
0.1722538014554874
 72
     1
 10
0.5409541056448726
 20
0.1722538014554873
 11
0.545338455201869
 21
0.1808359325032223
 72
     1
 10
0.5453384552018701
 20
0.1808359325032223
 11
0.5490698165269726
 21
0.1882053711202994
 72
     1
 10
0.549069816526973
 20
0.1882053711202996
 11
0.5515884854214163
 21
0.1932427089091875
 72
     1
 10
0.5515884854214148
 20
0.1932427089091872
 11
0.5526146097858177
 21
0.1952016736048658
 72
     1
 10
0.5526146097858195
 20
0.1952016736048658
 11
0.552801177852074
 21
0.195761377803631
 72
     1
 10
0.5528011778520723
 20
0.1957613778036309
 11
0.5533608820508379
 21
0.1970673542674166
 72
     1
 10
0.5533608820508378
 20
0.1970673542674169
 11
0.5542004383489863
 21
0.1990263189630955
 72
     1
 10
0.5542004383489873
 20
0.1990263189630952
 11
0.5550399946471356
 21
0.2012651357581567
 72
     1
 10
0.5550399946471352
 20
0.2012651357581567
 11
0.5555064148127728
 21
0.2001457273606265
 72
     1
 10
0.5555064148127729
 20
0.2001457273606264
 11
0.5560661190115385
 21
0.198933034929968
 72
     1
 10
0.5560661190115379
 20
0.198933034929968
 11
0.5567191072434298
 21
0.197533774433055
 72
     1
 10
0.5567191072434304
 20
0.197533774433055
 11
0.5574653795084507
 21
0.1959479458698865
 72
     1
 10
0.5574653795084511
 20
0.1959479458698865
 11
0.5583049358065995
 21
0.1942688332735902
 72
     1
 10
0.5583049358065986
 20
0.1942688332735903
 11
0.5606370366347874
 21
0.1896046316172126
 72
     1
 10
0.5606370366347872
 20
0.1896046316172126
 11
0.5639952618273804
 21
0.1828881812320289
 72
     1
 10
0.5639952618273814
 20
0.1828881812320287
 11
0.5680064752518651
 21
0.1748657543830587
 72
     1
 10
0.5680064752518637
 20
0.1748657543830589
 11
0.57239082480886
 21
0.1661903393021966
 72
     1
 10
0.5723908248088612
 20
0.1661903393021967
 11
0.5765886062996012
 21
0.1577947763207168
 72
     1
 10
0.5765886062996
 20
0.1577947763207165
 11
0.5803199676247008
 21
0.1503320536705122
 72
     1
 10
0.5803199676247015
 20
0.1503320536705122
 11
0.5831184886185296
 21
0.144641727649731
 72
     1
 10
0.5831184886185296
 20
0.144641727649731
 11
0.5791072751940442
 21
0.144641727649731
 72
     1
 10
0.5791072751940436
 20
0.144641727649731
 11
0.5724841088419869
 21
0.144641727649731
 72
     1
 10
0.5724841088419872
 20
0.144641727649731
 11
0.5641818298936357
 21
0.144641727649731
 72
     1
 10
0.5641818298936352
 20
0.144641727649731
 11
0.5550399946471351
 21
0.144641727649731
 72
     1
 10
0.5550399946471352
 20
0.144641727649731
 11
0.5458981594006352
 21
0.144641727649731
 72
     1
 10
0.5458981594006353
 20
0.144641727649731
 11
0.5375958804522815
 21
0.144641727649731
 72
     1
 10
0.5375958804522814
 20
0.144641727649731
 11
0.5310659981333528
 21
0.144641727649731
 72
     1
 10
0.5310659981333524
 20
0.144641727649731
 11
0.5269615006757406
 21
0.144641727649731
 97
        0
 92
        1
 93
      141
 72
     1
 10
0.5656743744236758
 20
0.2277578011663825
 11
0.544405614870593
 21
0.2277578011663825
 72
     1
 10
0.544405614870593
 20
0.2277578011663825
 11
0.4748157261574383
 21
0.0934287934627039
 72
     1
 10
0.4748157261574379
 20
0.0934287934627039
 11
0.4729500454948865
 21
0.0955743262246376
 72
     1
 10
0.4729500454948874
 20
0.0955743262246376
 11
0.469964956434805
 21
0.0991191194834847
 72
     1
 10
0.4699649564348043
 20
0.0991191194834847
 11
0.4661403110765752
 21
0.1036900371067346
 72
     1
 10
0.4661403110765754
 20
0.1036900371067347
 11
0.4615693934533244
 21
0.1091005110281331
 72
     1
 10
0.4615693934533251
 20
0.109100511028133
 11
0.4563454875981821
 21
0.1152572572145517
 72
     1
 10
0.4563454875981813
 20
0.1152572572145516
 11
0.4506551615774008
 21
0.1219737075997353
 72
     1
 10
0.4506551615774015
 20
0.1219737075997354
 11
0.4447782674903648
 21
0.1290632941174296
 72
     1
 10
0.4447782674903637
 20
0.1290632941174296
 11
0.4387148053370722
 21
0.1362461646682511
 72
     1
 10
0.4387148053370728
 20
0.1362461646682512
 11
0.4326513431837832
 21
0.1433357511859454
 72
     1
 10
0.4326513431837844
 20
0.1433357511859453
 11
0.426867733129876
 21
0.1502387696373844
 72
     1
 10
0.4268677331298756
 20
0.1502387696373844
 11
0.4214572592084763
 21
0.1566753679231857
 72
     1
 10
0.4214572592084754
 20
0.1566753679231858
 11
0.4165132054527154
 21
0.1625522620102216
 72
     1
 10
0.4165132054527163
 20
0.1625522620102216
 11
0.4123154239619763
 21
0.1674963157659821
 72
     1
 10
0.4123154239619753
 20
0.1674963157659822
 11
0.4088639147362555
 21
0.1715075291904667
 72
     1
 10
0.4088639147362568
 20
0.1715075291904669
 11
0.4065318139080681
 21
0.1743993342174211
 72
     1
 10
0.4065318139080665
 20
0.1743993342174211
 11
0.405319121477409
 21
0.1757985947143345
 72
     1
 10
0.4053191214774105
 20
0.1757985947143345
 11
0.4067183819743243
 21
0.1769180031118651
 72
     1
 10
0.4067183819743235
 20
0.1769180031118651
 11
0.4094236189350214
 21
0.1788769678075437
 72
     1
 10
0.4094236189350219
 20
0.1788769678075437
 11
0.4132482642932527
 21
0.1816754888013702
 72
     1
 10
0.4132482642932526
 20
0.1816754888013703
 11
0.4179124659496298
 21
0.1852202820602174
 72
     1
 10
0.417912465949629
 20
0.1852202820602174
 11
0.4232296558379001
 21
0.189138211451575
 72
     1
 10
0.4232296558379002
 20
0.1891382114515751
 11
0.4291065499249351
 21
0.1935225610085696
 72
     1
 10
0.4291065499249367
 20
0.1935225610085698
 11
0.4352632961113562
 21
0.1981867626649482
 72
     1
 10
0.4352632961113554
 20
0.1981867626649479
 11
0.4416066103640297
 21
0.2028509643213252
 72
     1
 10
0.4416066103640294
 20
0.2028509643213252
 11
0.4479499246167017
 21
0.2076084500108307
 72
     1
 10
0.4479499246167018
 20
0.2076084500108307
 11
0.4540133867699933
 21
0.2120860836009535
 72
     1
 10
0.4540133867699927
 20
0.2120860836009535
 11
0.4596104287576467
 21
0.2162838650916932
 72
     1
 10
0.4596104287576468
 20
0.216283865091693
 11
0.4646477665465352
 21
0.2200152264167952
 72
     1
 10
0.464647766546535
 20
0.2200152264167951
 11
0.4689388320704014
 21
0.223186883543132
 72
     1
 10
0.4689388320704017
 20
0.2231868835431323
 11
0.4721104891967386
 21
0.2256122684044488
 72
     1
 10
0.4721104891967376
 20
0.2256122684044488
 11
0.4742560219586717
 21
0.2271980969676172
 72
     1
 10
0.4742560219586728
 20
0.2271980969676173
 11
0.475002294223693
 21
0.2277578011663825
 72
     1
 10
0.4750022942236929
 20
0.2277578011663825
 11
0.4674462875403612
 21
0.2277578011663825
 72
     1
 10
0.4674462875403611
 20
0.2277578011663825
 11
0.4395543616352215
 21
0.2277578011663825
 72
     1
 10
0.4395543616352221
 20
0.2277578011663825
 11
0.4386215213039474
 21
0.2270115289013622
 72
     1
 10
0.4386215213039466
 20
0.2270115289013622
 11
0.435916284343247
 21
0.2250525642056836
 72
     1
 10
0.4359162843432465
 20
0.2250525642056836
 11
0.4318117868856346
 21
0.2220674751456017
 72
     1
 10
0.4318117868856352
 20
0.2220674751456017
 11
0.4264013129642377
 21
0.2180562617211167
 72
     1
 10
0.4264013129642379
 20
0.2180562617211168
 11
0.4200579987115639
 21
0.2132987760316117
 72
     1
 10
0.4200579987115641
 20
0.2132987760316114
 11
0.4128751281607416
 21
0.2079815861433408
 72
     1
 10
0.4128751281607408
 20
0.2079815861433408
 11
0.4051325534111547
 21
0.20229126012256
 72
     1
 10
0.4051325534111553
 20
0.20229126012256
 11
0.397016842529058
 21
0.1963210820023964
 72
     1
 10
0.3970168425290583
 20
0.1963210820023967
 11
0.3889011316469611
 21
0.1903509038822331
 72
     1
 10
0.3889011316469611
 20
0.190350903882233
 11
0.3808787047979902
 21
0.1844740097951972
 72
     1
 10
0.3808787047979898
 20
0.1844740097951974
 11
0.3733226981146581
 21
0.1787836837744166
 72
     1
 10
0.3733226981146579
 20
0.1787836837744166
 11
0.3663263956300919
 21
0.173653061952401
 72
     1
 10
0.3663263956300931
 20
0.173653061952401
 11
0.3601696494436735
 21
0.169082144329151
 72
     1
 10
0.3601696494436726
 20
0.1690821443291508
 11
0.3550390276216579
 21
0.1653507830040483
 72
     1
 10
0.3550390276216584
 20
0.1653507830040482
 11
0.3513076662965558
 21
0.1625522620102218
 72
     1
 10
0.3513076662965551
 20
0.1625522620102216
 11
0.3490688495014928
 21
0.1609664334470531
 72
     1
 10
0.3490688495014926
 20
0.1609664334470531
 11
0.3490688495014926
 21
0.1631119662089868
 72
     1
 10
0.3490688495014926
 20
0.1631119662089868
 11
0.3490688495014926
 21
0.1662836233353237
 72
     1
 10
0.3490688495014926
 20
0.1662836233353238
 11
0.3490688495014926
 21
0.1702948367598088
 72
     1
 10
0.3490688495014926
 20
0.1702948367598088
 11
0.3490688495014926
 21
0.1749590384161865
 72
     1
 10
0.3490688495014926
 20
0.1749590384161865
 11
0.3490688495014926
 21
0.1801829442713294
 72
     1
 10
0.3490688495014926
 20
0.1801829442713296
 11
0.3490688495014926
 21
0.185779986258983
 72
     1
 10
0.3490688495014926
 20
0.1857799862589829
 11
0.3490688495014926
 21
0.1916568803460187
 72
     1
 10
0.3490688495014926
 20
0.1916568803460186
 11
0.3490688495014926
 21
0.1975337744330549
 72
     1
 10
0.3490688495014926
 20
0.197533774433055
 11
0.3490688495014926
 21
0.2033173844869632
 72
     1
 10
0.3490688495014926
 20
0.2033173844869631
 11
0.3490688495014926
 21
0.2088211424414888
 72
     1
 10
0.3490688495014926
 20
0.2088211424414888
 11
0.3490688495014926
 21
0.2139517642635044
 72
     1
 10
0.3490688495014926
 20
0.2139517642635044
 11
0.3490688495014926
 21
0.2185226818867544
 72
     1
 10
0.3490688495014926
 20
0.2185226818867545
 11
0.3490688495014926
 21
0.2222540432118567
 72
     1
 10
0.3490688495014926
 20
0.2222540432118567
 11
0.3490688495014926
 21
0.2252391322719387
 72
     1
 10
0.3490688495014926
 20
0.2252391322719387
 11
0.3490688495014926
 21
0.2271048129344895
 72
     1
 10
0.3490688495014926
 20
0.2271048129344895
 11
0.3490688495014926
 21
0.2277578011663825
 72
     1
 10
0.3490688495014926
 20
0.2277578011663825
 11
0.3258411252527322
 21
0.2277578011663825
 72
     1
 10
0.3258411252527336
 20
0.2277578011663825
 11
0.3258411252527336
 21
0.0926825211976832
 72
     1
 10
0.3258411252527336
 20
0.0926825211976832
 11
0.3486957133689848
 21
0.0926825211976832
 72
     1
 10
0.3486957133689845
 20
0.0926825211976832
 11
0.3486957133689845
 21
0.0943616337939795
 72
     1
 10
0.3486957133689845
 20
0.0943616337939795
 11
0.3486957133689845
 21
0.0988392673841017
 72
     1
 10
0.3486957133689845
 20
0.0988392673841017
 11
0.3486957133689845
 21
0.1051825816367752
 72
     1
 10
0.3486957133689845
 20
0.1051825816367753
 11
0.3486957133689845
 21
0.1125520202538523
 72
     1
 10
0.3486957133689845
 20
0.1125520202538524
 11
0.3486957133689845
 21
0.1200147429040567
 72
     1
 10
0.3486957133689845
 20
0.1200147429040567
 11
0.3486957133689845
 21
0.1267311932892408
 72
     1
 10
0.3486957133689845
 20
0.1267311932892408
 11
0.3486957133689845
 21
0.1317685310781287
 72
     1
 10
0.3486957133689845
 20
0.1317685310781289
 11
0.3486957133689845
 21
0.1342871999725727
 72
     1
 10
0.3486957133689845
 20
0.1342871999725725
 11
0.3507479620977905
 21
0.1356864604694859
 72
     1
 10
0.35074796209779
 20
0.1356864604694859
 11
0.3548524595554018
 21
0.1387648335626952
 72
     1
 10
0.3548524595554015
 20
0.1387648335626952
 11
0.3605427855761835
 21
0.1428693310203079
 72
     1
 10
0.3605427855761842
 20
0.1428693310203079
 11
0.3668860998288565
 21
0.1476268167098129
 72
     1
 10
0.3668860998288568
 20
0.1476268167098129
 11
0.3733226981146589
 21
0.1522910183661906
 72
     1
 10
0.3733226981146579
 20
0.1522910183661908
 11
0.3791995922016947
 21
0.1565820838900582
 72
     1
 10
0.3791995922016946
 20
0.1565820838900582
 11
0.3836772257918156
 21
0.1599403090826502
 72
     1
 10
0.3836772257918159
 20
0.1599403090826503
 11
0.386195894686261
 21
0.1618059897452011
 72
     1
 10
0.3861958946862609
 20
0.1618059897452011
 11
0.3873153030837921
 21
0.1604067292482882
 72
     1
 10
0.3873153030837915
 20
0.1604067292482878
 11
0.3894608358457238
 21
0.1577947763207163
 72
     1
 10
0.3894608358457248
 20
0.1577947763207165
 11
0.3925392089389353
 21
0.1541566990287417
 72
     1
 10
0.3925392089389348
 20
0.1541566990287417
 11
0.396457138330292
 21
0.149492497372364
 72
     1
 10
0.3964571383302933
 20
0.149492497372364
 11
0.4009347719204161
 21
0.1442685915172211
 72
     1
 10
0.4009347719204146
 20
0.1442685915172209
 11
0.4057855416430466
 21
0.138391697430185
 72
     1
 10
0.4057855416430464
 20
0.1383916974301853
 11
0.4109161634650629
 21
0.1322349512437666
 72
     1
 10
0.4109161634650639
 20
0.1322349512437666
 11
0.4162333533533336
 21
0.1259849210242201
 72
     1
 10
0.4162333533533335
 20
0.1259849210242201
 11
0.4215505432416044
 21
0.1196416067715466
 72
     1
 10
0.4215505432416046
 20
0.1196416067715466
 11
0.4265878810304927
 21
0.113671428651383
 72
     1
 10
0.4265878810304932
 20
0.1136714286513832
 11
0.4312520826868704
 21
0.1079811026306024
 72
     1
 10
0.4312520826868697
 20
0.1079811026306024
 11
0.4355431482107379
 21
0.1029437648417141
 72
     1
 10
0.435543148210738
 20
0.1029437648417139
 11
0.4390879414695842
 21
0.0987459833509739
 72
     1
 10
0.4390879414695843
 20
0.0987459833509741
 11
0.4417931784302841
 21
0.0954810421915098
 72
     1
 10
0.4417931784302846
 20
0.0954810421915096
 11
0.4435655750597077
 21
0.0934287934627037
 72
     1
 10
0.4435655750597074
 20
0.0934287934627039
 11
0.4442185632915993
 21
0.0926825211976832
 72
     1
 10
0.4442185632915985
 20
0.0926825211976832
 11
0.4743493059918004
 21
0.0926825211976832
 72
     1
 10
0.4743493059918002
 20
0.0926825211976832
 11
0.4753754303562029
 21
0.0926825211976832
 72
     1
 10
0.4753754303562033
 20
0.0926825211976832
 11
0.5008419714000258
 21
0.0926825211976832
 72
     1
 10
0.5008419714000265
 20
0.0926825211976832
 11
0.5014949596319184
 21
0.0939884976614689
 72
     1
 10
0.5014949596319191
 20
0.0939884976614688
 11
0.5031740722282155
 21
0.0973467228540609
 72
     1
 10
0.5031740722282151
 20
0.0973467228540612
 11
0.5055061730564038
 21
0.1021042085435666
 72
     1
 10
0.505506173056403
 20
0.1021042085435665
 11
0.5083046940502291
 21
0.1077012505312196
 72
     1
 10
0.5083046940502292
 20
0.1077012505312194
 11
0.5111032150440554
 21
0.1134848605851279
 72
     1
 10
0.5111032150440549
 20
0.1134848605851281
 11
0.5137151679716264
 21
0.1186154824071433
 72
     1
 10
0.5137151679716278
 20
0.1186154824071433
 11
0.5156741326673071
 21
0.1226266958316283
 72
     1
 10
0.5156741326673076
 20
0.122626695831628
 11
0.5167002570317104
 21
0.1247722285935621
 72
     1
 10
0.5167002570317103
 20
0.1247722285935622
 11
0.5180062334954961
 21
0.1247722285935622
 72
     1
 10
0.5180062334954961
 20
0.1247722285935622
 11
0.5207114704561957
 21
0.1247722285935622
 72
     1
 10
0.5207114704561944
 20
0.1247722285935622
 11
0.5246293998475517
 21
0.1247722285935622
 72
     1
 10
0.5246293998475525
 20
0.1247722285935622
 11
0.5295734536033125
 21
0.1247722285935622
 72
     1
 10
0.5295734536033116
 20
0.1247722285935622
 11
0.5352637796240919
 21
0.1247722285935622
 72
     1
 10
0.5352637796240929
 20
0.1247722285935622
 11
0.5415138098436386
 21
0.1247722285935622
 72
     1
 10
0.5415138098436394
 20
0.1247722285935622
 11
0.5482302602288245
 21
0.1247722285935622
 72
     1
 10
0.5482302602288236
 20
0.1247722285935622
 11
0.5551332786802617
 21
0.1247722285935622
 72
     1
 10
0.5551332786802609
 20
0.1247722285935622
 11
0.5620362971317005
 21
0.1247722285935622
 72
     1
 10
0.5620362971317015
 20
0.1247722285935622
 11
0.5687527475168847
 21
0.1247722285935622
 72
     1
 10
0.5687527475168839
 20
0.1247722285935622
 11
0.5750027777364318
 21
0.1247722285935622
 72
     1
 10
0.5750027777364322
 20
0.1247722285935622
 11
0.5806931037572127
 21
0.1247722285935622
 72
     1
 10
0.580693103757212
 20
0.1247722285935622
 11
0.5856371575129721
 21
0.1247722285935622
 72
     1
 10
0.5856371575129728
 20
0.1247722285935622
 11
0.5895550869043299
 21
0.1247722285935622
 72
     1
 10
0.5895550869043289
 20
0.1247722285935622
 11
0.5922603238650286
 21
0.1247722285935622
 72
     1
 10
0.5922603238650292
 20
0.1247722285935622
 11
0.5935663003288149
 21
0.1247722285935622
 72
     1
 10
0.5935663003288149
 20
0.1247722285935622
 11
0.5945924246932176
 21
0.1226266958316281
 72
     1
 10
0.5945924246932175
 20
0.122626695831628
 11
0.5965513893888953
 21
0.1186154824071431
 72
     1
 10
0.5965513893888958
 20
0.1186154824071433
 11
0.5991633423164672
 21
0.1134848605851281
 72
     1
 10
0.5991633423164667
 20
0.1134848605851281
 11
0.6019618633102946
 21
0.1077012505312196
 72
     1
 10
0.6019618633102959
 20
0.1077012505312194
 11
0.6047603843041222
 21
0.1021042085435664
 72
     1
 10
0.6047603843041221
 20
0.1021042085435665
 11
0.607092485132311
 21
0.0973467228540611
 72
     1
 10
0.6070924851323101
 20
0.0973467228540612
 11
0.6087715977286067
 21
0.0939884976614691
 72
     1
 10
0.6087715977286062
 20
0.0939884976614688
 11
0.609424585960498
 21
0.0926825211976832
 72
     1
 10
0.6094245859604987
 20
0.0926825211976832
 11
0.6363836715343633
 21
0.0926825211976832
 72
     1
 10
0.6363836715343642
 20
0.0926825211976832
 11
0.5671669189537184
 21
0.2277578011663825
 72
     1
 10
0.5671669189537179
 20
0.2277578011663825
 11
0.5656743744236758
 21
0.2277578011663825
 97
        0
 75
     0
 76
     1
 98
        1
 10
-0.3743130907707726
 20
-0.2500502867693841
1001
ACAD
1010
0.0
1020
0.0
1030
0.0
  0
HATCH
  5
A7A
330
A71
100
AcDbEntity
  8
Kawneer Logo-English
100
AcDbHatch
 10
0.0
 20
0.0
 30
0.0
210
0.0
220
0.0
230
1.0
  2
SOLID
 70
     1
 71
     0
 91
        1
 92
        1
 93
       69
 72
     1
 10
0.8092389849197203
 20
0.2277578011663825
 11
0.778921674153266
 21
0.1309289747799811
 72
     1
 10
0.7789216741532672
 20
0.1309289747799809
 11
0.7781754018882469
 21
0.1287834420180468
 72
     1
 10
0.7781754018882469
 20
0.1287834420180467
 11
0.7776156976894813
 21
0.1270110453886236
 72
     1
 10
0.7776156976894814
 20
0.1270110453886237
 11
0.7771492775238438
 21
0.1253319327923275
 72
     1
 10
0.7771492775238436
 20
0.1253319327923274
 11
0.7766828573582046
 21
0.1238393882622867
 72
     1
 10
0.7766828573582047
 20
0.1238393882622866
 11
0.7764030052588217
 21
0.1248655126266895
 72
     1
 10
0.776403005258822
 20
0.1248655126266896
 11
0.7761231531594392
 21
0.1259849210242202
 72
     1
 10
0.7761231531594392
 20
0.1259849210242201
 11
0.7759365850931844
 21
0.1268244773223681
 72
     1
 10
0.7759365850931843
 20
0.1268244773223682
 11
0.7758433010600562
 21
0.1271976134548783
 72
     1
 10
0.7758433010600552
 20
0.1271976134548783
 11
0.7755634489606745
 21
0.1280371697530267
 72
     1
 10
0.7755634489606741
 20
0.1280371697530267
 11
0.775097028795035
 21
0.1291565781505569
 72
     1
 10
0.7750970287950363
 20
0.1291565781505568
 11
0.7739776203975071
 21
0.1323282352768938
 72
     1
 10
0.7739776203975062
 20
0.1323282352768939
 11
0.772111939734955
 21
0.1372722890326544
 72
     1
 10
0.7721119397349554
 20
0.1372722890326546
 11
0.7697798389067666
 21
0.1436156032853281
 72
     1
 10
0.7697798389067671
 20
0.1436156032853281
 11
0.7670746019460673
 21
0.1511716099686602
 72
     1
 10
0.7670746019460668
 20
0.15117160996866
 11
0.7639962288528582
 21
0.1595671729501399
 72
     1
 10
0.7639962288528582
 20
0.15956717295014
 11
0.7606380036602665
 21
0.1686157241635125
 72
     1
 10
0.7606380036602653
 20
0.1686157241635125
 11
0.7572797784676718
 21
0.1778508434431408
 72
     1
 10
0.7572797784676726
 20
0.1778508434431408
 11
0.753921553275081
 21
0.187179246755896
 72
     1
 10
0.7539215532750814
 20
0.1871792467558961
 11
0.7505633280824898
 21
0.1962277979692689
 72
     1
 10
0.7505633280824902
 20
0.1962277979692689
 11
0.7474849549892814
 21
0.2046233609507488
 72
     1
 10
0.7474849549892797
 20
0.2046233609507488
 11
0.74477971802858
 21
0.2121793676340809
 72
     1
 10
0.7447797180285815
 20
0.2121793676340809
 11
0.7424476172003926
 21
0.2185226818867544
 72
     1
 10
0.7424476172003929
 20
0.2185226818867545
 11
0.7405819365378416
 21
0.2234667356425151
 72
     1
 10
0.7405819365378408
 20
0.2234667356425151
 11
0.7394625281403098
 21
0.2266383927688516
 72
     1
 10
0.7394625281403103
 20
0.2266383927688516
 11
0.7390893920078009
 21
0.2277578011663822
 72
     1
 10
0.7390893920078005
 20
0.2277578011663825
 11
0.7191266089185035
 21
0.2277578011663825
 72
     1
 10
0.7191266089185029
 20
0.2277578011663825
 11
0.6843316645619254
 21
0.1336342117406798
 72
     1
 10
0.6843316645619268
 20
0.1336342117406795
 11
0.6832122561643958
 21
0.130649122680598
 72
     1
 10
0.6832122561643961
 20
0.1306491226805981
 11
0.6823726998662476
 21
0.1282237378192816
 72
     1
 10
0.6823726998662468
 20
0.1282237378192818
 11
0.6817197116343549
 21
0.1260782050573481
 72
     1
 10
0.6817197116343552
 20
0.1260782050573481
 11
0.6811600074355896
 21
0.1241192403616695
 72
     1
 10
0.6811600074355884
 20
0.1241192403616695
 11
0.6808801553362055
 21
0.1250520806929446
 72
     1
 10
0.680880155336206
 20
0.1250520806929445
 11
0.680507019203695
 21
0.1261714890904751
 72
     1
 10
0.6805070192036961
 20
0.1261714890904752
 11
0.6802271671043131
 21
0.1272908974880058
 72
     1
 10
0.680227167104313
 20
0.1272908974880061
 11
0.6798540309718037
 21
0.1286901579849195
 72
     1
 10
0.6798540309718031
 20
0.1286901579849194
 11
0.6794808948392923
 21
0.12980956638245
 72
     1
 10
0.6794808948392932
 20
0.1298095663824503
 11
0.6784547704748905
 21
0.1328879394756595
 72
     1
 10
0.67845477047489
 20
0.1328879394756595
 11
0.6769622259448497
 21
0.1378319932314196
 72
     1
 10
0.6769622259448496
 20
0.1378319932314196
 11
0.6750032612491701
 21
0.1441753074840938
 72
     1
 10
0.6750032612491697
 20
0.1441753074840937
 11
0.6725778763878548
 21
0.1516380301342981
 72
     1
 10
0.6725778763878556
 20
0.1516380301342981
 11
0.6699659234602841
 21
0.160033593115778
 72
     1
 10
0.669965923460283
 20
0.160033593115778
 11
0.6671674024664549
 21
0.168988860296023
 72
     1
 10
0.6671674024664555
 20
0.168988860296023
 11
0.6642755974395012
 21
0.1782239795756509
 72
     1
 10
0.6642755974395019
 20
0.178223979575651
 11
0.6613837924125478
 21
0.1874590988552789
 72
     1
 10
0.6613837924125467
 20
0.1874590988552789
 11
0.6585852714187205
 21
0.1964143660355239
 72
     1
 10
0.6585852714187204
 20
0.1964143660355237
 11
0.655973318491149
 21
0.2047166449838762
 72
     1
 10
0.6559733184911494
 20
0.2047166449838765
 11
0.6536412176629606
 21
0.2122726516672082
 72
     1
 10
0.6536412176629614
 20
0.2122726516672082
 11
0.6515889689341538
 21
0.2186159659198823
 72
     1
 10
0.6515889689341538
 20
0.2186159659198821
 11
0.6500964244041133
 21
0.2234667356425149
 72
     1
 10
0.6500964244041132
 20
0.2234667356425151
 11
0.6490703000397105
 21
0.2266383927688516
 72
     1
 10
0.6490703000397105
 20
0.2266383927688516
 11
0.6487904479403276
 21
0.2277578011663822
 72
     1
 10
0.648790447940328
 20
0.2277578011663825
 11
0.6237903270621446
 21
0.2277578011663825
 72
     1
 10
0.6237903270621437
 20
0.2277578011663825
 11
0.6676338226320933
 21
0.0926825211976832
 72
     1
 10
0.6676338226320926
 20
0.0926825211976832
 11
0.6922608073777669
 21
0.0926825211976832
 72
     1
 10
0.6922608073777666
 20
0.0926825211976832
 11
0.726029627369941
 21
0.1855001341596003
 72
     1
 10
0.7260296273699423
 20
0.1855001341596003
 11
0.7269624677012189
 21
0.1882986551534267
 72
     1
 10
0.7269624677012178
 20
0.1882986551534266
 11
0.7278020239993661
 21
0.1906307559816158
 72
     1
 10
0.7278020239993671
 20
0.1906307559816159
 11
0.7284550122312589
 21
0.1927762887435496
 72
     1
 10
0.7284550122312581
 20
0.1927762887435495
 11
0.7290147164300237
 21
0.1947352534392281
 72
     1
 10
0.7290147164300233
 20
0.1947352534392282
 11
0.7298542727281716
 21
0.192216584544784
 72
     1
 10
0.729854272728173
 20
0.1922165845447839
 11
0.7306938290263214
 21
0.1894180635509575
 72
     1
 10
0.7306938290263206
 20
0.1894180635509575
 11
0.7318132374238499
 21
0.1863396904577483
 72
     1
 10
0.7318132374238511
 20
0.1863396904577481
 11
0.7331192138876387
 21
0.1827016131657736
 72
     1
 10
0.7331192138876382
 20
0.1827016131657737
 11
0.7654887733828987
 21
0.0926825211976834
 72
     1
 10
0.7654887733828986
 20
0.0926825211976832
 11
0.7895560539298076
 21
0.0926825211976832
 72
     1
 10
0.7895560539298076
 20
0.0926825211976832
 11
0.8341458217647785
 21
0.2277578011663825
 72
     1
 10
0.8341458217647781
 20
0.2277578011663825
 11
0.8306010285059318
 21
0.2277578011663825
 72
     1
 10
0.8306010285059324
 20
0.2277578011663825
 11
0.8092389849197216
 21
0.2277578011663825
 97
        0
 75
     0
 76
     1
 98
        1
 10
-0.3743130907707726
 20
-0.2500502867693841
1001
ACAD
1010
0.0
1020
0.0
1030
0.0
  0
ENDBLK
  5
A7E
330
A71
100
AcDbEntity
  8
0
100
AcDbBlockEnd
  0
ENDSEC
  0
SECTION
  2
ENTITIES
  0
LINE
  5
48
330
2
100
AcDbEntity
  8
0
100
AcDbLine
 10
0.0
 20
0.0
 30
0.0
 11
49.26945957373391
 21
0.0
 31
0.0
  0
LINE
  5
49
330
2
100
AcDbEntity
  8
0
100
AcDbLine
 10
0.0
 20
26.21338692818333
 30
0.0
 11
0.0
 21
0.0
 31
0.0
  0
LEADER
  5
4A
330
2
100
AcDbEntity
  8
PART_NUMBERS
100
AcDbLeader
  3
Standard
 76
     3
 10
38.46447948018258
 20
16.71482868106958
 30
0.0
 10
42.36447948018319
 20
18.59286570785808
 30
0.0
 10
42.61447948018321
 20
18.59286570785808
 30
0.0
  0
LWPOLYLINE
  5
4C
330
2
100
AcDbEntity
  8
R-SWTS-DET3
100
AcDbPolyline
 90
        4
 70
     0
 43
0.0
 10
42.66149512515618
 20
12.84532868107035
 10
40.03647948018192
 20
12.84532868107035
 10
40.03647948018192
 20
13.09532868107035
 10
42.66149512515618
 20
13.09532868107035
  0
LWPOLYLINE
  5
4E
330
2
100
AcDbEntity
  8
R-SWTS-DET3
100
AcDbPolyline
 90
        4
 70
     0
 43
0.0
 10
42.66149512515618
 20
12.09532868107037
 10
40.03647948018192
 20
12.09532868107037
 10
40.03647948018192
 20
12.34532868107037
 10
42.66149512515618
 20
12.34532868107037
  0
LINE
  5
4F
330
2
100
AcDbEntity
  8
R-SWTS-DET1
100
AcDbLine
 10
39.36447948018173
 20
15.85532868106938
 30
0.0
 11
42.66149512515613
 21
15.85532868106925
 31
0.0
  0
LINE
  5
51
330
2
100
AcDbEntity
  8
R-SWTS-DET1
100
AcDbLine
 10
40.67710448018192
 20
14.9553286810702
 30
0.0
 11
42.66149512515613
 21
14.95532868107017
 31
0.0
  0
LINE
  5
52
330
2
100
AcDbEntity
  8
R-SWTS-DET1
100
AcDbLine
 10
40.67710448018192
 20
13.21032868107019
 30
0.0
 11
42.66147948018192
 21
13.21032868107016
 31
0.0
  0
TEXT
  5
53
330
2
100
AcDbEntity
  8
0
100
AcDbText
 10
36.06086757202314
 20
7.532700780933212
 30
0.0
 40
0.375
  1
90° OUTSIDE CORNER
 72
     4
 11
39.00548730266923
 21
7.720328681070371
 31
0.0
100
AcDbText
  0
DIMENSION
  5
54
330
2
100
AcDbEntity
  8
R-ANNO-DIMS
100
AcDbDimension
  2
*D17
 10
42.66149512515608
 20
10.34532868107038
 30
0.0
 11
41.661487302669
 21
10.52532868107038
 31
0.0
 70
    32
  1
D.L.O.
 71
     5
 42
2.000015644974155
  3
EXT_ON_OFF
100
AcDbAlignedDimension
 13
40.66147948018192
 23
11.84032868107023
 33
0.0
 14
42.66149512515608
 24
11.8403286810702
 34
0.0
100
AcDbRotatedDimension
  0
LEADER
  5
62
330
2
100
AcDbEntity
  8
PART_NUMBERS
100
AcDbLeader
  3
Standard
 76
     3
 10
38.83173443635886
 20
16.2773286810696
 30
0.0
 10
42.36447948018319
 20
17.38086570785808
 30
0.0
 10
42.61447948018321
 20
17.38086570785808
 30
0.0
  0
LEADER
  5
63
330
2
100
AcDbEntity
  8
PART_NUMBERS
100
AcDbLeader
  3
Standard
 76
     3
 10
37.04315589640152
 20
16.38009217572268
 30
0.0
 10
42.36447948018319
 20
19.80486570785808
 30
0.0
 10
42.61447948018321
 20
19.80486570785808
 30
0.0
  0
LINE
  5
64
330
2
100
AcDbEntity
  8
R-SWTS-DET1
100
AcDbLine
 10
42.66149512515608
 20
11.8403286810702
 30
0.0
 11
35.34947948018248
 21
11.84032868107024
 31
0.0
  0
LINE
  5
65
330
2
100
AcDbEntity
  8
R-SWTS-DET1
100
AcDbLine
 10
35.41447948018293
 20
11.9053286810707
 30
0.0
 11
42.66149512515608
 21
11.90532868107065
 31
0.0
  0
DIMENSION
  5
66
330
2
100
AcDbEntity
  8
R-ANNO-DIMS
100
AcDbDimension
  2
*D16
 10
42.66149512515608
 20
9.59532868107037
 30
0.0
 11
39.00548730266923
 21
9.775328681070366
 31
0.0
 70
    32
  1
F.W.
 71
     5
 42
7.312015644973713
  3
EXT_ON_OFF
100
AcDbAlignedDimension
 13
35.34947948018237
 23
11.84032868107024
 33
0.0
 14
42.66149512515608
 24
11.8403286810702
 34
0.0
100
AcDbRotatedDimension
  0
LEADER
  5
72
330
2
100
AcDbEntity
  8
PART_NUMBERS
100
AcDbLeader
  3
Standard
 76
     3
 10
36.68072674121282
 20
17.24032649824868
 30
0.0
 10
42.36447948018319
 20
21.01686570785807
 30
0.0
 10
42.61447948018321
 20
21.01686570785807
 30
0.0
  0
LEADER
  5
73
330
2
100
AcDbEntity
  8
PART_NUMBERS
100
AcDbLeader
  3
Standard
 76
     3
 10
35.50947948018257
 20
16.99232868106952
 30
0.0
 10
42.36447948018319
 20
22.63286570785809
 30
0.0
 10
42.61447948018321
 20
22.63286570785809
 30
0.0
  0
MTEXT
  5
74
330
2
100
AcDbEntity
  8
0
 62
     2
100
AcDbMText
 10
25.0
 20
7.0
 30
0.0
 40
0.5
 41
18.0
 71
     2
 72
     5
  1
5500 THERMAL WINDOWS\PTYPICAL 90%%D CORNER DETAILS\P4" DEEP (1" INFILL)\P\P{\H0.75x;DETAIL SCALE: 1" = 1"}
 73
     1
 44
1.0
1001
ACAD
1000
MTEXTBEGIN
1070
    73
1070
     1
1070
    44
1040
1.0
1070
    74
1070
     0
1000
MTEXTEND
  0
TEXT
  5
76
330
2
100
AcDbEntity
  8
PART_NUMBERS
100
AcDbText
 10
18.97379954808082
 20
16.71745934779629
 30
0.0
 40
0.25
  1
AIR SEAL GASKET
100
AcDbText
  0
TEXT
  5
77
330
2
100
AcDbEntity
  8
PART_NUMBERS
100
AcDbText
 10
18.97379954808082
 20
19.5462212525582
 30
0.0
 40
0.25
  1
823203 (MODIFIED)
100
AcDbText
  0
TEXT
  5
78
330
2
100
AcDbEntity
  8
PART_NUMBERS
100
AcDbText
 10
18.97379954808082
 20
12.67745934779628
 30
0.0
 40
0.25
  1
INTERIOR GLAZING GASKET
100
AcDbText
  0
TEXT
  5
79
330
2
100
AcDbEntity
  8
PART_NUMBERS
100
AcDbText
 10
18.97379954808082
 20
15.50545934779629
 30
0.0
 40
0.25
  1
TREMCO VISIONstrip
100
AcDbText
  0
TEXT
  5
7A
330
2
100
AcDbEntity
  8
PART_NUMBERS
100
AcDbText
 10
18.97379954808082
 20
15.10145934779629
 30
0.0
 40
0.25
  1
EXTERIOR WEATHERING
100
AcDbText
  0
LINE
  5
7B
330
2
100
AcDbEntity
  8
R-SWTS-DET1
100
AcDbLine
 10
14.77137399144044
 20
14.07971932604538
 30
0.0
 11
14.77137399144038
 21
12.09532868107116
 31
0.0
  0
LINE
  5
7C
330
2
100
AcDbEntity
  8
R-SWTS-DET1
100
AcDbLine
 10
15.66137399143963
 20
12.09534432604535
 30
0.0
 11
15.66137399143929
 21
19.86034432604376
 31
0.0
  0
LINE
  5
7D
330
2
100
AcDbEntity
  8
R-SWTS-DET1
100
AcDbLine
 10
13.02637399144044
 20
14.07971932604543
 30
0.0
 11
13.02637399144038
 21
12.09534432604543
 31
0.0
  0
LWPOLYLINE
  5
7E
330
2
100
AcDbEntity
  8
R-SWTS-DET3
100
AcDbPolyline
 90
        4
 70
     0
 43
0.0
 10
12.90137399144055
 20
12.09534432604535
 10
12.90137399144055
 20
14.72034432604533
 10
12.65137399144055
 20
14.72034432604533
 10
12.65137399144055
 20
12.09534432604535
  0
LWPOLYLINE
  5
7F
330
2
100
AcDbEntity
  8
R-SWTS-DET3
100
AcDbPolyline
 90
        4
 70
     0
 43
0.0
 10
12.15137399144055
 20
12.09534432604535
 10
12.15137399144055
 20
14.72034432604533
 10
11.90137399144055
 20
14.72034432604533
 10
11.90137399144055
 20
12.09534432604535
  0
LINE
  5
80
330
2
100
AcDbEntity
  8
R-SWTS-DET1
100
AcDbLine
 10
11.64637399144044
 20
15.84534432604522
 30
0.0
 11
11.64637399144044
 21
12.09532868107109
 31
0.0
  0
LINE
  5
81
330
2
100
AcDbEntity
  8
R-SWTS-DET1
100
AcDbLine
 10
11.71137399144089
 20
12.09532868107109
 30
0.0
 11
11.71137399144089
 21
15.91034432604532
 31
0.0
  0
DIMENSION
  5
82
330
2
100
AcDbEntity
  8
R-ANNO-DIMS
100
AcDbDimension
  2
*D15
 10
6.146358346466683
 20
12.09532868107109
 30
0.0
 11
5.966358346466683
 21
13.09533650355819
 31
0.0
 70
    32
  1
D.L.O.
 71
     5
 42
2.000015644974183
  3
EXT_ON_OFF
100
AcDbAlignedDimension
 13
11.64637399144044
 23
14.09534432604528
 33
0.0
 14
11.64637399144044
 24
12.09532868107109
 34
0.0
 50
90.0
100
AcDbRotatedDimension
  0
DIMENSION
  5
8E
330
2
100
AcDbEntity
  8
R-ANNO-DIMS
100
AcDbDimension
  2
*D14
 10
7.896358346467025
 20
10.34532868107037
 30
0.0
 11
8.896366168954116
 21
10.52532868107037
 31
0.0
 70
    32
  1
D.L.O.
 71
     5
 42
2.000015644974183
  3
EXT_ON_OFF
100
AcDbAlignedDimension
 13
9.896373991441206
 23
15.84534432604433
 33
0.0
 14
7.896358346467025
 24
15.84534432604413
 34
0.0
 50
0.0000000000065138
100
AcDbRotatedDimension
  0
DIMENSION
  5
9A
330
2
100
AcDbEntity
  8
R-ANNO-DIMS
100
AcDbDimension
  2
*D13
 10
11.64637399144118
 20
10.34532868107074
 30
0.0
 11
10.77137399144119
 21
10.52532868107074
 31
0.0
 70
    32
 71
     5
 42
1.749999999999971
  3
Standard
100
AcDbAlignedDimension
 13
9.896373991441206
 23
15.84534432604433
 33
0.0
 14
11.64637399144118
 24
12.09532868107074
 34
0.0
 50
0.0000000000065138
100
AcDbRotatedDimension
  0
DIMENSION
  5
A7
330
2
100
AcDbEntity
  8
R-ANNO-DIMS
100
AcDbDimension
  2
*D12
 10
5.396358346466683
 20
12.09532868107109
 30
0.0
 11
5.216358346466681
 21
15.97783650355757
 31
0.0
 70
    32
  1
F.W.
 71
     5
 42
7.765015644972959
  3
EXT_ON_OFF
100
AcDbAlignedDimension
 13
7.896373991440952
 23
19.86034432604405
 33
0.0
 14
11.64637399144044
 24
12.09532868107109
 34
0.0
 50
90.0
100
AcDbRotatedDimension
  0
DIMENSION
  5
B3
330
2
100
AcDbEntity
  8
R-ANNO-DIMS
100
AcDbDimension
  2
*D11
 10
7.896358346467025
 20
9.59532868107037
 30
0.0
 11
11.77886616895368
 21
9.775328681070366
 31
0.0
 70
    32
  1
F.W.
 71
     5
 42
7.765015644973317
  3
EXT_ON_OFF
100
AcDbAlignedDimension
 13
15.66137399144034
 23
12.09534432604538
 33
0.0
 14
7.896358346467025
 24
15.84534432604413
 34
0.0
 50
0.0000000000065138
100
AcDbRotatedDimension
  0
LEADER
  5
BF
330
2
100
AcDbEntity
  8
PART_NUMBERS
100
AcDbLeader
  3
Standard
 76
     3
 10
12.98262125247075
 20
14.01637141895739
 30
0.0
 10
18.66137399144105
 20
13.19741684142526
 30
0.0
 10
18.91137399144105
 20
13.19741684142526
 30
0.0
  0
TEXT
  5
C0
330
2
100
AcDbEntity
  8
0
100
AcDbText
 10
9.228815009335692
 20
7.53270078202535
 30
0.0
 40
0.375
  1
90° INSIDE CORNER
 72
     4
 11
11.7788661689537
 21
7.720328681070371
 31
0.0
100
AcDbText
  0
LWPOLYLINE
  5
C1
330
2
100
AcDbEntity
  8
R-SWTS-DET1
100
AcDbPolyline
 90
        6
 70
     0
 43
0.0
 10
11.39637399144021
 20
12.09532868107109
 10
13.54702986570282
 20
12.09532868107111
 10
13.60009844743933
 20
12.30754387405331
 10
13.70764953544051
 20
11.88312913306315
 10
13.76071811717702
 20
12.09534432604535
 10
15.91137399143963
 20
12.09534432604535
  0
DIMENSION
  5
C2
330
2
100
AcDbEntity
  8
R-ANNO-DIMS
100
AcDbDimension
  2
*D10
 10
11.64637399144118
 20
10.34532868107074
 30
0.0
 11
13.65387399144076
 21
10.52532868107074
 31
0.0
 70
    32
 71
     5
 42
4.014999999999162
  3
Standard
100
AcDbAlignedDimension
 13
15.66137399144034
 23
12.09534432604538
 33
0.0
 14
11.64637399144118
 24
12.09532868107074
 34
0.0
 50
0.0000000000065138
100
AcDbRotatedDimension
  0
TEXT
  5
CF
330
2
100
AcDbEntity
  8
PART_NUMBERS
100
AcDbText
 10
18.97379954808082
 20
13.08222125255818
 30
0.0
 40
0.25
  1
027770
100
AcDbText
  0
LINE
  5
D0
330
2
100
AcDbEntity
  8
R-SWTS-DET3
100
AcDbLine
 10
11.63037399144042
 20
17.09150528827924
 30
0.0
 11
11.70529301790006
 21
16.72034432604519
 31
0.0
  0
LWPOLYLINE
  5
D1
330
2
100
AcDbEntity
  8
R-SWTS-DET1
100
AcDbPolyline
 90
       80
 70
     1
 43
0.0
 10
10.99277442717363
 20
17.23734432604451
 10
11.02337399144068
 20
17.29034432604447
 10
11.02337399144068
 20
17.31034432604451
 42
0.4142135623717424
 10
11.01337399144068
 20
17.32034432604453
 10
10.86695134170992
 20
17.32034432604453
 42
0.4142135623717424
 10
10.85695134170999
 20
17.31034432604451
 10
10.85695134170993
 20
17.29034432604447
 10
10.89036392475304
 20
17.23247203460181
 42
-0.3954233646216332
 10
10.88569621010799
 20
17.21249272276986
 10
10.7879942222134
 20
17.14733359669321
 42
-0.6600047310089258
 10
10.77259770040882
 20
17.15738961969117
 10
10.79007066198244
 20
17.2564837089987
 10
10.77222584578344
 20
17.32308146970513
 42
-0.065543462815245
 10
10.77137399144067
 20
17.32955194583269
 10
10.77137399144067
 20
17.4443443260439
 42
-0.4142135623730951
 10
10.81137399144069
 20
17.48434432604392
 10
10.82137399144062
 20
17.48434432604392
 10
10.82137399144062
 20
17.41034432604391
 10
10.93637399144063
 20
17.41034432604391
 10
10.93637399144063
 20
17.72834432604389
 10
10.82137399144056
 20
17.72834432604389
 10
10.82137399144056
 20
17.67234432604391
 10
10.81137399144057
 20
17.67234432604391
 42
-0.4142135623730822
 10
10.77137399144055
 20
17.7123443260439
 10
10.77137399144061
 20
17.83283441369042
 10
10.80494611534374
 20
17.8610047704754
 42
-0.6370702608075506
 10
10.82137399144062
 20
17.85334432604421
 10
10.82137399144062
 20
17.79334432604389
 10
10.95837399144056
 20
17.79334432604389
 10
10.95837399144062
 20
18.78434432604393
 10
10.89337399144062
 20
18.84934432604393
 10
10.82137399144062
 20
18.84934432604393
 10
10.82137399144062
 20
18.78934432604393
 42
-0.637070260807368
 10
10.80494611534374
 20
18.78168388161273
 10
10.77137399144061
 20
18.80985423839772
 10
10.77137399144061
 20
19.84534432604391
 10
11.64637399144055
 20
19.84534432604391
 10
11.6463739914405
 20
18.80985423839772
 10
11.61280186753737
 20
18.78168388161273
 42
-0.6370702608073675
 10
11.59637399144048
 20
18.78934432604393
 10
11.59637399144048
 20
18.84934432604393
 10
11.52437399144054
 20
18.84934432604393
 10
11.45937399144054
 20
18.78434432604393
 10
11.45937399144054
 20
17.79334432604389
 10
11.59637399144048
 20
17.79334432604389
 10
11.59637399144054
 20
17.85334432604421
 42
-0.637070260807422
 10
11.61280186753737
 20
17.8610047704754
 10
11.6463739914405
 20
17.83283441369042
 10
11.64637399144055
 20
17.7123443260439
 42
-0.4142135623731212
 10
11.60637399144053
 20
17.67234432604391
 10
11.59637399144054
 20
17.67234432604391
 10
11.59637399144054
 20
17.72834432604389
 10
11.48137399144053
 20
17.72834432604389
 10
11.48137399144053
 20
17.41034432604391
 10
11.59637399144054
 20
17.41034432604391
 10
11.59637399144054
 20
17.48434432604392
 10
11.60637399144053
 20
17.48434432604392
 42
-0.4142135623731081
 10
11.6463739914405
 20
17.4443443260439
 10
11.6463739914405
 20
17.32955194583292
 42
-0.0655434628152315
 10
11.64552213709777
 20
17.32308146970536
 10
11.62767732089867
 20
17.2564837089987
 10
11.64515028247234
 20
17.15738961969117
 42
-0.6600047310089258
 10
11.62975376066771
 20
17.14733359669321
 10
11.53205177277317
 20
17.21249272276986
 42
-0.3954233646216332
 10
11.52738405812812
 20
17.23247203460181
 10
11.56079664117118
 20
17.29034432604447
 10
11.56079664117118
 20
17.31034432604451
 42
0.4142135623718464
 10
11.55079664117119
 20
17.32034432604453
 10
11.40437399144042
 20
17.32034432604453
 42
0.4142135623718464
 10
11.39437399144049
 20
17.31034432604451
 10
11.39437399144049
 20
17.29034432604447
 10
11.42497355570748
 20
17.23734432604451
 42
-0.5773502691896848
 10
11.41631330166967
 20
17.22234432604452
 10
11.31816375590745
 20
17.22234432604452
 10
11.27313043491028
 20
17.30034432604509
 42
0.2679491924311339
 10
11.23848941875894
 20
17.3203443260451
 10
11.17925856412222
 20
17.3203443260451
 42
0.2679491924311507
 10
11.14461754797082
 20
17.30034432604509
 10
11.09958422697366
 20
17.22234432604452
 10
11.00143468121149
 20
17.22234432604452
 42
-0.5773502691896847
  0
LWPOLYLINE
  5
D2
330
2
100
AcDbEntity
  8
R-SWTS-DET1
100
AcDbPolyline
 90
       51
 70
     0
 43
0.0
 10
11.23848941875894
 20
16.37534432604451
 10
11.17925856412216
 20
16.37534432604451
 10
11.23848941875894
 20
16.37534432604451
 42
0.2679491924311643
 10
11.27313043491028
 20
16.39534432604449
 10
11.31816375590745
 20
16.47334432604509
 10
11.41631330166967
 20
16.47334432604509
 42
-0.5773502691896493
 10
11.42497355570748
 20
16.45834432604511
 10
11.39437399144049
 20
16.40534432604511
 10
11.39437399144049
 20
16.38534432604506
 42
0.4142135623720545
 10
11.40437399144042
 20
16.37534432604508
 10
11.55079664117119
 20
16.37534432604508
 42
0.4142135623716383
 10
11.56079664117118
 20
16.38534432604506
 10
11.56079664117118
 20
16.40534432604511
 10
11.52738405812812
 20
16.46321661748777
 42
-0.3954233646215261
 10
11.53205177277317
 20
16.48319592931975
 10
11.62975376066771
 20
16.5483550553964
 42
-0.6600047310093438
 10
11.64515028247234
 20
16.53829903239841
 10
11.62767732089867
 20
16.43920494309088
 10
11.64552213709771
 20
16.37260718238451
 42
-0.0655434628151374
 10
11.64637399144044
 20
16.36613670625695
 10
11.6463739914405
 20
16.2853443260451
 10
11.5213739914405
 20
16.2853443260451
 10
11.5213739914405
 20
15.9103443260451
 10
11.64637399144067
 20
15.9103443260451
 10
11.64637399144067
 20
15.84534432604511
 10
9.896373991440613
 20
15.84534432604511
 10
9.896373991440613
 20
15.9103443260451
 10
9.916373991440591
 20
15.9753443260451
 10
9.946373991440623
 20
15.9753443260451
 10
9.946373991440623
 20
15.9103443260451
 10
10.89637399144061
 20
15.9103443260451
 10
10.89637399144061
 20
16.2853443260451
 10
10.77137399144061
 20
16.2853443260451
 10
10.77137399144061
 20
16.36613670625672
 42
-0.0655434628152511
 10
10.77222584578339
 20
16.37260718238428
 10
10.79007066198244
 20
16.43920494309088
 10
10.77259770040882
 20
16.53829903239841
 42
-0.6600047310090647
 10
10.7879942222134
 20
16.5483550553964
 10
10.88569621010799
 20
16.48319592931975
 42
-0.3954233646215261
 10
10.89036392475304
 20
16.46321661748777
 10
10.85695134170993
 20
16.40534432604511
 10
10.85695134170999
 20
16.38534432604506
 42
0.4142135623716383
 10
10.86695134170992
 20
16.37534432604506
 10
11.01337399144068
 20
16.37534432604508
 42
0.4142135623720546
 10
11.02337399144062
 20
16.38534432604506
 10
11.02337399144068
 20
16.40534432604511
 10
10.99277442717363
 20
16.45834432604511
 42
-0.5773502691898861
 10
11.00143468121149
 20
16.47334432604511
 10
11.09958422697366
 20
16.47334432604509
 10
11.14461754797082
 20
16.39534432604449
 42
0.2679491924311421
 10
11.17925856412222
 20
16.37534432604451
  0
LINE
  5
D3
330
2
100
AcDbEntity
  8
R-SWTS-DET1
100
AcDbLine
 10
7.896358346466683
 20
15.91034432604535
 30
0.0
 11
11.71137399144089
 21
15.91034432604532
 31
0.0
  0
LWPOLYLINE
  5
D4
330
2
100
AcDbEntity
  8
R-SWTS-DET1
100
AcDbPolyline
 90
       54
 70
     0
 43
0.0
 10
12.17637399143984
 20
15.43745975336361
 42
-0.2679491924311405
 10
12.19637399143983
 20
15.47210076951498
 10
12.27437399144043
 20
15.51713409051211
 10
12.27437399144043
 20
15.61528363627434
 42
0.5773502691900401
 10
12.25937399144044
 20
15.62394389031218
 10
12.20637399144044
 20
15.59334432604515
 10
12.1863739914404
 20
15.59334432604515
 42
-0.4142135623718464
 10
12.17637399144041
 20
15.60334432604512
 10
12.17637399144041
 20
15.74976697577585
 42
-0.4142135623718464
 10
12.1863739914404
 20
15.75976697577585
 10
12.20637399144044
 20
15.75976697577585
 10
12.26424628288311
 20
15.72635439273279
 42
0.3954233646216332
 10
12.28422559471505
 20
15.73102210737784
 10
12.3493847207917
 20
15.82872409527238
 42
0.6600047310089611
 10
12.33932869779374
 20
15.84412061707701
 10
12.24023460848622
 20
15.82664765550333
 10
12.17363684777984
 20
15.84449247170238
 42
0.0655434628151484
 10
12.16716637165228
 20
15.84534432604513
 10
12.08637399144044
 20
15.84534432604516
 10
12.08637399144044
 20
15.72034432604518
 10
11.71137399144044
 20
15.72034432604518
 10
11.71137399144044
 20
16.67034432604521
 10
11.77637399144043
 20
16.67034432604521
 10
11.77637399144043
 20
16.70034432604518
 10
11.71137399144044
 20
16.72034432604519
 10
11.64637399144044
 20
16.72034432604519
 10
11.64637399144044
 20
14.09534432604528
 10
11.71137399144044
 20
14.09534432604528
 10
11.77637399144043
 20
14.11534432604526
 10
11.77637399144043
 20
14.14534432604529
 10
11.71137399144044
 20
14.14534432604529
 10
11.71137399144044
 20
15.09534432604528
 10
12.08637399144044
 20
15.09534432604528
 10
12.08637399144044
 20
14.97034432604528
 10
12.16716637165206
 20
14.97034432604528
 42
0.0655434628152569
 10
12.17363684777962
 20
14.97119618038806
 10
12.24023460848622
 20
14.98904099658711
 10
12.33932869779374
 20
14.97156803501349
 42
0.6600047310089611
 10
12.3493847207917
 20
14.98696455681806
 10
12.28422559471505
 20
15.08466654471266
 42
0.3954233646216332
 10
12.26424628288311
 20
15.08933425935771
 10
12.20637399144044
 20
15.05592167631462
 10
12.1863739914404
 20
15.05592167631465
 42
-0.4142135623718464
 10
12.17637399144041
 20
15.06592167631459
 10
12.17637399144041
 20
15.21234432604535
 42
-0.4142135623718464
 10
12.1863739914404
 20
15.22234432604532
 10
12.20637399144044
 20
15.22234432604534
 10
12.25937399144044
 20
15.19174476177829
 42
0.57735026919004
 10
12.27437399144043
 20
15.20040501581616
 10
12.27437399144043
 20
15.29855456157835
 10
12.19637399143983
 20
15.34358788257549
 42
-0.2679491924311403
 10
12.17637399143984
 20
15.37822889872689
 10
12.17637399143984
 20
15.43745975336361
 10
12.17637399143984
 20
15.37822889872686
  0
LWPOLYLINE
  5
D5
330
2
100
AcDbEntity
  8
R-SWTS-DET1
100
AcDbPolyline
 90
       16
 70
     1
 43
0.0
 10
11.76137399144056
 20
18.90534432604521
 42
0.4142135623730951
 10
11.71137399144049
 20
18.8553443260452
 10
11.71137399144049
 20
17.37534432604521
 10
11.64637399144055
 20
17.37534432604521
 10
11.64637399144055
 20
18.92034432604521
 42
-0.4142135623730951
 10
11.69637399144051
 20
18.9703443260452
 10
14.72137399144054
 20
18.9703443260452
 42
-0.4142135623730951
 10
14.77137399144055
 20
18.92034432604521
 10
14.77137399144055
 20
15.89534432604519
 42
-0.4142135623730951
 10
14.72137399144054
 20
15.8453443260452
 10
13.17637399144053
 20
15.8453443260452
 10
13.17637399144053
 20
15.91034432604519
 10
14.65637399144054
 20
15.91034432604519
 42
0.4142135623730951
 10
14.7063739914405
 20
15.96034432604521
 10
14.7063739914405
 20
18.8553443260452
 42
0.4142135623730951
 10
14.65637399144054
 20
18.90534432604521
  0
LINE
  5
D6
330
2
100
AcDbEntity
  8
R-SWTS-DET1
100
AcDbLine
 10
7.896373991440952
 20
19.86034432604405
 30
0.0
 11
15.66137399143929
 21
19.86034432604376
 31
0.0
  0
LINE
  5
D7
330
2
100
AcDbEntity
  8
R-SWTS-DET1
100
AcDbLine
 10
11.64637399144078
 20
15.84534432604487
 30
0.0
 11
15.66137399143929
 21
19.86034432604376
 31
0.0
  0
LEADER
  5
D8
330
2
100
AcDbEntity
  8
PART_NUMBERS
100
AcDbLeader
  3
Standard
 76
     3
 10
11.64637399144052
 20
19.32759928222082
 30
0.0
 10
18.66137399144105
 20
19.66141684142528
 30
0.0
 10
18.91137399144105
 20
19.66141684142528
 30
0.0
  0
LINE
  5
D9
330
2
100
AcDbEntity
  8
R-SWTS-DET1
100
AcDbLine
 10
9.880748991440668
 20
18.9703443260452
 30
0.0
 11
9.880748991440668
 21
17.2253443260452
 31
0.0
  0
LWPOLYLINE
  5
DA
330
2
100
AcDbEntity
  8
R-SWTS-DET1
100
AcDbPolyline
 90
       41
 70
     1
 43
0.0
 10
10.73283748668575
 20
18.72934432604526
 42
-0.4400105308918457
 10
10.70295164574304
 20
18.76195899832768
 10
10.71306565517869
 20
18.87756265516799
 42
0.4466574342041956
 10
10.68251326019322
 20
18.91016992163145
 10
10.11281903654634
 20
18.8975090632351
 42
0.4077202623982005
 10
9.956373991440612
 20
18.73754856093626
 10
9.956373991440612
 20
17.93334432604462
 42
0.4142135623731212
 10
9.966373991440603
 20
17.92334432604462
 10
10.83637399144061
 20
17.92334432604461
 42
-0.3736297736983284
 10
10.86607828629417
 20
17.89754609558123
 10
10.90496408886383
 20
17.93643189815094
 42
-1.000000000000055
 10
10.93678389401725
 20
17.90461209299755
 10
10.83844505925248
 20
17.80627325823275
 42
-0.668178637919354
 10
10.82137399144062
 20
17.81334432604461
 10
10.82137399144062
 20
17.87834432604461
 10
9.966373991440603
 20
17.87834432604461
 42
0.4142135623730431
 10
9.956373991440612
 20
17.8683443260446
 10
9.956373991440612
 20
17.44034432604525
 10
10.13737399144065
 20
17.44034432604522
 42
-0.414213562373069
 10
10.16737399144062
 20
17.41034432604522
 10
10.16737399144062
 20
17.32534432604521
 10
10.43337399144064
 20
17.3253443260452
 42
-1.0
 10
10.43337399144064
 20
17.2753443260452
 10
10.16737399144062
 20
17.27534432604521
 10
10.16737399144062
 20
17.22534432604521
 10
10.05637399144063
 20
17.22534432604524
 10
10.05637399144063
 20
17.27534432604523
 10
10.11737399144061
 20
17.27534432604523
 10
10.11737399144061
 20
17.39034432604522
 10
9.9713739914406
 20
17.39034432604524
 10
9.9713739914406
 20
17.22534432604523
 10
9.931373991440636
 20
17.22534432604524
 10
9.896373991440668
 20
17.24555158546687
 10
9.896373991440668
 20
18.97034432604522
 10
10.77137399144055
 20
18.97034432604519
 10
10.75466365670718
 20
18.77934432604525
 10
10.84330025036337
 20
18.77934432604525
 10
10.85097791989574
 20
18.78702199557685
 42
-0.9999999999999872
 10
10.8863332589533
 20
18.75166665651582
 10
10.87279772504484
 20
18.73813112260862
 42
-0.1989123673670628
 10
10.85158452161022
 20
18.72934432604526
  0
LWPOLYLINE
  5
DB
330
2
100
AcDbEntity
  8
R-SWTS-DET1
100
AcDbPolyline
 90
       40
 70
     1
 43
0.0
 10
11.58137399144056
 20
19.66545236486945
 42
-0.6224337464226136
 10
11.54917161048814
 20
19.64960616977115
 42
0.3267061393957527
 10
11.37446774144058
 20
19.65391564240139
 42
0.2457530127345989
 10
11.36587399144059
 20
19.63748708613684
 10
11.36587399144059
 20
19.59772781019691
 42
0.688247201611599
 10
11.40077195062423
 20
19.58438424200241
 42
-0.5741920180569366
 10
11.53275903728877
 20
19.55734432604396
 10
11.55637399144052
 20
19.55734432604387
 42
-0.9999999999999998
 10
11.55637399144052
 20
19.50734432604386
 10
11.53275903728922
 20
19.50734432604386
 42
-0.5741920180578775
 10
11.40077195062423
 20
19.48030441008529
 42
0.6882472016118379
 10
11.36587399144059
 20
19.46696084189079
 10
11.36587399144054
 20
19.42720156595078
 42
0.2457530127346519
 10
11.37446774144047
 20
19.41077300968615
 42
0.3267061393958188
 10
11.54917161048814
 20
19.41508248231639
 42
-0.6224337464226563
 10
11.5813739914405
 20
19.39923628721811
 10
11.5813739914405
 20
18.91434432604393
 10
11.49745010988624
 20
18.91434432604393
 10
11.39437399144054
 20
18.81126820759817
 10
11.39437399144054
 20
17.75838956516458
 42
-0.4874613951104794
 10
11.3695525628691
 20
17.7389794176502
 42
0.2158505435375484
 10
11.2494677414403
 20
17.7169156424014
 42
0.245753012734614
 10
11.24087399144031
 20
17.70048708613686
 10
11.24087399144031
 20
17.66072781019701
 42
0.6882472016123261
 10
11.275771950624
 20
17.64738424200254
 42
-2.615339366131379
 10
11.275771950624
 20
17.54330441008531
 42
0.6882472016117944
 10
11.24087399144031
 20
17.52996084189081
 10
11.24087399144031
 20
17.49020156595077
 42
0.245753012734651
 10
11.24946774144024
 20
17.47377300968614
 42
0.1528965617342725
 10
11.33387399144027
 20
17.4473443260438
 10
11.39437399144054
 20
17.44734432604412
 10
11.39437399144066
 20
17.41034432604388
 10
11.00137399144063
 20
17.41034432604388
 10
11.00137399144063
 20
17.72834432604389
 10
11.02337399144056
 20
17.72834432604389
 10
11.02337399144062
 20
18.81126820759817
 10
10.92029787299486
 20
18.91434432604393
 10
10.83637399144061
 20
18.91434432604393
 10
10.83637399144061
 20
19.78034432604392
 10
11.58137399144056
 20
19.78034432604392
  0
LWPOLYLINE
  5
DC
330
2
100
AcDbEntity
  8
R-SWTS-DET1
100
AcDbPolyline
 90
        6
 70
     0
 43
0.0
 10
7.896389636415563
 20
15.59534432604435
 10
7.896389636415563
 20
17.74600020030696
 10
7.684174443433335
 20
17.79906878204348
 10
8.108589184423523
 20
17.90661987004465
 10
7.896373991441349
 20
17.95968845178116
 10
7.896373991441294
 20
20.11034432604374
  0
DIMENSION
  5
DD
330
2
100
AcDbEntity
  8
R-ANNO-DIMS
100
AcDbDimension
  2
*D9
 10
6.146358346466683
 20
15.84534432604489
 30
0.0
 11
5.966358346466681
 21
17.85284432604447
 31
0.0
 70
    32
 71
     5
 42
4.01499999999916
  3
Standard
100
AcDbAlignedDimension
 13
7.896373991440952
 23
19.86034432604405
 33
0.0
 14
7.896358346466683
 24
15.84534432604489
 34
0.0
 50
90.0
100
AcDbRotatedDimension
  0
DIMENSION
  5
EA
330
2
100
AcDbEntity
  8
R-ANNO-DIMS
100
AcDbDimension
  2
*D8
 10
6.146358346466683
 20
15.84534432604489
 30
0.0
 11
5.966358346466681
 21
14.97034432604509
 31
0.0
 70
    32
 71
     5
 42
1.749999999999615
  3
Standard
100
AcDbAlignedDimension
 13
11.64637399144044
 23
14.09534432604528
 33
0.0
 14
7.896358346466683
 24
15.84534432604489
 34
0.0
 50
90.0
100
AcDbRotatedDimension
  0
LWPOLYLINE
  5
F7
330
2
100
AcDbEntity
  8
R-SWTS-DET3
100
AcDbPolyline
 90
        4
 70
     0
 43
0.0
 10
7.896373991441349
 20
16.85034432604522
 10
10.52137399144067
 20
16.85034432604522
 10
10.52137399144067
 20
17.10034432604523
 10
7.896373991441349
 20
17.10034432604523
  0
LINE
  5
F8
330
2
100
AcDbEntity
  8
R-SWTS-DET1
100
AcDbLine
 10
9.880748991440668
 20
17.2253443260452
 30
0.0
 11
7.896373991440667
 21
17.22534432604517
 31
0.0
  0
LWPOLYLINE
  5
F9
330
2
100
AcDbEntity
  8
R-SWTS-DET3
100
AcDbPolyline
 90
        4
 70
     0
 43
0.0
 10
7.896373991441349
 20
16.10034432604523
 10
10.52137399144067
 20
16.10034432604523
 10
10.52137399144067
 20
16.35034432604523
 10
7.896373991441349
 20
16.35034432604523
  0
LINE
  5
FA
330
2
100
AcDbEntity
  8
R-SWTS-DET1
100
AcDbLine
 10
11.64637399144078
 20
15.84534432604487
 30
0.0
 11
7.896358346466683
 21
15.84534432604489
 31
0.0
  0
LWPOLYLINE
  5
FB
330
2
100
AcDbEntity
  8
R-SWTS-DET2
100
AcDbPolyline
 90
       14
 70
     0
 43
0.0
 10
10.77137399144067
 20
17.32755194583255
 42
-0.1618049181719085
 10
10.39637399144067
 20
17.10034432604523
 10
10.29658222509579
 20
17.10034432604523
 42
-0.1301798726914471
 10
10.11625555818784
 20
17.13975039059566
 42
-0.5152864272066238
 10
10.11389988131344
 20
17.15586607811494
 42
-0.1070648706106477
 10
10.24917662593731
 20
17.23899501844711
 10
10.3478648229746
 20
17.27364986833349
 42
-1.0
 10
10.36774408611654
 20
17.21703878375693
 10
10.26905588907925
 20
17.18238393387055
 42
0.0252322931696311
 10
10.23964704250312
 20
17.17035858512372
 42
0.2600651486929917
 10
10.6352683840393
 20
17.31764670416369
 42
0.1853390449315368
 10
10.65264240699207
 20
17.34899027127164
 10
10.68457858658303
 20
17.72905121325648
 42
-0.6383843910517211
 10
10.77137399144067
 20
17.75541000664137
  0
LWPOLYLINE
  5
FD
330
2
100
AcDbEntity
  8
R-SWTS-DET2
100
AcDbPolyline
 90
       10
 70
     0
 43
0.0
 10
9.971373991440655
 20
17.22534432604524
 10
9.896373991440723
 20
17.22534432604527
 10
9.738428177264664
 20
17.13783884810553
 42
0.9572917422547776
 10
9.756251251965524
 20
17.102071631738
 10
9.875974400721643
 20
17.15534432604525
 10
9.963959255040663
 20
17.15534432604519
 42
-0.0657822641916254
 10
9.902597032189929
 20
17.14043922659223
 42
0.9518102130205722
 10
9.904894708963864
 20
17.10055409045859
 42
0.2083092445416353
 10
10.10990841294216
 20
17.19184184388646
 42
0.6522884812892755
 10
10.0951543295904
 20
17.22534432604524
  0
LWPOLYLINE
  5
FE
330
2
100
AcDbEntity
  8
R-SWTS-DET2
100
AcDbPolyline
 90
        4
 70
     1
 43
0.0
 10
10.05637399144069
 20
16.10034432604512
 10
10.3563739914407
 20
16.10034432604512
 10
10.3563739914407
 20
15.91034432604512
 10
10.05637399144069
 20
15.91034432604512
  0
LWPOLYLINE
  5
FF
330
2
100
AcDbEntity
  8
R-SWTS-DET2
100
AcDbPolyline
 90
        8
 70
     1
 43
0.0
 10
9.961373991440723
 20
15.97534432604511
 10
9.896373991440668
 20
15.97534432604511
 10
9.896373991440668
 20
15.91034432604512
 10
9.872748103457752
 20
15.91034432604512
 10
9.796373991440702
 20
16.10034432604512
 10
10.05637399144069
 20
16.10034432604512
 10
10.05637399144069
 20
15.91034432604512
 10
9.961373991440723
 20
15.91034432604512
  0
LWPOLYLINE
  5
100
330
2
100
AcDbEntity
  8
R-SWTS-DET1
100
AcDbPolyline
 90
        4
 70
     1
 43
0.0
 10
11.4563739914405
 20
15.9103443260451
 10
10.96137399144061
 20
15.9103443260451
 10
10.96137399144061
 20
16.2853443260451
 10
11.4563739914405
 20
16.2853443260451
  0
LWPOLYLINE
  5
101
330
2
100
AcDbEntity
  8
R-SWTS-DET3
100
AcDbPolyline
 90
        4
 70
     1
 43
0.0
 10
10.52137399144067
 20
16.35034432604523
 10
10.27137399144067
 20
16.35034432604523
 10
10.27137399144067
 20
16.85034432604522
 10
10.52137399144067
 20
16.85034432604522
  0
LWPOLYLINE
  5
102
330
2
100
AcDbEntity
  8
0
100
AcDbPolyline
 90
        6
 70
     0
 43
0.0
 10
11.52537399144046
 20
17.22577510666306
 10
11.52537399144046
 20
17.1823443260447
 10
11.63037399144042
 20
17.14412745144676
 10
11.63037399144048
 20
16.55156120064265
 10
11.52537399144046
 20
16.51334432604471
 10
11.52537443918487
 20
16.47071661748779
  0
LWPOLYLINE
  5
103
330
2
100
AcDbEntity
  8
0
100
AcDbPolyline
 90
       14
 70
     0
 43
0.0
 10
11.42497355570748
 20
16.45834432604511
 10
11.4290342454783
 20
16.46537764704177
 42
0.131652497587334
 10
11.43037399144049
 20
16.47037764704177
 10
11.43037399144049
 20
16.51603422447624
 42
-0.3152987888789939
 10
11.48235440011774
 20
16.59026994151833
 10
11.52571277703015
 20
16.60605110012056
 42
0.3152987888790213
 10
11.55137399144047
 20
16.64269911233123
 10
11.55137399144041
 20
17.05298953975821
 42
0.3152987888789464
 10
11.52571277703015
 20
17.08963755196888
 10
11.48235440011774
 20
17.10541871057109
 42
-0.3152987888789767
 10
11.43037399144049
 20
17.17965442761317
 10
11.43037399144049
 20
17.22531100504767
 42
0.131652497587334
 10
11.4290342454783
 20
17.23031100504767
 10
11.42497355570748
 20
17.23734432604451
  0
LWPOLYLINE
  5
104
330
2
100
AcDbEntity
  8
0
100
AcDbPolyline
 90
        6
 70
     0
 43
0.0
 10
10.89237399144065
 20
17.22577510666306
 10
10.89237399144065
 20
17.1823443260447
 10
10.78737399144069
 20
17.14412745144676
 10
10.78737399144063
 20
16.55156120064265
 10
10.89237399144065
 20
16.51334432604471
 10
10.89237354369624
 20
16.47071661748779
  0
LWPOLYLINE
  5
105
330
2
100
AcDbEntity
  8
0
100
AcDbPolyline
 90
       14
 70
     0
 43
0.0
 10
10.99277442717363
 20
16.45834432604511
 10
10.9887137374028
 20
16.46537764704177
 42
-0.131652497587334
 10
10.98737399144062
 20
16.47037764704177
 10
10.98737399144062
 20
16.51603422447624
 42
0.3152987888789939
 10
10.93539358276337
 20
16.59026994151833
 10
10.89203520585096
 20
16.60605110012056
 42
-0.3152987888790213
 10
10.86637399144064
 20
16.64269911233123
 10
10.86637399144069
 20
17.05298953975821
 42
-0.3152987888789464
 10
10.89203520585101
 20
17.08963755196888
 10
10.93539358276337
 20
17.10541871057109
 42
0.3152987888789767
 10
10.98737399144062
 20
17.17965442761317
 10
10.98737399144062
 20
17.22531100504767
 42
-0.131652497587334
 10
10.9887137374028
 20
17.23031100504767
 10
10.99277442717363
 20
17.23734432604451
  0
DIMENSION
  5
106
330
2
100
AcDbEntity
  8
R-ANNO-DIMS
100
AcDbDimension
  2
*D7
 10
11.64637399144055
 20
20.61034432604406
 30
0.0
 11
11.20887399144058
 21
20.79034432604406
 31
0.0
 70
    32
 71
     5
 42
0.8749999999999429
  3
Standard
100
AcDbAlignedDimension
 13
10.77137399144061
 23
19.84534432604391
 33
0.0
 14
11.64637399144055
 24
19.84534432604391
 34
0.0
100
AcDbRotatedDimension
  0
LINE
  5
113
330
2
100
AcDbEntity
  8
R-SWTS-DET1
100
AcDbLine
 10
9.880748991440668
 20
18.9703443260452
 30
0.0
 11
7.896358346466398
 21
18.97034432604518
 31
0.0
  0
LWPOLYLINE
  5
114
330
2
100
AcDbEntity
  8
R-SWTS-DET3
100
AcDbPolyline
 90
       16
 70
     0
 43
0.0
 10
14.65401152378081
 20
15.91363186341366
 42
-0.4359892262368251
 10
14.29600342883756
 20
16.41182492247947
 10
14.69809746157696
 20
18.40386372961095
 42
1.222018931507748
 10
13.87735633637109
 20
18.40386372961095
 10
14.27945036911049
 20
16.41182492247947
 42
-1.222018931507748
 10
13.45870924390462
 20
16.41182492247947
 10
13.86080327664402
 20
18.40386372961095
 42
1.222018931507748
 10
13.04006215143815
 20
18.40386372961095
 10
13.44215618417755
 20
16.41182492247947
 42
-1.222018931507748
 10
12.62141505897168
 20
16.41182492247947
 10
13.02350909171108
 20
18.40386372961095
 42
1.222018931507748
 10
12.20276796650521
 20
18.40386372961095
 10
12.6048619992446
 20
16.41182492247947
 42
-1.222018931507748
 10
11.78412087403873
 20
16.41182492247947
 10
12.18621490677813
 20
18.40386372961095
 42
0.4900864151551725
 10
11.75376227153268
 20
18.90476154693069
  0
LEADER
  5
115
330
2
100
AcDbEntity
  8
PART_NUMBERS
100
AcDbLeader
  3
Standard
 76
     3
 10
15.12862894761613
 20
15.8453443260452
 30
0.0
 10
18.66137399144105
 20
18.44941684142526
 30
0.0
 10
18.91137399144105
 20
18.44941684142526
 30
0.0
  0
LEADER
  5
116
330
2
100
AcDbEntity
  8
PART_NUMBERS
100
AcDbLeader
  3
Standard
 76
     3
 10
14.77137399144055
 20
14.53284432604531
 30
0.0
 10
18.66137399144105
 20
14.40941684142527
 30
0.0
 10
18.91137399144105
 20
14.40941684142527
 30
0.0
  0
LEADER
  5
117
330
2
100
AcDbEntity
  8
PART_NUMBERS
100
AcDbLeader
  3
Standard
 76
     3
 10
11.80637399144043
 20
14.25534432604539
 30
0.0
 10
18.66137399144105
 20
16.02541684142527
 30
0.0
 10
18.91137399144105
 20
16.02541684142527
 30
0.0
  0
LEADER
  5
118
330
2
100
AcDbEntity
  8
PART_NUMBERS
100
AcDbLeader
  3
Standard
 76
     3
 10
13.34005040765939
 20
14.86758083139221
 30
0.0
 10
18.66137399144105
 20
17.23741684142527
 30
0.0
 10
18.91137399144105
 20
17.23741684142527
 30
0.0
  0
DIMENSION
  5
119
330
2
100
AcDbEntity
  8
R-ANNO-DIMS
100
AcDbDimension
  2
*D6
 10
16.41137399144034
 20
14.97034432604528
 30
0.0
 11
16.41137399144034
 21
14.39789516367992
 31
0.0
 70
   160
 71
     5
 42
0.8749999999999429
  3
Standard
100
AcDbAlignedDimension
 13
15.64637399143925
 23
15.84534432604522
 33
0.0
 14
15.64637399143925
 24
14.97034432604528
 34
0.0
 50
90.0
100
AcDbRotatedDimension
  0
LWPOLYLINE
  5
127
330
2
100
AcDbEntity
  8
0
100
AcDbPolyline
 90
        6
 70
     0
 43
0.0
 10
13.02680477205837
 20
15.72434432604512
 10
12.98337399144003
 20
15.72434432604512
 10
12.9451571168421
 20
15.82934432604509
 10
12.35259086603798
 20
15.82934432604514
 10
12.31437399144005
 20
15.72434432604512
 10
12.2717462828831
 20
15.72434477378954
  0
LWPOLYLINE
  5
128
330
2
100
AcDbEntity
  8
R-SWTS-DET1
100
AcDbPolyline
 90
       80
 70
     1
 43
0.0
 10
13.03837399143981
 20
15.19174476177829
 10
13.09137399143981
 20
15.22234432604534
 10
13.11137399143985
 20
15.22234432604534
 42
-0.4142135623717424
 10
13.12137399143984
 20
15.21234432604535
 10
13.12137399143984
 20
15.06592167631459
 42
-0.4142135623717424
 10
13.11137399143985
 20
15.05592167631465
 10
13.09137399143981
 20
15.05592167631462
 10
13.03350169999714
 20
15.08933425935771
 42
0.3954233646216332
 10
13.0135223881652
 20
15.08466654471266
 10
12.94836326208855
 20
14.98696455681806
 42
0.6600047310089258
 10
12.9584192850865
 20
14.97156803501349
 10
13.05751337439403
 20
14.98904099658711
 10
13.12411113510046
 20
14.97119618038812
 42
0.065543462815245
 10
13.13058161122802
 20
14.97034432604533
 10
13.24537399143923
 20
14.97034432604533
 42
0.4142135623730951
 10
13.28537399143925
 20
15.01034432604535
 10
13.28537399143925
 20
15.02034432604529
 10
13.21137399143924
 20
15.02034432604529
 10
13.21137399143924
 20
15.1353443260453
 10
13.52937399143923
 20
15.1353443260453
 10
13.52937399143923
 20
15.02034432604526
 10
13.47337399143924
 20
15.02034432604526
 10
13.47337399143924
 20
15.01034432604524
 42
0.4142135623730822
 10
13.51337399143921
 20
14.97034432604522
 10
13.63386407908575
 20
14.97034432604528
 10
13.66203443587074
 20
15.0039164499484
 42
0.6370702608075506
 10
13.65437399143951
 20
15.02034432604529
 10
13.59437399143923
 20
15.02034432604529
 10
13.59437399143923
 20
15.15734432604523
 10
14.58537399143927
 20
15.15734432604529
 10
14.65037399143926
 20
15.09234432604529
 10
14.65037399143926
 20
15.02034432604529
 10
14.59037399143926
 20
15.02034432604529
 42
0.637070260807368
 10
14.58271354700804
 20
15.0039164499484
 10
14.61088390379302
 20
14.97034432604528
 10
15.64637399143925
 20
14.97034432604528
 10
15.64637399143925
 20
15.84534432604522
 10
14.61088390379302
 20
15.84534432604519
 10
14.58271354700804
 20
15.81177220214204
 42
0.6370702608073675
 10
14.59037399143926
 20
15.79534432604518
 10
14.65037399143926
 20
15.79534432604518
 10
14.65037399143926
 20
15.7233443260452
 10
14.58537399143927
 20
15.65834432604521
 10
13.59437399143923
 20
15.65834432604521
 10
13.59437399143923
 20
15.79534432604518
 10
13.65437399143951
 20
15.79534432604521
 42
0.637070260807422
 10
13.66203443587074
 20
15.81177220214204
 10
13.63386407908575
 20
15.84534432604519
 10
13.51337399143921
 20
15.84534432604522
 42
0.4142135623731212
 10
13.47337399143924
 20
15.80534432604523
 10
13.47337399143924
 20
15.79534432604521
 10
13.52937399143923
 20
15.79534432604521
 10
13.52937399143923
 20
15.6803443260452
 10
13.21137399143924
 20
15.6803443260452
 10
13.21137399143924
 20
15.79534432604521
 10
13.28537399143925
 20
15.79534432604521
 10
13.28537399143925
 20
15.8053443260452
 42
0.4142135623731081
 10
13.24537399143923
 20
15.84534432604519
 10
13.13058161122825
 20
15.84534432604516
 42
0.0655434628152315
 10
13.12411113510069
 20
15.84449247170244
 10
13.05751337439403
 20
15.82664765550333
 10
12.9584192850865
 20
15.84412061707701
 42
0.6600047310089258
 10
12.94836326208855
 20
15.82872409527238
 10
13.0135223881652
 20
15.73102210737784
 42
0.3954233646216332
 10
13.03350169999714
 20
15.72635439273279
 10
13.09137399143981
 20
15.75976697577585
 10
13.11137399143985
 20
15.75976697577585
 42
-0.4142135623718464
 10
13.12137399143984
 20
15.74976697577585
 10
13.12137399143984
 20
15.60334432604512
 42
-0.4142135623718464
 10
13.11137399143985
 20
15.59334432604515
 10
13.09137399143981
 20
15.59334432604515
 10
13.03837399143981
 20
15.62394389031218
 42
0.5773502691896848
 10
13.02337399143982
 20
15.61528363627434
 10
13.02337399143982
 20
15.51713409051211
 10
13.10137399144042
 20
15.47210076951498
 42
-0.2679491924311339
 10
13.12137399144041
 20
15.43745975336361
 10
13.12137399144041
 20
15.37822889872689
 42
-0.2679491924311507
 10
13.10137399144042
 20
15.34358788257549
 10
13.02337399143982
 20
15.29855456157835
 10
13.02337399143982
 20
15.20040501581616
 42
0.5773502691896847
  0
LWPOLYLINE
  5
129
330
2
100
AcDbEntity
  8
R-SWTS-DET1
100
AcDbPolyline
 90
       40
 70
     1
 43
0.0
 10
15.46648203026478
 20
15.78034432604522
 42
0.6224337464226136
 10
15.45063583516645
 20
15.74814194509284
 42
-0.3267061393957527
 10
15.45494530779672
 20
15.57343807604525
 42
-0.2457530127345989
 10
15.43851675153218
 20
15.56484432604526
 10
15.39875747559222
 20
15.56484432604526
 42
-0.688247201611599
 10
15.38541390739772
 20
15.5997422852289
 42
0.5741920180569366
 10
15.35837399143929
 20
15.73172937189343
 10
15.35837399143918
 20
15.75534432604519
 42
0.9999999999999998
 10
15.30837399143917
 20
15.75534432604519
 10
15.30837399143917
 20
15.73172937189392
 42
0.5741920180578775
 10
15.28133407548063
 20
15.59974228522893
 42
-0.6882472016118379
 10
15.26799050728613
 20
15.56484432604526
 10
15.22823123134611
 20
15.5648443260452
 42
-0.2457530127346519
 10
15.21180267508146
 20
15.57343807604516
 42
-0.3267061393958188
 10
15.21611214771172
 20
15.74814194509284
 42
0.6224337464226563
 10
15.20026595261345
 20
15.78034432604519
 10
14.71537399143926
 20
15.78034432604517
 10
14.71537399143926
 20
15.69642044449094
 10
14.61229787299351
 20
15.59334432604521
 10
13.55941923055991
 20
15.59334432604521
 42
0.4874613951104794
 10
13.5400090830455
 20
15.56852289747377
 42
-0.2158505435375484
 10
13.51794530779671
 20
15.44843807604496
 42
-0.245753012734614
 10
13.50151675153216
 20
15.43984432604498
 10
13.46175747559232
 20
15.43984432604498
 42
-0.6882472016123261
 10
13.44841390739788
 20
15.4747422852287
 42
2.615339366131379
 10
13.34433407548061
 20
15.47474228522867
 42
-0.6882472016117944
 10
13.33099050728612
 20
15.439844326045
 10
13.2912312313461
 20
15.43984432604498
 42
-0.245753012734651
 10
13.27480267508144
 20
15.44843807604491
 42
-0.1528965617342725
 10
13.24837399143911
 20
15.53284432604494
 10
13.24837399143945
 20
15.59334432604521
 10
13.21137399143919
 20
15.59334432604532
 10
13.21137399143919
 20
15.2003443260453
 10
13.52937399143923
 20
15.2003443260453
 10
13.52937399143923
 20
15.22234432604523
 10
14.61229787299351
 20
15.22234432604529
 10
14.71537399143926
 20
15.11926820759953
 10
14.71537399143926
 20
15.0353443260453
 10
15.58137399143925
 20
15.03534432604527
 10
15.58137399143925
 20
15.78034432604522
  0
LINE
  5
12A
330
2
100
AcDbEntity
  8
R-SWTS-DET1
100
AcDbLine
 10
14.77137399144044
 20
14.07971932604538
 30
0.0
 11
13.02637399144044
 21
14.07971932604543
 31
0.0
  0
LWPOLYLINE
  5
12B
330
2
100
AcDbEntity
  8
R-SWTS-DET1
100
AcDbPolyline
 90
       41
 70
     1
 43
0.0
 10
14.53037399144057
 20
14.93180782129044
 42
0.4400105308918457
 10
14.56298866372299
 20
14.90192198034771
 10
14.67859232056332
 20
14.91203598978336
 42
-0.4466574342041956
 10
14.71119958702678
 20
14.88148359479794
 10
14.69853872863041
 20
14.31178937115103
 42
-0.4077202623982005
 10
14.53857822633159
 20
14.15534432604534
 10
13.73437399143995
 20
14.15534432604531
 42
-0.4142135623731212
 10
13.72437399143996
 20
14.1653443260453
 10
13.72437399143996
 20
15.0353443260453
 42
0.3736297736983284
 10
13.69857576097655
 20
15.06504862089886
 10
13.73746156354627
 20
15.10393442346856
 42
1.000000000000055
 10
13.70564175839286
 20
15.13575422862196
 10
13.60730292362802
 20
15.03741539385717
 42
0.668178637919354
 10
13.61437399143994
 20
15.02034432604529
 10
13.67937399143994
 20
15.0203443260453
 10
13.67937399143989
 20
14.1653443260453
 42
-0.4142135623730431
 10
13.6693739914399
 20
14.15534432604531
 10
13.24137399144058
 20
14.15534432604528
 10
13.24137399144058
 20
14.33634432604532
 42
0.414213562373069
 10
13.21137399144055
 20
14.36634432604532
 10
13.12637399144057
 20
14.36634432604532
 10
13.12637399144051
 20
14.63234432604534
 42
1.0
 10
13.0763739914405
 20
14.63234432604534
 10
13.0763739914405
 20
14.36634432604532
 10
13.02637399144055
 20
14.36634432604532
 10
13.02637399144055
 20
14.25534432604533
 10
13.0763739914405
 20
14.25534432604533
 10
13.0763739914405
 20
14.31634432604531
 10
13.19137399144051
 20
14.31634432604531
 10
13.19137399144057
 20
14.17034432604532
 10
13.02637399144055
 20
14.17034432604532
 10
13.02637399144055
 20
14.13034432604533
 10
13.04658125086223
 20
14.09534432604533
 10
14.77137399144055
 20
14.09534432604533
 10
14.77137399144055
 20
14.97034432604528
 10
14.58037399144058
 20
14.95363399131185
 10
14.58037399144058
 20
15.04227058496805
 10
14.58805166097215
 20
15.0499482545004
 42
0.9999999999999872
 10
14.55269632191113
 20
15.08530359355802
 10
14.53916078800398
 20
15.07176805964951
 42
0.1989123673670628
 10
14.53037399144057
 20
15.05055485621494
  0
LWPOLYLINE
  5
12C
330
2
100
AcDbEntity
  8
R-SWTS-DET2
100
AcDbPolyline
 90
       14
 70
     0
 43
0.0
 10
13.55643967203673
 20
14.97034432604532
 42
-0.6383843910517208
 10
13.5300808786518
 20
14.88354892118768
 10
13.15001993666698
 20
14.85161274159675
 42
0.1853390449315372
 10
13.11867636955901
 20
14.83423871864399
 42
0.2600651486930057
 10
12.97138825051905
 20
14.43861737710783
 42
0.0252322931696312
 10
12.98341359926587
 20
14.4680262236839
 10
13.01806844915222
 20
14.5667144207212
 42
-1.0
 10
13.07467953372884
 20
14.54683515757928
 10
13.04002468384243
 20
14.44814696054199
 42
-0.1070648706106477
 10
12.9568957435103
 20
14.31287021591811
 42
-0.5152864272066239
 10
12.94078005599101
 20
14.31522589279252
 42
-0.130179872691447
 10
12.90137399144055
 20
14.49555255970047
 10
12.90137399144055
 20
14.59534432604536
 42
-0.1618049181719085
 10
13.1285816112279
 20
14.97034432604532
  0
LWPOLYLINE
  5
12D
330
2
100
AcDbEntity
  8
R-SWTS-DET3
100
AcDbPolyline
 90
        4
 70
     1
 43
0.0
 10
12.65137399144055
 20
14.72034432604533
 10
12.65137399144055
 20
14.47034432604533
 10
12.15137399144055
 20
14.47034432604533
 10
12.15137399144055
 20
14.72034432604533
  0
LWPOLYLINE
  5
12E
330
2
100
AcDbEntity
  8
0
100
AcDbPolyline
 90
       14
 70
     0
 43
0.0
 10
12.25937399144044
 20
15.19174476177829
 10
12.26640731243708
 20
15.18768407200747
 42
0.131652497587334
 10
12.27140731243707
 20
15.18634432604531
 10
12.31706388987158
 20
15.18634432604531
 42
-0.3152987888789939
 10
12.39129960691366
 20
15.13436391736802
 10
12.4070807655159
 20
15.09100554045562
 42
0.3152987888790213
 10
12.44372877772656
 20
15.06534432604533
 10
12.85401920515352
 20
15.06534432604536
 42
0.3152987888789464
 10
12.89066721736418
 20
15.09100554045568
 10
12.90644837596642
 20
15.13436391736802
 42
-0.3152987888789767
 10
12.9806840930085
 20
15.18634432604531
 10
13.026340670443
 20
15.18634432604531
 42
0.131652497587334
 10
13.031340670443
 20
15.18768407200747
 10
13.03837399143981
 20
15.19174476177829
  0
LWPOLYLINE
  5
12F
330
2
100
AcDbEntity
  8
0
100
AcDbPolyline
 90
        6
 70
     0
 43
0.0
 10
13.02680477205837
 20
15.09134432604531
 10
12.98337399144003
 20
15.09134432604531
 10
12.9451571168421
 20
14.98634432604535
 10
12.35259086603798
 20
14.9863443260453
 10
12.31437399144005
 20
15.09134432604531
 10
12.2717462828831
 20
15.0913438783009
  0
LWPOLYLINE
  5
130
330
2
100
AcDbEntity
  8
0
100
AcDbPolyline
 90
       14
 70
     0
 43
0.0
 10
12.25937399144044
 20
15.62394389031218
 10
12.26640731243708
 20
15.628004580083
 42
-0.131652497587334
 10
12.27140731243707
 20
15.62934432604516
 10
12.31706388987158
 20
15.62934432604516
 42
0.3152987888789939
 10
12.39129960691366
 20
15.68132473472241
 10
12.4070807655159
 20
15.72468311163484
 42
-0.3152987888790213
 10
12.44372877772656
 20
15.75034432604514
 10
12.85401920515352
 20
15.75034432604508
 42
-0.3152987888789464
 10
12.89066721736418
 20
15.72468311163482
 10
12.90644837596642
 20
15.68132473472241
 42
0.3152987888789767
 10
12.9806840930085
 20
15.62934432604516
 10
13.026340670443
 20
15.62934432604516
 42
-0.131652497587334
 10
13.031340670443
 20
15.628004580083
 10
13.03837399143981
 20
15.62394389031218
  0
LWPOLYLINE
  5
131
330
2
100
AcDbEntity
  8
R-SWTS-DET2
100
AcDbPolyline
 90
        4
 70
     1
 43
0.0
 10
11.90137399144044
 20
14.25534432604539
 10
11.90137399144044
 20
14.5553443260454
 10
11.71137399144044
 20
14.5553443260454
 10
11.71137399144044
 20
14.25534432604539
  0
LWPOLYLINE
  5
132
330
2
100
AcDbEntity
  8
R-SWTS-DET1
100
AcDbPolyline
 90
        4
 70
     1
 43
0.0
 10
11.71137399144044
 20
15.65534432604519
 10
11.71137399144044
 20
15.16034432604527
 10
12.08637399144044
 20
15.16034432604527
 10
12.08637399144044
 20
15.65534432604517
  0
LWPOLYLINE
  5
133
330
2
100
AcDbEntity
  8
R-SWTS-DET2
100
AcDbPolyline
 90
        8
 70
     1
 43
0.0
 10
11.77637399144043
 20
14.16034432604542
 10
11.77637399144043
 20
14.09534432604536
 10
11.71137399144044
 20
14.09534432604536
 10
11.71137399144044
 20
14.07171843806245
 10
11.90137399144044
 20
13.9953443260454
 10
11.90137399144044
 20
14.25534432604539
 10
11.71137399144044
 20
14.25534432604539
 10
11.71137399144044
 20
14.16034432604542
  0
LWPOLYLINE
  5
134
330
2
100
AcDbEntity
  8
R-SWTS-DET2
100
AcDbPolyline
 90
       10
 70
     0
 43
0.0
 10
13.02637399144055
 20
14.29412466419504
 42
0.6522884812892709
 10
12.99287150928177
 20
14.3088787475468
 42
0.2083092445416346
 10
12.90158375585389
 20
14.10386504356856
 42
0.9518102130205759
 10
12.94146889198754
 20
14.10156736679462
 42
-0.0657822641916233
 10
12.9563739914405
 20
14.16292958964541
 10
12.95637399144055
 20
14.07494473532634
 10
12.90310129713333
 20
13.95522158657022
 42
0.9572917422547837
 10
12.93886851350089
 20
13.93739851186936
 10
13.0263739914406
 20
14.09534432604542
 10
13.02637399144055
 20
14.17034432604532
  0
LWPOLYLINE
  5
135
330
2
100
AcDbEntity
  8
R-SWTS-DET3
100
AcDbPolyline
 90
        3
 70
     0
 43
0.0
 10
11.71538554298791
 20
16.67034432604521
 10
11.76756781431166
 20
16.41182492247947
 42
-0.1927156959104748
 10
11.71137399144041
 20
16.10577801151366
  0
TEXT
  5
136
330
2
100
AcDbEntity
  8
PART_NUMBERS
100
AcDbText
 10
18.97379954808082
 20
13.88945934779629
 30
0.0
 40
0.25
  1
GLASS STOP
100
AcDbText
  0
TEXT
  5
137
330
2
100
AcDbEntity
  8
PART_NUMBERS
100
AcDbText
 10
18.97379954808082
 20
14.2942212525582
 30
0.0
 40
0.25
  1
823040
100
AcDbText
  0
TEXT
  5
138
330
2
100
AcDbEntity
  8
PART_NUMBERS
100
AcDbText
 10
18.97379954808082
 20
17.1222212525582
 30
0.0
 40
0.25
  1
027771
100
AcDbText
  0
TEXT
  5
139
330
2
100
AcDbEntity
  8
PART_NUMBERS
100
AcDbText
 10
18.97379954808082
 20
17.92945934779629
 30
0.0
 40
0.25
  1
VERTICAL
100
AcDbText
  0
TEXT
  5
13A
330
2
100
AcDbEntity
  8
PART_NUMBERS
100
AcDbText
 10
18.97379954808082
 20
15.91022125255818
 30
0.0
 40
0.25
  1
027590
100
AcDbText
  0
TEXT
  5
13B
330
2
100
AcDbEntity
  8
PART_NUMBERS
100
AcDbText
 10
18.97379954808082
 20
18.33422125255819
 30
0.0
 40
0.25
  1
823203
100
AcDbText
  0
TEXT
  5
13C
330
2
100
AcDbEntity
  8
PART_NUMBERS
100
AcDbText
 10
18.97379954808082
 20
19.14145934779628
 30
0.0
 40
0.25
  1
VERTICAL
100
AcDbText
  0
LWPOLYLINE
  5
13D
330
2
100
AcDbEntity
  8
R-SWTS-DET3
100
AcDbPolyline
 90
       18
 70
     0
 43
0.0
 10
35.43380374303072
 20
11.90527491163358
 42
0.4599970702623566
 10
35.82478780606562
 20
12.40661701325459
 10
35.43102441328435
 20
14.81699973129645
 42
-1.222954301756927
 10
36.23522873201452
 20
14.81699973129645
 10
35.84146533923311
 20
12.4066170132546
 42
1.222954301756915
 10
36.66208199099859
 20
12.40661701325459
 10
36.26011243169964
 20
14.86788797533238
 42
-1.222954301756945
 10
37.08072908346494
 20
14.86788797533238
 10
36.67875952416606
 20
12.4066170132546
 42
1.222954301756924
 10
37.49937617593136
 20
12.40661701325459
 10
37.01944803471469
 20
15.35132629367367
 42
-1.222954301756979
 10
37.99598185031562
 20
15.35132629367369
 10
37.51605370909883
 20
12.4066170132546
 42
1.222954301756957
 10
38.3366703608643
 20
12.40661701325457
 10
37.94701005134184
 20
14.79155560927849
 42
-1.222954301756979
 10
38.74300820355435
 20
14.7915556092785
 10
38.35334789403177
 20
12.4066170132546
 42
0.5111084778117208
 10
38.81346532726825
 20
11.90780229488334
  0
LWPOLYLINE
  5
13E
330
2
100
AcDbEntity
  8
R-SWTS-DET3
100
AcDbPolyline
 90
        4
 70
     0
 43
0.0
 10
38.9157856244266
 20
13.40532868106959
 10
38.69352249229322
 20
14.26304163695732
 42
-1.292164525254529
 10
39.52081675996343
 20
14.26304163695732
 10
39.29855362783005
 20
13.40532868106959
  0
LWPOLYLINE
  5
13F
330
2
100
AcDbEntity
  8
R-SWTS-DET2
100
AcDbPolyline
 90
       14
 70
     0
 43
0.0
 10
39.78647948018192
 20
13.75039436166651
 42
-0.6383843910517211
 10
39.87327488503956
 20
13.72403556828162
 10
39.90521106463052
 20
13.34397462629677
 42
0.1853390449315368
 10
39.92258508758323
 20
13.31263105918881
 42
0.2600651486930391
 10
40.31820642911941
 20
13.16534294014886
 42
0.0252322931696154
 10
40.28879758254332
 20
13.17736828889568
 10
40.22223541719938
 20
13.20074192340675
 42
-1.0
 10
40.24211468034133
 20
13.25735300798331
 10
40.30867684568522
 20
13.23397937347223
 42
-0.1070648706106479
 10
40.44395359030909
 20
13.15085043314008
 42
-0.5152864272066241
 10
40.44159791343473
 20
13.13473474562079
 42
-0.1301798726914469
 10
40.26127124652679
 20
13.09532868107035
 10
40.16147948018192
 20
13.09532868107035
 42
-0.1618049181719087
 10
39.78647948018192
 20
13.32253630085768
  0
LWPOLYLINE
  5
140
330
2
100
AcDbEntity
  8
R-SWTS-DET1
100
AcDbPolyline
 90
      100
 70
     1
 43
0.0
 10
39.721479480182
 20
15.77532868106962
 10
39.34947948018191
 20
15.77532868106962
 10
39.34947948018191
 20
15.84032868106962
 10
39.78647948018192
 20
15.84032868106962
 10
39.78647948018192
 20
14.80483859342342
 10
39.7529073562788
 20
14.77666823663844
 42
-0.637070260807533
 10
39.73647948018197
 20
14.78432868106964
 10
39.73647948018197
 20
14.84432868106964
 10
39.66447948018197
 20
14.84432868106964
 10
39.59947948018191
 20
14.77932868106964
 10
39.59947948018204
 20
13.78832868106961
 10
39.73647948018197
 20
13.78832868106961
 10
39.73647948018197
 20
13.84832868106991
 42
-0.6370702608075105
 10
39.7529073562788
 20
13.85598912550111
 10
39.78647948018192
 20
13.82781876871614
 10
39.78647948018204
 20
13.70732868106962
 42
-0.4142135623730561
 10
39.74647948018196
 20
13.66732868106962
 10
39.73647948018197
 20
13.66732868106962
 10
39.73647948018197
 20
13.72332868106963
 10
39.62147948018196
 20
13.7233286810696
 10
39.62147948018196
 20
13.40532868106962
 10
39.73647948018197
 20
13.40532868106962
 10
39.73647948018197
 20
13.47932868106963
 10
39.74647948018196
 20
13.47932868106963
 42
-0.4142135623730951
 10
39.78647948018192
 20
13.43932868106964
 10
39.78647948018192
 20
13.32453630085797
 42
-0.0655434628152451
 10
39.78562762583921
 20
13.31806582473041
 10
39.76778280964015
 20
13.25146806402384
 10
39.78525577121378
 20
13.1523739747163
 42
-0.6600047310089258
 10
39.76985924940914
 20
13.14231795171832
 10
39.6721572615146
 20
13.20747707779498
 42
-0.395423364621451
 10
39.66748954686955
 20
13.22745638962693
 10
39.70090212991261
 20
13.28532868106961
 10
39.70090212991261
 20
13.30532868106965
 42
0.4142135623718464
 10
39.69090212991261
 20
13.31532868106964
 10
39.54447948018185
 20
13.31532868106966
 42
0.4142135623718464
 10
39.53447948018186
 20
13.30532868106965
 10
39.53447948018186
 20
13.28532868106961
 10
39.56507904444891
 20
13.23232868106963
 42
-0.5773502691896848
 10
39.55641879041105
 20
13.21732868106963
 10
39.45826924464882
 20
13.21732868106963
 10
39.41323592365177
 20
13.29532868107021
 42
0.2679491924311403
 10
39.37859490750032
 20
13.31532868107021
 10
39.31936405286365
 20
13.31532868107021
 42
0.2679491924311403
 10
39.28472303671219
 20
13.29532868107021
 10
39.23968971571515
 20
13.21732868106963
 10
39.14154016995292
 20
13.21732868106963
 42
-0.5773502691896847
 10
39.13287991591506
 20
13.23232868106963
 10
39.16347948018211
 20
13.28532868106961
 10
39.16347948018211
 20
13.30532868106965
 42
0.4142135623718464
 10
39.15347948018212
 20
13.31532868106964
 10
39.00705683045135
 20
13.31532868106964
 42
0.4142135623718464
 10
38.99705683045136
 20
13.30532868106965
 10
38.99705683045136
 20
13.28532868106961
 10
39.03046941349442
 20
13.22745638962693
 42
-0.3954233646214511
 10
39.02580169884937
 20
13.20747707779498
 10
38.92809971095483
 20
13.14231795171832
 42
-0.6600047310089258
 10
38.91270318915019
 20
13.1523739747163
 10
38.93017615072393
 20
13.25146806402384
 10
38.91233133452489
 20
13.31806582473032
 42
-0.0655434628152495
 10
38.91147948018204
 20
13.3245363008579
 10
38.91147948018204
 20
13.40532868106959
 10
39.53447948018208
 20
13.40532868106959
 10
39.53447948018197
 20
13.44232868106982
 10
39.47397948018171
 20
13.44232868106951
 42
-0.1528965617342688
 10
39.38957323018167
 20
13.46875736471186
 42
-0.2457530127346543
 10
39.38097948018175
 20
13.48518592097649
 10
39.38097948018175
 20
13.52494519691652
 42
-0.6882472016119169
 10
39.41587743936543
 20
13.53828876511102
 42
2.615339366131393
 10
39.41587743936543
 20
13.64236859702825
 42
-0.6882472016123603
 10
39.38097948018175
 20
13.65571216522272
 10
39.38097948018175
 20
13.69547144116256
 42
-0.2457530127345705
 10
39.38957323018178
 20
13.71189999742711
 42
-0.2158505435375484
 10
39.50965805161047
 20
13.73396377267591
 42
0.4874613951105398
 10
39.53447948018197
 20
13.7533739201903
 10
39.53447948018197
 20
14.80625256262388
 10
39.63755559862773
 20
14.90932868106964
 10
39.721479480182
 20
14.90932868106964
 10
39.721479480182
 20
15.25932868106962
 10
38.97647948018209
 20
15.25932868106963
 10
38.97647948018209
 20
14.82432868106963
 10
38.91147948018204
 20
14.82432868106963
 10
38.91147948018204
 20
15.32432868106963
 10
39.721479480182
 20
15.32432868106963
 10
39.721479480182
 20
15.39422064224384
 42
0.6224337464227242
 10
39.68927709922957
 20
15.4100668373421
 42
-0.3267061393958221
 10
39.51457323018189
 20
15.40575736471186
 42
-0.245753012734594
 10
39.50597948018197
 20
15.42218592097649
 10
39.50597948018197
 20
15.46194519691653
 42
-0.6882472016118353
 10
39.54087743936565
 20
15.47528876511101
 42
0.574192018057885
 10
39.67286452603072
 20
15.50232868106957
 10
39.69647948018201
 20
15.50232868106957
 42
0.9999999999999998
 10
39.69647948018201
 20
15.55232868106958
 10
39.67286452603025
 20
15.55232868106967
 42
0.5741920180569317
 10
39.54087743936565
 20
15.57936859702812
 42
-0.6882472016116921
 10
39.50597948018197
 20
15.59271216522263
 10
39.50597948018197
 20
15.63247144116258
 42
-0.2457530127345669
 10
39.51457323018201
 20
15.64889999742712
 42
-0.3267061393957548
 10
39.68927709922957
 20
15.64459052479687
 42
0.622433746422697
 10
39.721479480182
 20
15.66043671989516
  0
LINE
  5
141
330
2
100
AcDbEntity
  8
R-SWTS-DET1
100
AcDbLine
 10
40.67710448018192
 20
14.9553286810702
 30
0.0
 11
40.67710448018192
 21
13.21032868107019
 31
0.0
  0
LWPOLYLINE
  5
142
330
2
100
AcDbEntity
  8
R-SWTS-DET1
100
AcDbPolyline
 90
       41
 70
     1
 43
0.0
 10
39.82501598493684
 20
14.71432868107024
 42
0.4400105308918457
 10
39.85490182587954
 20
14.74694335335269
 10
39.8447878164439
 20
14.86254701019298
 42
-0.4466574342041956
 10
39.87534021142932
 20
14.89515427665645
 10
40.44503443507618
 20
14.8824934182601
 42
-0.4077202623982005
 10
40.60147948018192
 20
14.72253291596127
 10
40.60147948018197
 20
13.91832868106961
 42
-0.4142135623731212
 10
40.59147948018199
 20
13.9083286810696
 10
39.721479480182
 20
13.9083286810696
 42
0.3736297736983284
 10
39.69177518532843
 20
13.88253045060622
 10
39.6528893827587
 20
13.92141625317593
 42
1.000000000000055
 10
39.62106957760529
 20
13.88959644802253
 10
39.71940841237007
 20
13.79125761325774
 42
0.668178637919354
 10
39.73647948018197
 20
13.7983286810696
 10
39.73647948018197
 20
13.8633286810696
 10
40.59147948018199
 20
13.86332868106959
 42
-0.4142135623730431
 10
40.60147948018197
 20
13.8533286810696
 10
40.60147948018197
 20
13.42532868107022
 10
40.42047948018193
 20
13.42532868107021
 42
0.414213562373069
 10
40.39047948018196
 20
13.39532868107022
 10
40.39047948018196
 20
13.3103286810702
 10
40.12447948018189
 20
13.31032868107019
 42
1.0
 10
40.12447948018189
 20
13.2603286810702
 10
40.39047948018196
 20
13.2603286810702
 10
40.39047948018196
 20
13.21032868107021
 10
40.50147948018195
 20
13.21032868107024
 10
40.50147948018195
 20
13.26032868107022
 10
40.44047948018191
 20
13.26032868107022
 10
40.44047948018191
 20
13.37532868107021
 10
40.58647948018193
 20
13.37532868107023
 10
40.58647948018193
 20
13.21032868107022
 10
40.62647948018194
 20
13.21032868107022
 10
40.66147948018192
 20
13.23053594049186
 10
40.66147948018192
 20
14.95532868107023
 10
39.78647948018198
 20
14.9553286810702
 10
39.80318981491541
 20
14.76432868107025
 10
39.71455322125917
 20
14.76432868107025
 10
39.70687555172685
 20
14.77200635060185
 42
0.9999999999999872
 10
39.67152021266925
 20
14.7366510115408
 10
39.68505574657775
 20
14.72311547763363
 42
0.1989123673670628
 10
39.70626895001231
 20
14.71432868107024
  0
DIMENSION
  5
143
330
2
100
AcDbEntity
  8
R-ANNO-DIMS
100
AcDbDimension
  2
*D5
 10
33.85447948018265
 20
15.40232868106992
 30
0.0
 11
33.67447948018265
 21
13.62132868107014
 31
0.0
 70
    32
  1
<> (REF.)
 71
     5
 42
3.561999999999556
  3
Standard
100
AcDbAlignedDimension
 13
35.34947948018237
 23
11.84032868107036
 33
0.0
 14
35.34947948018248
 24
15.40232868106992
 34
0.0
 50
89.99999999999673
100
AcDbRotatedDimension
  0
LINE
  5
150
330
2
100
AcDbEntity
  8
R-SWTS-DET1
100
AcDbLine
 10
35.34947948018254
 20
19.15234432604382
 30
0.0
 11
35.34947948018248
 21
11.84032868107024
 31
0.0
  0
LINE
  5
151
330
2
100
AcDbEntity
  8
R-SWTS-DET1
100
AcDbLine
 10
35.41447948018293
 20
11.9053286810707
 30
0.0
 11
35.41447948018299
 21
19.15234432604382
 31
0.0
  0
DIMENSION
  5
152
330
2
100
AcDbEntity
  8
R-ANNO-DIMS
100
AcDbDimension
  2
*D4
 10
33.10447948018282
 20
19.15234432604396
 30
0.0
 11
32.92447948018281
 21
15.49633650355711
 31
0.0
 70
    32
  1
F.W.
 71
     5
 42
7.312015644973713
  3
EXT_ON_OFF
100
AcDbAlignedDimension
 13
35.34947948018237
 23
11.84032868107024
 33
0.0
 14
35.34947948018265
 24
19.15234432604396
 34
0.0
 50
89.99999999999673
100
AcDbRotatedDimension
  0
LWPOLYLINE
  5
15E
330
2
100
AcDbEntity
  8
R-SWTS-DET1
100
AcDbPolyline
 90
       16
 70
     1
 43
0.0
 10
35.34897948018204
 20
11.88982868106967
 42
0.4142135623730951
 10
35.39897948018199
 20
11.83982868106967
 10
38.86147948018197
 20
11.83982868106967
 42
0.4142135623730951
 10
38.91147948018204
 20
11.88982868106967
 10
38.91147948018204
 20
12.53419082590567
 10
38.84647948018198
 20
12.53419082590567
 10
38.84647948018198
 20
11.95482868106967
 42
-0.4142135623730951
 10
38.79647948018204
 20
11.90482868106967
 10
35.46397948018205
 20
11.90482868106967
 42
-0.4142135623730951
 10
35.41397948018197
 20
11.95482868106967
 10
35.41397948018197
 20
15.28732868106966
 42
-0.4142135623730951
 10
35.46397948018205
 20
15.33732868106966
 10
36.043341625018
 20
15.33732868106966
 10
36.043341625018
 20
15.40232868106966
 10
35.39897948018199
 20
15.40232868106966
 42
0.4142135623730951
 10
35.34897948018204
 20
15.35232868106966
  0
LINE
  5
15F
330
2
100
AcDbEntity
  8
R-SWTS-DET1
100
AcDbLine
 10
39.36447948018167
 20
15.85532868106938
 30
0.0
 11
35.34947948018237
 21
11.84032868107024
 31
0.0
  0
DIMENSION
  5
160
330
2
100
AcDbEntity
  8
R-ANNO-DIMS
100
AcDbDimension
  2
*D3
 10
38.91147948018204
 20
10.34532868107038
 30
0.0
 11
37.13047948018226
 21
10.52532868107038
 31
0.0
 70
    32
  1
<> (REF.)
 71
     5
 42
3.561999999999556
  3
Standard
100
AcDbAlignedDimension
 13
35.34947948018248
 23
11.84032868107024
 33
0.0
 14
38.91147948018204
 24
11.84032868107023
 34
0.0
100
AcDbRotatedDimension
  0
DIMENSION
  5
16D
330
2
100
AcDbEntity
  8
R-ANNO-DIMS
100
AcDbDimension
  2
*D2
 10
40.66147948018192
 20
10.34532868107038
 30
0.0
 11
39.78647948018198
 21
10.52532868107038
 31
0.0
 70
    32
 71
     5
 42
1.749999999999885
  3
Standard
100
AcDbAlignedDimension
 13
38.91147948018204
 23
11.84032868107023
 33
0.0
 14
40.66147948018192
 24
11.84032868107023
 34
0.0
100
AcDbRotatedDimension
  0
LWPOLYLINE
  5
17A
330
2
100
AcDbEntity
  8
R-SWTS-DET2
100
AcDbPolyline
 90
        4
 70
     1
 43
0.0
 10
40.50147948018184
 20
12.09532868107024
 10
40.20147948018188
 20
12.09532868107024
 10
40.20147948018188
 20
11.90532868107024
 10
40.50147948018184
 20
11.90532868107024
  0
LWPOLYLINE
  5
17B
330
2
100
AcDbEntity
  8
R-SWTS-DET2
100
AcDbPolyline
 90
        8
 70
     1
 43
0.0
 10
40.59647948018186
 20
11.97032868107024
 10
40.66147948018192
 20
11.97032868107024
 10
40.66147948018192
 20
11.90532868107024
 10
40.68510536816485
 20
11.90532868107024
 10
40.76147948018182
 20
12.09532868107024
 10
40.50147948018184
 20
12.09532868107024
 10
40.50147948018184
 20
11.90532868107024
 10
40.59647948018186
 20
11.90532868107024
  0
LWPOLYLINE
  5
17C
330
2
100
AcDbEntity
  8
R-SWTS-DET3
100
AcDbPolyline
 90
        4
 70
     1
 43
0.0
 10
40.03647948018192
 20
12.34532868107037
 10
40.28647948018192
 20
12.34532868107037
 10
40.28647948018192
 20
12.84532868107035
 10
40.03647948018192
 20
12.84532868107035
  0
LWPOLYLINE
  5
17D
330
2
100
AcDbEntity
  8
R-SWTS-DET2
100
AcDbPolyline
 90
       10
 70
     0
 43
0.0
 10
40.58647948018188
 20
13.21032868107024
 10
40.67952930036415
 20
13.21032868107026
 10
40.81942529435787
 20
13.13282320313064
 42
-0.9572917422547639
 10
40.80160221965707
 20
13.09705598676312
 10
40.68187907090089
 20
13.15032868107036
 10
40.5938942165818
 20
13.1503286810703
 42
0.0657822641916254
 10
40.6552564394326
 20
13.13542358161737
 42
-0.9518102130205722
 10
40.65295876265873
 20
13.09553844548372
 42
-0.1944552779236804
 10
40.45833804364377
 20
13.1760599787884
 42
-0.671434510775157
 10
40.47235246961104
 20
13.21032868107025
  0
LWPOLYLINE
  5
17E
330
2
100
AcDbEntity
  8
R-SWTS-DET1
100
AcDbPolyline
 90
        4
 70
     1
 43
0.0
 10
39.10147948018197
 20
11.90532868107024
 10
39.59647948018186
 20
11.90532868107024
 10
39.59647948018186
 20
12.28032868107024
 10
39.10147948018197
 20
12.28032868107023
  0
LWPOLYLINE
  5
17F
330
2
100
AcDbEntity
  8
0
100
AcDbPolyline
 90
       14
 70
     0
 43
0.0
 10
39.13287991591506
 20
12.45332868107022
 10
39.12881922614417
 20
12.46036200206688
 42
-0.131652497587334
 10
39.12747948018205
 20
12.46536200206688
 10
39.12747948018205
 20
12.51101857950138
 42
0.3152987888789939
 10
39.07549907150485
 20
12.58525429654347
 10
39.03214069459238
 20
12.60103545514567
 42
-0.3152987888790213
 10
39.00647948018207
 20
12.63768346735634
 10
39.00647948018218
 20
13.04797389478335
 42
-0.3152987888789464
 10
39.03214069459238
 20
13.08462190699399
 10
39.07549907150485
 20
13.1004030655962
 42
0.3152987888789767
 10
39.12747948018205
 20
13.17463878263828
 10
39.12747948018205
 20
13.22029536007278
 42
-0.131652497587334
 10
39.12881922614417
 20
13.22529536007278
 10
39.13287991591506
 20
13.23232868106963
  0
LWPOLYLINE
  5
180
330
2
100
AcDbEntity
  8
0
100
AcDbPolyline
 90
        6
 70
     0
 43
0.0
 10
39.03247948018213
 20
13.22075946168817
 10
39.03247948018213
 20
13.17732868106984
 10
38.92747948018211
 20
13.1391118064719
 10
38.92747948018211
 20
12.54654555566779
 10
39.03247948018213
 20
12.50832868106982
 10
39.03247903243766
 20
12.4657009725129
  0
LWPOLYLINE
  5
181
330
2
100
AcDbEntity
  8
R-SWTS-DET1
100
AcDbPolyline
 90
       51
 70
     0
 43
0.0
 10
39.37859490750032
 20
12.37032868106962
 10
39.31936405286365
 20
12.37032868106962
 10
39.37859490750032
 20
12.37032868106964
 42
0.2679491924311405
 10
39.41323592365177
 20
12.39032868106963
 10
39.45826924464882
 20
12.4683286810702
 10
39.55641879041105
 20
12.4683286810702
 42
-0.5773502691896845
 10
39.56507904444891
 20
12.45332868107022
 10
39.53447948018186
 20
12.40032868107023
 10
39.53447948018186
 20
12.38032868107021
 42
0.4142135623718464
 10
39.54447948018185
 20
12.3703286810702
 10
39.69090212991261
 20
12.37032868107019
 42
0.4142135623718464
 10
39.70090212991261
 20
12.38032868107021
 10
39.70090212991261
 20
12.40032868107023
 10
39.66748954686955
 20
12.45820097251291
 42
-0.3954233646214511
 10
39.6721572615146
 20
12.47818028434487
 10
39.76985924940914
 20
12.54333941042151
 42
-0.6600047310089258
 10
39.78525577121378
 20
12.53328338742355
 10
39.76778280964015
 20
12.43418929811602
 10
39.78562762583921
 20
12.36759153740951
 42
-0.0655434628152568
 10
39.78647948018192
 20
12.36112106128194
 10
39.78647948018192
 20
12.28032868107024
 10
39.66147948018193
 20
12.28032868107024
 10
39.66147948018193
 20
11.90532868107024
 10
40.61147948018197
 20
11.90532868107024
 10
40.61147948018197
 20
11.95532868107024
 10
40.64147948018193
 20
11.95532868107024
 10
40.66147948018192
 20
11.90532868107024
 10
40.66147948018192
 20
11.84032868107023
 10
38.91147948018204
 20
11.84032868107023
 10
38.91147948018204
 20
11.90532868107024
 10
39.03647948018204
 20
11.90532868107024
 10
39.03647948018204
 20
12.28032868107023
 10
38.91147948018204
 20
12.28032868107026
 10
38.91147948018204
 20
12.36112106128196
 42
-0.0655434628152495
 10
38.91233133452489
 20
12.36759153740952
 10
38.93017615072393
 20
12.43418929811602
 10
38.91270318915019
 20
12.53328338742355
 42
-0.6600047310089258
 10
38.92809971095483
 20
12.54333941042151
 10
39.02580169884937
 20
12.47818028434487
 42
-0.3954233646214511
 10
39.03046941349442
 20
12.45820097251291
 10
38.99705683045136
 20
12.40032868107023
 10
38.99705683045136
 20
12.38032868107021
 42
0.4142135623718464
 10
39.00705683045135
 20
12.37032868107019
 10
39.15347948018212
 20
12.3703286810702
 42
0.4142135623718464
 10
39.16347948018211
 20
12.38032868107021
 10
39.16347948018211
 20
12.40032868107023
 10
39.13287991591506
 20
12.45332868107022
 42
-0.5773502691896847
 10
39.14154016995292
 20
12.4683286810702
 10
39.23968971571515
 20
12.4683286810702
 10
39.28472303671219
 20
12.39032868106963
 42
0.2679491924311403
 10
39.31936405286365
 20
12.37032868106964
  0
LWPOLYLINE
  5
182
330
2
100
AcDbEntity
  8
0
100
AcDbPolyline
 90
       14
 70
     0
 43
0.0
 10
39.56507904444891
 20
12.45332868107022
 10
39.56913973421979
 20
12.46036200206688
 42
0.131652497587334
 10
39.57047948018193
 20
12.46536200206688
 10
39.57047948018193
 20
12.51101857950138
 42
-0.3152987888789939
 10
39.62245988885923
 20
12.58525429654347
 10
39.66581826577158
 20
12.60103545514567
 42
0.3152987888790213
 10
39.6914794801819
 20
12.63768346735634
 10
39.6914794801819
 20
13.04797389478335
 42
0.3152987888789464
 10
39.66581826577158
 20
13.08462190699399
 10
39.62245988885923
 20
13.1004030655962
 42
-0.3152987888789767
 10
39.57047948018193
 20
13.17463878263828
 10
39.57047948018193
 20
13.22029536007278
 42
0.131652497587334
 10
39.56913973421979
 20
13.22529536007278
 10
39.56507904444891
 20
13.23232868106963
  0
LWPOLYLINE
  5
183
330
2
100
AcDbEntity
  8
0
100
AcDbPolyline
 90
        6
 70
     0
 43
0.0
 10
39.66547948018194
 20
13.22075946168817
 10
39.66547948018194
 20
13.17732868106984
 10
39.77047948018185
 20
13.1391118064719
 10
39.77047948018196
 20
12.54654555566779
 10
39.66547948018194
 20
12.50832868106982
 10
39.6654799279263
 20
12.4657009725129
  0
LINE
  5
184
330
2
100
AcDbEntity
  8
R-SWTS-DET1
100
AcDbLine
 10
38.46447948018261
 20
17.16795368106955
 30
0.0
 11
38.46447948018261
 21
19.15234432604377
 31
0.0
  0
LINE
  5
185
330
2
100
AcDbEntity
  8
R-SWTS-DET1
100
AcDbLine
 10
39.36447948018167
 20
15.85532868106929
 30
0.0
 11
39.36447948018156
 21
19.15234432604382
 31
0.0
  0
LINE
  5
186
330
2
100
AcDbEntity
  8
R-SWTS-DET1
100
AcDbLine
 10
36.7194794801826
 20
17.16795368106955
 30
0.0
 11
36.7194794801826
 21
19.15232868106953
 31
0.0
  0
DIMENSION
  5
187
330
2
100
AcDbEntity
  8
R-ANNO-DIMS
100
AcDbDimension
  2
*D1
 10
33.85447948018282
 20
19.15234432604396
 30
0.0
 11
33.67447948018281
 21
18.15233650355688
 31
0.0
 70
    32
  1
D.L.O.
 71
     5
 42
2.000015644974155
  3
EXT_ON_OFF
100
AcDbAlignedDimension
 13
35.3494794801826
 23
17.1523286810698
 33
0.0
 14
35.34947948018265
 24
19.15234432604396
 34
0.0
 50
89.99999999999673
100
AcDbRotatedDimension
  0
LWPOLYLINE
  5
193
330
2
100
AcDbEntity
  8
R-SWTS-DET3
100
AcDbPolyline
 90
        4
 70
     0
 43
0.0
 10
36.60447948018271
 20
19.1523286810697
 10
36.60447948018271
 20
16.52732868106958
 10
36.35447948018271
 20
16.52732868106958
 10
36.35447948018271
 20
19.1523286810697
  0
LWPOLYLINE
  5
194
330
2
100
AcDbEntity
  8
R-SWTS-DET3
100
AcDbPolyline
 90
        4
 70
     0
 43
0.0
 10
35.8544794801827
 20
19.1523286810697
 10
35.8544794801827
 20
16.52732868106958
 10
35.6044794801827
 20
16.52732868106958
 10
35.6044794801827
 20
19.1523286810697
  0
LWPOLYLINE
  5
195
330
2
100
AcDbEntity
  8
0
100
AcDbPolyline
 90
       14
 70
     0
 43
0.0
 10
35.96247948018254
 20
16.05592824533657
 10
35.96951280117924
 20
16.0599889351074
 42
-0.131652497587334
 10
35.97451280117923
 20
16.06132868106955
 10
36.02016937861372
 20
16.06132868106955
 42
0.3152987888789939
 10
36.09440509565582
 20
16.11330908974683
 10
36.110186254258
 20
16.15666746665924
 42
-0.3152987888790213
 10
36.14683426646866
 20
16.18232868106953
 10
36.55712469389572
 20
16.1823286810695
 42
-0.3152987888789464
 10
36.59377270610634
 20
16.15666746665921
 10
36.60955386470857
 20
16.11330908974683
 42
0.3152987888789767
 10
36.6837895817506
 20
16.06132868106955
 10
36.72944615918516
 20
16.06132868106955
 42
-0.131652497587334
 10
36.73444615918516
 20
16.0599889351074
 10
36.74147948018197
 20
16.05592824533657
  0
LWPOLYLINE
  5
196
330
2
100
AcDbEntity
  8
0
100
AcDbPolyline
 90
        6
 70
     0
 43
0.0
 10
36.72991026080052
 20
16.15632868106955
 10
36.68647948018219
 20
16.15632868106955
 10
36.64826260558425
 20
16.26132868106951
 10
36.05569635478014
 20
16.26132868106957
 10
36.01747948018215
 20
16.15632868106955
 10
35.97485177162525
 20
16.15632912881396
  0
LWPOLYLINE
  5
197
330
2
100
AcDbEntity
  8
0
100
AcDbPolyline
 90
       14
 70
     0
 43
0.0
 10
35.96247948018254
 20
15.62372911680269
 10
35.96951280117924
 20
15.61966842703187
 42
0.131652497587334
 10
35.97451280117923
 20
15.61832868106971
 10
36.02016937861372
 20
15.61832868106971
 42
-0.3152987888789939
 10
36.09440509565582
 20
15.56634827239246
 10
36.110186254258
 20
15.52298989548002
 42
0.3152987888790213
 10
36.14683426646866
 20
15.49732868106973
 10
36.55712469389572
 20
15.49732868106979
 42
0.3152987888789464
 10
36.59377270610634
 20
15.52298989548008
 10
36.60955386470857
 20
15.56634827239246
 42
-0.3152987888789767
 10
36.6837895817506
 20
15.61832868106971
 10
36.72944615918516
 20
15.61832868106971
 42
0.131652497587334
 10
36.73444615918516
 20
15.61966842703187
 10
36.74147948018197
 20
15.62372911680269
  0
LWPOLYLINE
  5
198
330
2
100
AcDbEntity
  8
0
100
AcDbPolyline
 90
        6
 70
     0
 43
0.0
 10
36.72991026080052
 20
15.52332868106974
 10
36.68647948018219
 20
15.52332868106974
 10
36.64826260558425
 20
15.41832868106978
 10
36.05569635478014
 20
15.41832868106972
 10
36.01747948018215
 20
15.52332868106974
 10
35.97485177162525
 20
15.52332823332533
  0
LWPOLYLINE
  5
199
330
2
100
AcDbEntity
  8
R-SWTS-DET1
100
AcDbPolyline
 90
        4
 70
     1
 43
0.0
 10
35.41447948018259
 20
15.59232868106964
 10
35.41447948018259
 20
16.08732868106956
 10
35.78947948018259
 20
16.08732868106956
 10
35.78947948018253
 20
15.59232868106964
  0
LWPOLYLINE
  5
19A
330
2
100
AcDbEntity
  8
R-SWTS-DET1
100
AcDbPolyline
 90
       51
 70
     0
 43
0.0
 10
35.879479480182
 20
15.86944410838801
 10
35.879479480182
 20
15.81021325375125
 10
35.879479480182
 20
15.86944410838801
 42
-0.2679491924311405
 10
35.89947948018198
 20
15.90408512453938
 10
35.97747948018252
 20
15.94911844553651
 10
35.97747948018252
 20
16.04726799129874
 42
0.5773502691896845
 10
35.96247948018254
 20
16.05592824533657
 10
35.90947948018254
 20
16.02532868106955
 10
35.88947948018257
 20
16.02532868106955
 42
-0.4142135623718464
 10
35.87947948018257
 20
16.03532868106951
 10
35.87947948018257
 20
16.18175133080027
 42
-0.4142135623718464
 10
35.88947948018257
 20
16.19175133080024
 10
35.90947948018254
 20
16.19175133080024
 10
35.96735177162525
 20
16.15833874775718
 42
0.3954233646214511
 10
35.98733108345721
 20
16.16300646240224
 10
36.05249020953386
 20
16.2607084502968
 42
0.6600047310089258
 10
36.0424341865359
 20
16.27610497210138
 10
35.94334009722839
 20
16.25863201052776
 10
35.87674233652183
 20
16.2764768267268
 42
0.0655434628152568
 10
35.87027186039428
 20
16.27732868106956
 10
35.78947948018259
 20
16.27732868106956
 10
35.78947948018259
 20
16.15232868106956
 10
35.41447948018259
 20
16.15232868106956
 10
35.41447948018259
 20
17.10232868106958
 10
35.4644794801826
 20
17.10232868106958
 10
35.4644794801826
 20
17.13232868106955
 10
35.41447948018259
 20
17.15232868106956
 10
35.3494794801826
 20
17.15232868106956
 10
35.3494794801826
 20
15.40232868106965
 10
35.41447948018259
 20
15.40232868106965
 10
35.41447948018259
 20
15.52732868106964
 10
35.78947948018253
 20
15.52732868106964
 10
35.78947948018259
 20
15.4023286810697
 10
35.87027186039428
 20
15.4023286810697
 42
0.0655434628152495
 10
35.87674233652183
 20
15.40318053541249
 10
35.94334009722839
 20
15.42102535161153
 10
36.0424341865359
 20
15.40355239003789
 42
0.6600047310089258
 10
36.05249020953386
 20
15.41894891184249
 10
35.98733108345721
 20
15.51665089973706
 42
0.3954233646214511
 10
35.96735177162525
 20
15.52131861438208
 10
35.90947948018254
 20
15.48790603133902
 10
35.88947948018257
 20
15.48790603133902
 42
-0.4142135623718464
 10
35.87947948018257
 20
15.49790603133901
 10
35.87947948018257
 20
15.64432868106975
 42
-0.4142135623718464
 10
35.88947948018257
 20
15.65432868106971
 10
35.90947948018254
 20
15.65432868106971
 10
35.96247948018254
 20
15.62372911680269
 42
0.5773502691896847
 10
35.97747948018252
 20
15.63238937084053
 10
35.97747948018252
 20
15.73053891660275
 10
35.89947948018198
 20
15.77557223759989
 42
-0.2679491924311403
 10
35.879479480182
 20
15.81021325375125
  0
DIMENSION
  5
19B
330
2
100
AcDbEntity
  8
R-ANNO-DIMS
100
AcDbDimension
  2
*D0
 10
33.85447948018273
 20
17.1523286810698
 30
0.0
 11
33.67447948018273
 21
16.27732868106986
 31
0.0
 70
    32
 71
     5
 42
1.749999999999885
  3
Standard
100
AcDbAlignedDimension
 13
35.34947948018248
 23
15.40232868106992
 33
0.0
 14
35.3494794801826
 24
17.1523286810698
 34
0.0
 50
89.99999999999673
100
AcDbRotatedDimension
  0
LWPOLYLINE
  5
1A8
330
2
100
AcDbEntity
  8
R-SWTS-DET2
100
AcDbPolyline
 90
        4
 70
     1
 43
0.0
 10
35.6044794801826
 20
16.99232868106952
 10
35.6044794801826
 20
16.69232868106951
 10
35.41447948018254
 20
16.69232868106951
 10
35.41447948018254
 20
16.99232868106952
  0
LWPOLYLINE
  5
1A9
330
2
100
AcDbEntity
  8
R-SWTS-DET2
100
AcDbPolyline
 90
        8
 70
     1
 43
0.0
 10
35.4794794801826
 20
17.08732868106949
 10
35.4794794801826
 20
17.15232868106955
 10
35.41447948018254
 20
17.15232868106955
 10
35.41447948018254
 20
17.17595456905246
 10
35.6044794801826
 20
17.25232868106951
 10
35.6044794801826
 20
16.99232868106952
 10
35.41447948018254
 20
16.99232868106952
 10
35.41447948018254
 20
17.08732868106949
  0
LWPOLYLINE
  5
1AA
330
2
100
AcDbEntity
  8
R-SWTS-DET3
100
AcDbPolyline
 90
        4
 70
     1
 43
0.0
 10
36.35447948018271
 20
16.52732868106958
 10
36.35447948018271
 20
16.77732868106957
 10
35.8544794801827
 20
16.77732868106957
 10
35.8544794801827
 20
16.52732868106958
  0
LWPOLYLINE
  5
1AB
330
2
100
AcDbEntity
  8
R-SWTS-DET1
100
AcDbPolyline
 90
      100
 70
     1
 43
0.0
 10
39.28447948018197
 20
16.21232868106962
 10
39.28447948018197
 20
15.84032868106961
 10
39.34947948018197
 20
15.84032868106961
 10
39.34947948018197
 20
16.27732868106962
 10
38.31398939253574
 20
16.27732868106958
 10
38.28581903575082
 20
16.24375655716646
 42
0.637070260807533
 10
38.29347948018199
 20
16.22732868106958
 10
38.35347948018199
 20
16.22732868106958
 10
38.35347948018199
 20
16.1553286810696
 10
38.288479480182
 20
16.09032868106961
 10
37.297479480182
 20
16.09032868106963
 10
37.297479480182
 20
16.22732868106958
 10
37.35747948018229
 20
16.22732868106961
 42
0.6370702608075105
 10
37.36513992461346
 20
16.24375655716646
 10
37.33696956782853
 20
16.27732868106958
 10
37.216479480182
 20
16.27732868106965
 42
0.4142135623730561
 10
37.17647948018197
 20
16.23732868106962
 10
37.17647948018197
 20
16.22732868106961
 10
37.23247948018195
 20
16.22732868106961
 10
37.23247948018195
 20
16.1123286810696
 10
36.91447948018197
 20
16.1123286810696
 10
36.91447948018197
 20
16.22732868106961
 10
36.98847948018197
 20
16.22732868106961
 10
36.98847948018197
 20
16.23732868106957
 42
0.4142135623730951
 10
36.94847948018196
 20
16.27732868106958
 10
36.83368709997035
 20
16.27732868106958
 42
0.0655434628152451
 10
36.82721662384279
 20
16.2764768267268
 10
36.76061886313619
 20
16.25863201052776
 10
36.66152477382865
 20
16.27610497210138
 42
0.6600047310089258
 10
36.65146875083066
 20
16.2607084502968
 10
36.7166278769073
 20
16.16300646240224
 42
0.395423364621451
 10
36.73660718873929
 20
16.15833874775718
 10
36.79447948018196
 20
16.19175133080024
 10
36.814479480182
 20
16.19175133080024
 42
-0.4142135623718464
 10
36.82447948018199
 20
16.18175133080027
 10
36.82447948018205
 20
16.03532868106951
 42
-0.4142135623718464
 10
36.814479480182
 20
16.02532868106955
 10
36.79447948018196
 20
16.02532868106955
 10
36.74147948018197
 20
16.05592824533657
 42
0.5773502691896848
 10
36.72647948018197
 20
16.04726799129874
 10
36.72647948018197
 20
15.94911844553651
 10
36.80447948018252
 20
15.90408512453938
 42
-0.2679491924311403
 10
36.82447948018256
 20
15.86944410838801
 10
36.82447948018256
 20
15.81021325375125
 42
-0.2679491924311403
 10
36.80447948018252
 20
15.77557223759989
 10
36.72647948018197
 20
15.73053891660275
 10
36.72647948018197
 20
15.63238937084053
 42
0.5773502691896847
 10
36.74147948018197
 20
15.62372911680269
 10
36.79447948018196
 20
15.65432868106971
 10
36.814479480182
 20
15.65432868106971
 42
-0.4142135623718464
 10
36.82447948018199
 20
15.64432868106975
 10
36.82447948018199
 20
15.49790603133901
 42
-0.4142135623718464
 10
36.814479480182
 20
15.48790603133902
 10
36.79447948018196
 20
15.48790603133902
 10
36.73660718873929
 20
15.52131861438208
 42
0.3954233646214511
 10
36.7166278769073
 20
15.51665089973706
 10
36.65146875083066
 20
15.41894891184249
 42
0.6600047310089258
 10
36.66152477382865
 20
15.40355239003789
 10
36.76061886313619
 20
15.42102535161153
 10
36.82721662384267
 20
15.40318053541249
 42
0.0655434628152495
 10
36.83368709997024
 20
15.4023286810697
 10
36.91447948018197
 20
15.4023286810697
 10
36.91447948018197
 20
16.02532868106972
 10
36.95147948018217
 20
16.02532868106964
 10
36.95147948018189
 20
15.96482868106936
 42
0.1528965617342688
 10
36.97790816382418
 20
15.88042243106933
 42
0.2457530127346543
 10
36.99433672008888
 20
15.87182868106937
 10
37.03409599602891
 20
15.8718286810694
 42
0.6882472016119169
 10
37.0474395642234
 20
15.9067266402531
 42
-2.615339366131393
 10
37.1515193961406
 20
15.9067266402531
 42
0.6882472016123603
 10
37.16486296433505
 20
15.8718286810694
 10
37.20462224027495
 20
15.8718286810694
 42
0.2457530127345705
 10
37.22105079653943
 20
15.88042243106939
 42
0.2158505435375484
 10
37.24311457178828
 20
16.00050725249817
 42
-0.4874613951105398
 10
37.26252471930263
 20
16.02532868106964
 10
38.31540336173623
 20
16.02532868106961
 10
38.41847948018197
 20
16.12840479951534
 10
38.41847948018197
 20
16.21232868106959
 10
38.76847948018201
 20
16.21232868106959
 10
38.76847948018201
 20
15.4673286810697
 10
38.33347948018195
 20
15.4673286810697
 10
38.33347948018195
 20
15.4023286810697
 10
38.83347948018195
 20
15.40232868106967
 10
38.83347948018195
 20
16.21232868106959
 10
38.90337144135617
 20
16.21232868106959
 42
-0.6224337464227242
 10
38.91921763645445
 20
16.18012630011724
 42
0.3267061393958221
 10
38.91490816382418
 20
16.00542243106956
 42
0.245753012734594
 10
38.93133672008885
 20
15.99682868106963
 10
38.97109599602891
 20
15.99682868106966
 42
0.6882472016118353
 10
38.9844395642234
 20
16.03172664025332
 42
-0.574192018057885
 10
39.01147948018195
 20
16.16371372691832
 10
39.01147948018195
 20
16.18732868106961
 42
-0.9999999999999998
 10
39.0614794801819
 20
16.18732868106961
 10
39.06147948018201
 20
16.16371372691786
 42
-0.5741920180569317
 10
39.08851939614044
 20
16.03172664025332
 42
0.6882472016116921
 10
39.10186296433494
 20
15.99682868106963
 10
39.14162224027496
 20
15.99682868106966
 42
0.2457530127345669
 10
39.15805079653944
 20
16.00542243106964
 42
0.3267061393957548
 10
39.15374132390923
 20
16.18012630011724
 42
-0.622433746422697
 10
39.16958751900751
 20
16.21232868106962
  0
LWPOLYLINE
  5
1AC
330
2
100
AcDbEntity
  8
R-SWTS-DET1
100
AcDbPolyline
 90
        6
 70
     1
 43
0.0
 10
38.91147948018204
 20
15.40232868106969
 10
38.26124991921064
 20
15.40232868106969
 10
38.26124991921064
 20
15.27944445147528
 10
38.78859525058761
 20
15.27944445147528
 10
38.78859525058761
 20
14.75009912010152
 10
38.91147948018204
 20
14.75009912010152
  0
LWPOLYLINE
  5
1AD
330
2
100
AcDbEntity
  8
R-SWTS-DET2
100
AcDbPolyline
 90
       10
 70
     0
 43
0.0
 10
36.7194794801826
 20
17.07732868106958
 10
36.7194794801826
 20
17.1703785012518
 10
36.64197400224305
 20
17.31027449524555
 42
0.9572917422547719
 10
36.60620678587543
 20
17.29245142054468
 10
36.65947948018278
 20
17.17272827178857
 10
36.65947948018266
 20
17.08474341746949
 42
-0.0657822641916233
 10
36.64457438072975
 20
17.14610564032027
 42
0.9518102130205765
 10
36.6046892445961
 20
17.14380796354635
 42
0.1944552779236797
 10
36.68521077790082
 20
16.94918724453141
 42
0.671434510775157
 10
36.7194794801826
 20
16.9632016704987
  0
LWPOLYLINE
  5
1AE
330
2
100
AcDbEntity
  8
R-SWTS-DET2
100
AcDbPolyline
 90
       14
 70
     0
 43
0.0
 10
36.83168709997005
 20
16.27732868106958
 42
-0.1618049181719086
 10
36.60447948018271
 20
16.65232868106954
 10
36.60447948018271
 20
16.75212044741442
 42
-0.1301798726914469
 10
36.64388554473318
 20
16.93244711432238
 42
-0.5152864272066241
 10
36.6600012322524
 20
16.9348027911968
 42
-0.1070648706106478
 10
36.74313017258459
 20
16.79952604657291
 10
36.76650380709566
 20
16.73296388122898
 42
-0.9999999999999998
 10
36.7098927225191
 20
16.71308461808706
 10
36.68651908800804
 20
16.77964678343099
 42
0.025232293169631
 10
36.67449373926122
 20
16.80905563000705
 42
0.260065148693021
 10
36.82178185830117
 20
16.41343428847091
 42
0.1853390449315368
 10
36.85312542540908
 20
16.39606026551814
 10
37.23318636739396
 20
16.36412408592721
 42
-0.6383843910517211
 10
37.25954516077889
 20
16.27732868106958
  0
LINE
  5
1AF
330
2
100
AcDbEntity
  8
R-SWTS-DET1
100
AcDbLine
 10
38.46447948018261
 20
17.16795368106955
 30
0.0
 11
36.7194794801826
 21
17.16795368106955
 31
0.0
  0
LWPOLYLINE
  5
1B0
330
2
100
AcDbEntity
  8
R-SWTS-DET1
100
AcDbPolyline
 90
       41
 70
     1
 43
0.0
 10
38.22347948018262
 20
16.31586518582443
 42
-0.4400105308918457
 10
38.25609415246504
 20
16.3457510267672
 10
38.37169780930537
 20
16.33563701733152
 42
0.4466574342041956
 10
38.40430507576878
 20
16.36618941231695
 10
38.39164421737246
 20
16.93588363596387
 42
0.4077202623982005
 10
38.23168371507359
 20
17.09232868106954
 10
37.427479480182
 20
17.0923286810696
 42
0.4142135623731212
 10
37.41747948018196
 20
17.08232868106958
 10
37.41747948018196
 20
16.21232868106959
 42
-0.3736297736983284
 10
37.39168124971854
 20
16.18262438621603
 10
37.43056705228827
 20
16.14373858364632
 42
-1.000000000000055
 10
37.39874724713491
 20
16.11191877849293
 10
37.30040841237008
 20
16.21025761325774
 42
-0.668178637919354
 10
37.307479480182
 20
16.22732868106959
 10
37.37247948018194
 20
16.22732868106959
 10
37.37247948018194
 20
17.0823286810696
 42
0.4142135623730431
 10
37.36247948018196
 20
17.0923286810696
 10
36.93447948018258
 20
17.09232868106961
 10
36.93447948018258
 20
16.91132868106957
 42
-0.414213562373069
 10
36.90447948018255
 20
16.88132868106959
 10
36.81947948018257
 20
16.88132868106959
 10
36.81947948018251
 20
16.61532868106957
 42
-1.0
 10
36.76947948018256
 20
16.61532868106957
 10
36.76947948018256
 20
16.88132868106959
 10
36.7194794801826
 20
16.88132868106959
 10
36.7194794801826
 20
16.99232868106958
 10
36.76947948018256
 20
16.99232868106958
 10
36.76947948018256
 20
16.93132868106957
 10
36.88447948018256
 20
16.93132868106957
 10
36.88447948018256
 20
17.07732868106958
 10
36.7194794801826
 20
17.07732868106958
 10
36.7194794801826
 20
17.11732868106956
 10
36.73968673960422
 20
17.15232868106958
 10
38.46447948018261
 20
17.15232868106955
 10
38.46447948018255
 20
16.2773286810696
 10
38.27347948018257
 20
16.29403901580306
 10
38.27347948018257
 20
16.20540242214685
 10
38.28115714971421
 20
16.1977247526145
 42
-0.9999999999999872
 10
38.24580181065312
 20
16.16236941355689
 10
38.23226627674598
 20
16.17590494746538
 42
-0.1989123673670628
 10
38.22347948018262
 20
16.19711815089994
  0
LWPOLYLINE
  5
1B1
330
2
100
AcDbEntity
  8
R-SWTS-DET1
100
AcDbPolyline
 90
        6
 70
     0
 43
0.0
 10
35.09947948018238
 20
19.15231303609555
 10
37.25013535444498
 20
19.15231303609543
 10
37.30320393618149
 20
19.36452822907762
 10
37.41075502418266
 20
18.94011348808746
 10
37.46382360591918
 20
19.15232868106966
 10
39.61447948018179
 20
19.1523286810696
  0
LWPOLYLINE
  5
1B2
330
2
100
AcDbEntity
  8
R-SWTS-DET1
100
AcDbPolyline
 90
        6
 70
     0
 43
0.0
 10
42.66149512515618
 20
11.59032868107003
 10
42.66149512515618
 20
13.74098455533264
 10
42.44927993217402
 20
13.79405313706915
 10
42.87369467316414
 20
13.90160422507033
 10
42.66147948018192
 20
13.95467280680684
 10
42.66147948018192
 20
16.10532868106942
  0
TEXT
  5
1B3
330
2
100
AcDbEntity
  8
PART_NUMBERS
100
AcDbText
 10
42.67690503682296
 20
18.0729082142291
 30
0.0
 40
0.25
  1
GLASS STOP
100
AcDbText
  0
TEXT
  5
1B4
330
2
100
AcDbEntity
  8
PART_NUMBERS
100
AcDbText
 10
42.67690503682296
 20
16.8609082142291
 30
0.0
 40
0.25
  1
VERTICAL
100
AcDbText
  0
TEXT
  5
1B5
330
2
100
AcDbEntity
  8
PART_NUMBERS
100
AcDbText
 10
42.67690503682296
 20
17.26567011899101
 30
0.0
 40
0.25
  1
823201
100
AcDbText
  0
TEXT
  5
1B6
330
2
100
AcDbEntity
  8
PART_NUMBERS
100
AcDbText
 10
42.67690503682296
 20
22.1129082142291
 30
0.0
 40
0.25
  1
TREMCO VISIONstrip
100
AcDbText
  0
TEXT
  5
1B7
330
2
100
AcDbEntity
  8
PART_NUMBERS
100
AcDbText
 10
42.67690503682296
 20
21.7089082142291
 30
0.0
 40
0.25
  1
EXTERIOR WEATHERING
100
AcDbText
  0
TEXT
  5
1B8
330
2
100
AcDbEntity
  8
PART_NUMBERS
100
AcDbText
 10
42.67690503682296
 20
19.28490821422909
 30
0.0
 40
0.25
  1
AIR SEAL GASKET
100
AcDbText
  0
TEXT
  5
1B9
330
2
100
AcDbEntity
  8
PART_NUMBERS
100
AcDbText
 10
42.67690503682296
 20
20.49690821422911
 30
0.0
 40
0.25
  1
INTERIOR GLAZING GASKET
100
AcDbText
  0
TEXT
  5
1BA
330
2
100
AcDbEntity
  8
PART_NUMBERS
100
AcDbText
 10
42.67690503682296
 20
19.689670118991
 30
0.0
 40
0.25
  1
027771
100
AcDbText
  0
TEXT
  5
1BB
330
2
100
AcDbEntity
  8
PART_NUMBERS
100
AcDbText
 10
42.67690503682296
 20
18.477670118991
 30
0.0
 40
0.25
  1
823040
100
AcDbText
  0
TEXT
  5
1BC
330
2
100
AcDbEntity
  8
PART_NUMBERS
100
AcDbText
 10
42.67690503682296
 20
22.51767011899101
 30
0.0
 40
0.25
  1
027590
100
AcDbText
  0
TEXT
  5
1BD
330
2
100
AcDbEntity
  8
PART_NUMBERS
100
AcDbText
 10
42.67690503682296
 20
20.90167011899101
 30
0.0
 40
0.25
  1
027770
100
AcDbText
  0
MTEXT
  5
598
102
{ACAD_XDICTIONARY
360
599
102
}
330
2
100
AcDbEntity
  8
TEXT
100
AcDbMText
 10
1.000000084398436
 20
2.0
 30
0.0
 40
0.375
 41
15.4571868900598
 71
     1
 72
     5
  1
ENGINEERING CHANGE:  97910-093 (MARCH 2017)\PFILE NAME:  KCDE020 SHEET 05 OF 05.DWG
 73
     1
 44
1.0
1001
ACAD
1000
ACAD_MTEXT_COLUMN_INFO_BEGIN
1070
    75
1070
     2
1070
    79
1070
     0
1070
    76
1070
     1
1070
    78
1070
     0
1070
    48
1040
15.4571868900598
1070
    49
1040
1.25
1070
    50
1070
     1
1040
0.0
1000
ACAD_MTEXT_COLUMN_INFO_END
1000
MTEXTBEGIN
1070
    73
1070
     1
1070
    44
1040
1.0
1070
    74
1070
     0
1000
MTEXTEND
  0
INSERT
  5
A7F
330
2
100
AcDbEntity
  8
0
100
AcDbBlockReference
  2
Kawneer Logo English
 10
1.000000084398436
 20
3.0
 30
0.0
 41
5.337
 42
5.337
 43
5.337
  0
ENDSEC
  0
SECTION
  2
OBJECTS
  0
DICTIONARY
  5
7
330
0
100
AcDbDictionary
281
     1
  3
ACAD_CIP_PREVIOUS_PRODUCT_INFO
350
3CB
  3
ACAD_COLOR
350
29A
  3
ACAD_FIELDLIST
350
596
  3
ACAD_GROUP
350
44
  3
ACAD_LAYOUT
350
B
  3
ACAD_MATERIAL
350
299
  3
ACAD_MLEADERSTYLE
350
317
  3
ACAD_MLINESTYLE
350
45
  3
ACAD_PLOTSETTINGS
350
46
  3
ACAD_PLOTSTYLENAME
350
6
  3
ACAD_SCALELIST
350
2F5
  3
ACAD_TABLESTYLE
350
29B
  3
ACAD_VISUALSTYLE
350
2E4
  3
ACDB_RECOMPOSE_DATA
350
BEC
  3
AcDbVariableDictionary
350
2C9
  3
DWGPROPS
350
BED
  0
DICTIONARY
  5
334
330
3C
100
AcDbDictionary
280
     1
281
     1
  0
DICTIONARY
  5
15
330
14
100
AcDbDictionary
280
     1
281
     1
  3
ACAD_LAYERFILTERS
360
16
  3
ACAD_LAYERSTATES
360
2B9
  0
DICTIONARY
  5
31D
330
4
100
AcDbDictionary
280
     1
281
     1
  3
ADSK_XREC_LAYER_RECONCILED
360
31E
  0
DICTIONARY
  5
31F
330
50
100
AcDbDictionary
280
     1
281
     1
  3
ADSK_XREC_LAYER_RECONCILED
360
320
  0
DICTIONARY
  5
321
330
55
100
AcDbDictionary
280
     1
281
     1
  3
ADSK_XREC_LAYER_RECONCILED
360
322
  0
DICTIONARY
  5
323
330
FC
100
AcDbDictionary
280
     1
281
     1
  3
ADSK_XREC_LAYER_RECONCILED
360
324
  0
DICTIONARY
  5
325
330
4D
100
AcDbDictionary
280
     1
281
     1
  3
ADSK_XREC_LAYER_RECONCILED
360
326
  0
DICTIONARY
  5
327
330
4B
100
AcDbDictionary
280
     1
281
     1
  3
ADSK_XREC_LAYER_RECONCILED
360
328
  0
DICTIONARY
  5
A7B
330
A71
100
AcDbDictionary
280
     1
281
     1
  3
ACAD_SORTENTS
360
A7C
  0
DICTIONARY
  5
BEA
330
A72
100
AcDbDictionary
280
     1
281
     1
  3
ACAD_MTEXT_2008_RT
360
BEB
  0
DICTIONARY
  5
599
330
598
100
AcDbDictionary
280
     1
281
     1
  0
XRECORD
  5
3CB
102
{ACAD_REACTORS
330
7
102
}
330
7
100
AcDbXrecord
280
     1
300
ACD
300
2012
300
85730ACD_2012_0F
  0
DICTIONARY
  5
29A
102
{ACAD_REACTORS
330
7
102
}
330
7
100
AcDbDictionary
281
     1
  0
FIELDLIST
  5
596
102
{ACAD_REACTORS
330
7
102
}
330
7
100
AcDbIdSet
 90
        0
100
AcDbFieldList
  0
DICTIONARY
  5
44
102
{ACAD_REACTORS
330
7
102
}
330
7
100
AcDbDictionary
281
     1
  0
DICTIONARY
  5
B
102
{ACAD_REACTORS
330
7
102
}
330
7
100
AcDbDictionary
281
     1
  3
Layout1
350
11
  3
Model
350
A
  0
DICTIONARY
  5
299
102
{ACAD_REACTORS
330
7
102
}
330
7
100
AcDbDictionary
281
     1
  3
ByBlock
350
2D4
  3
ByLayer
350
2CC
  3
Global
350
2DC
  0
DICTIONARY
  5
317
102
{ACAD_REACTORS
330
7
102
}
330
7
100
AcDbDictionary
281
     1
  3
Standard
350
318
  0
DICTIONARY
  5
45
102
{ACAD_REACTORS
330
7
102
}
330
7
100
AcDbDictionary
281
     1
  3
STANDARD
350
47
  0
DICTIONARY
  5
46
102
{ACAD_REACTORS
330
7
102
}
330
7
100
AcDbDictionary
281
     1
  0
ACDBDICTIONARYWDFLT
  5
6
102
{ACAD_REACTORS
330
7
102
}
330
7
100
AcDbDictionary
281
     1
  3
Normal
350
5
100
AcDbDictionaryWithDefault
340
5
  0
DICTIONARY
  5
2F5
102
{ACAD_REACTORS
330
7
102
}
330
7
100
AcDbDictionary
281
     1
  3
A0
350
2F6
  3
A1
350
A51
  3
A2
350
A52
  3
A3
350
A53
  3
A4
350
A54
  3
A5
350
A55
  3
A6
350
A56
  3
A7
350
A57
  3
A8
350
A58
  3
A9
350
A59
  3
B0
350
A5A
  3
B1
350
A5B
  3
B2
350
A5C
  3
B3
350
A5D
  3
B4
350
A5E
  3
B5
350
A5F
  3
B6
350
A60
  0
DICTIONARY
  5
29B
102
{ACAD_REACTORS
330
7
102
}
330
7
100
AcDbDictionary
281
     1
  3
Standard
350
29C
  0
DICTIONARY
  5
2E4
102
{ACAD_REACTORS
330
7
102
}
330
7
100
AcDbDictionary
281
     1
  3
2dWireframe
350
2EA
  3
3D Hidden
350
2EC
  3
3dWireframe
350
2EB
  3
Basic
350
2E9
  3
Brighten
350
2F0
  3
ColorChange
350
2F4
  3
Conceptual
350
2ED
  3
Dim
350
2EF
  3
EdgeColorOff
350
3C8
  3
Facepattern
350
2F3
  3
Flat
350
2E5
  3
FlatWithEdges
350
2E6
  3
Gouraud
350
2E7
  3
GouraudWithEdges
350
2E8
  3
Hidden
350
3C0
  3
JitterOff
350
3C6
  3
Linepattern
350
2F2
  3
OverhangOff
350
3C7
  3
Realistic
350
2EE
  3
Shaded
350
3C5
  3
Shaded with edges
350
3C4
  3
Shades of Gray
350
3C1
  3
Sketchy
350
3C2
  3
Thicken
350
2F1
  3
Wireframe
350
3BF
  3
X-Ray
350
3C3
  0
XRECORD
  5
BEC
102
{ACAD_REACTORS
330
7
102
}
330
7
100
AcDbXrecord
280
     1
 90
        1
330
29C
330
598
330
A72
  0
DICTIONARY
  5
2C9
102
{ACAD_REACTORS
330
7
102
}
330
7
100
AcDbDictionary
281
     1
  3
CANNOSCALE
350
343
  3
CMLEADERSTYLE
350
342
  3
CTABLESTYLE
350
2CA
  3
DIMASSOC
350
346
  3
INDEXCTL
350
345
  3
LAYEREVAL
350
A46
  3
LAYERNOTIFY
350
A47
  3
LIGHTINGUNITS
350
A45
  3
MSLTSCALE
350
A44
  3
SORTENTS
350
344
  3
XCLIPFRAME
350
BE8
  0
XRECORD
  5
BED
102
{ACAD_REACTORS
330
7
102
}
330
7
100
AcDbXrecord
280
     1
  1
DWGPROPS COOKIE
  2

  3

  4

  6

  7

  8
quadiss
  9

300
=
301
=
302
=
303
=
304
=
305
=
306
=
307
=
308
=
309
=
 40
1.236015011574074
 41
2450361.590484606
 42
2457807.411305764
  1

 90
        0
  0
DICTIONARY
  5
16
102
{ACAD_REACTORS
330
15
102
}
330
15
100
AcDbDictionary
280
     1
281
     1
  0
DICTIONARY
  5
2B9
102
{ACAD_REACTORS
330
15
102
}
330
15
100
AcDbDictionary
281
     1
  0
XRECORD
  5
31E
102
{ACAD_REACTORS
330
31D
102
}
330
31D
100
AcDbXrecord
280
     1
290
     1
  0
XRECORD
  5
320
102
{ACAD_REACTORS
330
31F
102
}
330
31F
100
AcDbXrecord
280
     1
290
     1
  0
XRECORD
  5
322
102
{ACAD_REACTORS
330
321
102
}
330
321
100
AcDbXrecord
280
     1
290
     1
  0
XRECORD
  5
324
102
{ACAD_REACTORS
330
323
102
}
330
323
100
AcDbXrecord
280
     1
290
     1
  0
XRECORD
  5
326
102
{ACAD_REACTORS
330
325
102
}
330
325
100
AcDbXrecord
280
     1
290
     1
  0
XRECORD
  5
328
102
{ACAD_REACTORS
330
327
102
}
330
327
100
AcDbXrecord
280
     1
290
     1
  0
SORTENTSTABLE
  5
A7C
102
{ACAD_REACTORS
330
A7B
102
}
330
A7B
100
AcDbSortentsTable
330
A71
  0
XRECORD
  5
BEB
102
{ACAD_REACTORS
330
BEA
102
}
330
BEA
100
AcDbXrecord
280
     1
 40
102645.0
  1
\pxqr;{\fArial TUR|b0|i0|c0|p34;\T1.05;AN ARCONIC COMPANY}
  0
LAYOUT
  5
11
102
{ACAD_XDICTIONARY
360
BF0
102
}
102
{ACAD_REACTORS
330
B
102
}
330
B
100
AcDbPlotSettings
  1

  2
\\KWRKCI-HUB03\KCI_MKT_HP9000_PCL6
  4

  6

 40
0.0
 41
0.0
 42
0.0
 43
0.0
 44
0.0
 45
0.0
 46
0.0
 47
0.0
 48
0.0
 49
0.0
140
0.0
141
0.0
142
1.0
143
1.0
 70
   688
 72
     0
 73
     0
 74
     5
  7
monochrome.ctb
 75
    16
147
1.0
148
0.0
149
0.0
100
AcDbLayout
  1
Layout1
 70
     0
 71
     1
 10
0.0
 20
0.0
 11
12.0
 21
9.0
 12
0.0
 22
0.0
 32
0.0
 14
1.000000000000000E+20
 24
1.000000000000000E+20
 34
1.000000000000000E+20
 15
-1.000000000000000E+20
 25
-1.000000000000000E+20
 35
-1.000000000000000E+20
146
0.0
 13
0.0
 23
0.0
 33
0.0
 16
1.0
 26
0.0
 36
0.0
 17
0.0
 27
1.0
 37
0.0
 76
     0
330
E
  0
LAYOUT
  5
A
102
{ACAD_XDICTIONARY
360
BEE
102
}
102
{ACAD_REACTORS
330
B
102
}
330
B
100
AcDbPlotSettings
  1

  2
Estimating 11x17.pc3
  4
ANSI_B_(11.00_x_17.00_Inches)
  6

 40
5.027082920074462
 41
5.027082920074462
 42
9.26043701171875
 43
5.027069091796875
 44
279.3999938964844
 45
431.7999877929686
 46
28.702
 47
0.0
 48
204.6336936376816
 49
-59.55384410362842
140
253.9031532114155
141
-35.27678145324433
142
1.0
143
2.967476022500122
 70
 11956
 72
     0
 73
     1
 74
     1
  7
hp5000n.ctb
 75
     0
147
0.3369867161243283
148
0.03818813467459
149
0.0188168440655261
100
AcDbLayout
  1
Model
 70
     1
 71
     0
 10
0.0
 20
0.0
 11
12.0
 21
9.0
 12
0.0
 22
0.0
 32
0.0
 14
0.0
 24
0.0
 34
0.0
 15
0.0
 25
0.0
 35
0.0
146
0.0
 13
0.0
 23
0.0
 33
0.0
 16
1.0
 26
0.0
 36
0.0
 17
0.0
 27
1.0
 37
0.0
 76
     0
330
2
331
2C8
  0
MATERIAL
  5
2D4
102
{ACAD_XDICTIONARY
360
2D5
102
}
102
{ACAD_REACTORS
330
299
102
}
330
299
100
AcDbMaterial
  1
ByBlock
 72
     0
 43
0.0208333333333333
 43
0.0
 43
0.0
 43
0.0
 43
0.0
 43
0.0208333333333333
 43
0.0
 43
0.0
 43
0.0
 43
0.0
 43
1.0
 43
0.0
 43
0.0
 43
0.0
 43
0.0
 43
1.0
 77
     0
 47
0.0208333333333333
 47
0.0
 47
0.0
 47
0.0
 47
0.0
 47
0.0208333333333333
 47
0.0
 47
0.0
 47
0.0
 47
0.0
 47
1.0
 47
0.0
 47
0.0
 47
0.0
 47
0.0
 47
1.0
171
     0
 49
0.0208333333333333
 49
0.0
 49
0.0
 49
0.0
 49
0.0
 49
0.0208333333333333
 49
0.0
 49
0.0
 49
0.0
 49
0.0
 49
1.0
 49
0.0
 49
0.0
 49
0.0
 49
0.0
 49
1.0
175
     0
142
0.0208333333333333
142
0.0
142
0.0
142
0.0
142
0.0
142
0.0208333333333333
142
0.0
142
0.0
142
0.0
142
0.0
142
1.0
142
0.0
142
0.0
142
0.0
142
0.0
142
1.0
179
     0
144
0.0208333333333333
144
0.0
144
0.0
144
0.0
144
0.0
144
0.0208333333333333
144
0.0
144
0.0
144
0.0
144
0.0
144
1.0
144
0.0
144
0.0
144
0.0
144
0.0
144
1.0
147
0.0208333333333333
147
0.0
147
0.0
147
0.0
147
0.0
147
0.0208333333333333
147
0.0
147
0.0
147
0.0
147
0.0
147
1.0
147
0.0
147
0.0
147
0.0
147
0.0
147
1.0
  0
MATERIAL
  5
2CC
102
{ACAD_XDICTIONARY
360
2CD
102
}
102
{ACAD_REACTORS
330
299
102
}
330
299
100
AcDbMaterial
  1
ByLayer
 72
     0
 43
0.0208333333333333
 43
0.0
 43
0.0
 43
0.0
 43
0.0
 43
0.0208333333333333
 43
0.0
 43
0.0
 43
0.0
 43
0.0
 43
1.0
 43
0.0
 43
0.0
 43
0.0
 43
0.0
 43
1.0
 77
     0
 47
0.0208333333333333
 47
0.0
 47
0.0
 47
0.0
 47
0.0
 47
0.0208333333333333
 47
0.0
 47
0.0
 47
0.0
 47
0.0
 47
1.0
 47
0.0
 47
0.0
 47
0.0
 47
0.0
 47
1.0
171
     0
 49
0.0208333333333333
 49
0.0
 49
0.0
 49
0.0
 49
0.0
 49
0.0208333333333333
 49
0.0
 49
0.0
 49
0.0
 49
0.0
 49
1.0
 49
0.0
 49
0.0
 49
0.0
 49
0.0
 49
1.0
175
     0
142
0.0208333333333333
142
0.0
142
0.0
142
0.0
142
0.0
142
0.0208333333333333
142
0.0
142
0.0
142
0.0
142
0.0
142
1.0
142
0.0
142
0.0
142
0.0
142
0.0
142
1.0
179
     0
144
0.0208333333333333
144
0.0
144
0.0
144
0.0
144
0.0
144
0.0208333333333333
144
0.0
144
0.0
144
0.0
144
0.0
144
1.0
144
0.0
144
0.0
144
0.0
144
0.0
144
1.0
147
0.0208333333333333
147
0.0
147
0.0
147
0.0
147
0.0
147
0.0208333333333333
147
0.0
147
0.0
147
0.0
147
0.0
147
1.0
147
0.0
147
0.0
147
0.0
147
0.0
147
1.0
  0
MATERIAL
  5
2DC
102
{ACAD_XDICTIONARY
360
2DD
102
}
102
{ACAD_REACTORS
330
299
102
}
330
299
100
AcDbMaterial
  1
Global
 72
     0
 43
0.0208333333333333
 43
0.0
 43
0.0
 43
0.0
 43
0.0
 43
0.0208333333333333
 43
0.0
 43
0.0
 43
0.0
 43
0.0
 43
1.0
 43
0.0
 43
0.0
 43
0.0
 43
0.0
 43
1.0
 77
     0
 47
0.0208333333333333
 47
0.0
 47
0.0
 47
0.0
 47
0.0
 47
0.0208333333333333
 47
0.0
 47
0.0
 47
0.0
 47
0.0
 47
1.0
 47
0.0
 47
0.0
 47
0.0
 47
0.0
 47
1.0
171
     0
 49
0.0208333333333333
 49
0.0
 49
0.0
 49
0.0
 49
0.0
 49
0.0208333333333333
 49
0.0
 49
0.0
 49
0.0
 49
0.0
 49
1.0
 49
0.0
 49
0.0
 49
0.0
 49
0.0
 49
1.0
175
     0
142
0.0208333333333333
142
0.0
142
0.0
142
0.0
142
0.0
142
0.0208333333333333
142
0.0
142
0.0
142
0.0
142
0.0
142
1.0
142
0.0
142
0.0
142
0.0
142
0.0
142
1.0
179
     0
144
0.0208333333333333
144
0.0
144
0.0
144
0.0
144
0.0
144
0.0208333333333333
144
0.0
144
0.0
144
0.0
144
0.0
144
1.0
144
0.0
144
0.0
144
0.0
144
0.0
144
1.0
147
0.0208333333333333
147
0.0
147
0.0
147
0.0
147
0.0
147
0.0208333333333333
147
0.0
147
0.0
147
0.0
147
0.0
147
1.0
147
0.0
147
0.0
147
0.0
147
0.0
147
1.0
  0
MLEADERSTYLE
  5
318
102
{ACAD_REACTORS
330
317
102
}
330
317
100
AcDbMLeaderStyle
170
     2
171
     1
172
     0
 90
        2
 40
0.0
 41
0.0
173
     1
 91
-1056964608
340
38
 92
       -2
290
     1
 42
0.09
291
     1
 43
0.36
  3
Standard
 44
0.18
300

342
35
174
     1
178
     6
175
     1
176
     0
 93
-1056964608
 45
0.18
292
     0
297
     0
 46
0.18
 94
-1056964608
 47
1.0
 49
1.0
140
1.0
293
     1
141
0.0
294
     1
177
     0
142
1.0
295
     0
296
     0
143
0.125
1001
ACAD_MLEADERVER
1070
     2
  0
MLINESTYLE
  5
47
102
{ACAD_REACTORS
330
45
102
}
330
45
100
AcDbMlineStyle
  2
STANDARD
 70
     0
  3

 62
     0
 51
90.0
 52
90.0
 71
     2
 49
0.5
 62
   256
  6
BYLAYER
 49
-0.5
 62
   256
  6
BYLAYER
  0
ACDBPLACEHOLDER
  5
5
102
{ACAD_REACTORS
330
6
102
}
330
6
  0
SCALE
  5
2F6
102
{ACAD_REACTORS
330
2F5
102
}
330
2F5
100
AcDbScale
 70
     0
300
1:1
140
1.0
141
1.0
290
     1
  0
SCALE
  5
A51
102
{ACAD_REACTORS
330
2F5
102
}
330
2F5
100
AcDbScale
 70
     0
300
1/128" = 1'-0"
140
0.0078125
141
12.0
290
     0
  0
SCALE
  5
A52
102
{ACAD_REACTORS
330
2F5
102
}
330
2F5
100
AcDbScale
 70
     0
300
1/64" = 1'-0"
140
0.015625
141
12.0
290
     0
  0
SCALE
  5
A53
102
{ACAD_REACTORS
330
2F5
102
}
330
2F5
100
AcDbScale
 70
     0
300
1/32" = 1'-0"
140
0.03125
141
12.0
290
     0
  0
SCALE
  5
A54
102
{ACAD_REACTORS
330
2F5
102
}
330
2F5
100
AcDbScale
 70
     0
300
1/16" = 1'-0"
140
0.0625
141
12.0
290
     0
  0
SCALE
  5
A55
102
{ACAD_REACTORS
330
2F5
102
}
330
2F5
100
AcDbScale
 70
     0
300
3/32" = 1'-0"
140
0.09375
141
12.0
290
     0
  0
SCALE
  5
A56
102
{ACAD_REACTORS
330
2F5
102
}
330
2F5
100
AcDbScale
 70
     0
300
1/8" = 1'-0"
140
0.125
141
12.0
290
     0
  0
SCALE
  5
A57
102
{ACAD_REACTORS
330
2F5
102
}
330
2F5
100
AcDbScale
 70
     0
300
3/16" = 1'-0"
140
0.1875
141
12.0
290
     0
  0
SCALE
  5
A58
102
{ACAD_REACTORS
330
2F5
102
}
330
2F5
100
AcDbScale
 70
     0
300
1/4" = 1'-0"
140
0.25
141
12.0
290
     0
  0
SCALE
  5
A59
102
{ACAD_REACTORS
330
2F5
102
}
330
2F5
100
AcDbScale
 70
     0
300
3/8" = 1'-0"
140
0.375
141
12.0
290
     0
  0
SCALE
  5
A5A
102
{ACAD_REACTORS
330
2F5
102
}
330
2F5
100
AcDbScale
 70
     0
300
1/2" = 1'-0"
140
0.5
141
12.0
290
     0
  0
SCALE
  5
A5B
102
{ACAD_REACTORS
330
2F5
102
}
330
2F5
100
AcDbScale
 70
     0
300
3/4" = 1'-0"
140
0.75
141
12.0
290
     0
  0
SCALE
  5
A5C
102
{ACAD_REACTORS
330
2F5
102
}
330
2F5
100
AcDbScale
 70
     0
300
1" = 1'-0"
140
1.0
141
12.0
290
     0
  0
SCALE
  5
A5D
102
{ACAD_REACTORS
330
2F5
102
}
330
2F5
100
AcDbScale
 70
     0
300
1-1/2" = 1'-0"
140
1.5
141
12.0
290
     0
  0
SCALE
  5
A5E
102
{ACAD_REACTORS
330
2F5
102
}
330
2F5
100
AcDbScale
 70
     0
300
3" = 1'-0"
140
3.0
141
12.0
290
     0
  0
SCALE
  5
A5F
102
{ACAD_REACTORS
330
2F5
102
}
330
2F5
100
AcDbScale
 70
     0
300
6" = 1'-0"
140
6.0
141
12.0
290
     0
  0
SCALE
  5
A60
102
{ACAD_REACTORS
330
2F5
102
}
330
2F5
100
AcDbScale
 70
     0
300
1'-0" = 1'-0"
140
12.0
141
12.0
290
     0
  0
TABLESTYLE
  5
29C
102
{ACAD_XDICTIONARY
360
32B
102
}
102
{ACAD_REACTORS
330
29B
102
}
330
29B
100
AcDbTableStyle
  3
Standard
 70
     0
 71
     0
 40
0.06
 41
0.06
280
     0
281
     0
  7
STANDARD
140
0.18
170
     2
 62
     0
 63
     7
283
     0
274
    -2
284
     1
 64
     0
275
    -2
285
     1
 65
     0
276
    -2
286
     1
 66
     0
277
    -2
287
     1
 67
     0
278
    -2
288
     1
 68
     0
279
    -2
289
     1
 69
     0
  7
STANDARD
140
0.25
170
     5
 62
     0
 63
     7
283
     0
274
    -2
284
     1
 64
     0
275
    -2
285
     1
 65
     0
276
    -2
286
     1
 66
     0
277
    -2
287
     1
 67
     0
278
    -2
288
     1
 68
     0
279
    -2
289
     1
 69
     0
  7
STANDARD
140
0.18
170
     5
 62
     0
 63
     7
283
     0
274
    -2
284
     1
 64
     0
275
    -2
285
     1
 65
     0
276
    -2
286
     1
 66
     0
277
    -2
287
     1
 67
     0
278
    -2
288
     1
 68
     0
279
    -2
289
     1
 69
     0
  0
VISUALSTYLE
  5
2EA
102
{ACAD_XDICTIONARY
360
C00
102
}
102
{ACAD_REACTORS
330
2E4
102
}
330
2E4
100
AcDbVisualStyle
  2

 70
     4
 71
     0
 72
     2
 73
     0
 90
        0
 40
-0.6
 41
-30.0
 62
     5
 63
     7
 74
     1
 91
        4
 64
     7
 65
   257
 75
     1
175
     1
 42
1.0
 92
        0
 66
   257
 43
1.0
 76
     1
 77
     6
 78
     2
 67
     7
 79
     5
170
     0
171
     0
290
     0
174
     0
 93
        1
 44
0.0
173
     0
291
     0
 45
0.0
1001
ACAD
1000
AcDbSavedByObjectVersion
1070
     0
  0
VISUALSTYLE
  5
2EC
102
{ACAD_XDICTIONARY
360
C04
102
}
102
{ACAD_REACTORS
330
2E4
102
}
330
2E4
100
AcDbVisualStyle
  2

 70
     6
 71
     1
 72
     2
 73
     2
 90
        0
 40
-0.6
 41
-30.0
 62
     5
 63
     7
 74
     2
 91
        2
 64
     7
 65
   257
 75
     2
175
     1
 42
40.0
 92
        0
 66
   257
 43
1.0
 76
     1
 77
     6
 78
     2
 67
     7
 79
     3
170
     0
171
     0
290
     0
174
     0
 93
        1
 44
0.0
173
     0
291
     0
 45
0.0
1001
ACAD
1000
AcDbSavedByObjectVersion
1070
     0
  0
VISUALSTYLE
  5
2EB
102
{ACAD_XDICTIONARY
360
C02
102
}
102
{ACAD_REACTORS
330
2E4
102
}
330
2E4
100
AcDbVisualStyle
  2

 70
     5
 71
     0
 72
     2
 73
     0
 90
        0
 40
-0.6
 41
-30.0
 62
     5
 63
     7
 74
     1
 91
        4
 64
     7
 65
   257
 75
     1
175
     1
 42
1.0
 92
        0
 66
   257
 43
1.0
 76
     1
 77
     6
 78
     2
 67
     7
 79
     5
170
     0
171
     0
290
     0
174
     0
 93
        1
 44
0.0
173
     0
291
     0
 45
0.0
1001
ACAD
1000
AcDbSavedByObjectVersion
1070
     0
  0
VISUALSTYLE
  5
2E9
102
{ACAD_XDICTIONARY
360
BFE
102
}
102
{ACAD_REACTORS
330
2E4
102
}
330
2E4
100
AcDbVisualStyle
  2

 70
     7
 71
     1
 72
     0
 73
     1
 90
        0
 40
-0.6
 41
-30.0
 62
     5
 63
     7
 74
     0
 91
        4
 64
     7
 65
   257
 75
     1
175
     1
 42
1.0
 92
        8
 66
     7
 43
1.0
 76
     1
 77
     6
 78
     2
 67
     7
 79
     5
170
     0
171
     0
290
     0
174
     0
 93
        1
 44
0.0
173
     0
291
     1
 45
0.0
1001
ACAD
1000
AcDbSavedByObjectVersion
1070
     0
  0
VISUALSTYLE
  5
2F0
102
{ACAD_XDICTIONARY
360
C0C
102
}
102
{ACAD_REACTORS
330
2E4
102
}
330
2E4
100
AcDbVisualStyle
  2

 70
    12
 71
     2
 72
     2
 73
     0
 90
        0
 40
-0.6
 41
-30.0
 62
     5
 63
     7
 74
     1
 91
        4
 64
     7
 65
   257
 75
     1
175
     1
 42
1.0
 92
        8
 66
     7
 43
1.0
 76
     1
 77
     6
 78
     2
 67
     7
 79
     5
170
     0
171
     0
290
     0
174
     0
 93
        1
 44
50.0
173
     0
291
     1
 45
0.0
1001
ACAD
1000
AcDbSavedByObjectVersion
1070
     0
  0
VISUALSTYLE
  5
2F4
102
{ACAD_XDICTIONARY
360
C14
102
}
102
{ACAD_REACTORS
330
2E4
102
}
330
2E4
100
AcDbVisualStyle
  2

 70
    16
 71
     2
 72
     2
 73
     3
 90
        0
 40
-0.6
 41
-30.0
 62
     5
 63
     8
 74
     1
 91
        4
 64
     7
 65
   257
 75
     1
175
     1
 42
1.0
 92
        8
 66
     8
 43
1.0
 76
     1
 77
     6
 78
     2
 67
     7
 79
     5
170
     0
171
     0
290
     0
174
     0
 93
        1
 44
0.0
173
     0
291
     1
 45
0.0
1001
ACAD
1000
AcDbSavedByObjectVersion
1070
     0
  0
VISUALSTYLE
  5
2ED
102
{ACAD_XDICTIONARY
360
C06
102
}
102
{ACAD_REACTORS
330
2E4
102
}
330
2E4
100
AcDbVisualStyle
  2

 70
     9
 71
     3
 72
     2
 73
     0
 90
        0
 40
-0.6
 41
-30.0
 62
     5
 63
     7
 74
     2
 91
        2
 64
     7
 65
   257
 75
     1
175
     1
 42
40.0
 92
        8
 66
     7
 43
1.0
 76
     1
 77
     6
 78
     2
 67
     7
 79
     3
170
     0
171
     0
290
     0
174
     0
 93
        1
 44
0.0
173
     0
291
     0
 45
0.0
1001
ACAD
1000
AcDbSavedByObjectVersion
1070
     0
  0
VISUALSTYLE
  5
2EF
102
{ACAD_XDICTIONARY
360
C0A
102
}
102
{ACAD_REACTORS
330
2E4
102
}
330
2E4
100
AcDbVisualStyle
  2

 70
    11
 71
     2
 72
     2
 73
     0
 90
        0
 40
-0.6
 41
-30.0
 62
     5
 63
     7
 74
     1
 91
        4
 64
     7
 65
   257
 75
     1
175
     1
 42
1.0
 92
        8
 66
     7
 43
1.0
 76
     1
 77
     6
 78
     2
 67
     7
 79
     5
170
     0
171
     0
290
     0
174
     0
 93
        1
 44
-50.0
173
     0
291
     1
 45
0.0
1001
ACAD
1000
AcDbSavedByObjectVersion
1070
     0
  0
VISUALSTYLE
  5
3C8
102
{ACAD_XDICTIONARY
360
C28
102
}
102
{ACAD_REACTORS
330
2E4
102
}
330
2E4
100
AcDbVisualStyle
  2

 70
    22
 71
     2
 72
     2
 73
     0
 90
        0
 40
-0.6
 41
-30.0
 62
     5
 63
     7
 74
     1
 91
        4
 64
     7
 65
   257
 75
     1
175
     1
 42
1.0
 92
        8
 66
     7
 43
1.0
 76
     1
 77
     6
 78
     2
 67
     7
 79
     5
170
     0
171
     0
290
     0
174
     0
 93
        1
 44
0.0
173
     0
291
     1
 45
0.0
1001
ACAD
1000
AcDbSavedByObjectVersion
1070
     0
  0
VISUALSTYLE
  5
2F3
102
{ACAD_XDICTIONARY
360
C12
102
}
102
{ACAD_REACTORS
330
2E4
102
}
330
2E4
100
AcDbVisualStyle
  2

 70
    15
 71
     2
 72
     2
 73
     0
 90
        0
 40
-0.6
 41
-30.0
 62
     5
 63
     7
 74
     1
 91
        4
 64
     7
 65
   257
 75
     1
175
     1
 42
1.0
 92
        8
 66
     7
 43
1.0
 76
     1
 77
     6
 78
     2
 67
     7
 79
     5
170
     0
171
     0
290
     0
174
     0
 93
        1
 44
0.0
173
     0
291
     1
 45
0.0
1001
ACAD
1000
AcDbSavedByObjectVersion
1070
     0
  0
VISUALSTYLE
  5
2E5
102
{ACAD_XDICTIONARY
360
BF6
102
}
102
{ACAD_REACTORS
330
2E4
102
}
330
2E4
100
AcDbVisualStyle
  2

 70
     0
 71
     2
 72
     1
 73
     1
 90
        2
 40
-0.6
 41
30.0
 62
     5
 63
     7
 74
     0
 91
        4
 64
     7
 65
   257
 75
     1
175
     1
 42
1.0
 92
        8
 66
     7
 43
1.0
 76
     1
 77
     6
 78
     2
 67
     7
 79
     5
170
     0
171
     0
290
     0
174
     0
 93
       13
 44
0.0
173
     0
291
     1
 45
0.0
1001
ACAD
1000
AcDbSavedByObjectVersion
1070
     0
  0
VISUALSTYLE
  5
2E6
102
{ACAD_XDICTIONARY
360
BF8
102
}
102
{ACAD_REACTORS
330
2E4
102
}
330
2E4
100
AcDbVisualStyle
  2

 70
     1
 71
     2
 72
     1
 73
     1
 90
        2
 40
-0.6
 41
30.0
 62
     5
 63
     7
 74
     1
 91
        4
 64
     7
 65
   257
 75
     1
175
     1
 42
1.0
 92
        0
 66
   257
 43
1.0
 76
     1
 77
     6
 78
     2
 67
     7
 79
     5
170
     0
171
     0
290
     0
174
     0
 93
       13
 44
0.0
173
     0
291
     1
 45
0.0
1001
ACAD
1000
AcDbSavedByObjectVersion
1070
     0
  0
VISUALSTYLE
  5
2E7
102
{ACAD_XDICTIONARY
360
BFA
102
}
102
{ACAD_REACTORS
330
2E4
102
}
330
2E4
100
AcDbVisualStyle
  2

 70
     2
 71
     2
 72
     2
 73
     1
 90
        2
 40
-0.6
 41
30.0
 62
     5
 63
     7
 74
     0
 91
        4
 64
     7
 65
   257
 75
     1
175
     1
 42
1.0
 92
        0
 66
     7
 43
1.0
 76
     1
 77
     6
 78
     2
 67
     7
 79
     5
170
     0
171
     0
290
     0
174
     0
 93
       13
 44
0.0
173
     0
291
     1
 45
0.0
1001
ACAD
1000
AcDbSavedByObjectVersion
1070
     0
  0
VISUALSTYLE
  5
2E8
102
{ACAD_XDICTIONARY
360
BFC
102
}
102
{ACAD_REACTORS
330
2E4
102
}
330
2E4
100
AcDbVisualStyle
  2

 70
     3
 71
     2
 72
     2
 73
     1
 90
        2
 40
-0.6
 41
30.0
 62
     5
 63
     7
 74
     1
 91
        4
 64
     7
 65
   257
 75
     1
175
     1
 42
1.0
 92
        0
 66
   257
 43
1.0
 76
     1
 77
     6
 78
     2
 67
     7
 79
     5
170
     0
171
     0
290
     0
174
     0
 93
       13
 44
0.0
173
     0
291
     1
 45
0.0
1001
ACAD
1000
AcDbSavedByObjectVersion
1070
     0
  0
VISUALSTYLE
  5
3C0
102
{ACAD_XDICTIONARY
360
C18
102
}
102
{ACAD_REACTORS
330
2E4
102
}
330
2E4
100
AcDbVisualStyle
  2

 70
     6
 71
     1
 72
     2
 73
     2
 90
        0
 40
-0.6
 41
-30.0
 62
     5
 63
     7
 74
     2
 91
        2
 64
     7
 65
   257
 75
     2
175
     1
 42
40.0
 92
        0
 66
   257
 43
1.0
 76
     1
 77
     6
 78
     2
 67
     7
 79
     3
170
     0
171
     0
290
     0
174
     0
 93
        1
 44
0.0
173
     0
291
     0
 45
0.0
1001
ACAD
1000
AcDbSavedByObjectVersion
1070
     0
  0
VISUALSTYLE
  5
3C6
102
{ACAD_XDICTIONARY
360
C24
102
}
102
{ACAD_REACTORS
330
2E4
102
}
330
2E4
100
AcDbVisualStyle
  2

 70
    20
 71
     2
 72
     2
 73
     0
 90
        0
 40
-0.6
 41
-30.0
 62
     5
 63
     7
 74
     1
 91
        4
 64
     7
 65
   257
 75
     1
175
     1
 42
1.0
 92
       10
 66
     7
 43
1.0
 76
     1
 77
     6
 78
     2
 67
     7
 79
     5
170
     0
171
     0
290
     0
174
     0
 93
        1
 44
0.0
173
     0
291
     1
 45
0.0
1001
ACAD
1000
AcDbSavedByObjectVersion
1070
     0
  0
VISUALSTYLE
  5
2F2
102
{ACAD_XDICTIONARY
360
C10
102
}
102
{ACAD_REACTORS
330
2E4
102
}
330
2E4
100
AcDbVisualStyle
  2

 70
    14
 71
     2
 72
     2
 73
     0
 90
        0
 40
-0.6
 41
-30.0
 62
     5
 63
     7
 74
     1
 91
        4
 64
     7
 65
   257
 75
     7
175
     7
 42
1.0
 92
        8
 66
     7
 43
1.0
 76
     1
 77
     6
 78
     2
 67
     7
 79
     5
170
     0
171
     0
290
     0
174
     0
 93
        1
 44
0.0
173
     0
291
     1
 45
0.0
1001
ACAD
1000
AcDbSavedByObjectVersion
1070
     0
  0
VISUALSTYLE
  5
3C7
102
{ACAD_XDICTIONARY
360
C26
102
}
102
{ACAD_REACTORS
330
2E4
102
}
330
2E4
100
AcDbVisualStyle
  2

 70
    21
 71
     2
 72
     2
 73
     0
 90
        0
 40
-0.6
 41
-30.0
 62
     5
 63
     7
 74
     1
 91
        4
 64
     7
 65
   257
 75
     1
175
     1
 42
1.0
 92
        9
 66
     7
 43
1.0
 76
     1
 77
     6
 78
     2
 67
     7
 79
     5
170
     0
171
     0
290
     0
174
     0
 93
        1
 44
0.0
173
     0
291
     1
 45
0.0
1001
ACAD
1000
AcDbSavedByObjectVersion
1070
     0
  0
VISUALSTYLE
  5
2EE
102
{ACAD_XDICTIONARY
360
C08
102
}
102
{ACAD_REACTORS
330
2E4
102
}
330
2E4
100
AcDbVisualStyle
  2

 70
     8
 71
     2
 72
     2
 73
     0
 90
        0
 40
-0.6
 41
-30.0
 62
     5
 63
     7
 74
     1
 91
        0
 64
     7
 65
   257
 75
     1
175
     1
 42
1.0
 92
        8
 66
     8
 43
1.0
 76
     1
 77
     6
 78
     2
 67
     7
 79
     5
170
     0
171
     0
290
     0
174
     0
 93
       13
 44
0.0
173
     0
291
     0
 45
0.0
1001
ACAD
1000
AcDbSavedByObjectVersion
1070
     0
  0
VISUALSTYLE
  5
3C5
102
{ACAD_XDICTIONARY
360
C22
102
}
102
{ACAD_REACTORS
330
2E4
102
}
330
2E4
100
AcDbVisualStyle
  2

 70
    27
 71
     2
 72
     2
 73
     1
 90
        2
 40
-0.6
 41
30.0
 62
     5
 63
     7
 74
     0
 91
        4
 64
     7
 65
   257
 75
     1
175
     1
 42
1.0
 92
        8
 66
   257
 43
1.0
 76
     1
 77
     6
 78
     2
 67
     8
 79
     3
170
     0
171
     0
290
     0
174
     0
 93
        5
 44
0.0
173
     0
291
     0
 45
0.0
1001
ACAD
1000
AcDbSavedByObjectVersion
1070
     0
  0
VISUALSTYLE
  5
3C4
102
{ACAD_XDICTIONARY
360
C20
102
}
102
{ACAD_REACTORS
330
2E4
102
}
330
2E4
100
AcDbVisualStyle
  2

 70
    26
 71
     2
 72
     2
 73
     1
 90
        2
 40
-0.6
 41
30.0
 62
     5
 63
     7
 74
     1
 91
       10
 64
     7
 65
   257
 75
     2
175
     1
 42
1.0
 92
        8
 66
   257
 43
1.0
 76
     1
 77
     6
 78
     2
 67
     7
 79
     3
170
     0
171
     0
290
     0
174
     0
 93
        5
 44
0.0
173
     0
291
     0
 45
0.0
1001
ACAD
1000
AcDbSavedByObjectVersion
1070
     0
  0
VISUALSTYLE
  5
3C1
102
{ACAD_XDICTIONARY
360
C1A
102
}
102
{ACAD_REACTORS
330
2E4
102
}
330
2E4
100
AcDbVisualStyle
  2

 70
    23
 71
     2
 72
     2
 73
     3
 90
        0
 40
-0.6
 41
-30.0
 62
     5
 63
     7
 74
     2
 91
        2
 64
     7
 65
     7
 75
     1
175
     1
 42
40.0
 92
        8
 66
     7
 43
1.0
 76
     1
 77
     6
 78
     2
 67
     7
 79
     3
170
     0
171
     0
290
     0
174
     0
 93
        1
 44
0.0
173
     0
291
     0
 45
0.0
1001
ACAD
1000
AcDbSavedByObjectVersion
1070
     0
  0
VISUALSTYLE
  5
3C2
102
{ACAD_XDICTIONARY
360
C1C
102
}
102
{ACAD_REACTORS
330
2E4
102
}
330
2E4
100
AcDbVisualStyle
  2

 70
    24
 71
     1
 72
     2
 73
     2
 90
        0
 40
-0.6
 41
-30.0
 62
     5
 63
     7
 74
     2
 91
        2
 64
     7
 65
     7
 75
     1
175
     1
 42
40.0
 92
       11
 66
     7
 43
1.0
 76
     1
 77
     6
 78
     2
 67
     7
 79
     6
170
     0
171
     0
290
     0
174
     0
 93
        1
 44
0.0
173
     0
291
     0
 45
0.0
1001
ACAD
1000
AcDbSavedByObjectVersion
1070
     0
  0
VISUALSTYLE
  5
2F1
102
{ACAD_XDICTIONARY
360
C0E
102
}
102
{ACAD_REACTORS
330
2E4
102
}
330
2E4
100
AcDbVisualStyle
  2

 70
    13
 71
     2
 72
     2
 73
     0
 90
        0
 40
-0.6
 41
-30.0
 62
     5
 63
     7
 74
     1
 91
        4
 64
     7
 65
   257
 75
     1
175
     1
 42
1.0
 92
       12
 66
     7
 43
1.0
 76
     1
 77
     6
 78
     2
 67
     7
 79
     5
170
     0
171
     0
290
     0
174
     0
 93
        1
 44
0.0
173
     0
291
     1
 45
0.0
1001
ACAD
1000
AcDbSavedByObjectVersion
1070
     0
  0
VISUALSTYLE
  5
3BF
102
{ACAD_XDICTIONARY
360
C16
102
}
102
{ACAD_REACTORS
330
2E4
102
}
330
2E4
100
AcDbVisualStyle
  2

 70
     5
 71
     0
 72
     2
 73
     0
 90
        0
 40
-0.6
 41
-30.0
 62
     5
 63
     7
 74
     1
 91
        4
 64
     7
 65
   257
 75
     1
175
     1
 42
1.0
 92
        0
 66
   257
 43
1.0
 76
     1
 77
     6
 78
     2
 67
     7
 79
     3
170
     0
171
     0
290
     0
174
     0
 93
        1
 44
0.0
173
     0
291
     0
 45
0.0
1001
ACAD
1000
AcDbSavedByObjectVersion
1070
     0
  0
VISUALSTYLE
  5
3C3
102
{ACAD_XDICTIONARY
360
C1E
102
}
102
{ACAD_REACTORS
330
2E4
102
}
330
2E4
100
AcDbVisualStyle
  2

 70
    25
 71
     2
 72
     2
 73
     1
 90
        1
 40
0.5
 41
-30.0
 62
     5
 63
     7
 74
     1
 91
        0
 64
     7
 65
   257
 75
     1
175
     1
 42
1.0
 92
        8
 66
     7
 43
1.0
 76
     1
 77
     6
 78
     2
 67
     7
 79
     3
170
     0
171
     0
290
     0
174
     0
 93
       13
 44
0.0
173
     0
291
     0
 45
0.0
1001
ACAD
1000
AcDbSavedByObjectVersion
1070
     0
  0
DICTIONARYVAR
  5
343
102
{ACAD_REACTORS
330
2C9
102
}
330
2C9
100
DictionaryVariables
280
     0
  1
1:1
  0
DICTIONARYVAR
  5
342
102
{ACAD_REACTORS
330
2C9
102
}
330
2C9
100
DictionaryVariables
280
     0
  1
STANDARD
  0
DICTIONARYVAR
  5
2CA
102
{ACAD_REACTORS
330
2C9
102
}
330
2C9
100
DictionaryVariables
280
     0
  1
STANDARD
  0
DICTIONARYVAR
  5
346
102
{ACAD_REACTORS
330
2C9
102
}
330
2C9
100
DictionaryVariables
280
     0
  1
1
  0
DICTIONARYVAR
  5
345
102
{ACAD_REACTORS
330
2C9
102
}
330
2C9
100
DictionaryVariables
280
     0
  1
0
  0
DICTIONARYVAR
  5
A46
102
{ACAD_REACTORS
330
2C9
102
}
330
2C9
100
DictionaryVariables
280
     0
  1
1
  0
DICTIONARYVAR
  5
A47
102
{ACAD_REACTORS
330
2C9
102
}
330
2C9
100
DictionaryVariables
280
     0
  1
15
  0
DICTIONARYVAR
  5
A45
102
{ACAD_REACTORS
330
2C9
102
}
330
2C9
100
DictionaryVariables
280
     0
  1
0
  0
DICTIONARYVAR
  5
A44
102
{ACAD_REACTORS
330
2C9
102
}
330
2C9
100
DictionaryVariables
280
     0
  1
0
  0
DICTIONARYVAR
  5
344
102
{ACAD_REACTORS
330
2C9
102
}
330
2C9
100
DictionaryVariables
280
     0
  1
127
  0
DICTIONARYVAR
  5
BE8
102
{ACAD_REACTORS
330
2C9
102
}
330
2C9
100
DictionaryVariables
280
     0
  1
2
  0
DICTIONARY
  5
BF0
330
11
100
AcDbDictionary
280
     1
281
     1
  3
ACAD_XREC_ROUNDTRIP
360
BF1
  0
DICTIONARY
  5
BEE
330
A
100
AcDbDictionary
280
     1
281
     1
  3
ACAD_XREC_ROUNDTRIP
360
BEF
  0
DICTIONARY
  5
2D5
330
2D4
100
AcDbDictionary
280
     1
281
     1
  3
ACAD_XREC_ROUNDTRIP
360
BF4
  3
BUMPTILE
360
2D7
  3
DIFFUSETILE
360
2D6
  3
OPACITYTILE
360
2DA
  3
REFLECTIONTILE
360
2D9
  3
REFRACTIONTILE
360
2DB
  3
SPECULARTILE
360
2D8
  0
DICTIONARY
  5
2CD
330
2CC
100
AcDbDictionary
280
     1
281
     1
  3
ACAD_XREC_ROUNDTRIP
360
BF3
  3
BUMPTILE
360
2CF
  3
DIFFUSETILE
360
2CE
  3
OPACITYTILE
360
2D2
  3
REFLECTIONTILE
360
2D1
  3
REFRACTIONTILE
360
2D3
  3
SPECULARTILE
360
2D0
  0
DICTIONARY
  5
2DD
330
2DC
100
AcDbDictionary
280
     1
281
     1
  3
ACAD_XREC_ROUNDTRIP
360
BF5
  3
BUMPTILE
360
2DF
  3
DIFFUSETILE
360
2DE
  3
OPACITYTILE
360
2E2
  3
REFLECTIONTILE
360
2E1
  3
REFRACTIONTILE
360
2E3
  3
SPECULARTILE
360
2E0
  0
DICTIONARY
  5
32B
330
29C
100
AcDbDictionary
280
     1
281
     1
  3
ACAD_ROUNDTRIP_2008_TABLESTYLE_CELLSTYLEMAP
360
BE9
  3
ACAD_XREC_ROUNDTRIP
360
BF2
  0
DICTIONARY
  5
C00
330
2EA
100
AcDbDictionary
280
     1
281
     1
  3
ACAD_XREC_ROUNDTRIP
360
C01
  0
DICTIONARY
  5
C04
330
2EC
100
AcDbDictionary
280
     1
281
     1
  3
ACAD_XREC_ROUNDTRIP
360
C05
  0
DICTIONARY
  5
C02
330
2EB
100
AcDbDictionary
280
     1
281
     1
  3
ACAD_XREC_ROUNDTRIP
360
C03
  0
DICTIONARY
  5
BFE
330
2E9
100
AcDbDictionary
280
     1
281
     1
  3
ACAD_XREC_ROUNDTRIP
360
BFF
  0
DICTIONARY
  5
C0C
330
2F0
100
AcDbDictionary
280
     1
281
     1
  3
ACAD_XREC_ROUNDTRIP
360
C0D
  0
DICTIONARY
  5
C14
330
2F4
100
AcDbDictionary
280
     1
281
     1
  3
ACAD_XREC_ROUNDTRIP
360
C15
  0
DICTIONARY
  5
C06
330
2ED
100
AcDbDictionary
280
     1
281
     1
  3
ACAD_XREC_ROUNDTRIP
360
C07
  0
DICTIONARY
  5
C0A
330
2EF
100
AcDbDictionary
280
     1
281
     1
  3
ACAD_XREC_ROUNDTRIP
360
C0B
  0
DICTIONARY
  5
C28
330
3C8
100
AcDbDictionary
280
     1
281
     1
  3
ACAD_XREC_ROUNDTRIP
360
C29
  0
DICTIONARY
  5
C12
330
2F3
100
AcDbDictionary
280
     1
281
     1
  3
ACAD_XREC_ROUNDTRIP
360
C13
  0
DICTIONARY
  5
BF6
330
2E5
100
AcDbDictionary
280
     1
281
     1
  3
ACAD_XREC_ROUNDTRIP
360
BF7
  0
DICTIONARY
  5
BF8
330
2E6
100
AcDbDictionary
280
     1
281
     1
  3
ACAD_XREC_ROUNDTRIP
360
BF9
  0
DICTIONARY
  5
BFA
330
2E7
100
AcDbDictionary
280
     1
281
     1
  3
ACAD_XREC_ROUNDTRIP
360
BFB
  0
DICTIONARY
  5
BFC
330
2E8
100
AcDbDictionary
280
     1
281
     1
  3
ACAD_XREC_ROUNDTRIP
360
BFD
  0
DICTIONARY
  5
C18
330
3C0
100
AcDbDictionary
280
     1
281
     1
  3
ACAD_XREC_ROUNDTRIP
360
C19
  0
DICTIONARY
  5
C24
330
3C6
100
AcDbDictionary
280
     1
281
     1
  3
ACAD_XREC_ROUNDTRIP
360
C25
  0
DICTIONARY
  5
C10
330
2F2
100
AcDbDictionary
280
     1
281
     1
  3
ACAD_XREC_ROUNDTRIP
360
C11
  0
DICTIONARY
  5
C26
330
3C7
100
AcDbDictionary
280
     1
281
     1
  3
ACAD_XREC_ROUNDTRIP
360
C27
  0
DICTIONARY
  5
C08
330
2EE
100
AcDbDictionary
280
     1
281
     1
  3
ACAD_XREC_ROUNDTRIP
360
C09
  0
DICTIONARY
  5
C22
330
3C5
100
AcDbDictionary
280
     1
281
     1
  3
ACAD_XREC_ROUNDTRIP
360
C23
  0
DICTIONARY
  5
C20
330
3C4
100
AcDbDictionary
280
     1
281
     1
  3
ACAD_XREC_ROUNDTRIP
360
C21
  0
DICTIONARY
  5
C1A
330
3C1
100
AcDbDictionary
280
     1
281
     1
  3
ACAD_XREC_ROUNDTRIP
360
C1B
  0
DICTIONARY
  5
C1C
330
3C2
100
AcDbDictionary
280
     1
281
     1
  3
ACAD_XREC_ROUNDTRIP
360
C1D
  0
DICTIONARY
  5
C0E
330
2F1
100
AcDbDictionary
280
     1
281
     1
  3
ACAD_XREC_ROUNDTRIP
360
C0F
  0
DICTIONARY
  5
C16
330
3BF
100
AcDbDictionary
280
     1
281
     1
  3
ACAD_XREC_ROUNDTRIP
360
C17
  0
DICTIONARY
  5
C1E
330
3C3
100
AcDbDictionary
280
     1
281
     1
  3
ACAD_XREC_ROUNDTRIP
360
C1F
  0
XRECORD
  5
BF1
102
{ACAD_REACTORS
330
BF0
102
}
330
BF0
100
AcDbXrecord
280
     1
102
SHADEPLOT
 70
     0
102
SHADEPLOTRESLEVEL
 70
     2
102
SHADEPLOTCUSTOMDPI
 70
   300
  0
XRECORD
  5
BEF
102
{ACAD_REACTORS
330
BEE
102
}
330
BEE
100
AcDbXrecord
280
     1
102
SHADEPLOT
 70
     0
102
SHADEPLOTRESLEVEL
 70
     2
102
SHADEPLOTCUSTOMDPI
 70
   300
  0
XRECORD
  5
BF4
102
{ACAD_REACTORS
330
2D5
102
}
330
2D5
100
AcDbXrecord
280
     1
102
MATERIAL
148
0.0
149
0.0
149
0.0
 93
        0
 94
      127
282
     0
 72
     0
 77
     0
171
     0
175
     0
179
     0
273
     0
  0
XRECORD
  5
2D7
102
{ACAD_REACTORS
330
2D5
102
}
330
2D5
100
AcDbXrecord
280
     1
270
     1
271
     1
  0
XRECORD
  5
2D6
102
{ACAD_REACTORS
330
2D5
102
}
330
2D5
100
AcDbXrecord
280
     1
270
     1
271
     1
  0
XRECORD
  5
2DA
102
{ACAD_REACTORS
330
2D5
102
}
330
2D5
100
AcDbXrecord
280
     1
270
     1
271
     1
  0
XRECORD
  5
2D9
102
{ACAD_REACTORS
330
2D5
102
}
330
2D5
100
AcDbXrecord
280
     1
270
     1
271
     1
  0
XRECORD
  5
2DB
102
{ACAD_REACTORS
330
2D5
102
}
330
2D5
100
AcDbXrecord
280
     1
270
     1
271
     1
  0
XRECORD
  5
2D8
102
{ACAD_REACTORS
330
2D5
102
}
330
2D5
100
AcDbXrecord
280
     1
270
     1
271
     1
  0
XRECORD
  5
BF3
102
{ACAD_REACTORS
330
2CD
102
}
330
2CD
100
AcDbXrecord
280
     1
102
MATERIAL
148
0.0
149
0.0
149
0.0
 93
        0
 94
      127
282
     0
 72
     0
 77
     0
171
     0
175
     0
179
     0
273
     0
  0
XRECORD
  5
2CF
102
{ACAD_REACTORS
330
2CD
102
}
330
2CD
100
AcDbXrecord
280
     1
270
     1
271
     1
  0
XRECORD
  5
2CE
102
{ACAD_REACTORS
330
2CD
102
}
330
2CD
100
AcDbXrecord
280
     1
270
     1
271
     1
  0
XRECORD
  5
2D2
102
{ACAD_REACTORS
330
2CD
102
}
330
2CD
100
AcDbXrecord
280
     1
270
     1
271
     1
  0
XRECORD
  5
2D1
102
{ACAD_REACTORS
330
2CD
102
}
330
2CD
100
AcDbXrecord
280
     1
270
     1
271
     1
  0
XRECORD
  5
2D3
102
{ACAD_REACTORS
330
2CD
102
}
330
2CD
100
AcDbXrecord
280
     1
270
     1
271
     1
  0
XRECORD
  5
2D0
102
{ACAD_REACTORS
330
2CD
102
}
330
2CD
100
AcDbXrecord
280
     1
270
     1
271
     1
  0
XRECORD
  5
BF5
102
{ACAD_REACTORS
330
2DD
102
}
330
2DD
100
AcDbXrecord
280
     1
102
MATERIAL
148
0.0
149
0.0
149
0.0
 93
        0
 94
      127
282
     0
 72
     0
 77
     0
171
     0
175
     0
179
     0
273
     0
  0
XRECORD
  5
2DF
102
{ACAD_REACTORS
330
2DD
102
}
330
2DD
100
AcDbXrecord
280
     1
270
     1
271
     1
  0
XRECORD
  5
2DE
102
{ACAD_REACTORS
330
2DD
102
}
330
2DD
100
AcDbXrecord
280
     1
270
     1
271
     1
  0
XRECORD
  5
2E2
102
{ACAD_REACTORS
330
2DD
102
}
330
2DD
100
AcDbXrecord
280
     1
270
     1
271
     1
  0
XRECORD
  5
2E1
102
{ACAD_REACTORS
330
2DD
102
}
330
2DD
100
AcDbXrecord
280
     1
270
     1
271
     1
  0
XRECORD
  5
2E3
102
{ACAD_REACTORS
330
2DD
102
}
330
2DD
100
AcDbXrecord
280
     1
270
     1
271
     1
  0
XRECORD
  5
2E0
102
{ACAD_REACTORS
330
2DD
102
}
330
2DD
100
AcDbXrecord
280
     1
270
     1
271
     1
  0
CELLSTYLEMAP
  5
BE9
102
{ACAD_REACTORS
330
32B
102
}
330
32B
100
AcDbCellStyleMap
 90
        3
300
CELLSTYLE
  1
TABLEFORMAT_BEGIN
 90
        5
170
     1
 91
        0
 92
    32768
 62
   257
 93
        1
300
CONTENTFORMAT
  1
CONTENTFORMAT_BEGIN
 90
        0
 91
        0
 92
        4
 93
        0
300

 40
0.0
140
1.0
 94
        5
 62
     0
340
35
144
0.25
309
CONTENTFORMAT_END
171
     1
301
MARGIN
  1
CELLMARGIN_BEGIN
 40
0.06
 40
0.06
 40
0.06
 40
0.06
 40
0.18
 40
0.18
309
CELLMARGIN_END
 94
        6
 95
        1
302
GRIDFORMAT
  1
GRIDFORMAT_BEGIN
 90
        0
 91
        1
 62
     0
 92
       -2
340
0
 93
        0
 40
0.045
309
GRIDFORMAT_END
 95
        2
302
GRIDFORMAT
  1
GRIDFORMAT_BEGIN
 90
        0
 91
        1
 62
     0
 92
       -2
340
0
 93
        0
 40
0.045
309
GRIDFORMAT_END
 95
        4
302
GRIDFORMAT
  1
GRIDFORMAT_BEGIN
 90
        0
 91
        1
 62
     0
 92
       -2
340
0
 93
        0
 40
0.045
309
GRIDFORMAT_END
 95
        8
302
GRIDFORMAT
  1
GRIDFORMAT_BEGIN
 90
        0
 91
        1
 62
     0
 92
       -2
340
0
 93
        0
 40
0.045
309
GRIDFORMAT_END
 95
       16
302
GRIDFORMAT
  1
GRIDFORMAT_BEGIN
 90
        0
 91
        1
 62
     0
 92
       -2
340
0
 93
        0
 40
0.045
309
GRIDFORMAT_END
 95
       32
302
GRIDFORMAT
  1
GRIDFORMAT_BEGIN
 90
        0
 91
        1
 62
     0
 92
       -2
340
0
 93
        0
 40
0.045
309
GRIDFORMAT_END
309
TABLEFORMAT_END
  1
CELLSTYLE_BEGIN
 90
        1
 91
        1
300
_TITLE
309
CELLSTYLE_END
300
CELLSTYLE
  1
TABLEFORMAT_BEGIN
 90
        5
170
     1
 91
        0
 92
        0
 62
   257
 93
        1
300
CONTENTFORMAT
  1
CONTENTFORMAT_BEGIN
 90
        0
 91
        0
 92
        4
 93
        0
300

 40
0.0
140
1.0
 94
        5
 62
     0
340
35
144
0.18
309
CONTENTFORMAT_END
171
     1
301
MARGIN
  1
CELLMARGIN_BEGIN
 40
0.06
 40
0.06
 40
0.06
 40
0.06
 40
0.18
 40
0.18
309
CELLMARGIN_END
 94
        6
 95
        1
302
GRIDFORMAT
  1
GRIDFORMAT_BEGIN
 90
        0
 91
        1
 62
     0
 92
       -2
340
0
 93
        0
 40
0.045
309
GRIDFORMAT_END
 95
        2
302
GRIDFORMAT
  1
GRIDFORMAT_BEGIN
 90
        0
 91
        1
 62
     0
 92
       -2
340
0
 93
        0
 40
0.045
309
GRIDFORMAT_END
 95
        4
302
GRIDFORMAT
  1
GRIDFORMAT_BEGIN
 90
        0
 91
        1
 62
     0
 92
       -2
340
0
 93
        0
 40
0.045
309
GRIDFORMAT_END
 95
        8
302
GRIDFORMAT
  1
GRIDFORMAT_BEGIN
 90
        0
 91
        1
 62
     0
 92
       -2
340
0
 93
        0
 40
0.045
309
GRIDFORMAT_END
 95
       16
302
GRIDFORMAT
  1
GRIDFORMAT_BEGIN
 90
        0
 91
        1
 62
     0
 92
       -2
340
0
 93
        0
 40
0.045
309
GRIDFORMAT_END
 95
       32
302
GRIDFORMAT
  1
GRIDFORMAT_BEGIN
 90
        0
 91
        1
 62
     0
 92
       -2
340
0
 93
        0
 40
0.045
309
GRIDFORMAT_END
309
TABLEFORMAT_END
  1
CELLSTYLE_BEGIN
 90
        2
 91
        1
300
_HEADER
309
CELLSTYLE_END
300
CELLSTYLE
  1
TABLEFORMAT_BEGIN
 90
        5
170
     1
 91
        0
 92
        0
 62
   257
 93
        1
300
CONTENTFORMAT
  1
CONTENTFORMAT_BEGIN
 90
        0
 91
        0
 92
        4
 93
        0
300

 40
0.0
140
1.0
 94
        2
 62
     0
340
35
144
0.18
309
CONTENTFORMAT_END
171
     1
301
MARGIN
  1
CELLMARGIN_BEGIN
 40
0.06
 40
0.06
 40
0.06
 40
0.06
 40
0.18
 40
0.18
309
CELLMARGIN_END
 94
        6
 95
        1
302
GRIDFORMAT
  1
GRIDFORMAT_BEGIN
 90
        0
 91
        1
 62
     0
 92
       -2
340
0
 93
        0
 40
0.045
309
GRIDFORMAT_END
 95
        2
302
GRIDFORMAT
  1
GRIDFORMAT_BEGIN
 90
        0
 91
        1
 62
     0
 92
       -2
340
0
 93
        0
 40
0.045
309
GRIDFORMAT_END
 95
        4
302
GRIDFORMAT
  1
GRIDFORMAT_BEGIN
 90
        0
 91
        1
 62
     0
 92
       -2
340
0
 93
        0
 40
0.045
309
GRIDFORMAT_END
 95
        8
302
GRIDFORMAT
  1
GRIDFORMAT_BEGIN
 90
        0
 91
        1
 62
     0
 92
       -2
340
0
 93
        0
 40
0.045
309
GRIDFORMAT_END
 95
       16
302
GRIDFORMAT
  1
GRIDFORMAT_BEGIN
 90
        0
 91
        1
 62
     0
 92
       -2
340
0
 93
        0
 40
0.045
309
GRIDFORMAT_END
 95
       32
302
GRIDFORMAT
  1
GRIDFORMAT_BEGIN
 90
        0
 91
        1
 62
     0
 92
       -2
340
0
 93
        0
 40
0.045
309
GRIDFORMAT_END
309
TABLEFORMAT_END
  1
CELLSTYLE_BEGIN
 90
        3
 91
        2
300
_DATA
309
CELLSTYLE_END
  0
XRECORD
  5
BF2
102
{ACAD_REACTORS
330
32B
102
}
330
32B
100
AcDbXrecord
280
     1
102
ACAD_ROUNDTRIP_PRE2007_TABLESTYLE
 90
        4
 91
        0
  1

 92
        4
 93
        0
  2

 94
        4
 95
        0
  3

  0
XRECORD
  5
C01
102
{ACAD_REACTORS
330
C00
102
}
330
C00
100
AcDbXrecord
280
     1
102
RTVSPropertyOp0
 70
     1
102
RTVSPropertyOp1
 70
     1
102
RTVSPropertyOp2
 70
     1
102
RTVSPropertyOp3
 70
     1
102
RTVSPropertyOp4
 70
     1
102
RTVSPropertyOp5
 70
     1
102
RTVSPropertyOp6
 70
     1
102
RTVSPropertyOp7
 70
     1
102
RTVSPropertyOp8
 70
     1
102
RTVSPropertyOp9
 70
     1
102
RTVSPropertyOp10
 70
     1
102
RTVSPropertyOp11
 70
     1
102
RTVSPropertyOp12
 70
     1
102
RTVSPropertyOp13
 70
     1
102
RTVSPropertyOp14
 70
     1
102
RTVSPropertyOp15
 70
     1
102
RTVSPropertyOp16
 70
     1
102
RTVSPropertyOp17
 70
     1
102
RTVSPropertyOp18
 70
     1
102
RTVSPropertyOp19
 70
     1
102
RTVSPropertyOp20
 70
     1
102
RTVSPropertyOp21
 70
     1
102
RTVSPropertyOp22
 70
     1
102
RTVSPropertyOp23
 70
     1
102
RTVSPropertyOp24
 70
     1
102
RTVSPropertyOp25
 70
     1
102
RTVSPropertyOp26
 70
     1
102
RTVSPropertyOp27
 70
     1
102
RTVSPropertyOp28
 70
     1
102
RTVSPropertyOp29
 70
     1
102
RTVSPropertyOp30
 70
     1
102
RTVSPropertyOp31
 70
     1
102
RTVSPropertyOp32
 70
     1
  0
XRECORD
  5
C05
102
{ACAD_REACTORS
330
C04
102
}
330
C04
100
AcDbXrecord
280
     1
102
RTVSPropertyOp0
 70
     1
102
RTVSPropertyOp1
 70
     1
102
RTVSPropertyOp2
 70
     1
102
RTVSPropertyOp3
 70
     1
102
RTVSPropertyOp4
 70
     1
102
RTVSPropertyOp5
 70
     1
102
RTVSPropertyOp6
 70
     1
102
RTVSPropertyOp7
 70
     1
102
RTVSPropertyOp8
 70
     1
102
RTVSPropertyOp9
 70
     1
102
RTVSPropertyOp10
 70
     1
102
RTVSPropertyOp11
 70
     1
102
RTVSPropertyOp12
 70
     1
102
RTVSPropertyOp13
 70
     1
102
RTVSPropertyOp14
 70
     1
102
RTVSPropertyOp15
 70
     1
102
RTVSPropertyOp16
 70
     1
102
RTVSPropertyOp17
 70
     1
102
RTVSPropertyOp18
 70
     1
102
RTVSPropertyOp19
 70
     1
102
RTVSPropertyOp20
 70
     1
102
RTVSPropertyOp21
 70
     1
102
RTVSPropertyOp22
 70
     1
102
RTVSPropertyOp23
 70
     1
102
RTVSPropertyOp24
 70
     1
102
RTVSPropertyOp25
 70
     1
102
RTVSPropertyOp26
 70
     1
102
RTVSPropertyOp27
 70
     1
102
RTVSPropertyOp28
 70
     1
102
RTVSPropertyOp29
 70
     1
102
RTVSPropertyOp30
 70
     1
102
RTVSPropertyOp31
 70
     1
102
RTVSPropertyOp32
 70
     1
  0
XRECORD
  5
C03
102
{ACAD_REACTORS
330
C02
102
}
330
C02
100
AcDbXrecord
280
     1
102
RTVSPropertyOp0
 70
     1
102
RTVSPropertyOp1
 70
     1
102
RTVSPropertyOp2
 70
     1
102
RTVSPropertyOp3
 70
     1
102
RTVSPropertyOp4
 70
     1
102
RTVSPropertyOp5
 70
     1
102
RTVSPropertyOp6
 70
     1
102
RTVSPropertyOp7
 70
     1
102
RTVSPropertyOp8
 70
     1
102
RTVSPropertyOp9
 70
     1
102
RTVSPropertyOp10
 70
     1
102
RTVSPropertyOp11
 70
     1
102
RTVSPropertyOp12
 70
     1
102
RTVSPropertyOp13
 70
     1
102
RTVSPropertyOp14
 70
     1
102
RTVSPropertyOp15
 70
     1
102
RTVSPropertyOp16
 70
     1
102
RTVSPropertyOp17
 70
     1
102
RTVSPropertyOp18
 70
     1
102
RTVSPropertyOp19
 70
     1
102
RTVSPropertyOp20
 70
     1
102
RTVSPropertyOp21
 70
     1
102
RTVSPropertyOp22
 70
     1
102
RTVSPropertyOp23
 70
     1
102
RTVSPropertyOp24
 70
     1
102
RTVSPropertyOp25
 70
     1
102
RTVSPropertyOp26
 70
     1
102
RTVSPropertyOp27
 70
     1
102
RTVSPropertyOp28
 70
     1
102
RTVSPropertyOp29
 70
     1
102
RTVSPropertyOp30
 70
     1
102
RTVSPropertyOp31
 70
     1
102
RTVSPropertyOp32
 70
     1
  0
XRECORD
  5
BFF
102
{ACAD_REACTORS
330
BFE
102
}
330
BFE
100
AcDbXrecord
280
     1
102
RTVSPropertyOp0
 70
     1
102
RTVSPropertyOp1
 70
     1
102
RTVSPropertyOp2
 70
     1
102
RTVSPropertyOp3
 70
     1
102
RTVSPropertyOp4
 70
     1
102
RTVSPropertyOp5
 70
     1
102
RTVSPropertyOp6
 70
     1
102
RTVSPropertyOp7
 70
     1
102
RTVSPropertyOp8
 70
     1
102
RTVSPropertyOp9
 70
     1
102
RTVSPropertyOp10
 70
     1
102
RTVSPropertyOp11
 70
     1
102
RTVSPropertyOp12
 70
     1
102
RTVSPropertyOp13
 70
     1
102
RTVSPropertyOp14
 70
     1
102
RTVSPropertyOp15
 70
     1
102
RTVSPropertyOp16
 70
     1
102
RTVSPropertyOp17
 70
     1
102
RTVSPropertyOp18
 70
     1
102
RTVSPropertyOp19
 70
     1
102
RTVSPropertyOp20
 70
     1
102
RTVSPropertyOp21
 70
     1
102
RTVSPropertyOp22
 70
     1
102
RTVSPropertyOp23
 70
     1
102
RTVSPropertyOp24
 70
     1
102
RTVSPropertyOp25
 70
     1
102
RTVSPropertyOp26
 70
     1
102
RTVSPropertyOp27
 70
     1
102
RTVSPropertyOp28
 70
     1
102
RTVSPropertyOp29
 70
     1
102
RTVSPropertyOp30
 70
     1
102
RTVSPropertyOp31
 70
     1
102
RTVSPropertyOp32
 70
     1
  0
XRECORD
  5
C0D
102
{ACAD_REACTORS
330
C0C
102
}
330
C0C
100
AcDbXrecord
280
     1
102
RTVSPropertyOp0
 70
     1
102
RTVSPropertyOp1
 70
     1
102
RTVSPropertyOp2
 70
     1
102
RTVSPropertyOp3
 70
     1
102
RTVSPropertyOp4
 70
     1
102
RTVSPropertyOp5
 70
     1
102
RTVSPropertyOp6
 70
     1
102
RTVSPropertyOp7
 70
     1
102
RTVSPropertyOp8
 70
     1
102
RTVSPropertyOp9
 70
     1
102
RTVSPropertyOp10
 70
     1
102
RTVSPropertyOp11
 70
     1
102
RTVSPropertyOp12
 70
     1
102
RTVSPropertyOp13
 70
     1
102
RTVSPropertyOp14
 70
     1
102
RTVSPropertyOp15
 70
     1
102
RTVSPropertyOp16
 70
     1
102
RTVSPropertyOp17
 70
     1
102
RTVSPropertyOp18
 70
     1
102
RTVSPropertyOp19
 70
     1
102
RTVSPropertyOp20
 70
     1
102
RTVSPropertyOp21
 70
     1
102
RTVSPropertyOp22
 70
     1
102
RTVSPropertyOp23
 70
     1
102
RTVSPropertyOp24
 70
     1
102
RTVSPropertyOp25
 70
     1
102
RTVSPropertyOp26
 70
     1
102
RTVSPropertyOp27
 70
     1
102
RTVSPropertyOp28
 70
     1
102
RTVSPropertyOp29
 70
     1
102
RTVSPropertyOp30
 70
     1
102
RTVSPropertyOp31
 70
     1
102
RTVSPropertyOp32
 70
     1
  0
XRECORD
  5
C15
102
{ACAD_REACTORS
330
C14
102
}
330
C14
100
AcDbXrecord
280
     1
102
RTVSPropertyOp0
 70
     1
102
RTVSPropertyOp1
 70
     1
102
RTVSPropertyOp2
 70
     1
102
RTVSPropertyOp3
 70
     1
102
RTVSPropertyOp4
 70
     1
102
RTVSPropertyOp5
 70
     1
102
RTVSPropertyOp6
 70
     1
102
RTVSPropertyOp7
 70
     1
102
RTVSPropertyOp8
 70
     1
102
RTVSPropertyOp9
 70
     1
102
RTVSPropertyOp10
 70
     1
102
RTVSPropertyOp11
 70
     1
102
RTVSPropertyOp12
 70
     1
102
RTVSPropertyOp13
 70
     1
102
RTVSPropertyOp14
 70
     1
102
RTVSPropertyOp15
 70
     1
102
RTVSPropertyOp16
 70
     1
102
RTVSPropertyOp17
 70
     1
102
RTVSPropertyOp18
 70
     1
102
RTVSPropertyOp19
 70
     1
102
RTVSPropertyOp20
 70
     1
102
RTVSPropertyOp21
 70
     1
102
RTVSPropertyOp22
 70
     1
102
RTVSPropertyOp23
 70
     1
102
RTVSPropertyOp24
 70
     1
102
RTVSPropertyOp25
 70
     1
102
RTVSPropertyOp26
 70
     1
102
RTVSPropertyOp27
 70
     1
102
RTVSPropertyOp28
 70
     1
102
RTVSPropertyOp29
 70
     1
102
RTVSPropertyOp30
 70
     1
102
RTVSPropertyOp31
 70
     1
102
RTVSPropertyOp32
 70
     1
  0
XRECORD
  5
C07
102
{ACAD_REACTORS
330
C06
102
}
330
C06
100
AcDbXrecord
280
     1
102
RTVSPropertyOp0
 70
     1
102
RTVSPropertyOp1
 70
     1
102
RTVSPropertyOp2
 70
     1
102
RTVSPropertyOp3
 70
     1
102
RTVSPropertyOp4
 70
     1
102
RTVSPropertyOp5
 70
     1
102
RTVSPropertyOp6
 70
     1
102
RTVSPropertyOp7
 70
     1
102
RTVSPropertyOp8
 70
     1
102
RTVSPropertyOp9
 70
     1
102
RTVSPropertyOp10
 70
     1
102
RTVSPropertyOp11
 70
     1
102
RTVSPropertyOp12
 70
     1
102
RTVSPropertyOp13
 70
     1
102
RTVSPropertyOp14
 70
     1
102
RTVSPropertyOp15
 70
     1
102
RTVSPropertyOp16
 70
     1
102
RTVSPropertyOp17
 70
     1
102
RTVSPropertyOp18
 70
     1
102
RTVSPropertyOp19
 70
     1
102
RTVSPropertyOp20
 70
     1
102
RTVSPropertyOp21
 70
     1
102
RTVSPropertyOp22
 70
     1
102
RTVSPropertyOp23
 70
     1
102
RTVSPropertyOp24
 70
     1
102
RTVSPropertyOp25
 70
     1
102
RTVSPropertyOp26
 70
     1
102
RTVSPropertyOp27
 70
     1
102
RTVSPropertyOp28
 70
     1
102
RTVSPropertyOp29
 70
     1
102
RTVSPropertyOp30
 70
     1
102
RTVSPropertyOp31
 70
     1
102
RTVSPropertyOp32
 70
     1
  0
XRECORD
  5
C0B
102
{ACAD_REACTORS
330
C0A
102
}
330
C0A
100
AcDbXrecord
280
     1
102
RTVSPropertyOp0
 70
     1
102
RTVSPropertyOp1
 70
     1
102
RTVSPropertyOp2
 70
     1
102
RTVSPropertyOp3
 70
     1
102
RTVSPropertyOp4
 70
     1
102
RTVSPropertyOp5
 70
     1
102
RTVSPropertyOp6
 70
     1
102
RTVSPropertyOp7
 70
     1
102
RTVSPropertyOp8
 70
     1
102
RTVSPropertyOp9
 70
     1
102
RTVSPropertyOp10
 70
     1
102
RTVSPropertyOp11
 70
     1
102
RTVSPropertyOp12
 70
     1
102
RTVSPropertyOp13
 70
     1
102
RTVSPropertyOp14
 70
     1
102
RTVSPropertyOp15
 70
     1
102
RTVSPropertyOp16
 70
     1
102
RTVSPropertyOp17
 70
     1
102
RTVSPropertyOp18
 70
     1
102
RTVSPropertyOp19
 70
     1
102
RTVSPropertyOp20
 70
     1
102
RTVSPropertyOp21
 70
     1
102
RTVSPropertyOp22
 70
     1
102
RTVSPropertyOp23
 70
     1
102
RTVSPropertyOp24
 70
     1
102
RTVSPropertyOp25
 70
     1
102
RTVSPropertyOp26
 70
     1
102
RTVSPropertyOp27
 70
     1
102
RTVSPropertyOp28
 70
     1
102
RTVSPropertyOp29
 70
     1
102
RTVSPropertyOp30
 70
     1
102
RTVSPropertyOp31
 70
     1
102
RTVSPropertyOp32
 70
     1
  0
XRECORD
  5
C29
102
{ACAD_REACTORS
330
C28
102
}
330
C28
100
AcDbXrecord
280
     1
102
RTVSPropertyOp0
 70
     0
102
RTVSPropertyOp1
 70
     0
102
RTVSPropertyOp2
 70
     0
102
RTVSPropertyOp3
 70
     0
102
RTVSPropertyOp4
 70
     0
102
RTVSPropertyOp5
 70
     0
102
RTVSPropertyOp6
 70
     0
102
RTVSPropertyOp7
 70
     0
102
RTVSPropertyOp8
 70
     0
102
RTVSPropertyOp9
 70
     0
102
RTVSPropertyOp10
 70
     0
102
RTVSPropertyOp11
 70
     0
102
RTVSPropertyOp12
 70
     0
102
RTVSPropertyOp13
 70
     0
102
RTVSPropertyOp14
 70
     2
102
RTVSPropertyOp15
 70
     0
102
RTVSPropertyOp16
 70
     0
102
RTVSPropertyOp17
 70
     0
102
RTVSPropertyOp18
 70
     0
102
RTVSPropertyOp19
 70
     0
102
RTVSPropertyOp20
 70
     0
102
RTVSPropertyOp21
 70
     0
102
RTVSPropertyOp22
 70
     0
102
RTVSPropertyOp23
 70
     0
102
RTVSPropertyOp24
 70
     0
102
RTVSPropertyOp25
 70
     0
102
RTVSPropertyOp26
 70
     0
102
RTVSPropertyOp27
 70
     0
102
RTVSPropertyOp28
 70
     1
102
RTVSPropertyOp29
 70
     1
102
RTVSPropertyOp30
 70
     1
102
RTVSPropertyOp31
 70
     1
102
RTVSPropertyOp32
 70
     1
  0
XRECORD
  5
C13
102
{ACAD_REACTORS
330
C12
102
}
330
C12
100
AcDbXrecord
280
     1
102
RTVSPropertyOp0
 70
     1
102
RTVSPropertyOp1
 70
     1
102
RTVSPropertyOp2
 70
     1
102
RTVSPropertyOp3
 70
     1
102
RTVSPropertyOp4
 70
     1
102
RTVSPropertyOp5
 70
     1
102
RTVSPropertyOp6
 70
     1
102
RTVSPropertyOp7
 70
     1
102
RTVSPropertyOp8
 70
     1
102
RTVSPropertyOp9
 70
     1
102
RTVSPropertyOp10
 70
     1
102
RTVSPropertyOp11
 70
     1
102
RTVSPropertyOp12
 70
     1
102
RTVSPropertyOp13
 70
     1
102
RTVSPropertyOp14
 70
     1
102
RTVSPropertyOp15
 70
     1
102
RTVSPropertyOp16
 70
     1
102
RTVSPropertyOp17
 70
     1
102
RTVSPropertyOp18
 70
     1
102
RTVSPropertyOp19
 70
     1
102
RTVSPropertyOp20
 70
     1
102
RTVSPropertyOp21
 70
     1
102
RTVSPropertyOp22
 70
     1
102
RTVSPropertyOp23
 70
     1
102
RTVSPropertyOp24
 70
     1
102
RTVSPropertyOp25
 70
     1
102
RTVSPropertyOp26
 70
     1
102
RTVSPropertyOp27
 70
     1
102
RTVSPropertyOp28
 70
     1
102
RTVSPropertyOp29
 70
     1
102
RTVSPropertyOp30
 70
     1
102
RTVSPropertyOp31
 70
     1
102
RTVSPropertyOp32
 70
     1
  0
XRECORD
  5
BF7
102
{ACAD_REACTORS
330
BF6
102
}
330
BF6
100
AcDbXrecord
280
     1
102
RTVSPropertyOp0
 70
     1
102
RTVSPropertyOp1
 70
     1
102
RTVSPropertyOp2
 70
     1
102
RTVSPropertyOp3
 70
     1
102
RTVSPropertyOp4
 70
     1
102
RTVSPropertyOp5
 70
     1
102
RTVSPropertyOp6
 70
     1
102
RTVSPropertyOp7
 70
     1
102
RTVSPropertyOp8
 70
     1
102
RTVSPropertyOp9
 70
     1
102
RTVSPropertyOp10
 70
     1
102
RTVSPropertyOp11
 70
     1
102
RTVSPropertyOp12
 70
     1
102
RTVSPropertyOp13
 70
     1
102
RTVSPropertyOp14
 70
     1
102
RTVSPropertyOp15
 70
     1
102
RTVSPropertyOp16
 70
     1
102
RTVSPropertyOp17
 70
     1
102
RTVSPropertyOp18
 70
     1
102
RTVSPropertyOp19
 70
     1
102
RTVSPropertyOp20
 70
     1
102
RTVSPropertyOp21
 70
     1
102
RTVSPropertyOp22
 70
     1
102
RTVSPropertyOp23
 70
     1
102
RTVSPropertyOp24
 70
     1
102
RTVSPropertyOp25
 70
     1
102
RTVSPropertyOp26
 70
     1
102
RTVSPropertyOp27
 70
     1
102
RTVSPropertyOp28
 70
     1
102
RTVSPropertyOp29
 70
     1
102
RTVSPropertyOp30
 70
     1
102
RTVSPropertyOp31
 70
     1
102
RTVSPropertyOp32
 70
     1
  0
XRECORD
  5
BF9
102
{ACAD_REACTORS
330
BF8
102
}
330
BF8
100
AcDbXrecord
280
     1
102
RTVSPropertyOp0
 70
     1
102
RTVSPropertyOp1
 70
     1
102
RTVSPropertyOp2
 70
     1
102
RTVSPropertyOp3
 70
     1
102
RTVSPropertyOp4
 70
     1
102
RTVSPropertyOp5
 70
     1
102
RTVSPropertyOp6
 70
     1
102
RTVSPropertyOp7
 70
     1
102
RTVSPropertyOp8
 70
     1
102
RTVSPropertyOp9
 70
     1
102
RTVSPropertyOp10
 70
     1
102
RTVSPropertyOp11
 70
     1
102
RTVSPropertyOp12
 70
     1
102
RTVSPropertyOp13
 70
     1
102
RTVSPropertyOp14
 70
     1
102
RTVSPropertyOp15
 70
     1
102
RTVSPropertyOp16
 70
     1
102
RTVSPropertyOp17
 70
     1
102
RTVSPropertyOp18
 70
     1
102
RTVSPropertyOp19
 70
     1
102
RTVSPropertyOp20
 70
     1
102
RTVSPropertyOp21
 70
     1
102
RTVSPropertyOp22
 70
     1
102
RTVSPropertyOp23
 70
     1
102
RTVSPropertyOp24
 70
     1
102
RTVSPropertyOp25
 70
     1
102
RTVSPropertyOp26
 70
     1
102
RTVSPropertyOp27
 70
     1
102
RTVSPropertyOp28
 70
     1
102
RTVSPropertyOp29
 70
     1
102
RTVSPropertyOp30
 70
     1
102
RTVSPropertyOp31
 70
     1
102
RTVSPropertyOp32
 70
     1
  0
XRECORD
  5
BFB
102
{ACAD_REACTORS
330
BFA
102
}
330
BFA
100
AcDbXrecord
280
     1
102
RTVSPropertyOp0
 70
     1
102
RTVSPropertyOp1
 70
     1
102
RTVSPropertyOp2
 70
     1
102
RTVSPropertyOp3
 70
     1
102
RTVSPropertyOp4
 70
     1
102
RTVSPropertyOp5
 70
     1
102
RTVSPropertyOp6
 70
     1
102
RTVSPropertyOp7
 70
     1
102
RTVSPropertyOp8
 70
     1
102
RTVSPropertyOp9
 70
     1
102
RTVSPropertyOp10
 70
     1
102
RTVSPropertyOp11
 70
     1
102
RTVSPropertyOp12
 70
     1
102
RTVSPropertyOp13
 70
     1
102
RTVSPropertyOp14
 70
     1
102
RTVSPropertyOp15
 70
     1
102
RTVSPropertyOp16
 70
     1
102
RTVSPropertyOp17
 70
     1
102
RTVSPropertyOp18
 70
     1
102
RTVSPropertyOp19
 70
     1
102
RTVSPropertyOp20
 70
     1
102
RTVSPropertyOp21
 70
     1
102
RTVSPropertyOp22
 70
     1
102
RTVSPropertyOp23
 70
     1
102
RTVSPropertyOp24
 70
     1
102
RTVSPropertyOp25
 70
     1
102
RTVSPropertyOp26
 70
     1
102
RTVSPropertyOp27
 70
     1
102
RTVSPropertyOp28
 70
     1
102
RTVSPropertyOp29
 70
     1
102
RTVSPropertyOp30
 70
     1
102
RTVSPropertyOp31
 70
     1
102
RTVSPropertyOp32
 70
     1
  0
XRECORD
  5
BFD
102
{ACAD_REACTORS
330
BFC
102
}
330
BFC
100
AcDbXrecord
280
     1
102
RTVSPropertyOp0
 70
     1
102
RTVSPropertyOp1
 70
     1
102
RTVSPropertyOp2
 70
     1
102
RTVSPropertyOp3
 70
     1
102
RTVSPropertyOp4
 70
     1
102
RTVSPropertyOp5
 70
     1
102
RTVSPropertyOp6
 70
     1
102
RTVSPropertyOp7
 70
     1
102
RTVSPropertyOp8
 70
     1
102
RTVSPropertyOp9
 70
     1
102
RTVSPropertyOp10
 70
     1
102
RTVSPropertyOp11
 70
     1
102
RTVSPropertyOp12
 70
     1
102
RTVSPropertyOp13
 70
     1
102
RTVSPropertyOp14
 70
     1
102
RTVSPropertyOp15
 70
     1
102
RTVSPropertyOp16
 70
     1
102
RTVSPropertyOp17
 70
     1
102
RTVSPropertyOp18
 70
     1
102
RTVSPropertyOp19
 70
     1
102
RTVSPropertyOp20
 70
     1
102
RTVSPropertyOp21
 70
     1
102
RTVSPropertyOp22
 70
     1
102
RTVSPropertyOp23
 70
     1
102
RTVSPropertyOp24
 70
     1
102
RTVSPropertyOp25
 70
     1
102
RTVSPropertyOp26
 70
     1
102
RTVSPropertyOp27
 70
     1
102
RTVSPropertyOp28
 70
     1
102
RTVSPropertyOp29
 70
     1
102
RTVSPropertyOp30
 70
     1
102
RTVSPropertyOp31
 70
     1
102
RTVSPropertyOp32
 70
     1
  0
XRECORD
  5
C19
102
{ACAD_REACTORS
330
C18
102
}
330
C18
100
AcDbXrecord
280
     1
102
RTVSPropertyOp0
 70
     1
102
RTVSPropertyOp1
 70
     1
102
RTVSPropertyOp2
 70
     1
102
RTVSPropertyOp3
 70
     1
102
RTVSPropertyOp4
 70
     1
102
RTVSPropertyOp5
 70
     1
102
RTVSPropertyOp6
 70
     1
102
RTVSPropertyOp7
 70
     1
102
RTVSPropertyOp8
 70
     1
102
RTVSPropertyOp9
 70
     1
102
RTVSPropertyOp10
 70
     1
102
RTVSPropertyOp11
 70
     1
102
RTVSPropertyOp12
 70
     1
102
RTVSPropertyOp13
 70
     1
102
RTVSPropertyOp14
 70
     1
102
RTVSPropertyOp15
 70
     1
102
RTVSPropertyOp16
 70
     1
102
RTVSPropertyOp17
 70
     1
102
RTVSPropertyOp18
 70
     1
102
RTVSPropertyOp19
 70
     1
102
RTVSPropertyOp20
 70
     1
102
RTVSPropertyOp21
 70
     1
102
RTVSPropertyOp22
 70
     1
102
RTVSPropertyOp23
 70
     1
102
RTVSPropertyOp24
 70
     1
102
RTVSPropertyOp25
 70
     1
102
RTVSPropertyOp26
 70
     1
102
RTVSPropertyOp27
 70
     1
102
RTVSPropertyOp28
 70
     1
102
RTVSPropertyOp29
 70
     1
102
RTVSPropertyOp30
 70
     1
102
RTVSPropertyOp31
 70
     1
102
RTVSPropertyOp32
 70
     1
  0
XRECORD
  5
C25
102
{ACAD_REACTORS
330
C24
102
}
330
C24
100
AcDbXrecord
280
     1
102
RTVSPropertyOp0
 70
     0
102
RTVSPropertyOp1
 70
     0
102
RTVSPropertyOp2
 70
     0
102
RTVSPropertyOp3
 70
     0
102
RTVSPropertyOp4
 70
     0
102
RTVSPropertyOp5
 70
     0
102
RTVSPropertyOp6
 70
     0
102
RTVSPropertyOp7
 70
     0
102
RTVSPropertyOp8
 70
     0
102
RTVSPropertyOp9
 70
     0
102
RTVSPropertyOp10
 70
     0
102
RTVSPropertyOp11
 70
     0
102
RTVSPropertyOp12
 70
     0
102
RTVSPropertyOp13
 70
     0
102
RTVSPropertyOp14
 70
     2
102
RTVSPropertyOp15
 70
     0
102
RTVSPropertyOp16
 70
     0
102
RTVSPropertyOp17
 70
     0
102
RTVSPropertyOp18
 70
     0
102
RTVSPropertyOp19
 70
     0
102
RTVSPropertyOp20
 70
     0
102
RTVSPropertyOp21
 70
     0
102
RTVSPropertyOp22
 70
     0
102
RTVSPropertyOp23
 70
     0
102
RTVSPropertyOp24
 70
     0
102
RTVSPropertyOp25
 70
     0
102
RTVSPropertyOp26
 70
     0
102
RTVSPropertyOp27
 70
     0
102
RTVSPropertyOp28
 70
     1
102
RTVSPropertyOp29
 70
     1
102
RTVSPropertyOp30
 70
     1
102
RTVSPropertyOp31
 70
     1
102
RTVSPropertyOp32
 70
     1
  0
XRECORD
  5
C11
102
{ACAD_REACTORS
330
C10
102
}
330
C10
100
AcDbXrecord
280
     1
102
RTVSPropertyOp0
 70
     1
102
RTVSPropertyOp1
 70
     1
102
RTVSPropertyOp2
 70
     1
102
RTVSPropertyOp3
 70
     1
102
RTVSPropertyOp4
 70
     1
102
RTVSPropertyOp5
 70
     1
102
RTVSPropertyOp6
 70
     1
102
RTVSPropertyOp7
 70
     1
102
RTVSPropertyOp8
 70
     1
102
RTVSPropertyOp9
 70
     1
102
RTVSPropertyOp10
 70
     1
102
RTVSPropertyOp11
 70
     1
102
RTVSPropertyOp12
 70
     1
102
RTVSPropertyOp13
 70
     1
102
RTVSPropertyOp14
 70
     1
102
RTVSPropertyOp15
 70
     1
102
RTVSPropertyOp16
 70
     1
102
RTVSPropertyOp17
 70
     1
102
RTVSPropertyOp18
 70
     1
102
RTVSPropertyOp19
 70
     1
102
RTVSPropertyOp20
 70
     1
102
RTVSPropertyOp21
 70
     1
102
RTVSPropertyOp22
 70
     1
102
RTVSPropertyOp23
 70
     1
102
RTVSPropertyOp24
 70
     1
102
RTVSPropertyOp25
 70
     1
102
RTVSPropertyOp26
 70
     1
102
RTVSPropertyOp27
 70
     1
102
RTVSPropertyOp28
 70
     1
102
RTVSPropertyOp29
 70
     1
102
RTVSPropertyOp30
 70
     1
102
RTVSPropertyOp31
 70
     1
102
RTVSPropertyOp32
 70
     1
  0
XRECORD
  5
C27
102
{ACAD_REACTORS
330
C26
102
}
330
C26
100
AcDbXrecord
280
     1
102
RTVSPropertyOp0
 70
     0
102
RTVSPropertyOp1
 70
     0
102
RTVSPropertyOp2
 70
     0
102
RTVSPropertyOp3
 70
     0
102
RTVSPropertyOp4
 70
     0
102
RTVSPropertyOp5
 70
     0
102
RTVSPropertyOp6
 70
     0
102
RTVSPropertyOp7
 70
     0
102
RTVSPropertyOp8
 70
     0
102
RTVSPropertyOp9
 70
     0
102
RTVSPropertyOp10
 70
     0
102
RTVSPropertyOp11
 70
     0
102
RTVSPropertyOp12
 70
     0
102
RTVSPropertyOp13
 70
     0
102
RTVSPropertyOp14
 70
     2
102
RTVSPropertyOp15
 70
     0
102
RTVSPropertyOp16
 70
     0
102
RTVSPropertyOp17
 70
     0
102
RTVSPropertyOp18
 70
     0
102
RTVSPropertyOp19
 70
     0
102
RTVSPropertyOp20
 70
     0
102
RTVSPropertyOp21
 70
     0
102
RTVSPropertyOp22
 70
     0
102
RTVSPropertyOp23
 70
     0
102
RTVSPropertyOp24
 70
     0
102
RTVSPropertyOp25
 70
     0
102
RTVSPropertyOp26
 70
     0
102
RTVSPropertyOp27
 70
     0
102
RTVSPropertyOp28
 70
     1
102
RTVSPropertyOp29
 70
     1
102
RTVSPropertyOp30
 70
     1
102
RTVSPropertyOp31
 70
     1
102
RTVSPropertyOp32
 70
     1
  0
XRECORD
  5
C09
102
{ACAD_REACTORS
330
C08
102
}
330
C08
100
AcDbXrecord
280
     1
102
RTVSPropertyOp0
 70
     1
102
RTVSPropertyOp1
 70
     1
102
RTVSPropertyOp2
 70
     1
102
RTVSPropertyOp3
 70
     1
102
RTVSPropertyOp4
 70
     1
102
RTVSPropertyOp5
 70
     1
102
RTVSPropertyOp6
 70
     1
102
RTVSPropertyOp7
 70
     1
102
RTVSPropertyOp8
 70
     1
102
RTVSPropertyOp9
 70
     1
102
RTVSPropertyOp10
 70
     1
102
RTVSPropertyOp11
 70
     1
102
RTVSPropertyOp12
 70
     1
102
RTVSPropertyOp13
 70
     1
102
RTVSPropertyOp14
 70
     1
102
RTVSPropertyOp15
 70
     1
102
RTVSPropertyOp16
 70
     1
102
RTVSPropertyOp17
 70
     1
102
RTVSPropertyOp18
 70
     1
102
RTVSPropertyOp19
 70
     1
102
RTVSPropertyOp20
 70
     1
102
RTVSPropertyOp21
 70
     1
102
RTVSPropertyOp22
 70
     1
102
RTVSPropertyOp23
 70
     1
102
RTVSPropertyOp24
 70
     1
102
RTVSPropertyOp25
 70
     1
102
RTVSPropertyOp26
 70
     1
102
RTVSPropertyOp27
 70
     1
102
RTVSPropertyOp28
 70
     1
102
RTVSPropertyOp29
 70
     1
102
RTVSPropertyOp30
 70
     1
102
RTVSPropertyOp31
 70
     1
102
RTVSPropertyOp32
 70
     1
  0
XRECORD
  5
C23
102
{ACAD_REACTORS
330
C22
102
}
330
C22
100
AcDbXrecord
280
     1
102
RTVSPropertyOp0
 70
     1
102
RTVSPropertyOp1
 70
     1
102
RTVSPropertyOp2
 70
     1
102
RTVSPropertyOp3
 70
     1
102
RTVSPropertyOp4
 70
     1
102
RTVSPropertyOp5
 70
     1
102
RTVSPropertyOp6
 70
     1
102
RTVSPropertyOp7
 70
     1
102
RTVSPropertyOp8
 70
     1
102
RTVSPropertyOp9
 70
     1
102
RTVSPropertyOp10
 70
     1
102
RTVSPropertyOp11
 70
     1
102
RTVSPropertyOp12
 70
     1
102
RTVSPropertyOp13
 70
     1
102
RTVSPropertyOp14
 70
     1
102
RTVSPropertyOp15
 70
     1
102
RTVSPropertyOp16
 70
     1
102
RTVSPropertyOp17
 70
     1
102
RTVSPropertyOp18
 70
     1
102
RTVSPropertyOp19
 70
     1
102
RTVSPropertyOp20
 70
     1
102
RTVSPropertyOp21
 70
     1
102
RTVSPropertyOp22
 70
     1
102
RTVSPropertyOp23
 70
     1
102
RTVSPropertyOp24
 70
     1
102
RTVSPropertyOp25
 70
     1
102
RTVSPropertyOp26
 70
     1
102
RTVSPropertyOp27
 70
     1
102
RTVSPropertyOp28
 70
     1
102
RTVSPropertyOp29
 70
     1
102
RTVSPropertyOp30
 70
     1
102
RTVSPropertyOp31
 70
     1
102
RTVSPropertyOp32
 70
     1
  0
XRECORD
  5
C21
102
{ACAD_REACTORS
330
C20
102
}
330
C20
100
AcDbXrecord
280
     1
102
RTVSPropertyOp0
 70
     1
102
RTVSPropertyOp1
 70
     1
102
RTVSPropertyOp2
 70
     1
102
RTVSPropertyOp3
 70
     1
102
RTVSPropertyOp4
 70
     1
102
RTVSPropertyOp5
 70
     1
102
RTVSPropertyOp6
 70
     1
102
RTVSPropertyOp7
 70
     1
102
RTVSPropertyOp8
 70
     1
102
RTVSPropertyOp9
 70
     1
102
RTVSPropertyOp10
 70
     1
102
RTVSPropertyOp11
 70
     1
102
RTVSPropertyOp12
 70
     1
102
RTVSPropertyOp13
 70
     1
102
RTVSPropertyOp14
 70
     1
102
RTVSPropertyOp15
 70
     1
102
RTVSPropertyOp16
 70
     1
102
RTVSPropertyOp17
 70
     1
102
RTVSPropertyOp18
 70
     1
102
RTVSPropertyOp19
 70
     1
102
RTVSPropertyOp20
 70
     1
102
RTVSPropertyOp21
 70
     1
102
RTVSPropertyOp22
 70
     1
102
RTVSPropertyOp23
 70
     1
102
RTVSPropertyOp24
 70
     1
102
RTVSPropertyOp25
 70
     1
102
RTVSPropertyOp26
 70
     1
102
RTVSPropertyOp27
 70
     1
102
RTVSPropertyOp28
 70
     1
102
RTVSPropertyOp29
 70
     1
102
RTVSPropertyOp30
 70
     1
102
RTVSPropertyOp31
 70
     1
102
RTVSPropertyOp32
 70
     1
  0
XRECORD
  5
C1B
102
{ACAD_REACTORS
330
C1A
102
}
330
C1A
100
AcDbXrecord
280
     1
102
RTVSPropertyOp0
 70
     1
102
RTVSPropertyOp1
 70
     1
102
RTVSPropertyOp2
 70
     1
102
RTVSPropertyOp3
 70
     1
102
RTVSPropertyOp4
 70
     1
102
RTVSPropertyOp5
 70
     1
102
RTVSPropertyOp6
 70
     1
102
RTVSPropertyOp7
 70
     1
102
RTVSPropertyOp8
 70
     1
102
RTVSPropertyOp9
 70
     1
102
RTVSPropertyOp10
 70
     1
102
RTVSPropertyOp11
 70
     1
102
RTVSPropertyOp12
 70
     1
102
RTVSPropertyOp13
 70
     1
102
RTVSPropertyOp14
 70
     1
102
RTVSPropertyOp15
 70
     1
102
RTVSPropertyOp16
 70
     1
102
RTVSPropertyOp17
 70
     1
102
RTVSPropertyOp18
 70
     1
102
RTVSPropertyOp19
 70
     1
102
RTVSPropertyOp20
 70
     1
102
RTVSPropertyOp21
 70
     1
102
RTVSPropertyOp22
 70
     1
102
RTVSPropertyOp23
 70
     1
102
RTVSPropertyOp24
 70
     1
102
RTVSPropertyOp25
 70
     1
102
RTVSPropertyOp26
 70
     1
102
RTVSPropertyOp27
 70
     1
102
RTVSPropertyOp28
 70
     1
102
RTVSPropertyOp29
 70
     1
102
RTVSPropertyOp30
 70
     1
102
RTVSPropertyOp31
 70
     1
102
RTVSPropertyOp32
 70
     1
  0
XRECORD
  5
C1D
102
{ACAD_REACTORS
330
C1C
102
}
330
C1C
100
AcDbXrecord
280
     1
102
RTVSPropertyOp0
 70
     1
102
RTVSPropertyOp1
 70
     1
102
RTVSPropertyOp2
 70
     1
102
RTVSPropertyOp3
 70
     1
102
RTVSPropertyOp4
 70
     1
102
RTVSPropertyOp5
 70
     1
102
RTVSPropertyOp6
 70
     1
102
RTVSPropertyOp7
 70
     1
102
RTVSPropertyOp8
 70
     1
102
RTVSPropertyOp9
 70
     1
102
RTVSPropertyOp10
 70
     1
102
RTVSPropertyOp11
 70
     1
102
RTVSPropertyOp12
 70
     1
102
RTVSPropertyOp13
 70
     1
102
RTVSPropertyOp14
 70
     1
102
RTVSPropertyOp15
 70
     1
102
RTVSPropertyOp16
 70
     1
102
RTVSPropertyOp17
 70
     1
102
RTVSPropertyOp18
 70
     1
102
RTVSPropertyOp19
 70
     1
102
RTVSPropertyOp20
 70
     1
102
RTVSPropertyOp21
 70
     1
102
RTVSPropertyOp22
 70
     1
102
RTVSPropertyOp23
 70
     1
102
RTVSPropertyOp24
 70
     1
102
RTVSPropertyOp25
 70
     1
102
RTVSPropertyOp26
 70
     1
102
RTVSPropertyOp27
 70
     1
102
RTVSPropertyOp28
 70
     1
102
RTVSPropertyOp29
 70
     1
102
RTVSPropertyOp30
 70
     1
102
RTVSPropertyOp31
 70
     1
102
RTVSPropertyOp32
 70
     1
  0
XRECORD
  5
C0F
102
{ACAD_REACTORS
330
C0E
102
}
330
C0E
100
AcDbXrecord
280
     1
102
RTVSPropertyOp0
 70
     1
102
RTVSPropertyOp1
 70
     1
102
RTVSPropertyOp2
 70
     1
102
RTVSPropertyOp3
 70
     1
102
RTVSPropertyOp4
 70
     1
102
RTVSPropertyOp5
 70
     1
102
RTVSPropertyOp6
 70
     1
102
RTVSPropertyOp7
 70
     1
102
RTVSPropertyOp8
 70
     1
102
RTVSPropertyOp9
 70
     1
102
RTVSPropertyOp10
 70
     1
102
RTVSPropertyOp11
 70
     1
102
RTVSPropertyOp12
 70
     1
102
RTVSPropertyOp13
 70
     1
102
RTVSPropertyOp14
 70
     1
102
RTVSPropertyOp15
 70
     1
102
RTVSPropertyOp16
 70
     1
102
RTVSPropertyOp17
 70
     1
102
RTVSPropertyOp18
 70
     1
102
RTVSPropertyOp19
 70
     1
102
RTVSPropertyOp20
 70
     1
102
RTVSPropertyOp21
 70
     1
102
RTVSPropertyOp22
 70
     1
102
RTVSPropertyOp23
 70
     1
102
RTVSPropertyOp24
 70
     1
102
RTVSPropertyOp25
 70
     1
102
RTVSPropertyOp26
 70
     1
102
RTVSPropertyOp27
 70
     1
102
RTVSPropertyOp28
 70
     1
102
RTVSPropertyOp29
 70
     1
102
RTVSPropertyOp30
 70
     1
102
RTVSPropertyOp31
 70
     1
102
RTVSPropertyOp32
 70
     1
  0
XRECORD
  5
C17
102
{ACAD_REACTORS
330
C16
102
}
330
C16
100
AcDbXrecord
280
     1
102
RTVSPropertyOp0
 70
     1
102
RTVSPropertyOp1
 70
     1
102
RTVSPropertyOp2
 70
     1
102
RTVSPropertyOp3
 70
     1
102
RTVSPropertyOp4
 70
     1
102
RTVSPropertyOp5
 70
     1
102
RTVSPropertyOp6
 70
     1
102
RTVSPropertyOp7
 70
     1
102
RTVSPropertyOp8
 70
     1
102
RTVSPropertyOp9
 70
     1
102
RTVSPropertyOp10
 70
     1
102
RTVSPropertyOp11
 70
     1
102
RTVSPropertyOp12
 70
     1
102
RTVSPropertyOp13
 70
     1
102
RTVSPropertyOp14
 70
     1
102
RTVSPropertyOp15
 70
     1
102
RTVSPropertyOp16
 70
     1
102
RTVSPropertyOp17
 70
     1
102
RTVSPropertyOp18
 70
     1
102
RTVSPropertyOp19
 70
     1
102
RTVSPropertyOp20
 70
     1
102
RTVSPropertyOp21
 70
     1
102
RTVSPropertyOp22
 70
     1
102
RTVSPropertyOp23
 70
     1
102
RTVSPropertyOp24
 70
     1
102
RTVSPropertyOp25
 70
     1
102
RTVSPropertyOp26
 70
     1
102
RTVSPropertyOp27
 70
     1
102
RTVSPropertyOp28
 70
     1
102
RTVSPropertyOp29
 70
     1
102
RTVSPropertyOp30
 70
     1
102
RTVSPropertyOp31
 70
     1
102
RTVSPropertyOp32
 70
     1
  0
XRECORD
  5
C1F
102
{ACAD_REACTORS
330
C1E
102
}
330
C1E
100
AcDbXrecord
280
     1
102
RTVSPropertyOp0
 70
     1
102
RTVSPropertyOp1
 70
     1
102
RTVSPropertyOp2
 70
     1
102
RTVSPropertyOp3
 70
     1
102
RTVSPropertyOp4
 70
     1
102
RTVSPropertyOp5
 70
     1
102
RTVSPropertyOp6
 70
     1
102
RTVSPropertyOp7
 70
     1
102
RTVSPropertyOp8
 70
     1
102
RTVSPropertyOp9
 70
     1
102
RTVSPropertyOp10
 70
     1
102
RTVSPropertyOp11
 70
     1
102
RTVSPropertyOp12
 70
     1
102
RTVSPropertyOp13
 70
     1
102
RTVSPropertyOp14
 70
     1
102
RTVSPropertyOp15
 70
     1
102
RTVSPropertyOp16
 70
     1
102
RTVSPropertyOp17
 70
     1
102
RTVSPropertyOp18
 70
     1
102
RTVSPropertyOp19
 70
     1
102
RTVSPropertyOp20
 70
     1
102
RTVSPropertyOp21
 70
     1
102
RTVSPropertyOp22
 70
     1
102
RTVSPropertyOp23
 70
     1
102
RTVSPropertyOp24
 70
     1
102
RTVSPropertyOp25
 70
     1
102
RTVSPropertyOp26
 70
     1
102
RTVSPropertyOp27
 70
     1
102
RTVSPropertyOp28
 70
     1
102
RTVSPropertyOp29
 70
     1
102
RTVSPropertyOp30
 70
     1
102
RTVSPropertyOp31
 70
     1
102
RTVSPropertyOp32
 70
     1
  0
ENDSEC
  0
EOF
