  0
SECTION
  2
HEADER
  9
$ACADVER
  1
AC1015
  9
$ACADMAINTVER
 70
    20
  9
$DWGCODEPAGE
  3
ANSI_1252
  9
$INSBASE
 10
0.0
 20
0.0
 30
0.0
  9
$EXTMIN
 10
0.0
 20
0.0
 30
0.0
  9
$EXTMAX
 10
67.85899319401801
 20
42.16016963571056
 30
0.0
  9
$LIMMIN
 10
0.0
 20
0.0
  9
$LIMMAX
 10
12.0
 20
9.0
  9
$ORTHOMODE
 70
     0
  9
$REGENMODE
 70
     1
  9
$FILLMODE
 70
     1
  9
$QTEXTMODE
 70
     0
  9
$MIRRTEXT
 70
     1
  9
$LTSCALE
 40
0.5
  9
$ATTMODE
 70
     1
  9
$TEXTSIZE
 40
0.25
  9
$TRACEWID
 40
0.05
  9
$TEXTSTYLE
  7
STANDARD
  9
$CLAYER
  8
0
  9
$CELTYPE
  6
BYLAYER
  9
$CECOLOR
 62
   256
  9
$CELTSCALE
 40
1.0
  9
$DISPSILH
 70
     0
  9
$DIMSCALE
 40
1.0
  9
$DIMASZ
 40
0.2
  9
$DIMEXO
 40
0.125
  9
$DIMDLI
 40
0.375
  9
$DIMRND
 40
0.0
  9
$DIMDLE
 40
0.0
  9
$DIMEXE
 40
0.125
  9
$DIMTP
 40
0.0
  9
$DIMTM
 40
0.0
  9
$DIMTXT
 40
0.25
  9
$DIMCEN
 40
0.0
  9
$DIMTSZ
 40
0.0
  9
$DIMTOL
 70
     0
  9
$DIMLIM
 70
     0
  9
$DIMTIH
 70
     0
  9
$DIMTOH
 70
     0
  9
$DIMSE1
 70
     0
  9
$DIMSE2
 70
     0
  9
$DIMTAD
 70
     1
  9
$DIMZIN
 70
     3
  9
$DIMBLK
  1

  9
$DIMASO
 70
     1
  9
$DIMSHO
 70
     1
  9
$DIMPOST
  1

  9
$DIMAPOST
  1

  9
$DIMALT
 70
     0
  9
$DIMALTD
 70
     2
  9
$DIMALTF
 40
25.4
  9
$DIMLFAC
 40
1.0
  9
$DIMTOFL
 70
     0
  9
$DIMTVP
 40
0.0
  9
$DIMTIX
 70
     0
  9
$DIMSOXD
 70
     0
  9
$DIMSAH
 70
     0
  9
$DIMBLK1
  1

  9
$DIMBLK2
  1

  9
$DIMSTYLE
  2
STANDARD
  9
$DIMCLRD
 70
     0
  9
$DIMCLRE
 70
     0
  9
$DIMCLRT
 70
     0
  9
$DIMTFAC
 40
1.0
  9
$DIMGAP
 40
0.125
  9
$DIMJUST
 70
     0
  9
$DIMSD1
 70
     0
  9
$DIMSD2
 70
     0
  9
$DIMTOLJ
 70
     1
  9
$DIMTZIN
 70
     3
  9
$DIMALTZ
 70
     3
  9
$DIMALTTZ
 70
     3
  9
$DIMUPT
 70
     0
  9
$DIMDEC
 70
     5
  9
$DIMTDEC
 70
     5
  9
$DIMALTU
 70
     4
  9
$DIMALTTD
 70
     2
  9
$DIMTXSTY
  7
STANDARD
  9
$DIMAUNIT
 70
     0
  9
$DIMADEC
 70
     0
  9
$DIMALTRND
 40
0.0
  9
$DIMAZIN
 70
     0
  9
$DIMDSEP
 70
    46
  9
$DIMATFIT
 70
     0
  9
$DIMFRAC
 70
     2
  9
$DIMLDRBLK
  1

  9
$DIMLUNIT
 70
     4
  9
$DIMLWD
 70
    -2
  9
$DIMLWE
 70
    -2
  9
$DIMTMOVE
 70
     0
  9
$LUNITS
 70
     2
  9
$LUPREC
 70
     5
  9
$SKETCHINC
 40
0.1
  9
$FILLETRAD
 40
0.0
  9
$AUNITS
 70
     0
  9
$AUPREC
 70
     0
  9
$MENU
  1
ACAD
  9
$ELEVATION
 40
0.0
  9
$PELEVATION
 40
0.0
  9
$THICKNESS
 40
0.0
  9
$LIMCHECK
 70
     0
  9
$CHAMFERA
 40
0.0
  9
$CHAMFERB
 40
0.0
  9
$CHAMFERC
 40
0.0
  9
$CHAMFERD
 40
0.0
  9
$SKPOLY
 70
     0
  9
$TDCREATE
 40
2450777.537570949
  9
$TDUCREATE
 40
2450777.745904282
  9
$TDUPDATE
 40
2457807.530866956
  9
$TDUUPDATE
 40
2457807.739200289
  9
$TDINDWG
 40
0.8252474306
  9
$TDUSRTIMER
 40
0.8252474306
  9
$USRTIMER
 70
     1
  9
$ANGBASE
 50
0.0
  9
$ANGDIR
 70
     0
  9
$PDMODE
 70
     0
  9
$PDSIZE
 40
0.0
  9
$PLINEWID
 40
0.0
  9
$SPLFRAME
 70
     0
  9
$SPLINETYPE
 70
     6
  9
$SPLINESEGS
 70
     8
  9
$HANDSEED
  5
7FD6
  9
$SURFTAB1
 70
     6
  9
$SURFTAB2
 70
     6
  9
$SURFTYPE
 70
     6
  9
$SURFU
 70
     6
  9
$SURFV
 70
     6
  9
$UCSBASE
  2

  9
$UCSNAME
  2

  9
$UCSORG
 10
0.0
 20
0.0
 30
0.0
  9
$UCSXDIR
 10
1.0
 20
0.0
 30
0.0
  9
$UCSYDIR
 10
0.0
 20
1.0
 30
0.0
  9
$UCSORTHOREF
  2

  9
$UCSORTHOVIEW
 70
     0
  9
$UCSORGTOP
 10
0.0
 20
0.0
 30
0.0
  9
$UCSORGBOTTOM
 10
0.0
 20
0.0
 30
0.0
  9
$UCSORGLEFT
 10
0.0
 20
0.0
 30
0.0
  9
$UCSORGRIGHT
 10
0.0
 20
0.0
 30
0.0
  9
$UCSORGFRONT
 10
0.0
 20
0.0
 30
0.0
  9
$UCSORGBACK
 10
0.0
 20
0.0
 30
0.0
  9
$PUCSBASE
  2

  9
$PUCSNAME
  2

  9
$PUCSORG
 10
0.0
 20
0.0
 30
0.0
  9
$PUCSXDIR
 10
1.0
 20
0.0
 30
0.0
  9
$PUCSYDIR
 10
0.0
 20
1.0
 30
0.0
  9
$PUCSORTHOREF
  2

  9
$PUCSORTHOVIEW
 70
     0
  9
$PUCSORGTOP
 10
0.0
 20
0.0
 30
0.0
  9
$PUCSORGBOTTOM
 10
0.0
 20
0.0
 30
0.0
  9
$PUCSORGLEFT
 10
0.0
 20
0.0
 30
0.0
  9
$PUCSORGRIGHT
 10
0.0
 20
0.0
 30
0.0
  9
$PUCSORGFRONT
 10
0.0
 20
0.0
 30
0.0
  9
$PUCSORGBACK
 10
0.0
 20
0.0
 30
0.0
  9
$USERI1
 70
     0
  9
$USERI2
 70
     0
  9
$USERI3
 70
     0
  9
$USERI4
 70
     0
  9
$USERI5
 70
     0
  9
$USERR1
 40
0.0
  9
$USERR2
 40
0.0
  9
$USERR3
 40
0.0
  9
$USERR4
 40
0.0
  9
$USERR5
 40
0.0
  9
$WORLDVIEW
 70
     1
  9
$SHADEDGE
 70
     3
  9
$SHADEDIF
 70
    70
  9
$TILEMODE
 70
     1
  9
$MAXACTVP
 70
    16
  9
$PINSBASE
 10
0.0
 20
0.0
 30
0.0
  9
$PLIMCHECK
 70
     0
  9
$PEXTMIN
 10
1.000000000000000E+20
 20
1.000000000000000E+20
 30
1.000000000000000E+20
  9
$PEXTMAX
 10
-1.000000000000000E+20
 20
-1.000000000000000E+20
 30
-1.000000000000000E+20
  9
$PLIMMIN
 10
0.0
 20
0.0
  9
$PLIMMAX
 10
12.0
 20
9.0
  9
$UNITMODE
 70
     0
  9
$VISRETAIN
 70
     0
  9
$PLINEGEN
 70
     0
  9
$PSLTSCALE
 70
     1
  9
$TREEDEPTH
 70
  3020
  9
$CMLSTYLE
  2
STANDARD
  9
$CMLJUST
 70
     0
  9
$CMLSCALE
 40
1.0
  9
$PROXYGRAPHICS
 70
     1
  9
$MEASUREMENT
 70
     0
  9
$CELWEIGHT
370
    -1
  9
$ENDCAPS
280
     0
  9
$JOINSTYLE
280
     0
  9
$LWDISPLAY
290
     0
  9
$INSUNITS
 70
     0
  9
$HYPERLINKBASE
  1

  9
$STYLESHEET
  1
monochrome.ctb
  9
$XEDIT
290
     1
  9
$CEPSNTYPE
380
     0
  9
$PSTYLEMODE
290
     1
  9
$FINGERPRINTGUID
  2
{AFB9463B-F323-4607-850C-DC68DBB64F67}
  9
$VERSIONGUID
  2
{2FC99DC2-2E63-4F17-A2CD-01C3213633E1}
  9
$EXTNAMES
290
     1
  9
$PSVPSCALE
 40
0.0
  9
$OLESTARTUP
290
     0
  0
ENDSEC
  0
SECTION
  2
CLASSES
  0
CLASS
  1
DICTIONARYVAR
  2
AcDbDictionaryVar
  3
ObjectDBX Classes
 90
        0
280
     0
281
     0
  0
CLASS
  1
ACDBDICTIONARYWDFLT
  2
AcDbDictionaryWithDefault
  3
ObjectDBX Classes
 90
        0
280
     0
281
     0
  0
CLASS
  1
ACDBPLACEHOLDER
  2
AcDbPlaceHolder
  3
ObjectDBX Classes
 90
        0
280
     0
281
     0
  0
CLASS
  1
LAYOUT
  2
AcDbLayout
  3
ObjectDBX Classes
 90
        0
280
     0
281
     0
  0
CLASS
  1
MATERIAL
  2
AcDbMaterial
  3
ObjectDBX Classes
 90
     1153
280
     0
281
     0
  0
CLASS
  1
VISUALSTYLE
  2
AcDbVisualStyle
  3
ObjectDBX Classes
 90
     4095
280
     0
281
     0
  0
CLASS
  1
TABLESTYLE
  2
AcDbTableStyle
  3
ObjectDBX Classes
 90
     4095
280
     0
281
     0
  0
CLASS
  1
SCALE
  2
AcDbScale
  3
ObjectDBX Classes
 90
     1153
280
     0
281
     0
  0
CLASS
  1
MLEADERSTYLE
  2
AcDbMLeaderStyle
  3
ACDB_MLEADERSTYLE_CLASS
 90
     4095
280
     0
281
     0
  0
CLASS
  1
SORTENTSTABLE
  2
AcDbSortentsTable
  3
ObjectDBX Classes
 90
        0
280
     0
281
     0
  0
CLASS
  1
CELLSTYLEMAP
  2
AcDbCellStyleMap
  3
ObjectDBX Classes
 90
     1152
280
     0
281
     0
  0
CLASS
  1
EXACXREFPANELOBJECT
  2
ExAcXREFPanelObject
  3
EXAC_ESW
 90
     1025
280
     0
281
     0
  0
CLASS
  1
NPOCOLLECTION
  2
AcDbImpNonPersistentObjectsCollection
  3
ObjectDBX Classes
 90
     1153
280
     0
281
     0
  0
CLASS
  1
FIELD
  2
AcDbField
  3
ObjectDBX Classes
 90
    33920
280
     0
281
     0
  0
CLASS
  1
FIELDLIST
  2
AcDbFieldList
  3
ObjectDBX Classes
 90
     1152
280
     0
281
     0
  0
ENDSEC
  0
SECTION
  2
TABLES
  0
TABLE
  2
VPORT
  5
8
102
{ACAD_XDICTIONARY
360
76E7
102
}
330
0
100
AcDbSymbolTable
 70
     1
  0
VPORT
  5
763A
330
8
100
AcDbSymbolTableRecord
100
AcDbViewportTableRecord
  2
*Active
 70
     0
 10
0.0
 20
0.0
 11
1.0
 21
1.0
 12
47.17363358032164
 22
21.08008501418487
 13
0.0
 23
0.0
 14
1.0
 24
1.0
 15
0.0
 25
0.0
 16
0.0
 26
0.0
 36
1.0
 17
0.0
 27
0.0
 37
0.0
 40
42.56450438368688
 41
2.681260945709281
 42
50.0
 43
0.0
 44
0.0
 50
0.0
 51
0.0
 71
     0
 72
  2000
 73
     1
 74
     0
 75
     0
 76
     0
 77
     0
 78
     0
281
     0
 65
     1
110
0.0
120
0.0
130
0.0
111
1.0
121
0.0
131
0.0
112
0.0
122
1.0
132
0.0
 79
     0
146
0.0
1001
ACAD_NAV_VCDISPLAY
1070
     3
  0
ENDTAB
  0
TABLE
  2
LTYPE
  5
5
330
0
100
AcDbSymbolTable
 70
     5
  0
LTYPE
  5
11
330
5
100
AcDbSymbolTableRecord
100
AcDbLinetypeTableRecord
  2
BYBLOCK
 70
     0
  3

 72
    65
 73
     0
 40
0.0
  0
LTYPE
  5
12
330
5
100
AcDbSymbolTableRecord
100
AcDbLinetypeTableRecord
  2
BYLAYER
 70
     0
  3

 72
    65
 73
     0
 40
0.0
  0
LTYPE
  5
13
330
5
100
AcDbSymbolTableRecord
100
AcDbLinetypeTableRecord
  2
CONTINUOUS
 70
     0
  3
Solid line
 72
    65
 73
     0
 40
0.0
  0
LTYPE
  5
659A
330
5
100
AcDbSymbolTableRecord
100
AcDbLinetypeTableRecord
  2
CENTER
 70
     0
  3
____ _ ____ _ ____ _ ____ _ ____ _ ____ _ ____ 
 72
    65
 73
     4
 40
2.0
 49
1.25
 74
     0
 49
-0.25
 74
     0
 49
0.25
 74
     0
 49
-0.25
 74
     0
  0
LTYPE
  5
6BFA
330
5
100
AcDbSymbolTableRecord
100
AcDbLinetypeTableRecord
  2
HIDDEN
 70
     0
  3
__ __ __ __ __ __ __ __ __ __ __ __ __ __ __ __
 72
    65
 73
     2
 40
0.375
 49
0.25
 74
     0
 49
-0.125
 74
     0
  0
LTYPE
  5
7EE4
330
5
100
AcDbSymbolTableRecord
100
AcDbLinetypeTableRecord
  2
DASHED
 70
     0
  3
Dashed __ __ __ __ __ __ __ __ __ __ __ __ __ _
 72
    65
 73
     2
 40
0.75
 49
0.5
 74
     0
 49
-0.25
 74
     0
  0
LTYPE
  5
7EE5
330
5
100
AcDbSymbolTableRecord
100
AcDbLinetypeTableRecord
  2
DOT
 70
     0
  3
Dot . . . . . . . . . . . . . . . . . . . . . .
 72
    65
 73
     2
 40
0.25
 49
0.0
 74
     0
 49
-0.25
 74
     0
  0
ENDTAB
  0
TABLE
  2
LAYER
  5
2
102
{ACAD_XDICTIONARY
360
76D3
102
}
330
0
100
AcDbSymbolTable
 70
     9
  0
LAYER
  5
E
102
{ACAD_XDICTIONARY
360
775D
102
}
330
2
100
AcDbSymbolTableRecord
100
AcDbLayerTableRecord
  2
0
 70
     0
 62
     7
  6
CONTINUOUS
370
    -3
390
485B
  0
LAYER
  5
65A3
102
{ACAD_XDICTIONARY
360
775F
102
}
330
2
100
AcDbSymbolTableRecord
100
AcDbLayerTableRecord
  2
R-SWTS-DET1
 70
     0
 62
     1
  6
CONTINUOUS
370
    -3
390
485B
  0
LAYER
  5
65A4
102
{ACAD_XDICTIONARY
360
7761
102
}
330
2
100
AcDbSymbolTableRecord
100
AcDbLayerTableRecord
  2
PART_NUMBERS
 70
     0
 62
     6
  6
CONTINUOUS
370
    -3
390
485B
  0
LAYER
  5
65A5
102
{ACAD_XDICTIONARY
360
7763
102
}
330
2
100
AcDbSymbolTableRecord
100
AcDbLayerTableRecord
  2
R-ANNO-DIMS
 70
     0
 62
     3
  6
CONTINUOUS
370
    -3
390
485B
  0
LAYER
  5
65A6
102
{ACAD_XDICTIONARY
360
7765
102
}
330
2
100
AcDbSymbolTableRecord
100
AcDbLayerTableRecord
  2
R-SWTS-DET2
 70
     0
 62
     4
  6
CONTINUOUS
370
    -3
390
485B
  0
LAYER
  5
65A7
102
{ACAD_XDICTIONARY
360
7767
102
}
330
2
100
AcDbSymbolTableRecord
100
AcDbLayerTableRecord
  2
R-SWTS-DET3
 70
     0
 62
     5
  6
CONTINUOUS
370
    -3
390
485B
  0
LAYER
  5
6BFE
330
2
100
AcDbSymbolTableRecord
100
AcDbLayerTableRecord
  2
DEFPOINTS
 70
     0
 62
     7
  6
CONTINUOUS
290
     0
370
    -3
390
485B
  0
LAYER
  5
7740
102
{ACAD_XDICTIONARY
360
7741
102
}
330
2
100
AcDbSymbolTableRecord
100
AcDbLayerTableRecord
  2
TEXT
 70
     0
 62
     3
  6
CONTINUOUS
370
    -3
390
485B
  0
LAYER
  5
7EE6
330
2
100
AcDbSymbolTableRecord
100
AcDbLayerTableRecord
  2
Kawneer Logo-English
 70
     0
 62
     7
  6
CONTINUOUS
370
    -3
390
485B
1001
AcAecLayerStandard
1000

1000

1001
AcCmTransparency
1071
        0
  0
ENDTAB
  0
TABLE
  2
STYLE
  5
3
330
0
100
AcDbSymbolTable
 70
     1
  0
STYLE
  5
F
330
3
100
AcDbSymbolTableRecord
100
AcDbTextStyleTableRecord
  2
STANDARD
 70
     0
 40
0.0
 41
1.0
 50
0.0
 71
     0
 42
0.25
  3
arial.ttf
  4

1001
ACAD
1000
Arial
1071
       34
  0
ENDTAB
  0
TABLE
  2
VIEW
  5
6
330
0
100
AcDbSymbolTable
 70
     0
  0
ENDTAB
  0
TABLE
  2
UCS
  5
7
330
0
100
AcDbSymbolTable
 70
     0
  0
ENDTAB
  0
TABLE
  2
APPID
  5
9
330
0
100
AcDbSymbolTable
 70
    16
  0
APPID
  5
10
330
9
100
AcDbSymbolTableRecord
100
AcDbRegAppTableRecord
  2
ACAD
 70
     0
  0
APPID
  5
4AF6
330
9
100
AcDbSymbolTableRecord
100
AcDbRegAppTableRecord
  2
MCAD_NO_VIS
 70
     0
  0
APPID
  5
7744
330
9
100
AcDbSymbolTableRecord
100
AcDbRegAppTableRecord
  2
ACAD_NAV_VCDISPLAY
 70
     0
  0
APPID
  5
7EE7
330
9
100
AcDbSymbolTableRecord
100
AcDbRegAppTableRecord
  2
ACAD_EXEMPT_FROM_CAD_STANDARDS
 70
     0
  0
APPID
  5
7EE8
330
9
100
AcDbSymbolTableRecord
100
AcDbRegAppTableRecord
  2
GradientColor1ACI
 70
     0
  0
APPID
  5
7EE9
330
9
100
AcDbSymbolTableRecord
100
AcDbRegAppTableRecord
  2
GradientColor2ACI
 70
     0
  0
APPID
  5
7EEA
330
9
100
AcDbSymbolTableRecord
100
AcDbRegAppTableRecord
  2
ACAD_MLEADERVER
 70
     0
  0
APPID
  5
7EEB
330
9
100
AcDbSymbolTableRecord
100
AcDbRegAppTableRecord
  2
ACAD_PSEXT
 70
     0
  0
APPID
  5
7EEC
330
9
100
AcDbSymbolTableRecord
100
AcDbRegAppTableRecord
  2
ACAD_DSTYLE_DIMJAG
 70
     0
  0
APPID
  5
7EED
330
9
100
AcDbSymbolTableRecord
100
AcDbRegAppTableRecord
  2
ACAD_DSTYLE_DIMTALN
 70
     0
  0
APPID
  5
7EEE
330
9
100
AcDbSymbolTableRecord
100
AcDbRegAppTableRecord
  2
ACAD_DSTYLE_DIMBREAK
 70
     0
  0
APPID
  5
7EEF
330
9
100
AcDbSymbolTableRecord
100
AcDbRegAppTableRecord
  2
AcDbDynamicBlockGUID
 70
     0
  0
APPID
  5
7EF0
330
9
100
AcDbSymbolTableRecord
100
AcDbRegAppTableRecord
  2
ACAUTHENVIRON
 70
     0
  0
APPID
  5
7EF1
330
9
100
AcDbSymbolTableRecord
100
AcDbRegAppTableRecord
  2
AcDbDynamicBlockTrueName
 70
     0
  0
APPID
  5
7EF2
330
9
100
AcDbSymbolTableRecord
100
AcDbRegAppTableRecord
  2
AcAecLayerStandard
 70
     0
  0
APPID
  5
7EF3
330
9
100
AcDbSymbolTableRecord
100
AcDbRegAppTableRecord
  2
AcCmTransparency
 70
     0
  0
ENDTAB
  0
TABLE
  2
DIMSTYLE
  5
A
330
0
100
AcDbSymbolTable
 70
     4
100
AcDbDimStyleTable
 71
     1
340
26C
  0
DIMSTYLE
105
26C
330
A
100
AcDbSymbolTableRecord
100
AcDbDimStyleTableRecord
  2
STANDARD
 70
     0
340
F
  0
DIMSTYLE
105
6C04
102
{ACAD_REACTORS
330
6CF4
330
6CF6
330
6CF7
330
6D09
330
6D0D
330
6D0E
330
6D0F
330
6D10
330
6D27
330
6D31
330
6D32
102
}
330
A
100
AcDbSymbolTableRecord
100
AcDbDimStyleTableRecord
  2
SHOP_DETAILS_NORCROSS
 70
     0
  3
"
 41
0.2
 42
0.125
 43
0.375
 44
0.125
 73
     0
 74
     0
 76
     1
 77
     1
 78
     1
140
0.25
141
0.0
147
0.062
176
   256
177
   256
178
   256
276
     2
277
     5
284
     1
340
F
  0
DIMSTYLE
105
6C05
102
{ACAD_REACTORS
330
6CD0
330
6CD1
330
6CD2
330
6CD3
330
6CD6
330
6CDB
330
6CDC
330
6D50
330
6D52
330
6D53
330
6D55
330
6D57
330
6D5B
330
6D5D
102
}
330
A
100
AcDbSymbolTableRecord
100
AcDbDimStyleTableRecord
  2
NSD1$0
 70
     0
  3
"
 41
0.2
 42
0.125
 43
0.375
 44
0.125
 73
     0
 74
     0
 76
     1
 77
     1
 78
     1
140
0.25
141
0.0
147
0.062
176
   256
177
   256
178
   256
276
     2
277
     5
284
     1
340
F
  0
DIMSTYLE
105
6C06
102
{ACAD_REACTORS
330
6CC8
330
6CCF
102
}
330
A
100
AcDbSymbolTableRecord
100
AcDbDimStyleTableRecord
  2
NSD2$0
 70
     0
  3
"
 41
0.2
 42
0.125
 43
0.375
 44
0.125
 73
     0
 74
     0
 77
     1
 78
     1
140
0.25
141
0.0
147
0.062
176
   256
177
   256
178
   256
276
     2
277
     5
284
     1
340
F
  0
ENDTAB
  0
TABLE
  2
BLOCK_RECORD
  5
1
330
0
100
AcDbSymbolTable
 70
    28
  0
BLOCK_RECORD
  5
17
102
{ACAD_XDICTIONARY
360
4A11
102
}
330
1
100
AcDbSymbolTableRecord
100
AcDbBlockTableRecord
  2
*MODEL_SPACE
340
485E
  0
BLOCK_RECORD
  5
14
102
{ACAD_XDICTIONARY
360
4A0F
102
}
330
1
100
AcDbSymbolTableRecord
100
AcDbBlockTableRecord
  2
*PAPER_SPACE
340
485F
  0
BLOCK_RECORD
  5
6D72
330
1
100
AcDbSymbolTableRecord
100
AcDbBlockTableRecord
  2
*D0
340
0
  0
BLOCK_RECORD
  5
6D7E
330
1
100
AcDbSymbolTableRecord
100
AcDbBlockTableRecord
  2
*D1
340
0
  0
BLOCK_RECORD
  5
6D8A
330
1
100
AcDbSymbolTableRecord
100
AcDbBlockTableRecord
  2
*D2
340
0
  0
BLOCK_RECORD
  5
6D95
330
1
100
AcDbSymbolTableRecord
100
AcDbBlockTableRecord
  2
*D3
340
0
  0
BLOCK_RECORD
  5
6DA0
330
1
100
AcDbSymbolTableRecord
100
AcDbBlockTableRecord
  2
*D4
340
0
  0
BLOCK_RECORD
  5
6DAB
330
1
100
AcDbSymbolTableRecord
100
AcDbBlockTableRecord
  2
*D5
340
0
  0
BLOCK_RECORD
  5
6DB6
330
1
100
AcDbSymbolTableRecord
100
AcDbBlockTableRecord
  2
*D6
340
0
  0
BLOCK_RECORD
  5
6DC1
330
1
100
AcDbSymbolTableRecord
100
AcDbBlockTableRecord
  2
*D7
340
0
  0
BLOCK_RECORD
  5
6DCD
330
1
100
AcDbSymbolTableRecord
100
AcDbBlockTableRecord
  2
*D8
340
0
  0
BLOCK_RECORD
  5
6DD9
330
1
100
AcDbSymbolTableRecord
100
AcDbBlockTableRecord
  2
*D9
340
0
  0
BLOCK_RECORD
  5
6DE4
330
1
100
AcDbSymbolTableRecord
100
AcDbBlockTableRecord
  2
*D10
340
0
  0
BLOCK_RECORD
  5
6DEF
330
1
100
AcDbSymbolTableRecord
100
AcDbBlockTableRecord
  2
*D11
340
0
  0
BLOCK_RECORD
  5
6DFA
330
1
100
AcDbSymbolTableRecord
100
AcDbBlockTableRecord
  2
*D12
340
0
  0
BLOCK_RECORD
  5
6E06
330
1
100
AcDbSymbolTableRecord
100
AcDbBlockTableRecord
  2
*D13
340
0
  0
BLOCK_RECORD
  5
6E11
330
1
100
AcDbSymbolTableRecord
100
AcDbBlockTableRecord
  2
*D14
340
0
  0
BLOCK_RECORD
  5
6E1C
330
1
100
AcDbSymbolTableRecord
100
AcDbBlockTableRecord
  2
*D15
340
0
  0
BLOCK_RECORD
  5
6E27
330
1
100
AcDbSymbolTableRecord
100
AcDbBlockTableRecord
  2
*D16
340
0
  0
BLOCK_RECORD
  5
6E32
330
1
100
AcDbSymbolTableRecord
100
AcDbBlockTableRecord
  2
*D17
340
0
  0
BLOCK_RECORD
  5
6E3D
330
1
100
AcDbSymbolTableRecord
100
AcDbBlockTableRecord
  2
*D18
340
0
  0
BLOCK_RECORD
  5
6E48
330
1
100
AcDbSymbolTableRecord
100
AcDbBlockTableRecord
  2
*D19
340
0
  0
BLOCK_RECORD
  5
6E6B
330
1
100
AcDbSymbolTableRecord
100
AcDbBlockTableRecord
  2
*D20
340
0
  0
BLOCK_RECORD
  5
6E76
330
1
100
AcDbSymbolTableRecord
100
AcDbBlockTableRecord
  2
*D21
340
0
  0
BLOCK_RECORD
  5
6E81
330
1
100
AcDbSymbolTableRecord
100
AcDbBlockTableRecord
  2
*D22
340
0
  0
BLOCK_RECORD
  5
6E8C
330
1
100
AcDbSymbolTableRecord
100
AcDbBlockTableRecord
  2
*D23
340
0
  0
BLOCK_RECORD
  5
6E97
330
1
100
AcDbSymbolTableRecord
100
AcDbBlockTableRecord
  2
*D24
340
0
  0
BLOCK_RECORD
  5
6EA3
330
1
100
AcDbSymbolTableRecord
100
AcDbBlockTableRecord
  2
*D25
340
0
  0
BLOCK_RECORD
  5
6EAF
330
1
100
AcDbSymbolTableRecord
100
AcDbBlockTableRecord
  2
*D26
340
0
  0
BLOCK_RECORD
  5
7EF6
102
{ACAD_XDICTIONARY
360
7F00
102
}
330
1
100
AcDbSymbolTableRecord
100
AcDbBlockTableRecord
  2
Kawneer Logo English
340
0
102
{BLKREFS
331
7F04
102
}
1001
ACAD
1000
DesignCenter Data
1002
{
1070
     1
1070
     1
1002
}
  0
ENDTAB
  0
ENDSEC
  0
SECTION
  2
BLOCKS
  0
BLOCK
  5
3C
330
17
100
AcDbEntity
  8
0
100
AcDbBlockBegin
  2
*MODEL_SPACE
 70
     0
 10
0.0
 20
0.0
 30
0.0
  3
*MODEL_SPACE
  1

  0
ENDBLK
  5
3D
330
17
100
AcDbEntity
  8
0
100
AcDbBlockEnd
  0
BLOCK
  5
3A
330
14
100
AcDbEntity
 67
     1
  8
0
100
AcDbBlockBegin
  2
*PAPER_SPACE
 70
     0
 10
0.0
 20
0.0
 30
0.0
  3
*PAPER_SPACE
  1

  0
ENDBLK
  5
3B
330
14
100
AcDbEntity
 67
     1
  8
0
100
AcDbBlockEnd
  0
BLOCK
  5
6D7C
330
6D72
100
AcDbEntity
  8
0
100
AcDbBlockBegin
  2
*D0
 70
     1
 10
0.0
 20
0.0
 30
0.0
  3
*D0
  1

  0
LINE
  5
7534
330
6D72
100
AcDbEntity
  8
R-ANNO-DIMS
370
    -2
100
AcDbLine
 10
16.1690307852946
 20
33.39304263749998
 30
0.0
 11
16.1690307852946
 21
32.56946893751866
 31
0.0
  0
LINE
  5
7535
330
6D72
100
AcDbEntity
  8
R-ANNO-DIMS
370
    -2
100
AcDbLine
 10
11.66903078529465
 20
33.39304263749998
 30
0.0
 11
11.66903078529465
 21
32.56946893751866
 31
0.0
  0
LINE
  5
7536
330
6D72
100
AcDbEntity
  8
R-ANNO-DIMS
370
    -2
100
AcDbLine
 10
15.9690307852946
 20
32.69446893751867
 30
0.0
 11
11.86903078529465
 21
32.69446893751867
 31
0.0
  0
SOLID
  5
7537
330
6D72
100
AcDbEntity
  8
R-ANNO-DIMS
100
AcDbTrace
 10
15.9690307852946
 20
32.72780227085199
 30
0.0
 11
15.9690307852946
 21
32.66113560418534
 31
0.0
 12
16.1690307852946
 22
32.69446893751867
 32
0.0
 13
16.1690307852946
 23
32.69446893751867
 33
0.0
  0
SOLID
  5
7538
330
6D72
100
AcDbEntity
  8
R-ANNO-DIMS
100
AcDbTrace
 10
11.86903078529465
 20
32.72780227085199
 30
0.0
 11
11.86903078529465
 21
32.66113560418534
 31
0.0
 12
11.66903078529465
 22
32.69446893751867
 32
0.0
 13
11.66903078529465
 23
32.69446893751867
 33
0.0
  0
MTEXT
  5
7539
330
6D72
100
AcDbEntity
  8
R-ANNO-DIMS
100
AcDbMText
 10
13.91903078529463
 20
32.88146893751866
 30
0.0
 40
0.25
 41
0.0
 71
     5
 72
     1
  1
\A1;4 1/2"
 73
     1
 44
1.0
1001
ACAD
1000
MTEXTBEGIN
1070
    73
1070
     1
1070
    44
1040
1.0
1070
    74
1070
     0
1000
MTEXTEND
  0
POINT
  5
753A
330
6D72
100
AcDbEntity
  8
DEFPOINTS
 62
     0
100
AcDbPoint
 10
16.1690307852946
 20
33.51804263749997
 30
0.0
  0
POINT
  5
753B
330
6D72
100
AcDbEntity
  8
DEFPOINTS
 62
     0
100
AcDbPoint
 10
11.66903078529465
 20
33.51804263749997
 30
0.0
  0
POINT
  5
753C
330
6D72
100
AcDbEntity
  8
DEFPOINTS
 62
     0
100
AcDbPoint
 10
11.66903078529465
 20
32.69446893751867
 30
0.0
  0
ENDBLK
  5
6D7D
330
6D72
100
AcDbEntity
  8
0
100
AcDbBlockEnd
  0
BLOCK
  5
6D88
330
6D7E
100
AcDbEntity
  8
0
100
AcDbBlockBegin
  2
*D1
 70
     1
 10
0.0
 20
0.0
 30
0.0
  3
*D1
  1

  0
LINE
  5
752B
330
6D7E
100
AcDbEntity
  8
R-ANNO-DIMS
370
    -2
100
AcDbLine
 10
16.29403078529463
 20
35.40404263750379
 30
0.0
 11
16.29403078529463
 21
31.88777455860272
 31
0.0
  0
LINE
  5
752C
330
6D7E
100
AcDbEntity
  8
R-ANNO-DIMS
370
    -2
100
AcDbLine
 10
11.54403078529463
 20
35.40404263750381
 30
0.0
 11
11.54403078529463
 21
31.88777455860272
 31
0.0
  0
LINE
  5
752D
330
6D7E
100
AcDbEntity
  8
R-ANNO-DIMS
370
    -2
100
AcDbLine
 10
16.09403078529463
 20
32.01277455860271
 30
0.0
 11
11.74403078529462
 21
32.01277455860271
 31
0.0
  0
SOLID
  5
752E
330
6D7E
100
AcDbEntity
  8
R-ANNO-DIMS
100
AcDbTrace
 10
16.09403078529463
 20
32.04610789193605
 30
0.0
 11
16.09403078529463
 21
31.97944122526938
 31
0.0
 12
16.29403078529463
 22
32.01277455860271
 32
0.0
 13
16.29403078529463
 23
32.01277455860271
 33
0.0
  0
SOLID
  5
752F
330
6D7E
100
AcDbEntity
  8
R-ANNO-DIMS
100
AcDbTrace
 10
11.74403078529462
 20
32.04610789193605
 30
0.0
 11
11.74403078529462
 21
31.97944122526938
 31
0.0
 12
11.54403078529463
 22
32.01277455860271
 32
0.0
 13
11.54403078529463
 23
32.01277455860271
 33
0.0
  0
MTEXT
  5
7530
330
6D7E
100
AcDbEntity
  8
R-ANNO-DIMS
100
AcDbMText
 10
13.91903078529463
 20
32.19977455860271
 30
0.0
 40
0.25
 41
0.0
 71
     5
 72
     1
  1
\A1;4 3/4"
 73
     1
 44
1.0
1001
ACAD
1000
MTEXTBEGIN
1070
    73
1070
     1
1070
    44
1040
1.0
1070
    74
1070
     0
1000
MTEXTEND
  0
POINT
  5
7531
330
6D7E
100
AcDbEntity
  8
DEFPOINTS
 62
     0
100
AcDbPoint
 10
16.29403078529463
 20
35.5290426375038
 30
0.0
  0
POINT
  5
7532
330
6D7E
100
AcDbEntity
  8
DEFPOINTS
 62
     0
100
AcDbPoint
 10
11.54403078529463
 20
35.52904263750381
 30
0.0
  0
POINT
  5
7533
330
6D7E
100
AcDbEntity
  8
DEFPOINTS
 62
     0
100
AcDbPoint
 10
11.54403078529463
 20
32.01277455860271
 30
0.0
  0
ENDBLK
  5
6D89
330
6D7E
100
AcDbEntity
  8
0
100
AcDbBlockEnd
  0
BLOCK
  5
6D93
330
6D8A
100
AcDbEntity
  8
0
100
AcDbBlockBegin
  2
*D2
 70
     1
 10
0.0
 20
0.0
 30
0.0
  3
*D2
  1

  0
LINE
  5
75AC
330
6D8A
100
AcDbEntity
  8
R-ANNO-DIMS
370
    -2
100
AcDbLine
 10
9.680429522807884
 20
37.08054263749996
 30
0.0
 11
9.166610785294581
 21
37.08054263749996
 31
0.0
  0
LINE
  5
75AD
330
6D8A
100
AcDbEntity
  8
R-ANNO-DIMS
370
    -2
100
AcDbLine
 10
9.291610785294581
 20
36.88054263749996
 30
0.0
 11
9.291610785294579
 21
33.71804263749998
 31
0.0
  0
SOLID
  5
75AE
330
6D8A
100
AcDbEntity
  8
R-ANNO-DIMS
100
AcDbTrace
 10
9.258277451961248
 20
36.88054263749996
 30
0.0
 11
9.324944118627914
 21
36.88054263749996
 31
0.0
 12
9.291610785294581
 22
37.08054263749996
 32
0.0
 13
9.291610785294581
 23
37.08054263749996
 33
0.0
  0
SOLID
  5
75AF
330
6D8A
100
AcDbEntity
  8
R-ANNO-DIMS
100
AcDbTrace
 10
9.258277451961246
 20
33.71804263749998
 30
0.0
 11
9.324944118627913
 21
33.71804263749998
 31
0.0
 12
9.291610785294579
 22
33.51804263749997
 32
0.0
 13
9.291610785294579
 23
33.51804263749997
 33
0.0
  0
MTEXT
  5
75B0
330
6D8A
100
AcDbEntity
  8
R-ANNO-DIMS
100
AcDbMText
 10
9.104610785294575
 20
35.29929263749997
 30
0.0
 40
0.25
 41
0.0
 71
     5
 72
     1
  1
\A1;MH
 11
0.0000000000000001
 21
1.0
 31
0.0
 73
     1
 44
1.0
1001
ACAD
1000
MTEXTBEGIN
1070
    73
1070
     1
1070
    44
1040
1.0
1070
    74
1070
     0
1000
MTEXTEND
  0
POINT
  5
75B1
330
6D8A
100
AcDbEntity
  8
DEFPOINTS
 62
     0
100
AcDbPoint
 10
9.805429522807884
 20
37.08054263749996
 30
0.0
  0
POINT
  5
75B2
330
6D8A
100
AcDbEntity
  8
DEFPOINTS
 62
     0
100
AcDbPoint
 10
11.41162618125084
 20
33.51804263749997
 30
0.0
  0
POINT
  5
75B3
330
6D8A
100
AcDbEntity
  8
DEFPOINTS
 62
     0
100
AcDbPoint
 10
9.291610785294579
 20
33.51804263749997
 30
0.0
  0
ENDBLK
  5
6D94
330
6D8A
100
AcDbEntity
  8
0
100
AcDbBlockEnd
  0
BLOCK
  5
6D9E
330
6D95
100
AcDbEntity
  8
0
100
AcDbBlockBegin
  2
*D3
 70
     1
 10
0.0
 20
0.0
 30
0.0
  3
*D3
  1

  0
LINE
  5
75BD
330
6D95
100
AcDbEntity
  8
R-ANNO-DIMS
370
    -2
100
AcDbLine
 10
9.006431023935562
 20
37.76804263750002
 30
0.0
 11
7.91661078529458
 21
37.76804263750002
 31
0.0
  0
LINE
  5
75BE
330
6D95
100
AcDbEntity
  8
R-ANNO-DIMS
370
    -2
100
AcDbLine
 10
8.041610785294581
 20
37.56804263750002
 30
0.0
 11
8.041610785294579
 21
33.71804263749998
 31
0.0
  0
SOLID
  5
75BF
330
6D95
100
AcDbEntity
  8
R-ANNO-DIMS
100
AcDbTrace
 10
8.008277451961248
 20
37.56804263750002
 30
0.0
 11
8.074944118627914
 21
37.56804263750002
 31
0.0
 12
8.041610785294581
 22
37.76804263750002
 32
0.0
 13
8.041610785294581
 23
37.76804263750002
 33
0.0
  0
SOLID
  5
75C0
330
6D95
100
AcDbEntity
  8
R-ANNO-DIMS
100
AcDbTrace
 10
8.008277451961246
 20
33.71804263749998
 30
0.0
 11
8.074944118627913
 21
33.71804263749998
 31
0.0
 12
8.041610785294579
 22
33.51804263749997
 32
0.0
 13
8.041610785294579
 23
33.51804263749997
 33
0.0
  0
MTEXT
  5
75C1
330
6D95
100
AcDbEntity
  8
R-ANNO-DIMS
100
AcDbMText
 10
7.854610785294574
 20
35.64304263749999
 30
0.0
 40
0.25
 41
0.0
 71
     5
 72
     1
  1
\A1;OD
 11
0.0000000000000001
 21
1.0
 31
0.0
 73
     1
 44
1.0
1001
ACAD
1000
MTEXTBEGIN
1070
    73
1070
     1
1070
    44
1040
1.0
1070
    74
1070
     0
1000
MTEXTEND
  0
POINT
  5
75C2
330
6D95
100
AcDbEntity
  8
DEFPOINTS
 62
     0
100
AcDbPoint
 10
9.131431023935562
 20
37.76804263750002
 30
0.0
  0
POINT
  5
75C3
330
6D95
100
AcDbEntity
  8
DEFPOINTS
 62
     0
100
AcDbPoint
 10
11.41162618125084
 20
33.51804263749997
 30
0.0
  0
POINT
  5
75C4
330
6D95
100
AcDbEntity
  8
DEFPOINTS
 62
     0
100
AcDbPoint
 10
8.041610785294579
 20
33.51804263749997
 30
0.0
  0
ENDBLK
  5
6D9F
330
6D95
100
AcDbEntity
  8
0
100
AcDbBlockEnd
  0
BLOCK
  5
6DA9
330
6DA0
100
AcDbEntity
  8
0
100
AcDbBlockBegin
  2
*D4
 70
     1
 10
0.0
 20
0.0
 30
0.0
  3
*D4
  1

  0
LINE
  5
754E
330
6DA0
100
AcDbEntity
  8
R-ANNO-DIMS
370
    -2
100
AcDbLine
 10
11.41903078529463
 20
37.51804263750002
 30
0.0
 11
8.541610785294581
 21
37.51804263750002
 31
0.0
  0
LINE
  5
754F
330
6DA0
100
AcDbEntity
  8
R-ANNO-DIMS
370
    -2
100
AcDbLine
 10
8.666610785294581
 20
37.31804263750002
 30
0.0
 11
8.666610785294579
 21
33.71804263749998
 31
0.0
  0
SOLID
  5
7550
330
6DA0
100
AcDbEntity
  8
R-ANNO-DIMS
100
AcDbTrace
 10
8.633277451961248
 20
37.31804263750002
 30
0.0
 11
8.699944118627914
 21
37.31804263750002
 31
0.0
 12
8.666610785294581
 22
37.51804263750002
 32
0.0
 13
8.666610785294581
 23
37.51804263750002
 33
0.0
  0
SOLID
  5
7551
330
6DA0
100
AcDbEntity
  8
R-ANNO-DIMS
100
AcDbTrace
 10
8.633277451961246
 20
33.71804263749998
 30
0.0
 11
8.699944118627913
 21
33.71804263749998
 31
0.0
 12
8.666610785294579
 22
33.51804263749997
 32
0.0
 13
8.666610785294579
 23
33.51804263749997
 33
0.0
  0
MTEXT
  5
7552
330
6DA0
100
AcDbEntity
  8
R-ANNO-DIMS
100
AcDbMText
 10
8.479610785294575
 20
35.5180426375
 30
0.0
 40
0.25
 41
0.0
 71
     5
 72
     1
  1
\A1;FH
 11
0.0000000000000001
 21
1.0
 31
0.0
 73
     1
 44
1.0
1001
ACAD
1000
MTEXTBEGIN
1070
    73
1070
     1
1070
    44
1040
1.0
1070
    74
1070
     0
1000
MTEXTEND
  0
POINT
  5
7553
330
6DA0
100
AcDbEntity
  8
DEFPOINTS
 62
     0
100
AcDbPoint
 10
11.54403078529463
 20
37.51804263750002
 30
0.0
  0
POINT
  5
7554
330
6DA0
100
AcDbEntity
  8
DEFPOINTS
 62
     0
100
AcDbPoint
 10
11.41162618125084
 20
33.51804263749997
 30
0.0
  0
POINT
  5
7555
330
6DA0
100
AcDbEntity
  8
DEFPOINTS
 62
     0
100
AcDbPoint
 10
8.666610785294579
 20
33.51804263749997
 30
0.0
  0
ENDBLK
  5
6DAA
330
6DA0
100
AcDbEntity
  8
0
100
AcDbBlockEnd
  0
BLOCK
  5
6DB4
330
6DAB
100
AcDbEntity
  8
0
100
AcDbBlockBegin
  2
*D5
 70
     1
 10
0.0
 20
0.0
 30
0.0
  3
*D5
  1

  0
LINE
  5
7546
330
6DAB
100
AcDbEntity
  8
R-ANNO-DIMS
370
    -2
100
AcDbLine
 10
11.41903078529463
 20
37.51804263750002
 30
0.0
 11
9.791610785294587
 21
37.51804263750002
 31
0.0
  0
LINE
  5
7547
330
6DAB
100
AcDbEntity
  8
R-ANNO-DIMS
370
    -2
100
AcDbLine
 10
9.916610785294587
 20
37.31804263750002
 30
0.0
 11
9.916610785294585
 21
35.71904263750382
 31
0.0
  0
SOLID
  5
7548
330
6DAB
100
AcDbEntity
  8
R-ANNO-DIMS
100
AcDbTrace
 10
9.883277451961253
 20
37.31804263750002
 30
0.0
 11
9.94994411862792
 21
37.31804263750002
 31
0.0
 12
9.916610785294587
 22
37.51804263750002
 32
0.0
 13
9.916610785294587
 23
37.51804263750002
 33
0.0
  0
SOLID
  5
7549
330
6DAB
100
AcDbEntity
  8
R-ANNO-DIMS
100
AcDbTrace
 10
9.883277451961252
 20
35.71904263750382
 30
0.0
 11
9.949944118627918
 21
35.71904263750382
 31
0.0
 12
9.916610785294585
 22
35.51904263750382
 32
0.0
 13
9.916610785294585
 23
35.51904263750382
 33
0.0
  0
MTEXT
  5
754A
330
6DAB
100
AcDbEntity
  8
R-ANNO-DIMS
100
AcDbMText
 10
9.72961078529458
 20
36.41699967253528
 30
0.0
 40
0.25
 41
0.0
 71
     5
 72
     1
  1
\A1;2"
 11
0.0000000000000001
 21
1.0
 31
0.0
 73
     1
 44
1.0
1001
ACAD
1000
MTEXTBEGIN
1070
    73
1070
     1
1070
    44
1040
1.0
1070
    74
1070
     0
1000
MTEXTEND
  0
POINT
  5
754B
330
6DAB
100
AcDbEntity
  8
DEFPOINTS
 62
     0
100
AcDbPoint
 10
11.54403078529463
 20
37.51804263750002
 30
0.0
  0
POINT
  5
754C
330
6DAB
100
AcDbEntity
  8
DEFPOINTS
 62
     0
100
AcDbPoint
 10
11.55403078529462
 20
35.51904263750382
 30
0.0
  0
POINT
  5
754D
330
6DAB
100
AcDbEntity
  8
DEFPOINTS
 62
     0
100
AcDbPoint
 10
9.916610785294585
 20
35.51904263750382
 30
0.0
  0
ENDBLK
  5
6DB5
330
6DAB
100
AcDbEntity
  8
0
100
AcDbBlockEnd
  0
BLOCK
  5
6DBF
330
6DB6
100
AcDbEntity
  8
0
100
AcDbBlockBegin
  2
*D6
 70
     1
 10
0.0
 20
0.0
 30
0.0
  3
*D6
  1

  0
LINE
  5
7566
330
6DB6
100
AcDbEntity
  8
R-ANNO-DIMS
370
    -2
100
AcDbLine
 10
11.42903078529462
 20
35.51904263750382
 30
0.0
 11
9.791610785294579
 21
35.51904263750382
 31
0.0
  0
LINE
  5
7567
330
6DB6
100
AcDbEntity
  8
R-ANNO-DIMS
370
    -2
100
AcDbLine
 10
9.916610785294579
 20
35.31904263750381
 30
0.0
 11
9.916610785294579
 21
33.71804263749998
 31
0.0
  0
SOLID
  5
7568
330
6DB6
100
AcDbEntity
  8
R-ANNO-DIMS
100
AcDbTrace
 10
9.883277451961246
 20
35.31904263750381
 30
0.0
 11
9.949944118627913
 21
35.31904263750381
 31
0.0
 12
9.916610785294579
 22
35.51904263750382
 32
0.0
 13
9.916610785294579
 23
35.51904263750382
 33
0.0
  0
SOLID
  5
7569
330
6DB6
100
AcDbEntity
  8
R-ANNO-DIMS
100
AcDbTrace
 10
9.883277451961246
 20
33.71804263749998
 30
0.0
 11
9.949944118627913
 21
33.71804263749998
 31
0.0
 12
9.916610785294579
 22
33.51804263749997
 32
0.0
 13
9.916610785294579
 23
33.51804263749997
 33
0.0
  0
MTEXT
  5
756A
330
6DB6
100
AcDbEntity
  8
R-ANNO-DIMS
100
AcDbMText
 10
9.729610785294575
 20
34.5185426375019
 30
0.0
 40
0.25
 41
0.0
 71
     5
 72
     1
  1
\A1;DLO
 11
0.0000000000000001
 21
1.0
 31
0.0
 73
     1
 44
1.0
1001
ACAD
1000
MTEXTBEGIN
1070
    73
1070
     1
1070
    44
1040
1.0
1070
    74
1070
     0
1000
MTEXTEND
  0
POINT
  5
756B
330
6DB6
100
AcDbEntity
  8
DEFPOINTS
 62
     0
100
AcDbPoint
 10
11.55403078529462
 20
35.51904263750382
 30
0.0
  0
POINT
  5
756C
330
6DB6
100
AcDbEntity
  8
DEFPOINTS
 62
     0
100
AcDbPoint
 10
11.41162618125084
 20
33.51804263749997
 30
0.0
  0
POINT
  5
756D
330
6DB6
100
AcDbEntity
  8
DEFPOINTS
 62
     0
100
AcDbPoint
 10
9.916610785294579
 20
33.51804263749997
 30
0.0
  0
ENDBLK
  5
6DC0
330
6DB6
100
AcDbEntity
  8
0
100
AcDbBlockEnd
  0
BLOCK
  5
6DCB
330
6DC1
100
AcDbEntity
  8
0
100
AcDbBlockBegin
  2
*D7
 70
     1
 10
0.0
 20
0.0
 30
0.0
  3
*D7
  1

  0
LINE
  5
75C5
330
6DC1
100
AcDbEntity
  8
R-ANNO-DIMS
370
    -2
100
AcDbLine
 10
11.41903078529463
 20
37.51804263750002
 30
0.0
 11
8.541610785294587
 21
37.51804263750002
 31
0.0
  0
LINE
  5
75C6
330
6DC1
100
AcDbEntity
  8
R-ANNO-DIMS
370
    -2
100
AcDbLine
 10
8.666610785294587
 20
37.31804263750002
 30
0.0
 11
8.666610785294587
 21
37.11804263750002
 31
0.0
  0
LINE
  5
75C7
330
6DC1
100
AcDbEntity
  8
R-ANNO-DIMS
370
    -2
100
AcDbLine
 10
8.666610785294587
 20
37.96804263750002
 30
0.0
 11
8.666610785294587
 21
40.70870930416668
 31
0.0
  0
SOLID
  5
75C8
330
6DC1
100
AcDbEntity
  8
R-ANNO-DIMS
100
AcDbTrace
 10
8.633277451961253
 20
37.31804263750002
 30
0.0
 11
8.69994411862792
 21
37.31804263750002
 31
0.0
 12
8.666610785294587
 22
37.51804263750002
 32
0.0
 13
8.666610785294587
 23
37.51804263750002
 33
0.0
  0
SOLID
  5
75C9
330
6DC1
100
AcDbEntity
  8
R-ANNO-DIMS
100
AcDbTrace
 10
8.633277451961253
 20
37.96804263750002
 30
0.0
 11
8.69994411862792
 21
37.96804263750002
 31
0.0
 12
8.666610785294587
 22
37.76804263750002
 32
0.0
 13
8.666610785294587
 23
37.76804263750002
 33
0.0
  0
MTEXT
  5
75CA
330
6DC1
100
AcDbEntity
  8
R-ANNO-DIMS
100
AcDbMText
 10
8.47961078529458
 20
39.43837597083335
 30
0.0
 40
0.25
 41
0.0
 71
     5
 72
     1
  1
\A1;SHIM SPACE
 11
0.0000000000000001
 21
1.0
 31
0.0
 73
     1
 44
1.0
1001
ACAD
1000
MTEXTBEGIN
1070
    73
1070
     1
1070
    44
1040
1.0
1070
    74
1070
     0
1000
MTEXTEND
  0
POINT
  5
75CB
330
6DC1
100
AcDbEntity
  8
DEFPOINTS
 62
     0
100
AcDbPoint
 10
11.54403078529463
 20
37.51804263750002
 30
0.0
  0
POINT
  5
75CC
330
6DC1
100
AcDbEntity
  8
DEFPOINTS
 62
     0
100
AcDbPoint
 10
11.13801083059961
 20
37.76804263750002
 30
0.0
  0
POINT
  5
75CD
330
6DC1
100
AcDbEntity
  8
DEFPOINTS
 62
     0
100
AcDbPoint
 10
8.666610785294587
 20
37.76804263750002
 30
0.0
  0
ENDBLK
  5
6DCC
330
6DC1
100
AcDbEntity
  8
0
100
AcDbBlockEnd
  0
BLOCK
  5
6DD7
330
6DCD
100
AcDbEntity
  8
0
100
AcDbBlockBegin
  2
*D8
 70
     1
 10
0.0
 20
0.0
 30
0.0
  3
*D8
  1

  0
LINE
  5
75B4
330
6DCD
100
AcDbEntity
  8
R-ANNO-DIMS
370
    -2
100
AcDbLine
 10
9.680429522807884
 20
37.08054263749996
 30
0.0
 11
9.166610785294587
 21
37.08054263749996
 31
0.0
  0
LINE
  5
75B5
330
6DCD
100
AcDbEntity
  8
R-ANNO-DIMS
370
    -2
100
AcDbLine
 10
9.291610785294587
 20
36.88054263749996
 30
0.0
 11
9.291610785294587
 21
36.68054263749996
 31
0.0
  0
LINE
  5
75B6
330
6DCD
100
AcDbEntity
  8
R-ANNO-DIMS
370
    -2
100
AcDbLine
 10
9.291610785294587
 20
37.71804263750002
 30
0.0
 11
9.291610785294587
 21
39.12537597083335
 31
0.0
  0
SOLID
  5
75B7
330
6DCD
100
AcDbEntity
  8
R-ANNO-DIMS
100
AcDbTrace
 10
9.258277451961253
 20
36.88054263749996
 30
0.0
 11
9.32494411862792
 21
36.88054263749996
 31
0.0
 12
9.291610785294587
 22
37.08054263749996
 32
0.0
 13
9.291610785294587
 23
37.08054263749996
 33
0.0
  0
SOLID
  5
75B8
330
6DCD
100
AcDbEntity
  8
R-ANNO-DIMS
100
AcDbTrace
 10
9.258277451961253
 20
37.71804263750002
 30
0.0
 11
9.32494411862792
 21
37.71804263750002
 31
0.0
 12
9.291610785294587
 22
37.51804263750002
 32
0.0
 13
9.291610785294587
 23
37.51804263750002
 33
0.0
  0
MTEXT
  5
75B9
330
6DCD
100
AcDbEntity
  8
R-ANNO-DIMS
100
AcDbMText
 10
9.10461078529458
 20
38.52170930416669
 30
0.0
 40
0.25
 41
0.0
 71
     5
 72
     1
  1
\A1;7/16"
 11
0.0000000000000001
 21
1.0
 31
0.0
 73
     1
 44
1.0
1001
ACAD
1000
MTEXTBEGIN
1070
    73
1070
     1
1070
    44
1040
1.0
1070
    74
1070
     0
1000
MTEXTEND
  0
POINT
  5
75BA
330
6DCD
100
AcDbEntity
  8
DEFPOINTS
 62
     0
100
AcDbPoint
 10
9.805429522807884
 20
37.08054263749996
 30
0.0
  0
POINT
  5
75BB
330
6DCD
100
AcDbEntity
  8
DEFPOINTS
 62
     0
100
AcDbPoint
 10
11.54403078529463
 20
37.51804263750002
 30
0.0
  0
POINT
  5
75BC
330
6DCD
100
AcDbEntity
  8
DEFPOINTS
 62
     0
100
AcDbPoint
 10
9.291610785294587
 20
37.51804263750002
 30
0.0
  0
ENDBLK
  5
6DD8
330
6DCD
100
AcDbEntity
  8
0
100
AcDbBlockEnd
  0
BLOCK
  5
6DE2
330
6DD9
100
AcDbEntity
  8
0
100
AcDbBlockBegin
  2
*D9
 70
     1
 10
0.0
 20
0.0
 30
0.0
  3
*D9
  1

  0
LINE
  5
74BB
330
6DD9
100
AcDbEntity
  8
R-ANNO-DIMS
370
    -2
100
AcDbLine
 10
48.62357597510587
 20
9.725960640120739
 30
0.0
 11
48.62357597510587
 21
8.01396064012075
 31
0.0
  0
LINE
  5
74BC
330
6DD9
100
AcDbEntity
  8
R-ANNO-DIMS
370
    -2
100
AcDbLine
 10
48.42357597510586
 20
8.13896064012075
 30
0.0
 11
46.82325577751619
 21
8.13896064012075
 31
0.0
  0
SOLID
  5
74BD
330
6DD9
100
AcDbEntity
  8
R-ANNO-DIMS
100
AcDbTrace
 10
48.42357597510586
 20
8.172293973454083
 30
0.0
 11
48.42357597510586
 21
8.105627306787416
 31
0.0
 12
48.62357597510587
 22
8.13896064012075
 32
0.0
 13
48.62357597510587
 23
8.13896064012075
 33
0.0
  0
SOLID
  5
74BE
330
6DD9
100
AcDbEntity
  8
R-ANNO-DIMS
100
AcDbTrace
 10
46.82325577751619
 20
8.172293973454083
 30
0.0
 11
46.82325577751619
 21
8.105627306787416
 31
0.0
 12
46.62325577751619
 22
8.13896064012075
 32
0.0
 13
46.62325577751619
 23
8.13896064012075
 33
0.0
  0
MTEXT
  5
74BF
330
6DD9
100
AcDbEntity
  8
R-ANNO-DIMS
100
AcDbMText
 10
47.62341587631103
 20
8.325960640120749
 30
0.0
 40
0.25
 41
0.0
 71
     5
 72
     1
  1
\A1;DLO
 73
     1
 44
1.0
1001
ACAD
1000
MTEXTBEGIN
1070
    73
1070
     1
1070
    44
1040
1.0
1070
    74
1070
     0
1000
MTEXTEND
  0
POINT
  5
74C0
330
6DD9
100
AcDbEntity
  8
DEFPOINTS
 62
     0
100
AcDbPoint
 10
48.62357597510587
 20
9.850960640120739
 30
0.0
  0
POINT
  5
74C1
330
6DD9
100
AcDbEntity
  8
DEFPOINTS
 62
     0
100
AcDbPoint
 10
46.62325577751619
 20
9.509799147245466
 30
0.0
  0
POINT
  5
74C2
330
6DD9
100
AcDbEntity
  8
DEFPOINTS
 62
     0
100
AcDbPoint
 10
46.62325577751619
 20
8.13896064012075
 30
0.0
  0
ENDBLK
  5
6DE3
330
6DD9
100
AcDbEntity
  8
0
100
AcDbBlockEnd
  0
BLOCK
  5
6DED
330
6DE4
100
AcDbEntity
  8
0
100
AcDbBlockBegin
  2
*D10
 70
     1
 10
0.0
 20
0.0
 30
0.0
  3
*D10
  1

  0
LINE
  5
74DB
330
6DE4
100
AcDbEntity
  8
R-ANNO-DIMS
370
    -2
100
AcDbLine
 10
50.62357597510587
 20
9.725960640120739
 30
0.0
 11
50.62357597510587
 21
8.01396064012075
 31
0.0
  0
LINE
  5
74DC
330
6DE4
100
AcDbEntity
  8
R-ANNO-DIMS
370
    -2
100
AcDbLine
 10
50.82357597510586
 20
8.13896064012075
 30
0.0
 11
52.42325577751619
 21
8.13896064012075
 31
0.0
  0
SOLID
  5
74DD
330
6DE4
100
AcDbEntity
  8
R-ANNO-DIMS
100
AcDbTrace
 10
50.82357597510586
 20
8.172293973454083
 30
0.0
 11
50.82357597510586
 21
8.105627306787416
 31
0.0
 12
50.62357597510587
 22
8.13896064012075
 32
0.0
 13
50.62357597510587
 23
8.13896064012075
 33
0.0
  0
SOLID
  5
74DE
330
6DE4
100
AcDbEntity
  8
R-ANNO-DIMS
100
AcDbTrace
 10
52.42325577751619
 20
8.172293973454083
 30
0.0
 11
52.42325577751619
 21
8.105627306787416
 31
0.0
 12
52.62325577751619
 22
8.13896064012075
 32
0.0
 13
52.62325577751619
 23
8.13896064012075
 33
0.0
  0
MTEXT
  5
74DF
330
6DE4
100
AcDbEntity
  8
R-ANNO-DIMS
100
AcDbMText
 10
51.62341587631103
 20
8.325960640120749
 30
0.0
 40
0.25
 41
0.0
 71
     5
 72
     1
  1
\A1;DLO
 73
     1
 44
1.0
1001
ACAD
1000
MTEXTBEGIN
1070
    73
1070
     1
1070
    44
1040
1.0
1070
    74
1070
     0
1000
MTEXTEND
  0
POINT
  5
74E0
330
6DE4
100
AcDbEntity
  8
DEFPOINTS
 62
     0
100
AcDbPoint
 10
50.62357597510587
 20
9.850960640120739
 30
0.0
  0
POINT
  5
74E1
330
6DE4
100
AcDbEntity
  8
DEFPOINTS
 62
     0
100
AcDbPoint
 10
52.62325577751619
 20
9.509799147245466
 30
0.0
  0
POINT
  5
74E2
330
6DE4
100
AcDbEntity
  8
DEFPOINTS
 62
     0
100
AcDbPoint
 10
52.62325577751619
 20
8.13896064012075
 30
0.0
  0
ENDBLK
  5
6DEE
330
6DE4
100
AcDbEntity
  8
0
100
AcDbBlockEnd
  0
BLOCK
  5
6DF8
330
6DEF
100
AcDbEntity
  8
0
100
AcDbBlockBegin
  2
*D11
 70
     1
 10
0.0
 20
0.0
 30
0.0
  3
*D11
  1

  0
LINE
  5
74D3
330
6DEF
100
AcDbEntity
  8
R-ANNO-DIMS
370
    -2
100
AcDbLine
 10
48.62357597510587
 20
9.725960640120739
 30
0.0
 11
48.62357597510587
 21
8.01396064012075
 31
0.0
  0
LINE
  5
74D4
330
6DEF
100
AcDbEntity
  8
R-ANNO-DIMS
370
    -2
100
AcDbLine
 10
48.82357597510587
 20
8.13896064012075
 30
0.0
 11
50.42357597510586
 21
8.13896064012075
 31
0.0
  0
SOLID
  5
74D5
330
6DEF
100
AcDbEntity
  8
R-ANNO-DIMS
100
AcDbTrace
 10
48.82357597510587
 20
8.172293973454083
 30
0.0
 11
48.82357597510587
 21
8.105627306787416
 31
0.0
 12
48.62357597510587
 22
8.13896064012075
 32
0.0
 13
48.62357597510587
 23
8.13896064012075
 33
0.0
  0
SOLID
  5
74D6
330
6DEF
100
AcDbEntity
  8
R-ANNO-DIMS
100
AcDbTrace
 10
50.42357597510586
 20
8.172293973454083
 30
0.0
 11
50.42357597510586
 21
8.105627306787416
 31
0.0
 12
50.62357597510587
 22
8.13896064012075
 32
0.0
 13
50.62357597510587
 23
8.13896064012075
 33
0.0
  0
MTEXT
  5
74D7
330
6DEF
100
AcDbEntity
  8
R-ANNO-DIMS
100
AcDbMText
 10
49.62357597510586
 20
8.325960640120749
 30
0.0
 40
0.25
 41
0.0
 71
     5
 72
     1
  1
\A1;2"
 73
     1
 44
1.0
1001
ACAD
1000
MTEXTBEGIN
1070
    73
1070
     1
1070
    44
1040
1.0
1070
    74
1070
     0
1000
MTEXTEND
  0
POINT
  5
74D8
330
6DEF
100
AcDbEntity
  8
DEFPOINTS
 62
     0
100
AcDbPoint
 10
48.62357597510587
 20
9.850960640120739
 30
0.0
  0
POINT
  5
74D9
330
6DEF
100
AcDbEntity
  8
DEFPOINTS
 62
     0
100
AcDbPoint
 10
50.62357597510587
 20
9.850960640120739
 30
0.0
  0
POINT
  5
74DA
330
6DEF
100
AcDbEntity
  8
DEFPOINTS
 62
     0
100
AcDbPoint
 10
50.62357597510587
 20
8.13896064012075
 30
0.0
  0
ENDBLK
  5
6DF9
330
6DEF
100
AcDbEntity
  8
0
100
AcDbBlockEnd
  0
BLOCK
  5
6E04
330
6DFA
100
AcDbEntity
  8
0
100
AcDbBlockBegin
  2
*D12
 70
     1
 10
0.0
 20
0.0
 30
0.0
  3
*D12
  1

  0
LINE
  5
75F4
330
6DFA
100
AcDbEntity
  8
R-ANNO-DIMS
370
    -2
100
AcDbLine
 10
39.75473148535362
 20
9.600960640120767
 30
0.0
 11
39.75473148535362
 21
7.421412464847612
 31
0.0
  0
LINE
  5
75F5
330
6DFA
100
AcDbEntity
  8
R-ANNO-DIMS
370
    -2
100
AcDbLine
 10
39.95473148535362
 20
7.546412464847612
 30
0.0
 11
40.15473148535361
 21
7.546412464847612
 31
0.0
  0
LINE
  5
75F6
330
6DFA
100
AcDbEntity
  8
R-ANNO-DIMS
370
    -2
100
AcDbLine
 10
39.30473148535361
 20
7.546412464847612
 30
0.0
 11
36.56406481868695
 21
7.546412464847612
 31
0.0
  0
SOLID
  5
75F7
330
6DFA
100
AcDbEntity
  8
R-ANNO-DIMS
100
AcDbTrace
 10
39.95473148535362
 20
7.579745798180946
 30
0.0
 11
39.95473148535362
 21
7.513079131514279
 31
0.0
 12
39.75473148535362
 22
7.546412464847612
 32
0.0
 13
39.75473148535362
 23
7.546412464847612
 33
0.0
  0
SOLID
  5
75F8
330
6DFA
100
AcDbEntity
  8
R-ANNO-DIMS
100
AcDbTrace
 10
39.30473148535361
 20
7.579745798180946
 30
0.0
 11
39.30473148535361
 21
7.513079131514279
 31
0.0
 12
39.50473148535362
 22
7.546412464847612
 32
0.0
 13
39.50473148535362
 23
7.546412464847612
 33
0.0
  0
MTEXT
  5
75F9
330
6DFA
100
AcDbEntity
  8
R-ANNO-DIMS
100
AcDbMText
 10
37.83439815202028
 20
7.733412464847613
 30
0.0
 40
0.25
 41
0.0
 71
     5
 72
     1
  1
\A1;SHIM SPACE
 73
     1
 44
1.0
1001
ACAD
1000
MTEXTBEGIN
1070
    73
1070
     1
1070
    44
1040
1.0
1070
    74
1070
     0
1000
MTEXTEND
  0
POINT
  5
75FA
330
6DFA
100
AcDbEntity
  8
DEFPOINTS
 62
     0
100
AcDbPoint
 10
39.75473148535362
 20
9.725960640120767
 30
0.0
  0
POINT
  5
75FB
330
6DFA
100
AcDbEntity
  8
DEFPOINTS
 62
     0
100
AcDbPoint
 10
39.50473148535362
 20
9.48034813499985
 30
0.0
  0
POINT
  5
75FC
330
6DFA
100
AcDbEntity
  8
DEFPOINTS
 62
     0
100
AcDbPoint
 10
39.50473148535362
 20
7.546412464847612
 30
0.0
  0
ENDBLK
  5
6E05
330
6DFA
100
AcDbEntity
  8
0
100
AcDbBlockEnd
  0
BLOCK
  5
6E0F
330
6E06
100
AcDbEntity
  8
0
100
AcDbBlockBegin
  2
*D13
 70
     1
 10
0.0
 20
0.0
 30
0.0
  3
*D13
  1

  0
LINE
  5
74AA
330
6E06
100
AcDbEntity
  8
R-ANNO-DIMS
370
    -2
100
AcDbLine
 10
39.50473148535362
 20
9.35534813499985
 30
0.0
 11
39.50473148535362
 21
6.858912464847612
 31
0.0
  0
LINE
  5
74AB
330
6E06
100
AcDbEntity
  8
R-ANNO-DIMS
370
    -2
100
AcDbLine
 10
39.70473148535362
 20
6.983912464847612
 30
0.0
 11
43.55537188053297
 21
6.983912464847612
 31
0.0
  0
SOLID
  5
74AC
330
6E06
100
AcDbEntity
  8
R-ANNO-DIMS
100
AcDbTrace
 10
39.70473148535362
 20
7.017245798180946
 30
0.0
 11
39.70473148535362
 21
6.950579131514279
 31
0.0
 12
39.50473148535362
 22
6.983912464847612
 32
0.0
 13
39.50473148535362
 23
6.983912464847612
 33
0.0
  0
SOLID
  5
74AD
330
6E06
100
AcDbEntity
  8
R-ANNO-DIMS
100
AcDbTrace
 10
43.55537188053297
 20
7.017245798180946
 30
0.0
 11
43.55537188053297
 21
6.950579131514279
 31
0.0
 12
43.75537188053297
 22
6.983912464847612
 32
0.0
 13
43.75537188053297
 23
6.983912464847612
 33
0.0
  0
MTEXT
  5
74AE
330
6E06
100
AcDbEntity
  8
R-ANNO-DIMS
100
AcDbMText
 10
41.63005168294329
 20
7.170912464847613
 30
0.0
 40
0.25
 41
0.0
 71
     5
 72
     1
  1
\A1;OD  
 73
     1
 44
1.0
1001
ACAD
1000
MTEXTBEGIN
1070
    73
1070
     1
1070
    44
1040
1.0
1070
    74
1070
     0
1000
MTEXTEND
  0
POINT
  5
74AF
330
6E06
100
AcDbEntity
  8
DEFPOINTS
 62
     0
100
AcDbPoint
 10
39.50473148535362
 20
9.48034813499985
 30
0.0
  0
POINT
  5
74B0
330
6E06
100
AcDbEntity
  8
DEFPOINTS
 62
     0
100
AcDbPoint
 10
43.75537188053297
 20
9.600960640120739
 30
0.0
  0
POINT
  5
74B1
330
6E06
100
AcDbEntity
  8
DEFPOINTS
 62
     0
100
AcDbPoint
 10
43.75537188053297
 20
6.983912464847612
 30
0.0
  0
ENDBLK
  5
6E10
330
6E06
100
AcDbEntity
  8
0
100
AcDbBlockEnd
  0
BLOCK
  5
6E1A
330
6E11
100
AcDbEntity
  8
0
100
AcDbBlockBegin
  2
*D14
 70
     1
 10
0.0
 20
0.0
 30
0.0
  3
*D14
  1

  0
LINE
  5
74A2
330
6E11
100
AcDbEntity
  8
R-ANNO-DIMS
370
    -2
100
AcDbLine
 10
39.75473148535362
 20
9.600960640120767
 30
0.0
 11
39.75473148535362
 21
7.421412464847612
 31
0.0
  0
LINE
  5
74A3
330
6E11
100
AcDbEntity
  8
R-ANNO-DIMS
370
    -2
100
AcDbLine
 10
39.95473148535362
 20
7.546412464847612
 30
0.0
 11
43.55537188053297
 21
7.546412464847612
 31
0.0
  0
SOLID
  5
74A4
330
6E11
100
AcDbEntity
  8
R-ANNO-DIMS
100
AcDbTrace
 10
39.95473148535362
 20
7.579745798180946
 30
0.0
 11
39.95473148535362
 21
7.513079131514279
 31
0.0
 12
39.75473148535362
 22
7.546412464847612
 32
0.0
 13
39.75473148535362
 23
7.546412464847612
 33
0.0
  0
SOLID
  5
74A5
330
6E11
100
AcDbEntity
  8
R-ANNO-DIMS
100
AcDbTrace
 10
43.55537188053297
 20
7.579745798180946
 30
0.0
 11
43.55537188053297
 21
7.513079131514279
 31
0.0
 12
43.75537188053297
 22
7.546412464847612
 32
0.0
 13
43.75537188053297
 23
7.546412464847612
 33
0.0
  0
MTEXT
  5
74A6
330
6E11
100
AcDbEntity
  8
R-ANNO-DIMS
100
AcDbMText
 10
41.75505168294329
 20
7.733412464847613
 30
0.0
 40
0.25
 41
0.0
 71
     5
 72
     1
  1
\A1;FW  
 73
     1
 44
1.0
1001
ACAD
1000
MTEXTBEGIN
1070
    73
1070
     1
1070
    44
1040
1.0
1070
    74
1070
     0
1000
MTEXTEND
  0
POINT
  5
74A7
330
6E11
100
AcDbEntity
  8
DEFPOINTS
 62
     0
100
AcDbPoint
 10
39.75473148535362
 20
9.725960640120767
 30
0.0
  0
POINT
  5
74A8
330
6E11
100
AcDbEntity
  8
DEFPOINTS
 62
     0
100
AcDbPoint
 10
43.75537188053297
 20
9.600960640120739
 30
0.0
  0
POINT
  5
74A9
330
6E11
100
AcDbEntity
  8
DEFPOINTS
 62
     0
100
AcDbPoint
 10
43.75537188053297
 20
7.546412464847612
 30
0.0
  0
ENDBLK
  5
6E1B
330
6E11
100
AcDbEntity
  8
0
100
AcDbBlockEnd
  0
BLOCK
  5
6E25
330
6E1C
100
AcDbEntity
  8
0
100
AcDbBlockBegin
  2
*D15
 70
     1
 10
0.0
 20
0.0
 30
0.0
  3
*D15
  1

  0
LINE
  5
74C3
330
6E1C
100
AcDbEntity
  8
R-ANNO-DIMS
370
    -2
100
AcDbLine
 10
41.75473148535362
 20
9.600960640120767
 30
0.0
 11
41.75473148535362
 21
7.983912464847612
 31
0.0
  0
LINE
  5
74C4
330
6E1C
100
AcDbEntity
  8
R-ANNO-DIMS
370
    -2
100
AcDbLine
 10
41.95473148535363
 20
8.108912464847612
 30
0.0
 11
43.55537188053297
 21
8.108912464847612
 31
0.0
  0
SOLID
  5
74C5
330
6E1C
100
AcDbEntity
  8
R-ANNO-DIMS
100
AcDbTrace
 10
41.95473148535363
 20
8.142245798180946
 30
0.0
 11
41.95473148535363
 21
8.075579131514279
 31
0.0
 12
41.75473148535362
 22
8.108912464847612
 32
0.0
 13
41.75473148535362
 23
8.108912464847612
 33
0.0
  0
SOLID
  5
74C6
330
6E1C
100
AcDbEntity
  8
R-ANNO-DIMS
100
AcDbTrace
 10
43.55537188053297
 20
8.142245798180946
 30
0.0
 11
43.55537188053297
 21
8.075579131514279
 31
0.0
 12
43.75537188053297
 22
8.108912464847612
 32
0.0
 13
43.75537188053297
 23
8.108912464847612
 33
0.0
  0
MTEXT
  5
74C7
330
6E1C
100
AcDbEntity
  8
R-ANNO-DIMS
100
AcDbMText
 10
42.7550516829433
 20
8.295912464847612
 30
0.0
 40
0.25
 41
0.0
 71
     5
 72
     1
  1
\A1;DLO
 73
     1
 44
1.0
1001
ACAD
1000
MTEXTBEGIN
1070
    73
1070
     1
1070
    44
1040
1.0
1070
    74
1070
     0
1000
MTEXTEND
  0
POINT
  5
74C8
330
6E1C
100
AcDbEntity
  8
DEFPOINTS
 62
     0
100
AcDbPoint
 10
41.75473148535362
 20
9.725960640120767
 30
0.0
  0
POINT
  5
74C9
330
6E1C
100
AcDbEntity
  8
DEFPOINTS
 62
     0
100
AcDbPoint
 10
43.75537188053297
 20
9.600960640120739
 30
0.0
  0
POINT
  5
74CA
330
6E1C
100
AcDbEntity
  8
DEFPOINTS
 62
     0
100
AcDbPoint
 10
43.75537188053297
 20
8.108912464847612
 30
0.0
  0
ENDBLK
  5
6E26
330
6E1C
100
AcDbEntity
  8
0
100
AcDbBlockEnd
  0
BLOCK
  5
6E30
330
6E27
100
AcDbEntity
  8
0
100
AcDbBlockBegin
  2
*D16
 70
     1
 10
0.0
 20
0.0
 30
0.0
  3
*D16
  1

  0
LINE
  5
74CB
330
6E27
100
AcDbEntity
  8
R-ANNO-DIMS
370
    -2
100
AcDbLine
 10
39.75473148535362
 20
9.600960640120767
 30
0.0
 11
39.75473148535362
 21
7.983912464847612
 31
0.0
  0
LINE
  5
74CC
330
6E27
100
AcDbEntity
  8
R-ANNO-DIMS
370
    -2
100
AcDbLine
 10
39.95473148535362
 20
8.108912464847612
 30
0.0
 11
41.55473148535363
 21
8.108912464847612
 31
0.0
  0
SOLID
  5
74CD
330
6E27
100
AcDbEntity
  8
R-ANNO-DIMS
100
AcDbTrace
 10
39.95473148535362
 20
8.142245798180946
 30
0.0
 11
39.95473148535362
 21
8.075579131514279
 31
0.0
 12
39.75473148535362
 22
8.108912464847612
 32
0.0
 13
39.75473148535362
 23
8.108912464847612
 33
0.0
  0
SOLID
  5
74CE
330
6E27
100
AcDbEntity
  8
R-ANNO-DIMS
100
AcDbTrace
 10
41.55473148535363
 20
8.142245798180946
 30
0.0
 11
41.55473148535363
 21
8.075579131514279
 31
0.0
 12
41.75473148535362
 22
8.108912464847612
 32
0.0
 13
41.75473148535362
 23
8.108912464847612
 33
0.0
  0
MTEXT
  5
74CF
330
6E27
100
AcDbEntity
  8
R-ANNO-DIMS
100
AcDbMText
 10
40.75473148535362
 20
8.295912464847612
 30
0.0
 40
0.25
 41
0.0
 71
     5
 72
     1
  1
\A1;2"
 73
     1
 44
1.0
1001
ACAD
1000
MTEXTBEGIN
1070
    73
1070
     1
1070
    44
1040
1.0
1070
    74
1070
     0
1000
MTEXTEND
  0
POINT
  5
74D0
330
6E27
100
AcDbEntity
  8
DEFPOINTS
 62
     0
100
AcDbPoint
 10
39.75473148535362
 20
9.725960640120767
 30
0.0
  0
POINT
  5
74D1
330
6E27
100
AcDbEntity
  8
DEFPOINTS
 62
     0
100
AcDbPoint
 10
41.75473148535362
 20
9.725960640120767
 30
0.0
  0
POINT
  5
74D2
330
6E27
100
AcDbEntity
  8
DEFPOINTS
 62
     0
100
AcDbPoint
 10
41.75473148535362
 20
8.108912464847612
 30
0.0
  0
ENDBLK
  5
6E31
330
6E27
100
AcDbEntity
  8
0
100
AcDbBlockEnd
  0
BLOCK
  5
6E3B
330
6E32
100
AcDbEntity
  8
0
100
AcDbBlockBegin
  2
*D17
 70
     1
 10
0.0
 20
0.0
 30
0.0
  3
*D17
  1

  0
LINE
  5
73BC
330
6E32
100
AcDbEntity
  8
R-ANNO-DIMS
370
    -2
100
AcDbLine
 10
11.60994497257598
 20
26.99882009931734
 30
0.0
 11
9.840106465451254
 21
26.99882009931734
 31
0.0
  0
LINE
  5
73BD
330
6E32
100
AcDbEntity
  8
R-ANNO-DIMS
370
    -2
100
AcDbLine
 10
9.965106465451254
 20
27.19882009931734
 30
0.0
 11
9.965106465451256
 21
28.79914029690702
 31
0.0
  0
SOLID
  5
73BE
330
6E32
100
AcDbEntity
  8
R-ANNO-DIMS
100
AcDbTrace
 10
9.931773132117921
 20
27.19882009931734
 30
0.0
 11
9.998439798784588
 21
27.19882009931734
 31
0.0
 12
9.965106465451254
 22
26.99882009931734
 32
0.0
 13
9.965106465451254
 23
26.99882009931734
 33
0.0
  0
SOLID
  5
73BF
330
6E32
100
AcDbEntity
  8
R-ANNO-DIMS
100
AcDbTrace
 10
9.931773132117923
 20
28.79914029690702
 30
0.0
 11
9.998439798784589
 21
28.79914029690702
 31
0.0
 12
9.965106465451256
 22
28.99914029690702
 32
0.0
 13
9.965106465451256
 23
28.99914029690702
 33
0.0
  0
MTEXT
  5
73C0
330
6E32
100
AcDbEntity
  8
R-ANNO-DIMS
100
AcDbMText
 10
9.778106465451251
 20
27.99898019811218
 30
0.0
 40
0.25
 41
0.0
 71
     5
 72
     1
  1
\A1;DLO
 11
0.0000000000000001
 21
1.0
 31
0.0
 73
     1
 44
1.0
1001
ACAD
1000
MTEXTBEGIN
1070
    73
1070
     1
1070
    44
1040
1.0
1070
    74
1070
     0
1000
MTEXTEND
  0
POINT
  5
73C1
330
6E32
100
AcDbEntity
  8
DEFPOINTS
 62
     0
100
AcDbPoint
 10
11.73494497257598
 20
26.99882009931734
 30
0.0
  0
POINT
  5
73C2
330
6E32
100
AcDbEntity
  8
DEFPOINTS
 62
     0
100
AcDbPoint
 10
11.46094497257598
 20
28.99914029690702
 30
0.0
  0
POINT
  5
73C3
330
6E32
100
AcDbEntity
  8
DEFPOINTS
 62
     0
100
AcDbPoint
 10
9.965106465451256
 20
28.99914029690702
 30
0.0
  0
ENDBLK
  5
6E3C
330
6E32
100
AcDbEntity
  8
0
100
AcDbBlockEnd
  0
BLOCK
  5
6E46
330
6E3D
100
AcDbEntity
  8
0
100
AcDbBlockBegin
  2
*D18
 70
     1
 10
0.0
 20
0.0
 30
0.0
  3
*D18
  1

  0
LINE
  5
73C4
330
6E3D
100
AcDbEntity
  8
R-ANNO-DIMS
370
    -2
100
AcDbLine
 10
11.57610646545126
 20
24.99882009931734
 30
0.0
 11
9.840106465451256
 21
24.99882009931734
 31
0.0
  0
LINE
  5
73C5
330
6E3D
100
AcDbEntity
  8
R-ANNO-DIMS
370
    -2
100
AcDbLine
 10
9.965106465451256
 20
24.79882009931734
 30
0.0
 11
9.965106465451256
 21
23.19914029690702
 31
0.0
  0
SOLID
  5
73C6
330
6E3D
100
AcDbEntity
  8
R-ANNO-DIMS
100
AcDbTrace
 10
9.931773132117923
 20
24.79882009931734
 30
0.0
 11
9.998439798784589
 21
24.79882009931734
 31
0.0
 12
9.965106465451256
 22
24.99882009931734
 32
0.0
 13
9.965106465451256
 23
24.99882009931734
 33
0.0
  0
SOLID
  5
73C7
330
6E3D
100
AcDbEntity
  8
R-ANNO-DIMS
100
AcDbTrace
 10
9.931773132117923
 20
23.19914029690702
 30
0.0
 11
9.998439798784589
 21
23.19914029690702
 31
0.0
 12
9.965106465451256
 22
22.99914029690702
 32
0.0
 13
9.965106465451256
 23
22.99914029690702
 33
0.0
  0
MTEXT
  5
73C8
330
6E3D
100
AcDbEntity
  8
R-ANNO-DIMS
100
AcDbMText
 10
9.778106465451253
 20
23.99898019811218
 30
0.0
 40
0.25
 41
0.0
 71
     5
 72
     1
  1
\A1;DLO
 11
0.0000000000000001
 21
1.0
 31
0.0
 73
     1
 44
1.0
1001
ACAD
1000
MTEXTBEGIN
1070
    73
1070
     1
1070
    44
1040
1.0
1070
    74
1070
     0
1000
MTEXTEND
  0
POINT
  5
73C9
330
6E3D
100
AcDbEntity
  8
DEFPOINTS
 62
     0
100
AcDbPoint
 10
11.70110646545126
 20
24.99882009931734
 30
0.0
  0
POINT
  5
73CA
330
6E3D
100
AcDbEntity
  8
DEFPOINTS
 62
     0
100
AcDbPoint
 10
11.46094497257598
 20
22.99914029690702
 30
0.0
  0
POINT
  5
73CB
330
6E3D
100
AcDbEntity
  8
DEFPOINTS
 62
     0
100
AcDbPoint
 10
9.965106465451256
 20
22.99914029690702
 30
0.0
  0
ENDBLK
  5
6E47
330
6E3D
100
AcDbEntity
  8
0
100
AcDbBlockEnd
  0
BLOCK
  5
6E51
330
6E48
100
AcDbEntity
  8
0
100
AcDbBlockBegin
  2
*D19
 70
     1
 10
0.0
 20
0.0
 30
0.0
  3
*D19
  1

  0
LINE
  5
7489
330
6E48
100
AcDbEntity
  8
R-ANNO-DIMS
370
    -2
100
AcDbLine
 10
11.60994497257598
 20
26.99882009931734
 30
0.0
 11
9.840106465451256
 21
26.99882009931734
 31
0.0
  0
LINE
  5
748A
330
6E48
100
AcDbEntity
  8
R-ANNO-DIMS
370
    -2
100
AcDbLine
 10
9.965106465451256
 20
26.79882009931735
 30
0.0
 11
9.965106465451256
 21
25.19882009931734
 31
0.0
  0
SOLID
  5
748B
330
6E48
100
AcDbEntity
  8
R-ANNO-DIMS
100
AcDbTrace
 10
9.931773132117923
 20
26.79882009931735
 30
0.0
 11
9.998439798784589
 21
26.79882009931735
 31
0.0
 12
9.965106465451256
 22
26.99882009931734
 32
0.0
 13
9.965106465451256
 23
26.99882009931734
 33
0.0
  0
SOLID
  5
748C
330
6E48
100
AcDbEntity
  8
R-ANNO-DIMS
100
AcDbTrace
 10
9.931773132117923
 20
25.19882009931734
 30
0.0
 11
9.998439798784589
 21
25.19882009931734
 31
0.0
 12
9.965106465451256
 22
24.99882009931734
 32
0.0
 13
9.965106465451256
 23
24.99882009931734
 33
0.0
  0
MTEXT
  5
748D
330
6E48
100
AcDbEntity
  8
R-ANNO-DIMS
100
AcDbMText
 10
9.778106465451253
 20
25.99882009931735
 30
0.0
 40
0.25
 41
0.0
 71
     5
 72
     1
  1
\A1;2"
 11
0.0000000000000001
 21
1.0
 31
0.0
 73
     1
 44
1.0
1001
ACAD
1000
MTEXTBEGIN
1070
    73
1070
     1
1070
    44
1040
1.0
1070
    74
1070
     0
1000
MTEXTEND
  0
POINT
  5
748E
330
6E48
100
AcDbEntity
  8
DEFPOINTS
 62
     0
100
AcDbPoint
 10
11.73494497257598
 20
26.99882009931734
 30
0.0
  0
POINT
  5
748F
330
6E48
100
AcDbEntity
  8
DEFPOINTS
 62
     0
100
AcDbPoint
 10
11.70110646545126
 20
24.99882009931734
 30
0.0
  0
POINT
  5
7490
330
6E48
100
AcDbEntity
  8
DEFPOINTS
 62
     0
100
AcDbPoint
 10
9.965106465451256
 20
24.99882009931734
 30
0.0
  0
ENDBLK
  5
6E52
330
6E48
100
AcDbEntity
  8
0
100
AcDbBlockEnd
  0
BLOCK
  5
6E74
330
6E6B
100
AcDbEntity
  8
0
100
AcDbBlockBegin
  2
*D20
 70
     1
 10
0.0
 20
0.0
 30
0.0
  3
*D20
  1

  0
LINE
  5
7406
330
6E6B
100
AcDbEntity
  8
R-ANNO-DIMS
370
    -2
100
AcDbLine
 10
11.72095473366415
 20
18.61485728045624
 30
0.0
 11
9.950882130179627
 21
18.61485728045624
 31
0.0
  0
LINE
  5
7407
330
6E6B
100
AcDbEntity
  8
R-ANNO-DIMS
370
    -2
100
AcDbLine
 10
10.07588213017962
 20
18.81485728045624
 30
0.0
 11
10.07588213017963
 21
20.41485728045624
 31
0.0
  0
SOLID
  5
7408
330
6E6B
100
AcDbEntity
  8
R-ANNO-DIMS
100
AcDbTrace
 10
10.04254879684629
 20
18.81485728045624
 30
0.0
 11
10.10921546351296
 21
18.81485728045624
 31
0.0
 12
10.07588213017962
 22
18.61485728045624
 32
0.0
 13
10.07588213017962
 23
18.61485728045624
 33
0.0
  0
SOLID
  5
7409
330
6E6B
100
AcDbEntity
  8
R-ANNO-DIMS
100
AcDbTrace
 10
10.04254879684629
 20
20.41485728045624
 30
0.0
 11
10.10921546351296
 21
20.41485728045624
 31
0.0
 12
10.07588213017963
 22
20.61485728045624
 32
0.0
 13
10.07588213017963
 23
20.61485728045624
 33
0.0
  0
MTEXT
  5
740A
330
6E6B
100
AcDbEntity
  8
R-ANNO-DIMS
100
AcDbMText
 10
9.888882130179625
 20
19.61485728045624
 30
0.0
 40
0.25
 41
0.0
 71
     5
 72
     1
  1
\A1;DLO
 11
0.0000000000000001
 21
1.0
 31
0.0
 73
     1
 44
1.0
1001
ACAD
1000
MTEXTBEGIN
1070
    73
1070
     1
1070
    44
1040
1.0
1070
    74
1070
     0
1000
MTEXTEND
  0
POINT
  5
740B
330
6E6B
100
AcDbEntity
  8
DEFPOINTS
 62
     0
100
AcDbPoint
 10
11.84595473366415
 20
18.61485728045624
 30
0.0
  0
POINT
  5
740C
330
6E6B
100
AcDbEntity
  8
DEFPOINTS
 62
     0
100
AcDbPoint
 10
11.57089752613589
 20
20.61485728045624
 30
0.0
  0
POINT
  5
740D
330
6E6B
100
AcDbEntity
  8
DEFPOINTS
 62
     0
100
AcDbPoint
 10
10.07588213017963
 20
20.61485728045624
 30
0.0
  0
ENDBLK
  5
6E75
330
6E6B
100
AcDbEntity
  8
0
100
AcDbBlockEnd
  0
BLOCK
  5
6E7F
330
6E76
100
AcDbEntity
  8
0
100
AcDbBlockBegin
  2
*D21
 70
     1
 10
0.0
 20
0.0
 30
0.0
  3
*D21
  1

  0
LINE
  5
75E9
330
6E76
100
AcDbEntity
  8
R-ANNO-DIMS
370
    -2
100
AcDbLine
 10
9.167909955085548
 20
16.36585728045993
 30
0.0
 11
8.075882130179627
 21
16.36585728045993
 31
0.0
  0
LINE
  5
75EA
330
6E76
100
AcDbEntity
  8
R-ANNO-DIMS
370
    -2
100
AcDbLine
 10
8.200882130179627
 20
16.56585728045993
 30
0.0
 11
8.200882130179628
 21
20.41485728045624
 31
0.0
  0
SOLID
  5
75EB
330
6E76
100
AcDbEntity
  8
R-ANNO-DIMS
100
AcDbTrace
 10
8.167548796846293
 20
16.56585728045993
 30
0.0
 11
8.23421546351296
 21
16.56585728045993
 31
0.0
 12
8.200882130179627
 22
16.36585728045993
 32
0.0
 13
8.200882130179627
 23
16.36585728045993
 33
0.0
  0
SOLID
  5
75EC
330
6E76
100
AcDbEntity
  8
R-ANNO-DIMS
100
AcDbTrace
 10
8.167548796846295
 20
20.41485728045624
 30
0.0
 11
8.234215463512962
 21
20.41485728045624
 31
0.0
 12
8.200882130179628
 22
20.61485728045624
 32
0.0
 13
8.200882130179628
 23
20.61485728045624
 33
0.0
  0
MTEXT
  5
75ED
330
6E76
100
AcDbEntity
  8
R-ANNO-DIMS
100
AcDbMText
 10
8.013882130179625
 20
18.49035728045809
 30
0.0
 40
0.25
 41
0.0
 71
     5
 72
     1
  1
\A1;OD
 11
0.0000000000000001
 21
1.0
 31
0.0
 73
     1
 44
1.0
1001
ACAD
1000
MTEXTBEGIN
1070
    73
1070
     1
1070
    44
1040
1.0
1070
    74
1070
     0
1000
MTEXTEND
  0
POINT
  5
75EE
330
6E76
100
AcDbEntity
  8
DEFPOINTS
 62
     0
100
AcDbPoint
 10
9.292909955085548
 20
16.36585728045993
 30
0.0
  0
POINT
  5
75EF
330
6E76
100
AcDbEntity
  8
DEFPOINTS
 62
     0
100
AcDbPoint
 10
11.57089752613589
 20
20.61485728045624
 30
0.0
  0
POINT
  5
75F0
330
6E76
100
AcDbEntity
  8
DEFPOINTS
 62
     0
100
AcDbPoint
 10
8.200882130179628
 20
20.61485728045624
 30
0.0
  0
ENDBLK
  5
6E80
330
6E76
100
AcDbEntity
  8
0
100
AcDbBlockEnd
  0
BLOCK
  5
6E8A
330
6E81
100
AcDbEntity
  8
0
100
AcDbBlockBegin
  2
*D22
 70
     1
 10
0.0
 20
0.0
 30
0.0
  3
*D22
  1

  0
LINE
  5
73E4
330
6E81
100
AcDbEntity
  8
R-ANNO-DIMS
370
    -2
100
AcDbLine
 10
11.57185473366417
 20
16.61585728046001
 30
0.0
 11
8.700882130179627
 21
16.61585728046001
 31
0.0
  0
LINE
  5
73E5
330
6E81
100
AcDbEntity
  8
R-ANNO-DIMS
370
    -2
100
AcDbLine
 10
8.825882130179627
 20
16.81585728046001
 30
0.0
 11
8.825882130179628
 21
20.41485728045624
 31
0.0
  0
SOLID
  5
73E6
330
6E81
100
AcDbEntity
  8
R-ANNO-DIMS
100
AcDbTrace
 10
8.792548796846293
 20
16.81585728046001
 30
0.0
 11
8.85921546351296
 21
16.81585728046001
 31
0.0
 12
8.825882130179627
 22
16.61585728046001
 32
0.0
 13
8.825882130179627
 23
16.61585728046001
 33
0.0
  0
SOLID
  5
73E7
330
6E81
100
AcDbEntity
  8
R-ANNO-DIMS
100
AcDbTrace
 10
8.792548796846295
 20
20.41485728045624
 30
0.0
 11
8.859215463512962
 21
20.41485728045624
 31
0.0
 12
8.825882130179628
 22
20.61485728045624
 32
0.0
 13
8.825882130179628
 23
20.61485728045624
 33
0.0
  0
MTEXT
  5
73E8
330
6E81
100
AcDbEntity
  8
R-ANNO-DIMS
100
AcDbMText
 10
8.638882130179625
 20
18.61535728045813
 30
0.0
 40
0.25
 41
0.0
 71
     5
 72
     1
  1
\A1;FH
 11
0.0000000000000001
 21
1.0
 31
0.0
 73
     1
 44
1.0
1001
ACAD
1000
MTEXTBEGIN
1070
    73
1070
     1
1070
    44
1040
1.0
1070
    74
1070
     0
1000
MTEXTEND
  0
POINT
  5
73E9
330
6E81
100
AcDbEntity
  8
DEFPOINTS
 62
     0
100
AcDbPoint
 10
11.69685473366417
 20
16.61585728046001
 30
0.0
  0
POINT
  5
73EA
330
6E81
100
AcDbEntity
  8
DEFPOINTS
 62
     0
100
AcDbPoint
 10
11.57089752613589
 20
20.61485728045624
 30
0.0
  0
POINT
  5
73EB
330
6E81
100
AcDbEntity
  8
DEFPOINTS
 62
     0
100
AcDbPoint
 10
8.825882130179628
 20
20.61485728045624
 30
0.0
  0
ENDBLK
  5
6E8B
330
6E81
100
AcDbEntity
  8
0
100
AcDbBlockEnd
  0
BLOCK
  5
6E95
330
6E8C
100
AcDbEntity
  8
0
100
AcDbBlockBegin
  2
*D23
 70
     1
 10
0.0
 20
0.0
 30
0.0
  3
*D23
  1

  0
LINE
  5
75CF
330
6E8C
100
AcDbEntity
  8
R-ANNO-DIMS
370
    -2
100
AcDbLine
 10
9.773860472914662
 20
16.74085728046005
 30
0.0
 11
9.325882130179627
 21
16.74085728046005
 31
0.0
  0
LINE
  5
75D0
330
6E8C
100
AcDbEntity
  8
R-ANNO-DIMS
370
    -2
100
AcDbLine
 10
9.450882130179627
 20
16.94085728046005
 30
0.0
 11
9.450882130179628
 21
20.41485728045624
 31
0.0
  0
SOLID
  5
75D1
330
6E8C
100
AcDbEntity
  8
R-ANNO-DIMS
100
AcDbTrace
 10
9.417548796846293
 20
16.94085728046005
 30
0.0
 11
9.48421546351296
 21
16.94085728046005
 31
0.0
 12
9.450882130179627
 22
16.74085728046005
 32
0.0
 13
9.450882130179627
 23
16.74085728046005
 33
0.0
  0
SOLID
  5
75D2
330
6E8C
100
AcDbEntity
  8
R-ANNO-DIMS
100
AcDbTrace
 10
9.417548796846295
 20
20.41485728045624
 30
0.0
 11
9.484215463512962
 21
20.41485728045624
 31
0.0
 12
9.450882130179628
 22
20.61485728045624
 32
0.0
 13
9.450882130179628
 23
20.61485728045624
 33
0.0
  0
MTEXT
  5
75D3
330
6E8C
100
AcDbEntity
  8
R-ANNO-DIMS
100
AcDbMText
 10
9.263882130179625
 20
18.67785728045815
 30
0.0
 40
0.25
 41
0.0
 71
     5
 72
     1
  1
\A1;MH
 11
0.0000000000000001
 21
1.0
 31
0.0
 73
     1
 44
1.0
1001
ACAD
1000
MTEXTBEGIN
1070
    73
1070
     1
1070
    44
1040
1.0
1070
    74
1070
     0
1000
MTEXTEND
  0
POINT
  5
75D4
330
6E8C
100
AcDbEntity
  8
DEFPOINTS
 62
     0
100
AcDbPoint
 10
9.898860472914662
 20
16.74085728046005
 30
0.0
  0
POINT
  5
75D5
330
6E8C
100
AcDbEntity
  8
DEFPOINTS
 62
     0
100
AcDbPoint
 10
11.57089752613589
 20
20.61485728045624
 30
0.0
  0
POINT
  5
75D6
330
6E8C
100
AcDbEntity
  8
DEFPOINTS
 62
     0
100
AcDbPoint
 10
9.450882130179628
 20
20.61485728045624
 30
0.0
  0
ENDBLK
  5
6E96
330
6E8C
100
AcDbEntity
  8
0
100
AcDbBlockEnd
  0
BLOCK
  5
6EA1
330
6E97
100
AcDbEntity
  8
0
100
AcDbBlockBegin
  2
*D24
 70
     1
 10
0.0
 20
0.0
 30
0.0
  3
*D24
  1

  0
LINE
  5
75E0
330
6E97
100
AcDbEntity
  8
R-ANNO-DIMS
370
    -2
100
AcDbLine
 10
11.57185473366417
 20
16.61585728046001
 30
0.0
 11
8.70088213017963
 21
16.61585728046001
 31
0.0
  0
LINE
  5
75E1
330
6E97
100
AcDbEntity
  8
R-ANNO-DIMS
370
    -2
100
AcDbLine
 10
8.82588213017963
 20
16.81585728046001
 30
0.0
 11
8.82588213017963
 21
17.01585728046001
 31
0.0
  0
LINE
  5
75E2
330
6E97
100
AcDbEntity
  8
R-ANNO-DIMS
370
    -2
100
AcDbLine
 10
8.82588213017963
 20
16.16585728045993
 30
0.0
 11
8.82588213017963
 21
13.42519061379326
 31
0.0
  0
SOLID
  5
75E3
330
6E97
100
AcDbEntity
  8
R-ANNO-DIMS
100
AcDbTrace
 10
8.792548796846297
 20
16.81585728046001
 30
0.0
 11
8.859215463512963
 21
16.81585728046001
 31
0.0
 12
8.82588213017963
 22
16.61585728046001
 32
0.0
 13
8.82588213017963
 23
16.61585728046001
 33
0.0
  0
SOLID
  5
75E4
330
6E97
100
AcDbEntity
  8
R-ANNO-DIMS
100
AcDbTrace
 10
8.792548796846297
 20
16.16585728045993
 30
0.0
 11
8.859215463512963
 21
16.16585728045993
 31
0.0
 12
8.82588213017963
 22
16.36585728045993
 32
0.0
 13
8.82588213017963
 23
16.36585728045993
 33
0.0
  0
MTEXT
  5
75E5
330
6E97
100
AcDbEntity
  8
R-ANNO-DIMS
100
AcDbMText
 10
8.638882130179629
 20
14.6955239471266
 30
0.0
 40
0.25
 41
0.0
 71
     5
 72
     1
  1
\A1;SHIM SPACE
 11
0.0000000000000001
 21
1.0
 31
0.0
 73
     1
 44
1.0
1001
ACAD
1000
MTEXTBEGIN
1070
    73
1070
     1
1070
    44
1040
1.0
1070
    74
1070
     0
1000
MTEXTEND
  0
POINT
  5
75E6
330
6E97
100
AcDbEntity
  8
DEFPOINTS
 62
     0
100
AcDbPoint
 10
11.69685473366417
 20
16.61585728046001
 30
0.0
  0
POINT
  5
75E7
330
6E97
100
AcDbEntity
  8
DEFPOINTS
 62
     0
100
AcDbPoint
 10
11.29728217548466
 20
16.36585728045993
 30
0.0
  0
POINT
  5
75E8
330
6E97
100
AcDbEntity
  8
DEFPOINTS
 62
     0
100
AcDbPoint
 10
8.82588213017963
 20
16.36585728045993
 30
0.0
  0
ENDBLK
  5
6EA2
330
6E97
100
AcDbEntity
  8
0
100
AcDbBlockEnd
  0
BLOCK
  5
6EAD
330
6EA3
100
AcDbEntity
  8
0
100
AcDbBlockBegin
  2
*D25
 70
     1
 10
0.0
 20
0.0
 30
0.0
  3
*D25
  1

  0
LINE
  5
75D7
330
6EA3
100
AcDbEntity
  8
R-ANNO-DIMS
370
    -2
100
AcDbLine
 10
9.773860472914662
 20
16.74085728046005
 30
0.0
 11
9.32588213017963
 21
16.74085728046005
 31
0.0
  0
LINE
  5
75D8
330
6EA3
100
AcDbEntity
  8
R-ANNO-DIMS
370
    -2
100
AcDbLine
 10
9.45088213017963
 20
16.94085728046005
 30
0.0
 11
9.45088213017963
 21
17.14085728046004
 31
0.0
  0
LINE
  5
75D9
330
6EA3
100
AcDbEntity
  8
R-ANNO-DIMS
370
    -2
100
AcDbLine
 10
9.45088213017963
 20
16.41585728046001
 30
0.0
 11
9.45088213017963
 21
15.19704795170498
 31
0.0
  0
SOLID
  5
75DA
330
6EA3
100
AcDbEntity
  8
R-ANNO-DIMS
100
AcDbTrace
 10
9.417548796846297
 20
16.94085728046005
 30
0.0
 11
9.484215463512963
 21
16.94085728046005
 31
0.0
 12
9.45088213017963
 22
16.74085728046005
 32
0.0
 13
9.45088213017963
 23
16.74085728046005
 33
0.0
  0
SOLID
  5
75DB
330
6EA3
100
AcDbEntity
  8
R-ANNO-DIMS
100
AcDbTrace
 10
9.417548796846297
 20
16.41585728046001
 30
0.0
 11
9.484215463512963
 21
16.41585728046001
 31
0.0
 12
9.45088213017963
 22
16.61585728046001
 32
0.0
 13
9.45088213017963
 23
16.61585728046001
 33
0.0
  0
MTEXT
  5
75DC
330
6EA3
100
AcDbEntity
  8
R-ANNO-DIMS
100
AcDbMText
 10
9.263882130179629
 20
15.67571461837165
 30
0.0
 40
0.25
 41
0.0
 71
     5
 72
     1
  1
\A1;1/8"
 11
0.0000000000000001
 21
1.0
 31
0.0
 73
     1
 44
1.0
1001
ACAD
1000
MTEXTBEGIN
1070
    73
1070
     1
1070
    44
1040
1.0
1070
    74
1070
     0
1000
MTEXTEND
  0
POINT
  5
75DD
330
6EA3
100
AcDbEntity
  8
DEFPOINTS
 62
     0
100
AcDbPoint
 10
9.898860472914662
 20
16.74085728046005
 30
0.0
  0
POINT
  5
75DE
330
6EA3
100
AcDbEntity
  8
DEFPOINTS
 62
     0
100
AcDbPoint
 10
11.69685473366417
 20
16.61585728046001
 30
0.0
  0
POINT
  5
75DF
330
6EA3
100
AcDbEntity
  8
DEFPOINTS
 62
     0
100
AcDbPoint
 10
9.45088213017963
 20
16.61585728046001
 30
0.0
  0
ENDBLK
  5
6EAE
330
6EA3
100
AcDbEntity
  8
0
100
AcDbBlockEnd
  0
BLOCK
  5
6EB8
330
6EAF
100
AcDbEntity
  8
0
100
AcDbBlockBegin
  2
*D26
 70
     1
 10
0.0
 20
0.0
 30
0.0
  3
*D26
  1

  0
LINE
  5
73D4
330
6EAF
100
AcDbEntity
  8
R-ANNO-DIMS
370
    -2
100
AcDbLine
 10
11.57185473366417
 20
16.61585728046001
 30
0.0
 11
9.95088213017963
 21
16.61585728046001
 31
0.0
  0
LINE
  5
73D5
330
6EAF
100
AcDbEntity
  8
R-ANNO-DIMS
370
    -2
100
AcDbLine
 10
10.07588213017963
 20
16.81585728046001
 30
0.0
 11
10.07588213017963
 21
18.41485728045624
 31
0.0
  0
SOLID
  5
73D6
330
6EAF
100
AcDbEntity
  8
R-ANNO-DIMS
100
AcDbTrace
 10
10.0425487968463
 20
16.81585728046001
 30
0.0
 11
10.10921546351296
 21
16.81585728046001
 31
0.0
 12
10.07588213017963
 22
16.61585728046001
 32
0.0
 13
10.07588213017963
 23
16.61585728046001
 33
0.0
  0
SOLID
  5
73D7
330
6EAF
100
AcDbEntity
  8
R-ANNO-DIMS
100
AcDbTrace
 10
10.0425487968463
 20
18.41485728045624
 30
0.0
 11
10.10921546351296
 21
18.41485728045624
 31
0.0
 12
10.07588213017963
 22
18.61485728045624
 32
0.0
 13
10.07588213017963
 23
18.61485728045624
 33
0.0
  0
MTEXT
  5
73D8
330
6EAF
100
AcDbEntity
  8
R-ANNO-DIMS
100
AcDbMText
 10
9.888882130179629
 20
17.71114824542477
 30
0.0
 40
0.25
 41
0.0
 71
     5
 72
     1
  1
\A1;2"
 11
0.0000000000000001
 21
1.0
 31
0.0
 73
     1
 44
1.0
1001
ACAD
1000
MTEXTBEGIN
1070
    73
1070
     1
1070
    44
1040
1.0
1070
    74
1070
     0
1000
MTEXTEND
  0
POINT
  5
73D9
330
6EAF
100
AcDbEntity
  8
DEFPOINTS
 62
     0
100
AcDbPoint
 10
11.69685473366417
 20
16.61585728046001
 30
0.0
  0
POINT
  5
73DA
330
6EAF
100
AcDbEntity
  8
DEFPOINTS
 62
     0
100
AcDbPoint
 10
11.84595473366415
 20
18.61485728045624
 30
0.0
  0
POINT
  5
73DB
330
6EAF
100
AcDbEntity
  8
DEFPOINTS
 62
     0
100
AcDbPoint
 10
10.07588213017963
 20
18.61485728045624
 30
0.0
  0
ENDBLK
  5
6EB9
330
6EAF
100
AcDbEntity
  8
0
100
AcDbBlockEnd
  0
BLOCK
  5
7F02
330
7EF6
100
AcDbEntity
  8
0
100
AcDbBlockBegin
  2
Kawneer Logo English
 70
     0
 10
0.0
 20
0.0
 30
0.0
  3
Kawneer Logo English
  1

  0
MTEXT
  5
7EF7
102
{ACAD_XDICTIONARY
360
7F96
102
}
330
7EF6
100
AcDbEntity
  8
Kawneer Logo-English
100
AcDbMText
 10
1.510096758583198
 20
0.0372523876656778
 30
0.0
 40
0.036
 41
0.6125900866323382
 71
     3
 72
     5
  1
{\fArial TUR|b0|i0|c0|p34;\T1.05;AN ARCONIC COMPANY}
 73
     1
 44
1.0
1001
ACAD
1000
ACAD_MTEXT_COLUMN_INFO_BEGIN
1070
    75
1070
     2
1070
    79
1070
     0
1070
    76
1070
     1
1070
    78
1070
     0
1070
    48
1040
0.6125900866323382
1070
    49
1040
1.0
1070
    50
1070
     1
1040
0.0
1000
ACAD_MTEXT_COLUMN_INFO_END
1000
MTEXTBEGIN
1070
    73
1070
     1
1070
    44
1040
1.0
1070
    74
1070
     0
1000
MTEXTEND
  0
HATCH
  5
7EF8
330
7EF6
100
AcDbEntity
  8
Kawneer Logo-English
100
AcDbHatch
 10
0.0
 20
0.0
 30
0.0
210
0.0
220
0.0
230
1.0
  2
SOLID
 70
     1
 71
     0
 91
        1
 92
        1
 93
       81
 72
     1
 10
0.2706169776412204
 20
0.0336337282279411
 11
0.2687512969786691
 21
0.0350329887248546
 72
     1
 10
0.2687512969786696
 20
0.0350329887248547
 11
0.2633408230572721
 21
0.039137486182467
 72
     1
 10
0.2633408230572729
 20
0.0391374861824669
 11
0.2550385441089194
 21
0.0453875164020133
 72
     1
 10
0.2550385441089191
 20
0.0453875164020132
 11
0.2442175962661241
 21
0.053596511317238
 72
     1
 10
0.2442175962661235
 20
0.0535965113172379
 11
0.2314376837276472
 21
0.0632980507625037
 72
     1
 10
0.2314376837276479
 20
0.0632980507625037
 11
0.2172585106922595
 21
0.0741189986052996
 72
     1
 10
0.2172585106922598
 20
0.0741189986052996
 11
0.2019599292593419
 21
0.0856862187131167
 72
     1
 10
0.201959929259341
 20
0.0856862187131167
 11
0.1862882116939105
 21
0.0976265749534437
 72
     1
 10
0.1862882116939102
 20
0.0976265749534437
 11
0.1706164941284813
 21
0.1095669311937706
 72
     1
 10
0.1706164941284811
 20
0.1095669311937709
 11
0.1553179126955632
 21
0.1211341513015875
 72
     1
 10
0.1553179126955642
 20
0.1211341513015876
 11
0.1411387396601757
 21
0.131955099144384
 72
     1
 10
0.1411387396601755
 20
0.1319550991443839
 11
0.1284521111548274
 21
0.141749922622777
 72
     1
 10
0.1284521111548278
 20
0.1417499226227768
 11
0.117631163312031
 21
0.1499589175380016
 72
     1
 10
0.1176311633120304
 20
0.1499589175380017
 11
0.1094221683968068
 21
0.1563022317906752
 72
     1
 10
0.1094221683968062
 20
0.1563022317906754
 11
0.1041049785085351
 21
0.1604067292482882
 72
     1
 10
0.1041049785085351
 20
0.1604067292482878
 11
0.1023325818791119
 21
0.1618992737783286
 72
     1
 10
0.1023325818791116
 20
0.1618992737783289
 11
0.1043848306079176
 21
0.1636716704077524
 72
     1
 10
0.1043848306079194
 20
0.1636716704077524
 11
0.1100751566286996
 21
0.1683358720641301
 72
     1
 10
0.1100751566286986
 20
0.1683358720641301
 11
0.1189371397758159
 21
0.1757053106812067
 72
     1
 10
0.1189371397758161
 20
0.1757053106812067
 11
0.1304110758505067
 21
0.1851269980270901
 72
     1
 10
0.1304110758505059
 20
0.1851269980270902
 11
0.1439372606540007
 21
0.1963210820023967
 72
     1
 10
0.1439372606540017
 20
0.1963210820023967
 11
0.1589559899875385
 21
0.2087278584083611
 72
     1
 10
0.1589559899875379
 20
0.2087278584083611
 11
0.1750941277186041
 21
0.2220674751456017
 72
     1
 10
0.1750941277186047
 20
0.2220674751456017
 11
0.19169868561531
 21
0.2358735120484796
 72
     1
 10
0.1916986856153105
 20
0.2358735120484796
 11
0.208303243512014
 21
0.2495862649182301
 72
     1
 10
0.2083032435120131
 20
0.2495862649182304
 11
0.2244413812430811
 21
0.2628325976223432
 72
     1
 10
0.2244413812430812
 20
0.2628325976223429
 11
0.239460110576618
 21
0.2753326580614352
 72
     1
 10
0.2394601105766174
 20
0.2753326580614351
 11
0.2529862953801122
 21
0.2864334580036143
 72
     1
 10
0.2529862953801132
 20
0.2864334580036143
 11
0.2643669474216756
 21
0.2958551453494973
 72
     1
 10
0.2643669474216757
 20
0.2958551453494973
 11
0.2731356465356649
 21
0.3031312999334466
 72
     1
 10
0.273135646535664
 20
0.3031312999334466
 11
0.2788259725564443
 21
0.3077955015898243
 72
     1
 10
0.278825972556445
 20
0.3077955015898246
 11
0.2807849372521245
 21
0.3094746141861208
 72
     1
 10
0.2807849372521249
 20
0.3094746141861205
 11
0.2798520969208501
 21
0.3094746141861205
 72
     1
 10
0.2798520969208496
 20
0.3094746141861205
 11
0.2769602918938953
 21
0.3095678982192478
 72
     1
 10
0.2769602918938943
 20
0.3095678982192481
 11
0.2724826583037715
 21
0.3095678982192481
 72
     1
 10
0.2724826583037729
 20
0.3095678982192481
 11
0.2666057642167363
 21
0.3095678982192481
 72
     1
 10
0.266605764216735
 20
0.3095678982192481
 11
0.2597027457652953
 21
0.3095678982192481
 72
     1
 10
0.2597027457652956
 20
0.3095678982192481
 11
0.2519601710157094
 21
0.3095678982192481
 72
     1
 10
0.2519601710157104
 20
0.3095678982192481
 11
0.2437511761004851
 21
0.3095678982192481
 72
     1
 10
0.243751176100484
 20
0.3095678982192481
 11
0.2351690450527495
 21
0.3095678982192481
 72
     1
 10
0.2351690450527495
 20
0.3095678982192481
 11
0.2266801980381413
 21
0.3095678982192481
 72
     1
 10
0.2266801980381423
 20
0.3095678982192481
 11
0.2183779190897905
 21
0.3094746141861208
 72
     1
 10
0.2183779190897899
 20
0.3094746141861205
 11
0.2106353443402037
 21
0.3094746141861205
 72
     1
 10
0.2106353443402029
 20
0.3094746141861205
 11
0.2037323258887632
 21
0.3094746141861205
 72
     1
 10
0.203732325888764
 20
0.3094746141861205
 11
0.1978554318017273
 21
0.3094746141861205
 72
     1
 10
0.1978554318017278
 20
0.3094746141861205
 11
0.1932845141784786
 21
0.3094746141861205
 72
     1
 10
0.1932845141784787
 20
0.3094746141861205
 11
0.1903927091515244
 21
0.3094746141861205
 72
     1
 10
0.1903927091515234
 20
0.3094746141861205
 11
0.1893665847871204
 21
0.3094746141861205
 72
     1
 10
0.1893665847871206
 20
0.3094746141861205
 11
0.1879673242902067
 21
0.3077955015898243
 72
     1
 10
0.1879673242902076
 20
0.3077955015898246
 11
0.1841426789319786
 21
0.3030380159003196
 72
     1
 10
0.1841426789319787
 20
0.3030380159003192
 11
0.1780792167786874
 21
0.29576186131637
 72
     1
 10
0.1780792167786873
 20
0.29576186131637
 11
0.170243357995973
 21
0.2862468899373593
 72
     1
 10
0.170243357995973
 20
0.2862468899373593
 11
0.1610082387163447
 21
0.2750528059620528
 72
     1
 10
0.1610082387163438
 20
0.2750528059620528
 11
0.1507469950723126
 21
0.2624594614898328
 72
     1
 10
0.1507469950723133
 20
0.2624594614898328
 11
0.1396461951301336
 21
0.2491198447525922
 72
     1
 10
0.1396461951301333
 20
0.2491198447525922
 11
0.1282655430885727
 21
0.2352205238165866
 72
     1
 10
0.1282655430885726
 20
0.2352205238165868
 11
0.1168848910470102
 21
0.2214144869137089
 72
     1
 10
0.1168848910470102
 20
0.2214144869137087
 11
0.1058773751379587
 21
0.2079815861433408
 72
     1
 10
0.105877375137958
 20
0.2079815861433408
 11
0.0955228474608004
 21
0.1954815257042486
 72
     1
 10
0.0955228474608019
 20
0.1954815257042488
 11
0.0862877281811736
 21
0.1842874417289424
 72
     1
 10
0.0862877281811727
 20
0.1842874417289424
 11
0.0784518693984583
 21
0.1747724703499316
 72
     1
 10
0.0784518693984584
 20
0.1747724703499314
 11
0.0723884072451672
 21
0.1674963157659821
 72
     1
 10
0.0723884072451671
 20
0.1674963157659822
 11
0.0685637618869363
 21
0.1627388300764767
 72
     1
 10
0.0685637618869364
 20
0.1627388300764767
 11
0.0671645013900242
 21
0.1611530015133082
 72
     1
 10
0.0671645013900251
 20
0.1611530015133082
 11
0.0680040576881734
 21
0.1596604569832674
 72
     1
 10
0.0680040576881726
 20
0.1596604569832674
 11
0.0704294425494878
 21
0.1556492435587824
 72
     1
 10
0.0704294425494871
 20
0.1556492435587824
 11
0.0742540879077179
 21
0.1493059293061089
 72
     1
 10
0.0742540879077192
 20
0.1493059293061089
 11
0.0791048576303511
 21
0.1411902184240116
 72
     1
 10
0.0791048576303508
 20
0.1411902184240116
 11
0.0848884676842594
 21
0.1314886789787458
 72
     1
 10
0.0848884676842596
 20
0.1314886789787459
 11
0.0913250659700619
 21
0.1207610151690772
 72
     1
 10
0.0913250659700613
 20
0.1207610151690775
 11
0.0982280844214992
 21
0.1091937950612604
 72
     1
 10
0.0982280844214985
 20
0.1091937950612603
 11
0.1053176709391927
 21
0.0973467228540611
 72
     1
 10
0.105317670939193
 20
0.0973467228540612
 11
0.1124072574568872
 21
0.0854996506468619
 72
     1
 10
0.1124072574568871
 20
0.0854996506468617
 11
0.1193102759083267
 21
0.0739324305390446
 72
     1
 10
0.1193102759083278
 20
0.0739324305390448
 11
0.1257468741941283
 21
0.0632047667293762
 72
     1
 10
0.1257468741941277
 20
0.063204766729376
 11
0.1315304842480362
 21
0.0535032272841102
 72
     1
 10
0.1315304842480365
 20
0.0535032272841104
 11
0.1363812539706702
 21
0.0453875164020132
 72
     1
 10
0.1363812539706699
 20
0.0453875164020132
 11
0.1402058993288989
 21
0.0391374861824667
 72
     1
 10
0.1402058993288988
 20
0.0391374861824669
 11
0.1426312841902157
 21
0.0350329887248546
 72
     1
 10
0.1426312841902164
 20
0.0350329887248547
 11
0.1434708404883648
 21
0.0336337282279412
 72
     1
 10
0.143470840488364
 20
0.0336337282279411
 11
0.2706169776412211
 21
0.0336337282279411
 97
        0
 75
     0
 76
     1
 98
        1
 10
-0.3743130907707726
 20
-0.2500502867693841
1001
ACAD
1010
0.0
1020
0.0
1030
0.0
  0
HATCH
  5
7EF9
330
7EF6
100
AcDbEntity
  8
Kawneer Logo-English
100
AcDbHatch
 10
0.0
 20
0.0
 30
0.0
210
0.0
220
0.0
230
1.0
  2
SOLID
 70
     1
 71
     0
 91
        1
 92
        1
 93
       18
 72
     1
 10
0.0001865656044393
 20
0.2563959993365415
 11
-0.0000000024618153
 21
0.113671428651383
 72
     1
 10
-0.0000000024618159
 20
0.1136714286513832
 11
0.0012126899688416
 21
0.1152572572145516
 72
     1
 10
0.0012126899688421
 20
0.1152572572145516
 11
0.0045709151614355
 21
0.1197348908046738
 72
     1
 10
0.004570915161435
 20
0.119734890804674
 11
0.0098881050497044
 21
0.1268244773223682
 72
     1
 10
0.0098881050497044
 20
0.1268244773223682
 11
0.0166978394680158
 21
0.1359663125688683
 72
     1
 10
0.016697839468016
 20
0.1359663125688683
 11
0.0248135503501131
 21
0.1467872604116651
 72
     1
 10
0.024813550350113
 20
0.1467872604116652
 11
0.0338621015634867
 21
0.1588209006851195
 72
     1
 10
0.0338621015634872
 20
0.1588209006851194
 11
0.0434703569756247
 21
0.1716940972567221
 72
     1
 10
0.0434703569756247
 20
0.1716940972567224
 11
0.0534517485202732
 21
0.1850337139939626
 72
     1
 10
0.0534517485202724
 20
0.1850337139939624
 11
0.0634331400649208
 21
0.1983733307312025
 72
     1
 10
0.0634331400649222
 20
0.1983733307312024
 11
0.0730413954770597
 21
0.2112465273028051
 72
     1
 10
0.0730413954770595
 20
0.2112465273028053
 11
0.0820899466904331
 21
0.2233734516093873
 72
     1
 10
0.0820899466904321
 20
0.2233734516093873
 11
0.0902056575725293
 21
0.2341943994521837
 72
     1
 10
0.0902056575725308
 20
0.2341943994521837
 11
0.0970153919908422
 21
0.2433362346986839
 72
     1
 10
0.0970153919908405
 20
0.2433362346986839
 11
0.1022392978459834
 21
0.2503325371832507
 72
     1
 10
0.1022392978459843
 20
0.2503325371832508
 11
0.1056908070717041
 21
0.2549034548065008
 72
     1
 10
0.1056908070717046
 20
0.254903454806501
 11
0.1069034995023621
 21
0.2564892833696694
 72
     1
 10
0.1069034995023625
 20
0.2564892833696695
 11
0.0001865656044399
 21
0.2563959993365418
 97
        0
 75
     0
 76
     1
 98
        1
 10
-0.3743130907707726
 20
-0.2500502867693841
1001
ACAD
1010
0.0
1020
0.0
1030
0.0
  0
HATCH
  5
7EFA
330
7EF6
100
AcDbEntity
  8
Kawneer Logo-English
100
AcDbHatch
 10
0.0
 20
0.0
 30
0.0
210
0.0
220
0.0
230
1.0
  2
SOLID
 70
     1
 71
     0
 91
        2
 92
       16
 93
       76
 72
     1
 10
1.358402087941634
 20
0.1650709309046659
 11
1.358402087941634
 21
0.16796273593162
 72
     1
 10
1.358402087941634
 20
0.1679627359316202
 11
1.358402087941634
 21
0.1729067896873803
 72
     1
 10
1.358402087941634
 20
0.1729067896873803
 11
1.358402087941634
 21
0.1791568199069267
 72
     1
 10
1.358402087941634
 20
0.1791568199069267
 11
1.358402087941634
 21
0.1861531223914932
 72
     1
 10
1.358402087941634
 20
0.186153122391493
 11
1.358402087941634
 21
0.1931494248760595
 72
     1
 10
1.358402087941634
 20
0.1931494248760596
 11
1.358402087941634
 21
0.1994927391287338
 72
     1
 10
1.358402087941634
 20
0.1994927391287336
 11
1.358402087941634
 21
0.2044367928844937
 72
     1
 10
1.358402087941634
 20
0.2044367928844937
 11
1.358402087941634
 21
0.2072353138783208
 72
     1
 10
1.358402087941634
 20
0.2072353138783208
 11
1.359894632471676
 21
0.2072353138783208
 72
     1
 10
1.359894632471676
 20
0.2072353138783208
 11
1.362693153465502
 21
0.2072353138783208
 72
     1
 10
1.362693153465502
 20
0.2072353138783208
 11
1.366424514790605
 21
0.2072353138783208
 72
     1
 10
1.366424514790606
 20
0.2072353138783208
 11
1.371088716446983
 21
0.2072353138783208
 72
     1
 10
1.371088716446982
 20
0.2072353138783208
 11
1.376405906335254
 21
0.2072353138783208
 72
     1
 10
1.376405906335254
 20
0.2072353138783208
 11
1.382282800422289
 21
0.2072353138783208
 72
     1
 10
1.38228280042229
 20
0.2072353138783208
 11
1.388346262575581
 21
0.2072353138783208
 72
     1
 10
1.388346262575579
 20
0.2072353138783208
 11
1.394596292795125
 21
0.2072353138783208
 72
     1
 10
1.394596292795125
 20
0.2072353138783208
 11
1.400753038981545
 21
0.2072353138783208
 72
     1
 10
1.400753038981546
 20
0.2072353138783208
 11
1.406723217101709
 21
0.2072353138783208
 72
     1
 10
1.406723217101708
 20
0.2072353138783208
 11
1.412320259089362
 21
0.2072353138783208
 72
     1
 10
1.412320259089362
 20
0.2072353138783208
 11
1.417264312845122
 21
0.2072353138783208
 72
     1
 10
1.417264312845123
 20
0.2072353138783208
 11
1.421368810302735
 21
0.2072353138783208
 72
     1
 10
1.421368810302734
 20
0.2072353138783208
 11
1.424540467429071
 21
0.2072353138783208
 72
     1
 10
1.424540467429072
 20
0.2072353138783208
 11
1.426592716157878
 21
0.2072353138783208
 72
     1
 10
1.426592716157878
 20
0.2072353138783208
 11
1.427338988422898
 21
0.2072353138783208
 72
     1
 10
1.427338988422898
 20
0.2072353138783208
 11
1.430977065714873
 21
0.207142029845193
 72
     1
 10
1.430977065714872
 20
0.207142029845193
 11
1.434335290907465
 21
0.2068621777458102
 72
     1
 10
1.434335290907465
 20
0.2068621777458102
 11
1.435921119470633
 21
0.2066756096795552
 72
     1
 10
1.435921119470633
 20
0.206675609679555
 11
1.437413664000673
 21
0.2063957575801723
 72
     1
 10
1.437413664000674
 20
0.2063957575801723
 11
1.438906208530714
 21
0.2061159054807895
 72
     1
 10
1.438906208530714
 20
0.2061159054807898
 11
1.440398753060756
 21
0.2056494853151523
 72
     1
 10
1.440398753060756
 20
0.2056494853151521
 11
1.441704729524542
 21
0.2050897811163865
 72
     1
 10
1.441704729524542
 20
0.2050897811163866
 11
1.443010705988328
 21
0.204530076917621
 72
     1
 10
1.443010705988329
 20
0.204530076917621
 11
1.444223398418986
 21
0.2036905206194736
 72
     1
 10
1.444223398418985
 20
0.2036905206194736
 11
1.445436090849643
 21
0.2028509643213252
 72
     1
 10
1.445436090849643
 20
0.2028509643213252
 11
1.446555499247174
 21
0.2018248399569224
 72
     1
 10
1.446555499247173
 20
0.2018248399569223
 11
1.447581623611576
 21
0.2007054315593917
 72
     1
 10
1.447581623611578
 20
0.2007054315593915
 11
1.448607747975981
 21
0.1993061710624781
 72
     1
 10
1.448607747975981
 20
0.1993061710624781
 11
1.449540588307258
 21
0.1978136265324374
 72
     1
 10
1.449540588307256
 20
0.1978136265324373
 11
1.450380144605403
 21
0.1961345139361415
 72
     1
 10
1.450380144605404
 20
0.1961345139361415
 11
1.451126416870426
 21
0.1944554013398453
 72
     1
 10
1.451126416870426
 20
0.1944554013398454
 11
1.451592837036063
 21
0.1929628568098046
 72
     1
 10
1.451592837036062
 20
0.1929628568098046
 11
1.451965973168573
 21
0.1913770282466361
 72
     1
 10
1.451965973168574
 20
0.1913770282466361
 11
1.452245825267955
 21
0.1899777677497231
 72
     1
 10
1.452245825267954
 20
0.1899777677497231
 11
1.452432393334211
 21
0.188671791285937
 72
     1
 10
1.452432393334211
 20
0.1886717912859369
 11
1.452432393334211
 21
0.1874590988552789
 72
     1
 10
1.452432393334211
 20
0.1874590988552789
 11
1.452525677367338
 21
0.1863396904577482
 72
     1
 10
1.452525677367337
 20
0.1863396904577481
 11
1.452432393334211
 21
0.1844740097951972
 72
     1
 10
1.452432393334211
 20
0.1844740097951974
 11
1.452245825267955
 21
0.1827948971989012
 72
     1
 10
1.452245825267954
 20
0.1827948971989009
 11
1.451872689135445
 21
0.1810225005694773
 72
     1
 10
1.451872689135446
 20
0.1810225005694774
 11
1.451406268969809
 21
0.1794366720063093
 72
     1
 10
1.451406268969809
 20
0.1794366720063094
 11
1.450846564771043
 21
0.1779441274762682
 72
     1
 10
1.450846564771041
 20
0.1779441274762681
 11
1.450100292506021
 21
0.1764515829462274
 72
     1
 10
1.450100292506023
 20
0.1764515829462275
 11
1.449260736207875
 21
0.1750523224493141
 72
     1
 10
1.449260736207873
 20
0.1750523224493139
 11
1.448327895876597
 21
0.1737463459855283
 72
     1
 10
1.448327895876596
 20
0.1737463459855281
 11
1.44702191941281
 21
0.1723470854886151
 72
     1
 10
1.447021919412811
 20
0.1723470854886151
 11
1.445715942949025
 21
0.1711343930579568
 72
     1
 10
1.445715942949026
 20
0.1711343930579568
 11
1.444316682452114
 21
0.1700149846604262
 72
     1
 10
1.444316682452114
 20
0.1700149846604259
 11
1.442824137922072
 21
0.168988860296023
 72
     1
 10
1.442824137922072
 20
0.168988860296023
 11
1.441238309358904
 21
0.1682425880310024
 72
     1
 10
1.441238309358902
 20
0.1682425880310024
 11
1.439559196762608
 21
0.1674963157659821
 72
     1
 10
1.439559196762608
 20
0.1674963157659822
 11
1.437880084166311
 21
0.1669366115672166
 72
     1
 10
1.437880084166311
 20
0.1669366115672167
 11
1.436107687536888
 21
0.1664701914015788
 72
     1
 10
1.436107687536888
 20
0.1664701914015789
 11
1.434242006874337
 21
0.166003771235941
 72
     1
 10
1.434242006874337
 20
0.1660037712359412
 11
1.432376326211786
 21
0.1657239191365588
 72
     1
 10
1.432376326211785
 20
0.1657239191365585
 11
1.430417361516107
 21
0.1655373510703035
 72
     1
 10
1.430417361516108
 20
0.1655373510703037
 11
1.428458396820429
 21
0.1653507830040482
 72
     1
 10
1.428458396820428
 20
0.1653507830040482
 11
1.424353899362817
 21
0.1651642149377932
 72
     1
 10
1.424353899362817
 20
0.1651642149377932
 11
1.420156117872077
 21
0.1650709309046658
 72
     1
 10
1.420156117872076
 20
0.1650709309046659
 11
1.41773073301076
 21
0.1650709309046659
 72
     1
 10
1.417730733010761
 20
0.1650709309046659
 11
1.411107566658704
 21
0.1650709309046659
 72
     1
 10
1.411107566658702
 20
0.1650709309046659
 11
1.401779163345947
 21
0.1650709309046659
 72
     1
 10
1.401779163345949
 20
0.1650709309046659
 11
1.390958215503152
 21
0.1650709309046659
 72
     1
 10
1.390958215503152
 20
0.1650709309046659
 11
1.379950699594101
 21
0.1650709309046659
 72
     1
 10
1.379950699594099
 20
0.1650709309046659
 11
1.369969308049451
 21
0.1650709309046659
 72
     1
 10
1.369969308049451
 20
0.1650709309046659
 11
1.362320017332992
 21
0.1650709309046659
 72
     1
 10
1.362320017332992
 20
0.1650709309046659
 11
1.358402087941635
 21
0.1650709309046659
 97
        0
 92
        1
 93
      107
 72
     1
 10
1.443756978253348
 20
0.1485596570410883
 11
1.446928635379685
 21
0.1492126452729816
 72
     1
 10
1.446928635379685
 20
0.1492126452729817
 11
1.449540588307256
 21
0.1498656335048746
 72
     1
 10
1.449540588307256
 20
0.1498656335048745
 11
1.451872689135445
 21
0.1506119057698948
 72
     1
 10
1.451872689135446
 20
0.1506119057698946
 11
1.45401822189738
 21
0.1514514620680426
 72
     1
 10
1.45401822189738
 20
0.1514514620680425
 11
1.455883902559929
 21
0.1521977343330632
 72
     1
 10
1.455883902559929
 20
0.1521977343330631
 11
1.457563015156225
 21
0.1530372906312111
 72
     1
 10
1.457563015156225
 20
0.1530372906312111
 11
1.459148843719394
 21
0.1539701309624869
 72
     1
 10
1.459148843719394
 20
0.1539701309624866
 11
1.460641388249434
 21
0.1549029712937624
 72
     1
 10
1.460641388249434
 20
0.1549029712937622
 11
1.462133932779476
 21
0.155835811625038
 72
     1
 10
1.462133932779476
 20
0.155835811625038
 11
1.463439909243262
 21
0.1568619359894408
 72
     1
 10
1.463439909243262
 20
0.1568619359894408
 11
1.464745885707048
 21
0.1579813443869714
 72
     1
 10
1.464745885707047
 20
0.1579813443869716
 11
1.465865294104579
 21
0.1591007527845022
 72
     1
 10
1.465865294104579
 20
0.1591007527845025
 11
1.466984702502109
 21
0.1602201611820331
 72
     1
 10
1.466984702502108
 20
0.1602201611820328
 11
1.468010826866511
 21
0.1613395695795634
 72
     1
 10
1.468010826866511
 20
0.1613395695795637
 11
1.468943667197788
 21
0.1625522620102216
 72
     1
 10
1.468943667197788
 20
0.1625522620102216
 11
1.469876507529063
 21
0.1636716704077522
 72
     1
 10
1.469876507529063
 20
0.1636716704077524
 11
1.470622779794084
 21
0.1648843628384107
 72
     1
 10
1.470622779794084
 20
0.1648843628384107
 11
1.471462336092232
 21
0.1661903393021964
 72
     1
 10
1.471462336092232
 20
0.1661903393021967
 11
1.472115324324125
 21
0.1674030317328546
 72
     1
 10
1.472115324324124
 20
0.1674030317328546
 11
1.472768312556016
 21
0.1686157241635125
 72
     1
 10
1.472768312556017
 20
0.1686157241635125
 11
1.473328016754783
 21
0.1699217006272986
 72
     1
 10
1.473328016754782
 20
0.1699217006272989
 11
1.47379443692042
 21
0.1711343930579568
 72
     1
 10
1.47379443692042
 20
0.1711343930579568
 11
1.474260857086057
 21
0.1724403695217425
 72
     1
 10
1.474260857086058
 20
0.1724403695217424
 11
1.474727277251697
 21
0.1736530619524008
 72
     1
 10
1.474727277251697
 20
0.173653061952401
 11
1.475380265483589
 21
0.1760784468137175
 72
     1
 10
1.475380265483588
 20
0.1760784468137173
 11
1.475846685649225
 21
0.1785038316750338
 72
     1
 10
1.475846685649226
 20
0.1785038316750335
 11
1.476219821781737
 21
0.1808359325032223
 72
     1
 10
1.476219821781738
 20
0.1808359325032223
 11
1.47649967388112
 21
0.1830747492982838
 72
     1
 10
1.47649967388112
 20
0.1830747492982838
 11
1.476592957914248
 21
0.1851269980270901
 72
     1
 10
1.476592957914248
 20
0.1851269980270902
 11
1.476686241947374
 21
0.1870859627227688
 72
     1
 10
1.476686241947375
 20
0.1870859627227687
 11
1.476592957914249
 21
0.1888583593521923
 72
     1
 10
1.476592957914248
 20
0.1888583593521922
 11
1.476499673881119
 21
0.1906307559816158
 72
     1
 10
1.47649967388112
 20
0.1906307559816159
 11
1.476406389847991
 21
0.1924031526110394
 72
     1
 10
1.476406389847991
 20
0.1924031526110394
 11
1.476126537748608
 21
0.1940822652073352
 72
     1
 10
1.476126537748608
 20
0.1940822652073352
 11
1.475846685649226
 21
0.195761377803631
 72
     1
 10
1.475846685649226
 20
0.1957613778036309
 11
1.475566833549843
 21
0.1974404903999272
 72
     1
 10
1.475566833549843
 20
0.1974404903999272
 11
1.475100413384206
 21
0.1990263189630953
 72
     1
 10
1.475100413384205
 20
0.1990263189630952
 11
1.474633993218568
 21
0.2006121475262637
 72
     1
 10
1.474633993218568
 20
0.2006121475262639
 11
1.47416757305293
 21
0.2021046920563051
 72
     1
 10
1.474167573052932
 20
0.2021046920563049
 11
1.473514584821038
 21
0.2035972365863457
 72
     1
 10
1.473514584821037
 20
0.2035972365863459
 11
1.472954880622271
 21
0.2050897811163867
 72
     1
 10
1.472954880622272
 20
0.2050897811163866
 11
1.472208608357252
 21
0.2064890416133
 72
     1
 10
1.472208608357252
 20
0.2064890416133001
 11
1.471462336092232
 21
0.2078883021102135
 72
     1
 10
1.471462336092232
 20
0.2078883021102136
 11
1.470622779794083
 21
0.2091942785739993
 72
     1
 10
1.470622779794084
 20
0.2091942785739991
 11
1.469783223495935
 21
0.2105002550377848
 72
     1
 10
1.469783223495934
 20
0.2105002550377851
 11
1.468850383164659
 21
0.2118062315015707
 72
     1
 10
1.468850383164661
 20
0.2118062315015709
 11
1.467917542833386
 21
0.2130189239322288
 72
     1
 10
1.467917542833385
 20
0.2130189239322289
 11
1.466891418468982
 21
0.2141383323297595
 72
     1
 10
1.466891418468982
 20
0.2141383323297595
 11
1.465772010071451
 21
0.2153510247604178
 72
     1
 10
1.46577201007145
 20
0.215351024760418
 11
1.464652601673919
 21
0.2163771491248209
 72
     1
 10
1.46465260167392
 20
0.2163771491248209
 11
1.463533193276389
 21
0.2174032734892238
 72
     1
 10
1.463533193276389
 20
0.2174032734892238
 11
1.462227216812603
 21
0.2184293978536266
 72
     1
 10
1.462227216812602
 20
0.2184293978536266
 11
1.461014524381945
 21
0.2193622381849024
 72
     1
 10
1.461014524381946
 20
0.2193622381849023
 11
1.459615263885032
 21
0.2202950785161781
 72
     1
 10
1.459615263885031
 20
0.2202950785161782
 11
1.458309287421245
 21
0.2211346348143262
 72
     1
 10
1.458309287421246
 20
0.221134634814326
 11
1.456816742891206
 21
0.221974191112474
 72
     1
 10
1.456816742891206
 20
0.2219741911124738
 11
1.455417482394292
 21
0.2227204633774945
 72
     1
 10
1.455417482394291
 20
0.2227204633774944
 11
1.453831653831122
 21
0.2233734516093874
 72
     1
 10
1.453831653831123
 20
0.2233734516093873
 11
1.452339109301082
 21
0.2240264398412803
 72
     1
 10
1.452339109301082
 20
0.2240264398412803
 11
1.450659996704785
 21
0.2245861440400459
 72
     1
 10
1.450659996704787
 20
0.2245861440400457
 11
1.44907416814162
 21
0.2251458482388108
 72
     1
 10
1.449074168141619
 20
0.2251458482388109
 11
1.447301771512194
 21
0.2256122684044489
 72
     1
 10
1.447301771512194
 20
0.2256122684044488
 11
1.445249522783388
 21
0.2261719726032139
 72
     1
 10
1.445249522783388
 20
0.226171972603214
 11
1.44329055808771
 21
0.2265451087357246
 72
     1
 10
1.443290558087712
 20
0.2265451087357244
 11
1.441145025325778
 21
0.2269182448682345
 72
     1
 10
1.441145025325776
 20
0.2269182448682345
 11
1.438906208530714
 21
0.2271980969676173
 72
     1
 10
1.438906208530714
 20
0.2271980969676173
 11
1.436387539636271
 21
0.2273846650338724
 72
     1
 10
1.436387539636271
 20
0.2273846650338724
 11
1.433495734609316
 21
0.2275712331001274
 72
     1
 10
1.433495734609317
 20
0.2275712331001274
 11
1.430044225383597
 21
0.2276645171332552
 72
     1
 10
1.430044225383597
 20
0.2276645171332549
 11
1.42612629599224
 21
0.2277578011663822
 72
     1
 10
1.42612629599224
 20
0.2277578011663825
 11
1.426033011959112
 21
0.2277578011663825
 72
     1
 10
1.426033011959111
 20
0.2277578011663825
 11
1.33489451159349
 21
0.2277578011663825
 72
     1
 10
1.334894511593491
 20
0.2277578011663825
 11
1.334894511593491
 21
0.0926825211976832
 72
     1
 10
1.334894511593491
 20
0.0926825211976832
 11
1.358588656007891
 21
0.0926825211976832
 72
     1
 10
1.358588656007891
 20
0.0926825211976832
 11
1.358588656007891
 21
0.0947347699264896
 72
     1
 10
1.358588656007891
 20
0.0947347699264896
 11
1.358588656007891
 21
0.1001452438478876
 72
     1
 10
1.358588656007891
 20
0.1001452438478875
 11
1.358588656007891
 21
0.1079811026306024
 72
     1
 10
1.358588656007891
 20
0.1079811026306024
 11
1.358588656007891
 21
0.1170296538439752
 72
     1
 10
1.358588656007891
 20
0.1170296538439753
 11
1.358588656007891
 21
0.1262647731236032
 72
     1
 10
1.358588656007891
 20
0.1262647731236031
 11
1.358588656007891
 21
0.1347536201382103
 72
     1
 10
1.358588656007891
 20
0.1347536201382104
 11
1.358588656007891
 21
0.1412835024571394
 72
     1
 10
1.358588656007891
 20
0.1412835024571393
 11
1.358588656007891
 21
0.1448282957159864
 72
     1
 10
1.358588656007891
 20
0.1448282957159865
 11
1.362320017332992
 21
0.1448282957159865
 72
     1
 10
1.362320017332992
 20
0.1448282957159865
 11
1.369409603850688
 21
0.1448282957159865
 72
     1
 10
1.369409603850688
 20
0.1448282957159865
 11
1.378738007163443
 21
0.1448282957159865
 72
     1
 10
1.378738007163443
 20
0.1448282957159865
 11
1.388999250807475
 21
0.1448282957159865
 72
     1
 10
1.388999250807473
 20
0.1448282957159865
 11
1.399260494451505
 21
0.1448282957159865
 72
     1
 10
1.399260494451506
 20
0.1448282957159865
 11
1.408215761631749
 21
0.1448282957159865
 72
     1
 10
1.408215761631748
 20
0.1448282957159865
 11
1.414745643950677
 21
0.1448282957159865
 72
     1
 10
1.414745643950678
 20
0.1448282957159865
 11
1.41773073301076
 21
0.1448282957159865
 72
     1
 10
1.417730733010761
 20
0.1448282957159865
 11
1.420062833838949
 21
0.1420297747221594
 72
     1
 10
1.420062833838949
 20
0.1420297747221597
 11
1.425193455660966
 21
0.1359663125688683
 72
     1
 10
1.425193455660965
 20
0.1359663125688683
 11
1.432283042178659
 21
0.1275707495873888
 72
     1
 10
1.432283042178659
 20
0.1275707495873886
 11
1.440305469027628
 21
0.1180557782083779
 72
     1
 10
1.440305469027629
 20
0.1180557782083781
 11
1.448234611843471
 21
0.1087273748956225
 72
     1
 10
1.448234611843471
 20
0.1087273748956225
 11
1.455044346261782
 21
0.1006116640135252
 72
     1
 10
1.455044346261782
 20
0.1006116640135252
 11
1.459895115984414
 21
0.0948280539596167
 72
     1
 10
1.459895115984414
 20
0.0948280539596169
 11
1.461760796646965
 21
0.0926825211976832
 72
     1
 10
1.461760796646967
 20
0.0926825211976832
 11
1.49254452757906
 21
0.0926825211976832
 72
     1
 10
1.492544527579059
 20
0.0926825211976832
 11
1.490678846916508
 21
0.0948280539596169
 72
     1
 10
1.490678846916508
 20
0.0948280539596169
 11
1.48564150912762
 21
0.100518379980398
 72
     1
 10
1.48564150912762
 20
0.1005183799803981
 11
1.478458638576797
 21
0.1088206589287502
 72
     1
 10
1.478458638576798
 20
0.1088206589287502
 11
1.470063075595318
 21
0.1183356303077609
 72
     1
 10
1.470063075595317
 20
0.118335630307761
 11
1.461480944547582
 21
0.1282237378192818
 72
     1
 10
1.461480944547582
 20
0.1282237378192818
 11
1.453551801731739
 21
0.1372722890326546
 72
     1
 10
1.45355180173174
 20
0.1372722890326546
 11
1.447395055545323
 21
0.1444551595834761
 72
     1
 10
1.447395055545323
 20
0.1444551595834759
 11
1.443756978253349
 21
0.1485596570410882
 97
        0
 75
     0
 76
     1
 98
        1
 10
-0.3743130907707726
 20
-0.2500502867693841
1001
ACAD
1010
0.0
1020
0.0
1030
0.0
  0
HATCH
  5
7EFB
330
7EF6
100
AcDbEntity
  8
Kawneer Logo-English
100
AcDbHatch
 10
0.0
 20
0.0
 30
0.0
210
0.0
220
0.0
230
1.0
  2
SOLID
 70
     1
 71
     0
 91
        1
 92
        1
 93
       87
 72
     1
 10
1.205602841678699
 20
0.1525708704655737
 11
1.207468522341251
 21
0.1525708704655737
 72
     1
 10
1.207468522341252
 20
0.1525708704655737
 11
1.211199883666355
 21
0.1525708704655737
 72
     1
 10
1.211199883666355
 20
0.1525708704655737
 11
1.216517073554626
 21
0.1525708704655737
 72
     1
 10
1.216517073554626
 20
0.1525708704655737
 11
1.223046955873555
 21
0.1525708704655737
 72
     1
 10
1.223046955873553
 20
0.1525708704655737
 11
1.230602962556885
 21
0.1525708704655737
 72
     1
 10
1.230602962556885
 20
0.1525708704655737
 11
1.238998525538365
 21
0.1525708704655737
 72
     1
 10
1.238998525538365
 20
0.1525708704655737
 11
1.247767224652354
 21
0.1525708704655737
 72
     1
 10
1.247767224652355
 20
0.1525708704655737
 11
1.256815775865728
 21
0.1525708704655737
 72
     1
 10
1.256815775865729
 20
0.1525708704655737
 11
1.265771043045974
 21
0.1525708704655737
 72
     1
 10
1.265771043045973
 20
0.1525708704655737
 11
1.274446458126836
 21
0.1525708704655737
 72
     1
 10
1.274446458126837
 20
0.1525708704655737
 11
1.282562169008935
 21
0.1525708704655737
 72
     1
 10
1.282562169008935
 20
0.1525708704655737
 11
1.289745039559756
 21
0.1525708704655737
 72
     1
 10
1.289745039559755
 20
0.1525708704655737
 11
1.295808501713046
 21
0.1525708704655737
 72
     1
 10
1.295808501713046
 20
0.1525708704655737
 11
1.300472703369423
 21
0.1525708704655737
 72
     1
 10
1.300472703369423
 20
0.1525708704655737
 11
1.303457792429505
 21
0.1525708704655737
 72
     1
 10
1.303457792429505
 20
0.1525708704655737
 11
1.304483916793908
 21
0.1525708704655737
 72
     1
 10
1.304483916793908
 20
0.1525708704655737
 11
1.304483916793908
 21
0.1730000737205081
 72
     1
 10
1.304483916793908
 20
0.1730000737205078
 11
1.303457792429505
 21
0.1730000737205078
 72
     1
 10
1.303457792429505
 20
0.1730000737205078
 11
1.300472703369423
 21
0.1730000737205078
 72
     1
 10
1.300472703369423
 20
0.1730000737205078
 11
1.295808501713045
 21
0.1730000737205078
 72
     1
 10
1.295808501713046
 20
0.1730000737205078
 11
1.289745039559754
 21
0.1730000737205078
 72
     1
 10
1.289745039559755
 20
0.1730000737205078
 11
1.282562169008934
 21
0.1730000737205078
 72
     1
 10
1.282562169008935
 20
0.1730000737205078
 11
1.274446458126837
 21
0.1730000737205078
 72
     1
 10
1.274446458126837
 20
0.1730000737205078
 11
1.265771043045975
 21
0.1730000737205078
 72
     1
 10
1.265771043045973
 20
0.1730000737205078
 11
1.256815775865728
 21
0.1730000737205078
 72
     1
 10
1.256815775865729
 20
0.1730000737205078
 11
1.247767224652355
 21
0.1730000737205078
 72
     1
 10
1.247767224652355
 20
0.1730000737205078
 11
1.238998525538365
 21
0.1730000737205078
 72
     1
 10
1.238998525538365
 20
0.1730000737205078
 11
1.230602962556885
 21
0.1730000737205078
 72
     1
 10
1.230602962556885
 20
0.1730000737205078
 11
1.223046955873553
 21
0.1730000737205078
 72
     1
 10
1.223046955873553
 20
0.1730000737205078
 11
1.216517073554625
 21
0.1730000737205078
 72
     1
 10
1.216517073554626
 20
0.1730000737205078
 11
1.211199883666355
 21
0.1730000737205078
 72
     1
 10
1.211199883666355
 20
0.1730000737205078
 11
1.207468522341252
 21
0.1730000737205078
 72
     1
 10
1.207468522341252
 20
0.1730000737205078
 11
1.205602841678701
 21
0.1730000737205078
 72
     1
 10
1.205602841678699
 20
0.1730000737205078
 11
1.205602841678699
 21
0.1754254585818243
 72
     1
 10
1.205602841678699
 20
0.1754254585818245
 11
1.205602841678699
 21
0.1794366720063095
 72
     1
 10
1.205602841678699
 20
0.1794366720063094
 11
1.205602841678699
 21
0.1843807257620694
 72
     1
 10
1.205602841678699
 20
0.1843807257620694
 11
1.205602841678699
 21
0.1898844837165951
 72
     1
 10
1.205602841678699
 20
0.1898844837165951
 11
1.205602841678699
 21
0.1952949576379935
 72
     1
 10
1.205602841678699
 20
0.1952949576379937
 11
1.205602841678699
 21
0.2003322954268815
 72
     1
 10
1.205602841678699
 20
0.2003322954268814
 11
1.205602841678699
 21
0.2042502248182386
 72
     1
 10
1.205602841678699
 20
0.2042502248182386
 11
1.205602841678699
 21
0.206675609679555
 72
     1
 10
1.205602841678699
 20
0.206675609679555
 11
1.207468522341251
 21
0.206675609679555
 72
     1
 10
1.207468522341252
 20
0.206675609679555
 11
1.211293167699483
 21
0.206675609679555
 72
     1
 10
1.211293167699483
 20
0.206675609679555
 11
1.21670364162088
 21
0.206675609679555
 72
     1
 10
1.216703641620879
 20
0.206675609679555
 11
1.223420092006063
 21
0.206675609679555
 72
     1
 10
1.223420092006064
 20
0.206675609679555
 11
1.231255950788778
 21
0.206675609679555
 72
     1
 10
1.231255950788778
 20
0.206675609679555
 11
1.239744797803386
 21
0.206675609679555
 72
     1
 10
1.239744797803385
 20
0.206675609679555
 11
1.248886633049885
 21
0.206675609679555
 72
     1
 10
1.248886633049885
 20
0.206675609679555
 11
1.258121752329513
 21
0.206675609679555
 72
     1
 10
1.258121752329514
 20
0.206675609679555
 11
1.267356871609143
 21
0.206675609679555
 72
     1
 10
1.267356871609142
 20
0.206675609679555
 11
1.276218854756259
 21
0.206675609679555
 72
     1
 10
1.276218854756259
 20
0.206675609679555
 11
1.284521133704611
 21
0.206675609679555
 72
     1
 10
1.284521133704611
 20
0.206675609679555
 11
1.291890572321688
 21
0.206675609679555
 72
     1
 10
1.291890572321688
 20
0.206675609679555
 11
1.298140602541234
 21
0.206675609679555
 72
     1
 10
1.298140602541234
 20
0.206675609679555
 11
1.30289808823074
 21
0.206675609679555
 72
     1
 10
1.30289808823074
 20
0.206675609679555
 11
1.305976461323949
 21
0.206675609679555
 72
     1
 10
1.305976461323949
 20
0.206675609679555
 11
1.30709586972148
 21
0.206675609679555
 72
     1
 10
1.307095869721479
 20
0.206675609679555
 11
1.307095869721479
 21
0.2277578011663822
 72
     1
 10
1.307095869721479
 20
0.2277578011663825
 11
1.304577200827036
 21
0.2277578011663825
 72
     1
 10
1.304577200827037
 20
0.2277578011663825
 11
1.182188549363684
 21
0.2277578011663825
 72
     1
 10
1.182188549363684
 20
0.2277578011663825
 11
1.182188549363684
 21
0.0926825211976832
 72
     1
 10
1.182188549363684
 20
0.0926825211976832
 11
1.311853355410986
 21
0.0926825211976832
 72
     1
 10
1.311853355410985
 20
0.0926825211976832
 11
1.311853355410985
 21
0.113671428651383
 72
     1
 10
1.311853355410985
 20
0.1136714286513832
 11
1.310733947013454
 21
0.1136714286513832
 72
     1
 10
1.310733947013455
 20
0.1136714286513832
 11
1.307469005853991
 21
0.1136714286513832
 72
     1
 10
1.307469005853991
 20
0.1136714286513832
 11
1.302431668065102
 21
0.1136714286513832
 72
     1
 10
1.302431668065103
 20
0.1136714286513832
 11
1.295901785746174
 21
0.1136714286513832
 72
     1
 10
1.295901785746174
 20
0.1136714286513832
 11
1.288159210996586
 21
0.1136714286513832
 72
     1
 10
1.288159210996587
 20
0.1136714286513832
 11
1.279483795915724
 21
0.1136714286513832
 72
     1
 10
1.279483795915723
 20
0.1136714286513832
 11
1.270155392602968
 21
0.1136714286513832
 72
     1
 10
1.270155392602969
 20
0.1136714286513832
 11
1.260547137190832
 21
0.1136714286513832
 72
     1
 10
1.260547137190831
 20
0.1136714286513832
 11
1.250752313712437
 21
0.1136714286513832
 72
     1
 10
1.250752313712437
 20
0.1136714286513832
 11
1.241330626366554
 21
0.1136714286513832
 72
     1
 10
1.241330626366555
 20
0.1136714286513832
 11
1.23237535918631
 21
0.1136714286513832
 72
     1
 10
1.232375359186308
 20
0.1136714286513832
 11
1.224166364271082
 21
0.1136714286513832
 72
     1
 10
1.224166364271083
 20
0.1136714286513832
 11
1.217170061786517
 21
0.1136714286513832
 72
     1
 10
1.217170061786517
 20
0.1136714286513832
 11
1.211479735765737
 21
0.1136714286513832
 72
     1
 10
1.211479735765737
 20
0.1136714286513832
 11
1.20756180637438
 21
0.1136714286513832
 72
     1
 10
1.207561806374379
 20
0.1136714286513832
 11
1.2056028416787
 21
0.1136714286513832
 72
     1
 10
1.205602841678699
 20
0.1136714286513832
 11
1.205602841678699
 21
0.1163766656120825
 72
     1
 10
1.205602841678699
 20
0.1163766656120823
 11
1.205602841678699
 21
0.1209475832353323
 72
     1
 10
1.205602841678699
 20
0.1209475832353325
 11
1.205602841678699
 21
0.1267311932892411
 72
     1
 10
1.205602841678699
 20
0.1267311932892408
 11
1.205602841678699
 21
0.1330745075419143
 72
     1
 10
1.205602841678699
 20
0.1330745075419144
 11
1.205602841678699
 21
0.1395111058277156
 72
     1
 10
1.205602841678699
 20
0.1395111058277158
 11
1.205602841678699
 21
0.1452947158816239
 72
     1
 10
1.205602841678699
 20
0.145294715881624
 11
1.205602841678699
 21
0.1498656335048746
 72
     1
 10
1.205602841678699
 20
0.1498656335048745
 11
1.205602841678699
 21
0.1525708704655738
 97
        0
 75
     0
 76
     1
 98
        1
 10
-0.3743130907707726
 20
-0.2500502867693841
1001
ACAD
1010
0.0
1020
0.0
1030
0.0
  0
HATCH
  5
7EFC
330
7EF6
100
AcDbEntity
  8
Kawneer Logo-English
100
AcDbHatch
 10
0.0
 20
0.0
 30
0.0
210
0.0
220
0.0
230
1.0
  2
SOLID
 70
     1
 71
     0
 91
        1
 92
        1
 93
       87
 72
     1
 10
1.049352086190046
 20
0.1525708704655737
 11
1.051217766852597
 21
0.1525708704655737
 72
     1
 10
1.051217766852596
 20
0.1525708704655737
 11
1.054949128177699
 21
0.1525708704655737
 72
     1
 10
1.0549491281777
 20
0.1525708704655737
 11
1.060173034032843
 21
0.1525708704655737
 72
     1
 10
1.060173034032843
 20
0.1525708704655737
 11
1.0667962003849
 21
0.1525708704655737
 72
     1
 10
1.0667962003849
 20
0.1525708704655737
 11
1.074352207068231
 21
0.1525708704655737
 72
     1
 10
1.074352207068232
 20
0.1525708704655737
 11
1.082747770049711
 21
0.1525708704655737
 72
     1
 10
1.082747770049711
 20
0.1525708704655737
 11
1.0915164691637
 21
0.1525708704655737
 72
     1
 10
1.091516469163701
 20
0.1525708704655737
 11
1.100565020377075
 21
0.1525708704655737
 72
     1
 10
1.100565020377073
 20
0.1525708704655737
 11
1.109520287557319
 21
0.1525708704655737
 72
     1
 10
1.10952028755732
 20
0.1525708704655737
 11
1.118195702638183
 21
0.1525708704655737
 72
     1
 10
1.118195702638182
 20
0.1525708704655737
 11
1.126218129487151
 21
0.1525708704655737
 72
     1
 10
1.126218129487152
 20
0.1525708704655737
 11
1.133401000037974
 21
0.1525708704655737
 72
     1
 10
1.133401000037974
 20
0.1525708704655737
 11
1.139557746224391
 21
0.1525708704655737
 72
     1
 10
1.139557746224392
 20
0.1525708704655737
 11
1.14422194788077
 21
0.1525708704655737
 72
     1
 10
1.144221947880769
 20
0.1525708704655737
 11
1.147207036940851
 21
0.1525708704655737
 72
     1
 10
1.147207036940852
 20
0.1525708704655737
 11
1.148233161305255
 21
0.1525708704655737
 72
     1
 10
1.148233161305255
 20
0.1525708704655737
 11
1.148233161305255
 21
0.1730000737205081
 72
     1
 10
1.148233161305255
 20
0.1730000737205078
 11
1.147207036940852
 21
0.1730000737205078
 72
     1
 10
1.147207036940852
 20
0.1730000737205078
 11
1.14422194788077
 21
0.1730000737205078
 72
     1
 10
1.144221947880769
 20
0.1730000737205078
 11
1.139557746224391
 21
0.1730000737205078
 72
     1
 10
1.139557746224392
 20
0.1730000737205078
 11
1.133494284071101
 21
0.1730000737205078
 72
     1
 10
1.133494284071101
 20
0.1730000737205078
 11
1.126218129487152
 21
0.1730000737205078
 72
     1
 10
1.126218129487152
 20
0.1730000737205078
 11
1.118195702638183
 21
0.1730000737205078
 72
     1
 10
1.118195702638182
 20
0.1730000737205078
 11
1.10952028755732
 21
0.1730000737205078
 72
     1
 10
1.10952028755732
 20
0.1730000737205078
 11
1.100565020377074
 21
0.1730000737205078
 72
     1
 10
1.100565020377073
 20
0.1730000737205078
 11
1.0915164691637
 21
0.1730000737205078
 72
     1
 10
1.091516469163701
 20
0.1730000737205078
 11
1.082747770049712
 21
0.1730000737205078
 72
     1
 10
1.082747770049711
 20
0.1730000737205078
 11
1.074352207068231
 21
0.1730000737205078
 72
     1
 10
1.074352207068232
 20
0.1730000737205078
 11
1.0667962003849
 21
0.1730000737205078
 72
     1
 10
1.0667962003849
 20
0.1730000737205078
 11
1.060173034032843
 21
0.1730000737205078
 72
     1
 10
1.060173034032843
 20
0.1730000737205078
 11
1.054949128177701
 21
0.1730000737205078
 72
     1
 10
1.0549491281777
 20
0.1730000737205078
 11
1.051217766852597
 21
0.1730000737205078
 72
     1
 10
1.051217766852596
 20
0.1730000737205078
 11
1.049352086190045
 21
0.1730000737205078
 72
     1
 10
1.049352086190046
 20
0.1730000737205078
 11
1.049352086190046
 21
0.1754254585818243
 72
     1
 10
1.049352086190046
 20
0.1754254585818245
 11
1.049352086190046
 21
0.1794366720063095
 72
     1
 10
1.049352086190046
 20
0.1794366720063094
 11
1.049352086190046
 21
0.1843807257620694
 72
     1
 10
1.049352086190046
 20
0.1843807257620694
 11
1.049352086190046
 21
0.1898844837165951
 72
     1
 10
1.049352086190046
 20
0.1898844837165951
 11
1.049352086190046
 21
0.1952949576379935
 72
     1
 10
1.049352086190046
 20
0.1952949576379937
 11
1.049352086190046
 21
0.2003322954268815
 72
     1
 10
1.049352086190046
 20
0.2003322954268814
 11
1.049352086190046
 21
0.2042502248182386
 72
     1
 10
1.049352086190046
 20
0.2042502248182386
 11
1.049352086190046
 21
0.206675609679555
 72
     1
 10
1.049352086190046
 20
0.206675609679555
 11
1.051217766852597
 21
0.206675609679555
 72
     1
 10
1.051217766852596
 20
0.206675609679555
 11
1.055042412210825
 21
0.206675609679555
 72
     1
 10
1.055042412210827
 20
0.206675609679555
 11
1.060452886132226
 21
0.206675609679555
 72
     1
 10
1.060452886132225
 20
0.206675609679555
 11
1.067169336517409
 21
0.206675609679555
 72
     1
 10
1.06716933651741
 20
0.206675609679555
 11
1.075005195300124
 21
0.206675609679555
 72
     1
 10
1.075005195300123
 20
0.206675609679555
 11
1.083494042314731
 21
0.206675609679555
 72
     1
 10
1.083494042314732
 20
0.206675609679555
 11
1.092542593528105
 21
0.206675609679555
 72
     1
 10
1.092542593528106
 20
0.206675609679555
 11
1.10187099684086
 21
0.206675609679555
 72
     1
 10
1.101870996840861
 20
0.206675609679555
 11
1.111106116120489
 21
0.206675609679555
 72
     1
 10
1.111106116120488
 20
0.206675609679555
 11
1.119968099267605
 21
0.206675609679555
 72
     1
 10
1.119968099267605
 20
0.206675609679555
 11
1.128270378215957
 21
0.206675609679555
 72
     1
 10
1.128270378215957
 20
0.206675609679555
 11
1.135639816833034
 21
0.206675609679555
 72
     1
 10
1.135639816833034
 20
0.206675609679555
 11
1.14188984705258
 21
0.206675609679555
 72
     1
 10
1.141889847052581
 20
0.206675609679555
 11
1.146647332742086
 21
0.206675609679555
 72
     1
 10
1.146647332742086
 20
0.206675609679555
 11
1.149725705835295
 21
0.206675609679555
 72
     1
 10
1.149725705835296
 20
0.206675609679555
 11
1.150845114232827
 21
0.206675609679555
 72
     1
 10
1.150845114232826
 20
0.206675609679555
 11
1.150845114232826
 21
0.2277578011663822
 72
     1
 10
1.150845114232826
 20
0.2277578011663825
 11
1.148326445338383
 21
0.2277578011663825
 72
     1
 10
1.148326445338383
 20
0.2277578011663825
 11
1.025937793875031
 21
0.2277578011663825
 72
     1
 10
1.025937793875032
 20
0.2277578011663825
 11
1.025937793875032
 21
0.0926825211976832
 72
     1
 10
1.025937793875032
 20
0.0926825211976832
 11
1.155602599922332
 21
0.0926825211976832
 72
     1
 10
1.155602599922332
 20
0.0926825211976832
 11
1.155602599922332
 21
0.113671428651383
 72
     1
 10
1.155602599922332
 20
0.1136714286513832
 11
1.154483191524801
 21
0.1136714286513832
 72
     1
 10
1.154483191524799
 20
0.1136714286513832
 11
1.151218250365336
 21
0.1136714286513832
 72
     1
 10
1.151218250365338
 20
0.1136714286513832
 11
1.146180912576449
 21
0.1136714286513832
 72
     1
 10
1.146180912576449
 20
0.1136714286513832
 11
1.13965103025752
 21
0.1136714286513832
 72
     1
 10
1.13965103025752
 20
0.1136714286513832
 11
1.131908455507932
 21
0.1136714286513832
 72
     1
 10
1.131908455507931
 20
0.1136714286513832
 11
1.12323304042707
 21
0.1136714286513832
 72
     1
 10
1.123233040427071
 20
0.1136714286513832
 11
1.113904637114314
 21
0.1136714286513832
 72
     1
 10
1.113904637114314
 20
0.1136714286513832
 11
1.104296381702177
 21
0.1136714286513832
 72
     1
 10
1.104296381702177
 20
0.1136714286513832
 11
1.094501558223783
 21
0.1136714286513832
 72
     1
 10
1.094501558223784
 20
0.1136714286513832
 11
1.085079870877901
 21
0.1136714286513832
 72
     1
 10
1.085079870877899
 20
0.1136714286513832
 11
1.076124603697654
 21
0.1136714286513832
 72
     1
 10
1.076124603697655
 20
0.1136714286513832
 11
1.067915608782429
 21
0.1136714286513832
 72
     1
 10
1.067915608782429
 20
0.1136714286513832
 11
1.060919306297863
 21
0.1136714286513832
 72
     1
 10
1.060919306297863
 20
0.1136714286513832
 11
1.055228980277083
 21
0.1136714286513832
 72
     1
 10
1.055228980277082
 20
0.1136714286513832
 11
1.051311050885725
 21
0.1136714286513832
 72
     1
 10
1.051311050885726
 20
0.1136714286513832
 11
1.049352086190046
 21
0.1136714286513832
 72
     1
 10
1.049352086190046
 20
0.1136714286513832
 11
1.049352086190046
 21
0.1163766656120825
 72
     1
 10
1.049352086190046
 20
0.1163766656120823
 11
1.049352086190046
 21
0.1209475832353323
 72
     1
 10
1.049352086190046
 20
0.1209475832353325
 11
1.049352086190046
 21
0.1267311932892411
 72
     1
 10
1.049352086190046
 20
0.1267311932892408
 11
1.049352086190046
 21
0.1330745075419143
 72
     1
 10
1.049352086190046
 20
0.1330745075419144
 11
1.049352086190046
 21
0.1395111058277156
 72
     1
 10
1.049352086190046
 20
0.1395111058277158
 11
1.049352086190046
 21
0.1452947158816239
 72
     1
 10
1.049352086190046
 20
0.145294715881624
 11
1.049352086190046
 21
0.1498656335048746
 72
     1
 10
1.049352086190046
 20
0.1498656335048745
 11
1.049352086190046
 21
0.1525708704655738
 97
        0
 75
     0
 76
     1
 98
        1
 10
-0.3743130907707726
 20
-0.2500502867693841
1001
ACAD
1010
0.0
1020
0.0
1030
0.0
  0
HATCH
  5
7EFD
330
7EF6
100
AcDbEntity
  8
Kawneer Logo-English
100
AcDbHatch
 10
0.0
 20
0.0
 30
0.0
210
0.0
220
0.0
230
1.0
  2
SOLID
 70
     1
 71
     0
 91
        1
 92
        1
 93
       42
 72
     1
 10
0.9725793269260698
 20
0.2277578011663825
 11
0.9725793269260698
 21
0.1354998924032311
 72
     1
 10
0.9725793269260698
 20
0.1354998924032311
 11
0.9729524630585808
 21
0.1264513411898582
 72
     1
 10
0.9729524630585796
 20
0.1264513411898583
 11
0.9729524630585796
 21
0.1255185008585825
 72
     1
 10
0.9729524630585796
 20
0.1255185008585824
 11
0.9731390311248343
 21
0.1238393882622866
 72
     1
 10
0.9731390311248349
 20
0.1238393882622866
 11
0.9717397706279211
 21
0.1254252168254551
 72
     1
 10
0.97173977062792
 20
0.1254252168254551
 11
0.9710867823960281
 21
0.1262647731236031
 72
     1
 10
0.9710867823960294
 20
0.1262647731236031
 11
0.9641837639445897
 21
0.1339140638400625
 72
     1
 10
0.9641837639445899
 20
0.1339140638400624
 11
0.8755639324734129
 21
0.2277578011663823
 72
     1
 10
0.8755639324734115
 20
0.2277578011663825
 11
0.8529891964565429
 21
0.2277578011663825
 72
     1
 10
0.8529891964565434
 20
0.2277578011663825
 11
0.8529891964565434
 21
0.0926825211976832
 72
     1
 10
0.8529891964565434
 20
0.0926825211976832
 11
0.8756572165065401
 21
0.0926825211976832
 72
     1
 10
0.875657216506541
 20
0.0926825211976832
 11
0.875657216506541
 21
0.1927762887435495
 72
     1
 10
0.875657216506541
 20
0.1927762887435495
 11
0.875657216506541
 21
0.1931494248760597
 72
     1
 10
0.875657216506541
 20
0.1931494248760596
 11
0.8755639324734129
 21
0.193988981174208
 72
     1
 10
0.8755639324734115
 20
0.1939889811742079
 11
0.8754706484402849
 21
0.1952949576379935
 72
     1
 10
0.8754706484402859
 20
0.1952949576379937
 11
0.8753773644071577
 21
0.1967875021680344
 72
     1
 10
0.875377364407158
 20
0.1967875021680343
 11
0.8755639324734126
 21
0.1965076500686515
 72
     1
 10
0.8755639324734115
 20
0.1965076500686517
 11
0.8756572165065396
 21
0.1963210820023967
 72
     1
 10
0.875657216506541
 20
0.1963210820023967
 11
0.8764967728046894
 21
0.1954815257042487
 72
     1
 10
0.8764967728046887
 20
0.1954815257042488
 11
0.8781758854009835
 21
0.1936158450416976
 72
     1
 10
0.8781758854009842
 20
0.1936158450416973
 11
0.8797617139641527
 21
0.1917501643791464
 72
     1
 10
0.879761713964152
 20
0.1917501643791466
 11
0.8805079862291723
 21
0.1909106080809982
 72
     1
 10
0.8805079862291727
 20
0.190910608080998
 11
0.8816273946267036
 21
0.1897911996834678
 72
     1
 10
0.8816273946267028
 20
0.1897911996834681
 11
0.884519199653657
 21
0.1867128265902584
 72
     1
 10
0.8845191996536581
 20
0.1867128265902582
 11
0.8891834013100353
 21
0.1818620568676254
 72
     1
 10
0.889183401310035
 20
0.1818620568676252
 11
0.8951535794301982
 21
0.1756120266480794
 72
     1
 10
0.8951535794301985
 20
0.1756120266480794
 11
0.9021498819147662
 21
0.1681493039978751
 72
     1
 10
0.9021498819147669
 20
0.1681493039978752
 11
0.9099857406974814
 21
0.1598470250495227
 72
     1
 10
0.9099857406974813
 20
0.1598470250495225
 11
0.9183813036789613
 21
0.1509850419024051
 72
     1
 10
0.9183813036789612
 20
0.1509850419024052
 11
0.9271500027929521
 21
0.1418432066559046
 72
     1
 10
0.9271500027929509
 20
0.1418432066559046
 11
0.9358254178738118
 21
0.1326080873762767
 72
     1
 10
0.9358254178738132
 20
0.1326080873762767
 11
0.9442209808552931
 21
0.1237461042291589
 72
     1
 10
0.9442209808552931
 20
0.1237461042291589
 11
0.9520568396380092
 21
0.1154438252808068
 72
     1
 10
0.9520568396380092
 20
0.1154438252808068
 11
0.9590531421225751
 21
0.1079811026306025
 72
     1
 10
0.959053142122574
 20
0.1079811026306024
 11
0.9650233202427372
 21
0.101731072411056
 72
     1
 10
0.9650233202427376
 20
0.101731072411056
 11
0.9695942378659868
 21
0.0968803026884232
 72
     1
 10
0.9695942378659871
 20
0.096880302688423
 11
0.9725793269260696
 21
0.0938019295952138
 72
     1
 10
0.9725793269260698
 20
0.093801929595214
 11
0.9736054512904727
 21
0.0926825211976834
 72
     1
 10
0.9736054512904726
 20
0.0926825211976832
 11
0.9952473469760661
 21
0.0926825211976832
 72
     1
 10
0.9952473469760651
 20
0.0926825211976832
 11
0.9952473469760651
 21
0.2277578011663825
 72
     1
 10
0.9952473469760651
 20
0.2277578011663825
 11
0.9927286780816201
 21
0.2277578011663825
 72
     1
 10
0.9927286780816203
 20
0.2277578011663825
 11
0.9725793269260686
 21
0.2277578011663825
 97
        0
 75
     0
 76
     1
 98
        1
 10
-0.3743130907707726
 20
-0.2500502867693841
1001
ACAD
1010
0.0
1020
0.0
1030
0.0
  0
HATCH
  5
7EFE
330
7EF6
100
AcDbEntity
  8
Kawneer Logo-English
100
AcDbHatch
 10
0.0
 20
0.0
 30
0.0
210
0.0
220
0.0
230
1.0
  2
SOLID
 70
     1
 71
     0
 91
        2
 92
       16
 93
       32
 72
     1
 10
0.5269615006757409
 20
0.144641727649731
 11
0.5290137494045469
 21
0.148652941074216
 72
     1
 10
0.5290137494045464
 20
0.1486529410742159
 11
0.5322786905640116
 21
0.1551828233931449
 72
     1
 10
0.532278690564012
 20
0.1551828233931452
 11
0.5364764720547521
 21
0.1633918183083696
 72
     1
 10
0.5364764720547526
 20
0.1633918183083696
 11
0.5409541056448736
 21
0.1722538014554874
 72
     1
 10
0.5409541056448726
 20
0.1722538014554873
 11
0.545338455201869
 21
0.1808359325032223
 72
     1
 10
0.5453384552018701
 20
0.1808359325032223
 11
0.5490698165269726
 21
0.1882053711202994
 72
     1
 10
0.549069816526973
 20
0.1882053711202996
 11
0.5515884854214162
 21
0.1932427089091875
 72
     1
 10
0.5515884854214148
 20
0.1932427089091872
 11
0.5526146097858177
 21
0.1952016736048658
 72
     1
 10
0.5526146097858194
 20
0.1952016736048658
 11
0.552801177852074
 21
0.195761377803631
 72
     1
 10
0.5528011778520723
 20
0.1957613778036309
 11
0.5533608820508379
 21
0.1970673542674166
 72
     1
 10
0.5533608820508378
 20
0.1970673542674169
 11
0.5542004383489863
 21
0.1990263189630955
 72
     1
 10
0.5542004383489872
 20
0.1990263189630952
 11
0.5550399946471356
 21
0.2012651357581567
 72
     1
 10
0.5550399946471352
 20
0.2012651357581567
 11
0.5555064148127727
 21
0.2001457273606265
 72
     1
 10
0.5555064148127729
 20
0.2001457273606264
 11
0.5560661190115385
 21
0.198933034929968
 72
     1
 10
0.5560661190115379
 20
0.198933034929968
 11
0.5567191072434298
 21
0.197533774433055
 72
     1
 10
0.5567191072434304
 20
0.197533774433055
 11
0.5574653795084506
 21
0.1959479458698865
 72
     1
 10
0.557465379508451
 20
0.1959479458698865
 11
0.5583049358065995
 21
0.1942688332735902
 72
     1
 10
0.5583049358065986
 20
0.1942688332735903
 11
0.5606370366347874
 21
0.1896046316172126
 72
     1
 10
0.5606370366347871
 20
0.1896046316172126
 11
0.5639952618273804
 21
0.1828881812320289
 72
     1
 10
0.5639952618273814
 20
0.1828881812320287
 11
0.5680064752518651
 21
0.1748657543830587
 72
     1
 10
0.5680064752518637
 20
0.1748657543830589
 11
0.57239082480886
 21
0.1661903393021966
 72
     1
 10
0.5723908248088612
 20
0.1661903393021967
 11
0.5765886062996012
 21
0.1577947763207168
 72
     1
 10
0.5765886062996
 20
0.1577947763207165
 11
0.5803199676247008
 21
0.1503320536705122
 72
     1
 10
0.5803199676247015
 20
0.1503320536705122
 11
0.5831184886185295
 21
0.144641727649731
 72
     1
 10
0.5831184886185295
 20
0.144641727649731
 11
0.5791072751940441
 21
0.144641727649731
 72
     1
 10
0.5791072751940436
 20
0.144641727649731
 11
0.5724841088419869
 21
0.144641727649731
 72
     1
 10
0.5724841088419872
 20
0.144641727649731
 11
0.5641818298936356
 21
0.144641727649731
 72
     1
 10
0.5641818298936352
 20
0.144641727649731
 11
0.5550399946471351
 21
0.144641727649731
 72
     1
 10
0.5550399946471352
 20
0.144641727649731
 11
0.5458981594006351
 21
0.144641727649731
 72
     1
 10
0.5458981594006352
 20
0.144641727649731
 11
0.5375958804522815
 21
0.144641727649731
 72
     1
 10
0.5375958804522814
 20
0.144641727649731
 11
0.5310659981333528
 21
0.144641727649731
 72
     1
 10
0.5310659981333524
 20
0.144641727649731
 11
0.5269615006757405
 21
0.144641727649731
 97
        0
 92
        1
 93
      141
 72
     1
 10
0.5656743744236757
 20
0.2277578011663825
 11
0.544405614870593
 21
0.2277578011663825
 72
     1
 10
0.544405614870593
 20
0.2277578011663825
 11
0.4748157261574382
 21
0.0934287934627039
 72
     1
 10
0.4748157261574378
 20
0.0934287934627039
 11
0.4729500454948865
 21
0.0955743262246376
 72
     1
 10
0.4729500454948874
 20
0.0955743262246376
 11
0.4699649564348049
 21
0.0991191194834847
 72
     1
 10
0.4699649564348043
 20
0.0991191194834847
 11
0.4661403110765752
 21
0.1036900371067346
 72
     1
 10
0.4661403110765754
 20
0.1036900371067347
 11
0.4615693934533244
 21
0.1091005110281331
 72
     1
 10
0.461569393453325
 20
0.109100511028133
 11
0.456345487598182
 21
0.1152572572145517
 72
     1
 10
0.4563454875981812
 20
0.1152572572145516
 11
0.4506551615774008
 21
0.1219737075997353
 72
     1
 10
0.4506551615774015
 20
0.1219737075997354
 11
0.4447782674903648
 21
0.1290632941174296
 72
     1
 10
0.4447782674903636
 20
0.1290632941174296
 11
0.4387148053370722
 21
0.1362461646682511
 72
     1
 10
0.4387148053370727
 20
0.1362461646682512
 11
0.4326513431837832
 21
0.1433357511859454
 72
     1
 10
0.4326513431837844
 20
0.1433357511859453
 11
0.4268677331298759
 21
0.1502387696373844
 72
     1
 10
0.4268677331298756
 20
0.1502387696373844
 11
0.4214572592084763
 21
0.1566753679231857
 72
     1
 10
0.4214572592084754
 20
0.1566753679231858
 11
0.4165132054527153
 21
0.1625522620102216
 72
     1
 10
0.4165132054527163
 20
0.1625522620102216
 11
0.4123154239619763
 21
0.1674963157659821
 72
     1
 10
0.4123154239619753
 20
0.1674963157659822
 11
0.4088639147362555
 21
0.1715075291904667
 72
     1
 10
0.4088639147362568
 20
0.1715075291904669
 11
0.4065318139080681
 21
0.1743993342174211
 72
     1
 10
0.4065318139080665
 20
0.1743993342174211
 11
0.405319121477409
 21
0.1757985947143345
 72
     1
 10
0.4053191214774104
 20
0.1757985947143345
 11
0.4067183819743243
 21
0.1769180031118651
 72
     1
 10
0.4067183819743235
 20
0.1769180031118651
 11
0.4094236189350213
 21
0.1788769678075437
 72
     1
 10
0.4094236189350218
 20
0.1788769678075437
 11
0.4132482642932526
 21
0.1816754888013702
 72
     1
 10
0.4132482642932525
 20
0.1816754888013703
 11
0.4179124659496298
 21
0.1852202820602174
 72
     1
 10
0.417912465949629
 20
0.1852202820602174
 11
0.4232296558379
 21
0.189138211451575
 72
     1
 10
0.4232296558379001
 20
0.1891382114515751
 11
0.4291065499249351
 21
0.1935225610085696
 72
     1
 10
0.4291065499249367
 20
0.1935225610085698
 11
0.4352632961113562
 21
0.1981867626649482
 72
     1
 10
0.4352632961113554
 20
0.1981867626649479
 11
0.4416066103640296
 21
0.2028509643213252
 72
     1
 10
0.4416066103640293
 20
0.2028509643213252
 11
0.4479499246167016
 21
0.2076084500108307
 72
     1
 10
0.4479499246167018
 20
0.2076084500108307
 11
0.4540133867699932
 21
0.2120860836009535
 72
     1
 10
0.4540133867699927
 20
0.2120860836009535
 11
0.4596104287576467
 21
0.2162838650916932
 72
     1
 10
0.4596104287576468
 20
0.216283865091693
 11
0.4646477665465351
 21
0.2200152264167952
 72
     1
 10
0.464647766546535
 20
0.2200152264167951
 11
0.4689388320704013
 21
0.223186883543132
 72
     1
 10
0.4689388320704016
 20
0.2231868835431323
 11
0.4721104891967386
 21
0.2256122684044488
 72
     1
 10
0.4721104891967376
 20
0.2256122684044488
 11
0.4742560219586717
 21
0.2271980969676172
 72
     1
 10
0.4742560219586727
 20
0.2271980969676173
 11
0.475002294223693
 21
0.2277578011663825
 72
     1
 10
0.4750022942236929
 20
0.2277578011663825
 11
0.4674462875403612
 21
0.2277578011663825
 72
     1
 10
0.4674462875403611
 20
0.2277578011663825
 11
0.4395543616352215
 21
0.2277578011663825
 72
     1
 10
0.439554361635222
 20
0.2277578011663825
 11
0.4386215213039473
 21
0.2270115289013622
 72
     1
 10
0.4386215213039466
 20
0.2270115289013622
 11
0.4359162843432469
 21
0.2250525642056836
 72
     1
 10
0.4359162843432465
 20
0.2250525642056836
 11
0.4318117868856346
 21
0.2220674751456017
 72
     1
 10
0.4318117868856351
 20
0.2220674751456017
 11
0.4264013129642376
 21
0.2180562617211167
 72
     1
 10
0.4264013129642379
 20
0.2180562617211168
 11
0.4200579987115638
 21
0.2132987760316117
 72
     1
 10
0.4200579987115641
 20
0.2132987760316114
 11
0.4128751281607416
 21
0.2079815861433408
 72
     1
 10
0.4128751281607408
 20
0.2079815861433408
 11
0.4051325534111546
 21
0.20229126012256
 72
     1
 10
0.4051325534111552
 20
0.20229126012256
 11
0.397016842529058
 21
0.1963210820023964
 72
     1
 10
0.3970168425290583
 20
0.1963210820023967
 11
0.3889011316469611
 21
0.1903509038822331
 72
     1
 10
0.3889011316469611
 20
0.190350903882233
 11
0.3808787047979902
 21
0.1844740097951972
 72
     1
 10
0.3808787047979898
 20
0.1844740097951974
 11
0.3733226981146581
 21
0.1787836837744166
 72
     1
 10
0.373322698114658
 20
0.1787836837744166
 11
0.3663263956300919
 21
0.173653061952401
 72
     1
 10
0.3663263956300931
 20
0.173653061952401
 11
0.3601696494436735
 21
0.169082144329151
 72
     1
 10
0.3601696494436726
 20
0.1690821443291508
 11
0.3550390276216579
 21
0.1653507830040483
 72
     1
 10
0.3550390276216584
 20
0.1653507830040482
 11
0.3513076662965558
 21
0.1625522620102218
 72
     1
 10
0.3513076662965551
 20
0.1625522620102216
 11
0.3490688495014928
 21
0.1609664334470531
 72
     1
 10
0.3490688495014926
 20
0.1609664334470531
 11
0.3490688495014926
 21
0.1631119662089868
 72
     1
 10
0.3490688495014926
 20
0.1631119662089868
 11
0.3490688495014926
 21
0.1662836233353237
 72
     1
 10
0.3490688495014926
 20
0.1662836233353238
 11
0.3490688495014926
 21
0.1702948367598088
 72
     1
 10
0.3490688495014926
 20
0.1702948367598088
 11
0.3490688495014926
 21
0.1749590384161865
 72
     1
 10
0.3490688495014926
 20
0.1749590384161865
 11
0.3490688495014926
 21
0.1801829442713294
 72
     1
 10
0.3490688495014926
 20
0.1801829442713296
 11
0.3490688495014926
 21
0.185779986258983
 72
     1
 10
0.3490688495014926
 20
0.1857799862589829
 11
0.3490688495014926
 21
0.1916568803460187
 72
     1
 10
0.3490688495014926
 20
0.1916568803460186
 11
0.3490688495014926
 21
0.1975337744330549
 72
     1
 10
0.3490688495014926
 20
0.197533774433055
 11
0.3490688495014926
 21
0.2033173844869632
 72
     1
 10
0.3490688495014926
 20
0.2033173844869631
 11
0.3490688495014926
 21
0.2088211424414888
 72
     1
 10
0.3490688495014926
 20
0.2088211424414888
 11
0.3490688495014926
 21
0.2139517642635044
 72
     1
 10
0.3490688495014926
 20
0.2139517642635044
 11
0.3490688495014926
 21
0.2185226818867544
 72
     1
 10
0.3490688495014926
 20
0.2185226818867545
 11
0.3490688495014926
 21
0.2222540432118567
 72
     1
 10
0.3490688495014926
 20
0.2222540432118567
 11
0.3490688495014926
 21
0.2252391322719387
 72
     1
 10
0.3490688495014926
 20
0.2252391322719387
 11
0.3490688495014926
 21
0.2271048129344895
 72
     1
 10
0.3490688495014926
 20
0.2271048129344895
 11
0.3490688495014926
 21
0.2277578011663825
 72
     1
 10
0.3490688495014926
 20
0.2277578011663825
 11
0.3258411252527322
 21
0.2277578011663825
 72
     1
 10
0.3258411252527336
 20
0.2277578011663825
 11
0.3258411252527336
 21
0.0926825211976832
 72
     1
 10
0.3258411252527336
 20
0.0926825211976832
 11
0.3486957133689848
 21
0.0926825211976832
 72
     1
 10
0.3486957133689845
 20
0.0926825211976832
 11
0.3486957133689845
 21
0.0943616337939795
 72
     1
 10
0.3486957133689845
 20
0.0943616337939795
 11
0.3486957133689845
 21
0.0988392673841017
 72
     1
 10
0.3486957133689845
 20
0.0988392673841017
 11
0.3486957133689845
 21
0.1051825816367752
 72
     1
 10
0.3486957133689845
 20
0.1051825816367753
 11
0.3486957133689845
 21
0.1125520202538523
 72
     1
 10
0.3486957133689845
 20
0.1125520202538524
 11
0.3486957133689845
 21
0.1200147429040567
 72
     1
 10
0.3486957133689845
 20
0.1200147429040567
 11
0.3486957133689845
 21
0.1267311932892408
 72
     1
 10
0.3486957133689845
 20
0.1267311932892408
 11
0.3486957133689845
 21
0.1317685310781287
 72
     1
 10
0.3486957133689845
 20
0.1317685310781289
 11
0.3486957133689845
 21
0.1342871999725727
 72
     1
 10
0.3486957133689845
 20
0.1342871999725725
 11
0.3507479620977905
 21
0.1356864604694859
 72
     1
 10
0.35074796209779
 20
0.1356864604694859
 11
0.3548524595554018
 21
0.1387648335626952
 72
     1
 10
0.3548524595554015
 20
0.1387648335626952
 11
0.3605427855761835
 21
0.1428693310203079
 72
     1
 10
0.3605427855761842
 20
0.1428693310203079
 11
0.3668860998288565
 21
0.1476268167098129
 72
     1
 10
0.3668860998288568
 20
0.1476268167098129
 11
0.373322698114659
 21
0.1522910183661906
 72
     1
 10
0.373322698114658
 20
0.1522910183661908
 11
0.3791995922016947
 21
0.1565820838900582
 72
     1
 10
0.3791995922016946
 20
0.1565820838900582
 11
0.3836772257918156
 21
0.1599403090826502
 72
     1
 10
0.3836772257918159
 20
0.1599403090826503
 11
0.386195894686261
 21
0.1618059897452011
 72
     1
 10
0.3861958946862609
 20
0.1618059897452011
 11
0.3873153030837921
 21
0.1604067292482882
 72
     1
 10
0.3873153030837915
 20
0.1604067292482878
 11
0.3894608358457238
 21
0.1577947763207163
 72
     1
 10
0.3894608358457248
 20
0.1577947763207165
 11
0.3925392089389353
 21
0.1541566990287417
 72
     1
 10
0.3925392089389348
 20
0.1541566990287417
 11
0.396457138330292
 21
0.149492497372364
 72
     1
 10
0.3964571383302933
 20
0.149492497372364
 11
0.4009347719204161
 21
0.1442685915172211
 72
     1
 10
0.4009347719204146
 20
0.1442685915172209
 11
0.4057855416430466
 21
0.138391697430185
 72
     1
 10
0.4057855416430463
 20
0.1383916974301853
 11
0.4109161634650628
 21
0.1322349512437666
 72
     1
 10
0.410916163465064
 20
0.1322349512437666
 11
0.4162333533533335
 21
0.1259849210242201
 72
     1
 10
0.4162333533533334
 20
0.1259849210242201
 11
0.4215505432416044
 21
0.1196416067715466
 72
     1
 10
0.4215505432416045
 20
0.1196416067715466
 11
0.4265878810304927
 21
0.113671428651383
 72
     1
 10
0.4265878810304931
 20
0.1136714286513832
 11
0.4312520826868704
 21
0.1079811026306024
 72
     1
 10
0.4312520826868696
 20
0.1079811026306024
 11
0.4355431482107378
 21
0.1029437648417141
 72
     1
 10
0.435543148210738
 20
0.1029437648417139
 11
0.4390879414695842
 21
0.0987459833509739
 72
     1
 10
0.4390879414695843
 20
0.0987459833509741
 11
0.4417931784302841
 21
0.0954810421915098
 72
     1
 10
0.4417931784302845
 20
0.0954810421915096
 11
0.4435655750597076
 21
0.0934287934627037
 72
     1
 10
0.4435655750597074
 20
0.0934287934627039
 11
0.4442185632915993
 21
0.0926825211976832
 72
     1
 10
0.4442185632915985
 20
0.0926825211976832
 11
0.4743493059918004
 21
0.0926825211976832
 72
     1
 10
0.4743493059918001
 20
0.0926825211976832
 11
0.4753754303562029
 21
0.0926825211976832
 72
     1
 10
0.4753754303562033
 20
0.0926825211976832
 11
0.5008419714000258
 21
0.0926825211976832
 72
     1
 10
0.5008419714000265
 20
0.0926825211976832
 11
0.5014949596319184
 21
0.0939884976614689
 72
     1
 10
0.501494959631919
 20
0.0939884976614688
 11
0.5031740722282155
 21
0.0973467228540609
 72
     1
 10
0.503174072228215
 20
0.0973467228540612
 11
0.5055061730564038
 21
0.1021042085435666
 72
     1
 10
0.505506173056403
 20
0.1021042085435665
 11
0.5083046940502291
 21
0.1077012505312196
 72
     1
 10
0.5083046940502292
 20
0.1077012505312194
 11
0.5111032150440553
 21
0.1134848605851279
 72
     1
 10
0.5111032150440549
 20
0.1134848605851281
 11
0.5137151679716264
 21
0.1186154824071433
 72
     1
 10
0.5137151679716277
 20
0.1186154824071433
 11
0.5156741326673071
 21
0.1226266958316283
 72
     1
 10
0.5156741326673076
 20
0.122626695831628
 11
0.5167002570317104
 21
0.1247722285935621
 72
     1
 10
0.5167002570317103
 20
0.1247722285935622
 11
0.5180062334954961
 21
0.1247722285935622
 72
     1
 10
0.5180062334954961
 20
0.1247722285935622
 11
0.5207114704561957
 21
0.1247722285935622
 72
     1
 10
0.5207114704561944
 20
0.1247722285935622
 11
0.5246293998475517
 21
0.1247722285935622
 72
     1
 10
0.5246293998475525
 20
0.1247722285935622
 11
0.5295734536033125
 21
0.1247722285935622
 72
     1
 10
0.5295734536033115
 20
0.1247722285935622
 11
0.5352637796240919
 21
0.1247722285935622
 72
     1
 10
0.5352637796240929
 20
0.1247722285935622
 11
0.5415138098436386
 21
0.1247722285935622
 72
     1
 10
0.5415138098436394
 20
0.1247722285935622
 11
0.5482302602288245
 21
0.1247722285935622
 72
     1
 10
0.5482302602288236
 20
0.1247722285935622
 11
0.5551332786802616
 21
0.1247722285935622
 72
     1
 10
0.5551332786802608
 20
0.1247722285935622
 11
0.5620362971317004
 21
0.1247722285935622
 72
     1
 10
0.5620362971317015
 20
0.1247722285935622
 11
0.5687527475168847
 21
0.1247722285935622
 72
     1
 10
0.5687527475168839
 20
0.1247722285935622
 11
0.5750027777364317
 21
0.1247722285935622
 72
     1
 10
0.5750027777364322
 20
0.1247722285935622
 11
0.5806931037572126
 21
0.1247722285935622
 72
     1
 10
0.5806931037572119
 20
0.1247722285935622
 11
0.585637157512972
 21
0.1247722285935622
 72
     1
 10
0.5856371575129727
 20
0.1247722285935622
 11
0.5895550869043299
 21
0.1247722285935622
 72
     1
 10
0.5895550869043289
 20
0.1247722285935622
 11
0.5922603238650286
 21
0.1247722285935622
 72
     1
 10
0.5922603238650291
 20
0.1247722285935622
 11
0.5935663003288148
 21
0.1247722285935622
 72
     1
 10
0.5935663003288148
 20
0.1247722285935622
 11
0.5945924246932176
 21
0.1226266958316281
 72
     1
 10
0.5945924246932175
 20
0.122626695831628
 11
0.5965513893888953
 21
0.1186154824071431
 72
     1
 10
0.5965513893888957
 20
0.1186154824071433
 11
0.5991633423164672
 21
0.1134848605851281
 72
     1
 10
0.5991633423164667
 20
0.1134848605851281
 11
0.6019618633102946
 21
0.1077012505312196
 72
     1
 10
0.6019618633102959
 20
0.1077012505312194
 11
0.604760384304122
 21
0.1021042085435664
 72
     1
 10
0.6047603843041221
 20
0.1021042085435665
 11
0.6070924851323109
 21
0.0973467228540611
 72
     1
 10
0.6070924851323101
 20
0.0973467228540612
 11
0.6087715977286067
 21
0.0939884976614691
 72
     1
 10
0.6087715977286062
 20
0.0939884976614688
 11
0.609424585960498
 21
0.0926825211976832
 72
     1
 10
0.6094245859604986
 20
0.0926825211976832
 11
0.6363836715343633
 21
0.0926825211976832
 72
     1
 10
0.6363836715343641
 20
0.0926825211976832
 11
0.5671669189537184
 21
0.2277578011663825
 72
     1
 10
0.5671669189537179
 20
0.2277578011663825
 11
0.5656743744236758
 21
0.2277578011663825
 97
        0
 75
     0
 76
     1
 98
        1
 10
-0.3743130907707726
 20
-0.2500502867693841
1001
ACAD
1010
0.0
1020
0.0
1030
0.0
  0
HATCH
  5
7EFF
330
7EF6
100
AcDbEntity
  8
Kawneer Logo-English
100
AcDbHatch
 10
0.0
 20
0.0
 30
0.0
210
0.0
220
0.0
230
1.0
  2
SOLID
 70
     1
 71
     0
 91
        1
 92
        1
 93
       69
 72
     1
 10
0.8092389849197205
 20
0.2277578011663825
 11
0.778921674153266
 21
0.1309289747799811
 72
     1
 10
0.778921674153267
 20
0.1309289747799809
 11
0.7781754018882468
 21
0.1287834420180468
 72
     1
 10
0.7781754018882468
 20
0.1287834420180467
 11
0.7776156976894812
 21
0.1270110453886236
 72
     1
 10
0.7776156976894813
 20
0.1270110453886237
 11
0.7771492775238438
 21
0.1253319327923275
 72
     1
 10
0.7771492775238436
 20
0.1253319327923274
 11
0.7766828573582045
 21
0.1238393882622867
 72
     1
 10
0.7766828573582046
 20
0.1238393882622866
 11
0.7764030052588217
 21
0.1248655126266895
 72
     1
 10
0.776403005258822
 20
0.1248655126266896
 11
0.7761231531594392
 21
0.1259849210242202
 72
     1
 10
0.7761231531594391
 20
0.1259849210242201
 11
0.7759365850931844
 21
0.1268244773223681
 72
     1
 10
0.7759365850931843
 20
0.1268244773223682
 11
0.7758433010600562
 21
0.1271976134548783
 72
     1
 10
0.7758433010600552
 20
0.1271976134548783
 11
0.7755634489606744
 21
0.1280371697530267
 72
     1
 10
0.775563448960674
 20
0.1280371697530267
 11
0.7750970287950349
 21
0.1291565781505569
 72
     1
 10
0.7750970287950363
 20
0.1291565781505568
 11
0.773977620397507
 21
0.1323282352768938
 72
     1
 10
0.7739776203975062
 20
0.1323282352768939
 11
0.7721119397349549
 21
0.1372722890326544
 72
     1
 10
0.7721119397349554
 20
0.1372722890326546
 11
0.7697798389067666
 21
0.1436156032853281
 72
     1
 10
0.769779838906767
 20
0.1436156032853281
 11
0.7670746019460673
 21
0.1511716099686602
 72
     1
 10
0.7670746019460668
 20
0.15117160996866
 11
0.7639962288528581
 21
0.1595671729501399
 72
     1
 10
0.7639962288528582
 20
0.15956717295014
 11
0.7606380036602665
 21
0.1686157241635125
 72
     1
 10
0.7606380036602652
 20
0.1686157241635125
 11
0.7572797784676718
 21
0.1778508434431408
 72
     1
 10
0.7572797784676726
 20
0.1778508434431408
 11
0.753921553275081
 21
0.187179246755896
 72
     1
 10
0.7539215532750814
 20
0.1871792467558961
 11
0.7505633280824898
 21
0.1962277979692689
 72
     1
 10
0.7505633280824902
 20
0.1962277979692689
 11
0.7474849549892814
 21
0.2046233609507488
 72
     1
 10
0.7474849549892797
 20
0.2046233609507488
 11
0.74477971802858
 21
0.2121793676340809
 72
     1
 10
0.7447797180285814
 20
0.2121793676340809
 11
0.7424476172003926
 21
0.2185226818867544
 72
     1
 10
0.7424476172003929
 20
0.2185226818867545
 11
0.7405819365378416
 21
0.2234667356425151
 72
     1
 10
0.7405819365378408
 20
0.2234667356425151
 11
0.7394625281403098
 21
0.2266383927688516
 72
     1
 10
0.7394625281403103
 20
0.2266383927688516
 11
0.7390893920078009
 21
0.2277578011663822
 72
     1
 10
0.7390893920078004
 20
0.2277578011663825
 11
0.7191266089185034
 21
0.2277578011663825
 72
     1
 10
0.7191266089185029
 20
0.2277578011663825
 11
0.6843316645619254
 21
0.1336342117406798
 72
     1
 10
0.6843316645619267
 20
0.1336342117406795
 11
0.6832122561643957
 21
0.130649122680598
 72
     1
 10
0.6832122561643961
 20
0.1306491226805981
 11
0.6823726998662476
 21
0.1282237378192816
 72
     1
 10
0.6823726998662468
 20
0.1282237378192818
 11
0.6817197116343549
 21
0.1260782050573481
 72
     1
 10
0.6817197116343552
 20
0.1260782050573481
 11
0.6811600074355896
 21
0.1241192403616695
 72
     1
 10
0.6811600074355884
 20
0.1241192403616695
 11
0.6808801553362055
 21
0.1250520806929446
 72
     1
 10
0.6808801553362059
 20
0.1250520806929445
 11
0.6805070192036949
 21
0.1261714890904751
 72
     1
 10
0.680507019203696
 20
0.1261714890904752
 11
0.6802271671043131
 21
0.1272908974880058
 72
     1
 10
0.680227167104313
 20
0.1272908974880061
 11
0.6798540309718037
 21
0.1286901579849195
 72
     1
 10
0.6798540309718031
 20
0.1286901579849194
 11
0.6794808948392922
 21
0.12980956638245
 72
     1
 10
0.6794808948392932
 20
0.1298095663824503
 11
0.6784547704748904
 21
0.1328879394756595
 72
     1
 10
0.67845477047489
 20
0.1328879394756595
 11
0.6769622259448497
 21
0.1378319932314196
 72
     1
 10
0.6769622259448496
 20
0.1378319932314196
 11
0.6750032612491701
 21
0.1441753074840938
 72
     1
 10
0.6750032612491697
 20
0.1441753074840937
 11
0.6725778763878547
 21
0.1516380301342981
 72
     1
 10
0.6725778763878556
 20
0.1516380301342981
 11
0.6699659234602841
 21
0.160033593115778
 72
     1
 10
0.6699659234602829
 20
0.160033593115778
 11
0.6671674024664549
 21
0.168988860296023
 72
     1
 10
0.6671674024664554
 20
0.168988860296023
 11
0.6642755974395012
 21
0.1782239795756509
 72
     1
 10
0.6642755974395019
 20
0.178223979575651
 11
0.6613837924125477
 21
0.1874590988552789
 72
     1
 10
0.6613837924125466
 20
0.1874590988552789
 11
0.6585852714187205
 21
0.1964143660355239
 72
     1
 10
0.6585852714187204
 20
0.1964143660355237
 11
0.6559733184911489
 21
0.2047166449838762
 72
     1
 10
0.6559733184911494
 20
0.2047166449838765
 11
0.6536412176629606
 21
0.2122726516672082
 72
     1
 10
0.6536412176629614
 20
0.2122726516672082
 11
0.6515889689341538
 21
0.2186159659198823
 72
     1
 10
0.6515889689341537
 20
0.2186159659198821
 11
0.6500964244041133
 21
0.2234667356425149
 72
     1
 10
0.6500964244041132
 20
0.2234667356425151
 11
0.6490703000397104
 21
0.2266383927688516
 72
     1
 10
0.6490703000397105
 20
0.2266383927688516
 11
0.6487904479403276
 21
0.2277578011663822
 72
     1
 10
0.648790447940328
 20
0.2277578011663825
 11
0.6237903270621445
 21
0.2277578011663825
 72
     1
 10
0.6237903270621437
 20
0.2277578011663825
 11
0.6676338226320932
 21
0.0926825211976832
 72
     1
 10
0.6676338226320926
 20
0.0926825211976832
 11
0.6922608073777669
 21
0.0926825211976832
 72
     1
 10
0.6922608073777666
 20
0.0926825211976832
 11
0.726029627369941
 21
0.1855001341596003
 72
     1
 10
0.7260296273699423
 20
0.1855001341596003
 11
0.7269624677012189
 21
0.1882986551534267
 72
     1
 10
0.7269624677012177
 20
0.1882986551534266
 11
0.7278020239993661
 21
0.1906307559816158
 72
     1
 10
0.727802023999367
 20
0.1906307559816159
 11
0.7284550122312589
 21
0.1927762887435496
 72
     1
 10
0.7284550122312581
 20
0.1927762887435495
 11
0.7290147164300237
 21
0.1947352534392281
 72
     1
 10
0.7290147164300232
 20
0.1947352534392282
 11
0.7298542727281716
 21
0.192216584544784
 72
     1
 10
0.729854272728173
 20
0.1922165845447839
 11
0.7306938290263214
 21
0.1894180635509575
 72
     1
 10
0.7306938290263206
 20
0.1894180635509575
 11
0.7318132374238499
 21
0.1863396904577483
 72
     1
 10
0.7318132374238511
 20
0.1863396904577481
 11
0.7331192138876387
 21
0.1827016131657736
 72
     1
 10
0.7331192138876382
 20
0.1827016131657737
 11
0.7654887733828987
 21
0.0926825211976834
 72
     1
 10
0.7654887733828986
 20
0.0926825211976832
 11
0.7895560539298075
 21
0.0926825211976832
 72
     1
 10
0.7895560539298075
 20
0.0926825211976832
 11
0.8341458217647785
 21
0.2277578011663825
 72
     1
 10
0.8341458217647783
 20
0.2277578011663825
 11
0.830601028505932
 21
0.2277578011663825
 72
     1
 10
0.8306010285059324
 20
0.2277578011663825
 11
0.8092389849197216
 21
0.2277578011663825
 97
        0
 75
     0
 76
     1
 98
        1
 10
-0.3743130907707726
 20
-0.2500502867693841
1001
ACAD
1010
0.0
1020
0.0
1030
0.0
  0
ENDBLK
  5
7F03
330
7EF6
100
AcDbEntity
  8
0
100
AcDbBlockEnd
  0
ENDSEC
  0
SECTION
  2
ENTITIES
  0
TEXT
  5
206E
330
17
100
AcDbEntity
  8
0
  6
Continuous
 62
     7
100
AcDbText
 10
47.01493408066474
 20
5.010874714638497
 30
0.0
 40
0.375
  1
VERTICAL MULLION
 72
     1
 11
49.53301047902764
 21
5.010874714638497
 31
0.0
100
AcDbText
  0
MTEXT
  5
207A
330
17
100
AcDbEntity
  8
0
100
AcDbMText
 10
46.45461269695144
 20
18.42810404255896
 30
0.0
 40
0.375
 41
15.25
 71
     2
 72
     5
  1
ELEVATION SCALE: 1/8" = 1'-0"
 73
     1
 44
1.0
1001
ACAD
1000
MTEXTBEGIN
1070
    73
1070
     1
1070
    44
1040
1.0
1070
    74
1070
     0
1000
MTEXTEND
  0
TEXT
  5
207B
330
17
100
AcDbEntity
  8
0
  6
Continuous
100
AcDbText
 10
42.77411289253363
 20
18.8578867856469
 30
0.0
 40
0.5
  1
TYPICAL ELEVATION
 72
     1
 11
46.2870733290957
 21
18.8578867856469
 31
0.0
100
AcDbText
  0
MTEXT
  5
2082
330
17
100
AcDbEntity
  8
0
 62
     2
100
AcDbMText
 10
19.60790140209769
 20
6.884496034123785
 30
0.0
 40
0.375
 41
11.91800541288839
 71
     2
 72
     5
  1
DETAIL SCALE: 1" = 1"
 73
     1
 44
1.0
1001
ACAD
1000
MTEXTBEGIN
1070
    73
1070
     1
1070
    44
1040
1.0
1070
    74
1070
     0
1000
MTEXTEND
  0
LINE
  5
2085
330
17
100
AcDbEntity
  8
0
100
AcDbLine
 10
0.0
 20
0.0
 30
0.0
 11
0.0
 21
42.16016963571056
 31
0.0
  0
LINE
  5
2088
330
17
100
AcDbEntity
  8
0
100
AcDbLine
 10
0.0
 20
0.0
 30
0.0
 11
67.85899319401801
 21
0.0
 31
0.0
  0
MTEXT
  5
2099
330
17
100
AcDbEntity
  8
0
 62
     2
100
AcDbMText
 10
19.60790140209769
 20
10.86070015546551
 30
0.0
 40
0.5
 41
21.55924288843266
 71
     2
 72
     5
  1
TRIFAB™ VG 450 FRAMING SYSTEM 2" SIGHTLINE{\fCalibri|b1|i0|c0|p34;\H0.91667x;\C256; \P}FRONT SET - STICK ASSEMBLY OUTSIDE GLAZED\P(1/4" INFILL)
 73
     1
 44
1.0
1001
ACAD
1000
MTEXTBEGIN
1070
    73
1070
     1
1070
    44
1040
1.0
1070
    74
1070
     0
1000
MTEXTEND
  0
MTEXT
  5
2FFF
330
17
100
AcDbEntity
  8
0
 62
     7
100
AcDbMText
 10
5.146880908301227
 20
25.68058231623008
 30
0.0
 40
0.375
 41
7.34375
 71
     2
 72
     5
  1
HORIZONTAL
 73
     1
 44
1.0
1001
ACAD
1000
MTEXTBEGIN
1070
    73
1070
     1
1070
    44
1040
1.0
1070
    74
1070
     0
1000
MTEXTEND
  0
TEXT
  5
4558
330
17
100
AcDbEntity
  8
0
  6
Continuous
 62
     2
100
AcDbText
 10
3.888453724269251
 20
26.16304839564416
 30
0.0
 40
0.375
  1
DETAIL 2
 72
     1
 11
5.023941445960929
 21
26.16304839564416
 31
0.0
100
AcDbText
  0
TEXT
  5
455C
330
17
100
AcDbEntity
  8
0
  6
Continuous
 62
     2
100
AcDbText
 10
3.888453724269251
 20
35.94837481697757
 30
0.0
 40
0.375
  1
DETAIL 1
 72
     1
 11
5.023941445960929
 21
35.94837481697757
 31
0.0
100
AcDbText
  0
LINE
  5
4562
330
17
100
AcDbEntity
  8
0
 62
     2
100
AcDbLine
 10
43.25057492896038
 20
22.86486771112079
 30
0.0
 11
43.25057492896038
 21
21.2024371020867
 31
0.0
  0
TEXT
  5
4565
330
17
100
AcDbEntity
  8
0
  6
Continuous
 62
     2
100
AcDbText
 10
29.5448957239636
 20
32.3019991782549
 30
0.0
 40
0.375
  1
DETAIL 4
 72
     1
 11
30.68038344565528
 21
32.3019991782549
 31
0.0
100
AcDbText
  0
TEXT
  5
4567
330
17
100
AcDbEntity
  8
0
  6
Continuous
 62
     2
100
AcDbText
 10
41.95505914596938
 20
32.3019991782549
 30
0.0
 40
0.375
  1
DETAIL 5
 72
     1
 11
43.09054686766105
 21
32.3019991782549
 31
0.0
100
AcDbText
  0
LINE
  5
4569
330
17
100
AcDbEntity
  8
0
 62
     2
100
AcDbLine
 10
34.92640534673061
 20
32.57550013853423
 30
0.0
 11
33.09662683951061
 21
32.57550013853423
 31
0.0
  0
LINE
  5
456B
330
17
100
AcDbEntity
  8
0
 62
     2
100
AcDbLine
 10
47.36268232945903
 20
32.57550013853423
 30
0.0
 11
45.53290382223903
 21
32.57550013853423
 31
0.0
  0
TEXT
  5
456F
330
17
100
AcDbEntity
  8
0
  6
Continuous
 62
     2
100
AcDbText
 10
42.13197603563722
 20
27.87361239128761
 30
0.0
 40
0.375
  1
DETAIL 2
 72
     1
 11
43.2674637573289
 21
27.87361239128761
 31
0.0
100
AcDbText
  0
LINE
  5
4570
330
17
100
AcDbEntity
  8
0
 62
     2
100
AcDbLine
 10
43.25057492896033
 20
27.57966008881208
 30
0.0
 11
43.25057492896033
 21
25.91722947977799
 31
0.0
  0
TEXT
  5
4571
330
17
100
AcDbEntity
  8
0
  6
Continuous
 62
     2
100
AcDbText
 10
42.15507373357801
 20
38.21345805181504
 30
0.0
 40
0.375
  1
DETAIL 1
 72
     1
 11
43.29056145526968
 21
38.21345805181504
 31
0.0
100
AcDbText
  0
LINE
  5
4572
330
17
100
AcDbEntity
  8
0
 62
     2
100
AcDbLine
 10
43.25057492896033
 20
37.83161635235375
 30
0.0
 11
43.25057492896033
 21
36.16918574331966
 31
0.0
  0
TEXT
  5
457D
330
17
100
AcDbEntity
  8
0
  6
Continuous
 62
     2
100
AcDbText
 10
48.41266545218528
 20
5.810610442187048
 30
0.0
 40
0.375
  1
DETAIL 5
 72
     1
 11
49.54815317387695
 21
5.810610442187048
 31
0.0
100
AcDbText
  0
TEXT
  5
4582
330
17
100
AcDbEntity
  8
0
  6
Continuous
 62
     2
100
AcDbText
 10
3.888453724269251
 20
18.72474008254273
 30
0.0
 40
0.375
  1
DETAIL 3
 72
     1
 11
5.023941445960929
 21
18.72474008254273
 31
0.0
100
AcDbText
  0
TEXT
  5
47E4
330
17
100
AcDbEntity
  8
0
  6
Continuous
 62
     2
100
AcDbText
 10
42.15507403658981
 20
20.38988575338219
 30
0.0
 40
0.375
  1
DETAIL 3
 72
     1
 11
43.29056175828148
 21
20.38988575338219
 31
0.0
100
AcDbText
  0
LINE
  5
4AC6
330
17
100
AcDbEntity
  8
0
100
AcDbLine
 10
33.87382872072834
 20
37.06192812137428
 30
0.0
 11
58.70582872072833
 21
37.06192812137427
 31
0.0
  0
LINE
  5
4AC7
330
17
100
AcDbEntity
  8
0
100
AcDbLine
 10
58.70582872072833
 20
22.21392812137427
 30
0.0
 11
33.87382872072834
 21
22.21392812137428
 31
0.0
  0
LINE
  5
4AC8
330
17
100
AcDbEntity
  8
0
100
AcDbLine
 10
40.01782872072834
 20
26.82192812137428
 30
0.0
 11
34.12982872072834
 21
26.82192812137428
 31
0.0
  0
LINE
  5
4AC9
330
17
100
AcDbEntity
  8
0
100
AcDbLine
 10
40.01782872072834
 20
26.56592812137429
 30
0.0
 11
34.12982872072834
 21
26.56592812137429
 31
0.0
  0
LINE
  5
4ACA
330
17
100
AcDbEntity
  8
0
100
AcDbLine
 10
33.87382872072834
 20
37.31792812137428
 30
0.0
 11
58.70582872072834
 21
37.31792812137428
 31
0.0
  0
LINE
  5
4ACB
330
17
100
AcDbEntity
  8
0
100
AcDbLine
 10
58.70582872072834
 20
21.95792812137428
 30
0.0
 11
33.87382872072834
 21
21.95792812137428
 31
0.0
  0
LINE
  5
4ACC
330
17
100
AcDbEntity
  8
0
100
AcDbLine
 10
33.87382872072834
 20
21.95792812137428
 30
0.0
 11
33.87382872072834
 21
37.31792812137428
 31
0.0
  0
LINE
  5
4ACD
330
17
100
AcDbEntity
  8
0
100
AcDbLine
 10
34.12982872072834
 20
22.21392812137428
 30
0.0
 11
34.12982872072834
 21
37.06192812137428
 31
0.0
  0
LINE
  5
4ACE
330
17
100
AcDbEntity
  8
0
100
AcDbLine
 10
46.41782872072833
 20
22.21392812137428
 30
0.0
 11
46.41782872072833
 21
37.06192812137427
 31
0.0
  0
LINE
  5
4ACF
330
17
100
AcDbEntity
  8
0
100
AcDbLine
 10
52.56182872072834
 20
22.21392812137427
 30
0.0
 11
52.56182872072834
 21
37.06192812137428
 31
0.0
  0
LINE
  5
4AD0
330
17
100
AcDbEntity
  8
0
100
AcDbLine
 10
52.30582872072833
 20
22.21392812137427
 30
0.0
 11
52.30582872072834
 21
37.06192812137428
 31
0.0
  0
LINE
  5
4AD1
330
17
100
AcDbEntity
  8
0
100
AcDbLine
 10
58.44982872072833
 20
22.21392812137427
 30
0.0
 11
58.44982872072833
 21
37.06192812137428
 31
0.0
  0
LINE
  5
4AD2
330
17
100
AcDbEntity
  8
0
100
AcDbLine
 10
58.70582872072834
 20
21.95792812137428
 30
0.0
 11
58.70582872072834
 21
37.31792812137428
 31
0.0
  0
LINE
  5
4AD3
330
17
100
AcDbEntity
  8
0
100
AcDbLine
 10
46.16182872072834
 20
22.21392812137428
 30
0.0
 11
46.16182872072833
 21
37.06192812137427
 31
0.0
  0
LINE
  5
4AD4
330
17
100
AcDbEntity
  8
0
100
AcDbLine
 10
40.27382872072834
 20
22.21392812137428
 30
0.0
 11
40.27382872072834
 21
37.06192812137428
 31
0.0
  0
LINE
  5
4AD5
330
17
100
AcDbEntity
  8
0
100
AcDbLine
 10
40.01782872072833
 20
22.21392812137428
 30
0.0
 11
40.01782872072834
 21
37.06192812137428
 31
0.0
  0
LINE
  5
4ADA
330
17
100
AcDbEntity
  8
0
100
AcDbLine
 10
58.44982872072833
 20
26.82192812137428
 30
0.0
 11
52.56182872072833
 21
26.82192812137428
 31
0.0
  0
LINE
  5
4ADB
330
17
100
AcDbEntity
  8
0
100
AcDbLine
 10
58.44982872072833
 20
26.56592812137429
 30
0.0
 11
52.56182872072833
 21
26.56592812137429
 31
0.0
  0
LINE
  5
4ADC
330
17
100
AcDbEntity
  8
0
100
AcDbLine
 10
52.30582872072833
 20
26.82192812137428
 30
0.0
 11
46.41782872072835
 21
26.82192812137428
 31
0.0
  0
LINE
  5
4ADD
330
17
100
AcDbEntity
  8
0
100
AcDbLine
 10
52.30582872072833
 20
26.56592812137429
 30
0.0
 11
46.41782872072835
 21
26.56592812137429
 31
0.0
  0
LINE
  5
4ADE
330
17
100
AcDbEntity
  8
0
100
AcDbLine
 10
46.16182872072833
 20
26.82192812137428
 30
0.0
 11
40.27382872072834
 21
26.82192812137428
 31
0.0
  0
LINE
  5
4ADF
330
17
100
AcDbEntity
  8
0
100
AcDbLine
 10
46.16182872072833
 20
26.56592812137429
 30
0.0
 11
40.27382872072834
 21
26.56592812137429
 31
0.0
  0
TEXT
  5
4AEA
330
17
100
AcDbEntity
  8
0
  6
Continuous
 62
     2
100
AcDbText
 10
61.13065077829052
 20
32.3019991782549
 30
0.0
 40
0.375
  1
DETAIL 4 OPP.
 72
     1
 11
62.96485098292899
 21
32.3019991782549
 31
0.0
100
AcDbText
  0
LINE
  5
4AEB
330
17
100
AcDbEntity
  8
0
 62
     2
100
AcDbLine
 10
59.59106230949257
 20
32.57550013853423
 30
0.0
 11
57.76128380227257
 21
32.57550013853423
 31
0.0
  0
TEXT
  5
4E5C
330
17
100
AcDbEntity
  8
0
  6
Continuous
 62
     2
100
AcDbText
 10
40.43320803379339
 20
5.804567590763774
 30
0.0
 40
0.375
  1
DETAIL 4
 72
     1
 11
41.56869575548507
 21
5.804567590763774
 31
0.0
100
AcDbText
  0
TEXT
  5
4E5D
330
17
100
AcDbEntity
  8
0
  6
Continuous
 62
     7
100
AcDbText
 10
40.85496847673397
 20
5.015190477163137
 30
0.0
 40
0.375
  1
JAMB
 72
     1
 11
41.55355306063575
 21
5.015190477163137
 31
0.0
100
AcDbText
  0
MTEXT
  5
51E8
330
17
100
AcDbEntity
  8
0
 62
     7
100
AcDbMText
 10
5.146880908301227
 20
18.34319222330423
 30
0.0
 40
0.375
 41
7.34375
 71
     2
 72
     5
  1
SILL
 73
     1
 44
1.0
1001
ACAD
1000
MTEXTBEGIN
1070
    73
1070
     1
1070
    44
1040
1.0
1070
    74
1070
     0
1000
MTEXTEND
  0
MTEXT
  5
51EC
330
17
100
AcDbEntity
  8
0
 62
     7
100
AcDbMText
 10
5.146880908301227
 20
35.57281025079598
 30
0.0
 40
0.375
 41
7.34375
 71
     2
 72
     5
  1
HEAD
 73
     1
 44
1.0
1001
ACAD
1000
MTEXTBEGIN
1070
    73
1070
     1
1070
    44
1040
1.0
1070
    74
1070
     0
1000
MTEXTEND
  0
TEXT
  5
66C5
330
17
100
AcDbEntity
  8
PART_NUMBERS
100
AcDbText
 10
16.93386514323079
 20
18.66575188406497
 30
0.0
 40
0.25
  1
450VG006 UNEQUAL LEG RECEPTOR
100
AcDbText
  0
TEXT
  5
66C6
330
17
100
AcDbEntity
  8
PART_NUMBERS
100
AcDbText
 10
16.93386514323079
 20
19.16575188406497
 30
0.0
 40
0.25
  1
450VG008 INSERT
100
AcDbText
  0
TEXT
  5
6703
330
17
100
AcDbEntity
  8
PART_NUMBERS
100
AcDbText
 10
17.00857644523164
 20
35.56855744289348
 30
0.0
 40
0.25
  1
450VG106 EQUAL LEG RECEPTOR
100
AcDbText
  0
TEXT
  5
6704
330
17
100
AcDbEntity
  8
PART_NUMBERS
100
AcDbText
 10
17.00857644523164
 20
36.06855744289348
 30
0.0
 40
0.25
  1
450VG007 INSERT
100
AcDbText
  0
TEXT
  5
674C
330
17
100
AcDbEntity
  8
PART_NUMBERS
100
AcDbText
 10
16.57538601620828
 20
26.69649467980137
 30
0.0
 40
0.25
  1
134WC011 HORIZONTAL
100
AcDbText
  0
TEXT
  5
674D
330
17
100
AcDbEntity
  8
PART_NUMBERS
100
AcDbText
 10
16.57538601620828
 20
25.19121604237096
 30
0.0
 40
0.25
  1
450VG525 SHEAR BLOCK PKG
100
AcDbText
  0
TEXT
  5
674E
330
17
100
AcDbEntity
  8
PART_NUMBERS
100
AcDbText
 10
16.57538601620828
 20
25.69121604237097
 30
0.0
 40
0.25
  1
450VG026 FILLER
100
AcDbText
  0
TEXT
  5
674F
330
17
100
AcDbEntity
  8
PART_NUMBERS
100
AcDbText
 10
16.57538601620828
 20
26.19121604237097
 30
0.0
 40
0.25
  1
450VG004 GLASS STOP
100
AcDbText
  0
TEXT
  5
68E3
330
17
100
AcDbEntity
  8
PART_NUMBERS
100
AcDbText
 10
39.52664329270437
 20
15.53716293024602
 30
0.0
 40
0.25
  1
450126 SHIM SUPPORT
100
AcDbText
  0
TEXT
  5
68E4
330
17
100
AcDbEntity
  8
PART_NUMBERS
100
AcDbText
 10
39.52664329270437
 20
15.04403007975735
 30
0.0
 40
0.25
  1
134WC001 JAMB
100
AcDbText
  0
LINE
  5
6CC5
330
17
100
AcDbEntity
  8
R-SWTS-DET1
100
AcDbLine
 10
16.1690307852946
 20
37.08054263749996
 30
0.0
 11
12.82043578529453
 21
37.08054263749996
 31
0.0
  0
LWPOLYLINE
  5
6CC7
330
17
100
AcDbEntity
  8
R-SWTS-DET1
100
AcDbPolyline
 90
        6
 70
     0
 43
0.0
 10
16.41162618125084
 20
33.51804263749997
 10
14.01163618125085
 20
33.51804263749997
 10
13.96161618125084
 20
33.31806263749998
 10
13.86163618125084
 20
33.71804263749998
 10
13.81163618125085
 20
33.51804263749997
 10
11.41162618125084
 20
33.51804263749997
  0
DIMENSION
  5
6CC8
330
17
100
AcDbEntity
  8
R-ANNO-DIMS
100
AcDbDimension
  2
*D0
 10
11.66903078529465
 20
32.69446893751867
 30
0.0
 11
13.91903078529463
 21
32.69446893751867
 31
0.0
 70
   160
 71
     5
 42
-1.0
  3
NSD2$0
100
AcDbAlignedDimension
 13
16.1690307852946
 23
33.51804263749997
 33
0.0
 14
11.66903078529465
 24
33.51804263749997
 34
0.0
100
AcDbRotatedDimension
1001
ACAD
1000
DSTYLE
1002
{
1002
}
  0
LINE
  5
6CCB
330
17
100
AcDbEntity
  8
R-SWTS-DET3
100
AcDbLine
 10
11.9092014927683
 20
37.51804263750002
 30
0.0
 11
15.9010543968981
 21
37.51804263750002
 31
0.0
  0
LINE
  5
6CCC
330
17
100
AcDbEntity
  8
R-SWTS-DET3
100
AcDbLine
 10
15.9010543968981
 20
37.76804263750002
 30
0.0
 11
11.9092014927683
 21
37.51804263750002
 31
0.0
  0
LINE
  5
6CCD
330
17
100
AcDbEntity
  8
R-SWTS-DET3
100
AcDbLine
 10
11.9092014927683
 20
37.76804263750002
 30
0.0
 11
15.9010543968981
 21
37.51804263750002
 31
0.0
  0
LINE
  5
6CCE
330
17
100
AcDbEntity
  8
R-SWTS-DET3
100
AcDbLine
 10
16.5453107852946
 20
37.76804263750002
 30
0.0
 11
11.1380108305996
 21
37.76804263750002
 31
0.0
  0
DIMENSION
  5
6CCF
330
17
100
AcDbEntity
  8
R-ANNO-DIMS
100
AcDbDimension
  2
*D1
 10
11.54403078529463
 20
32.01277455860271
 30
0.0
 11
13.91903078529463
 21
32.01277455860271
 31
0.0
 70
   160
 71
     5
 42
-1.0
  3
NSD2$0
100
AcDbAlignedDimension
 13
16.29403078529463
 23
35.5290426375038
 33
0.0
 14
11.54403078529463
 24
35.52904263750381
 34
0.0
100
AcDbRotatedDimension
1001
ACAD
1000
DSTYLE
1002
{
1002
}
  0
DIMENSION
  5
6CD0
330
17
100
AcDbEntity
  8
R-ANNO-DIMS
100
AcDbDimension
  2
*D2
 10
9.291610785294579
 20
33.51804263749997
 30
0.0
 11
9.104610785294575
 21
35.29929263749997
 31
0.0
 70
    32
  1
MH
 71
     5
 42
-1.0
  3
NSD1$0
100
AcDbAlignedDimension
 13
9.805429522807884
 23
37.08054263749996
 33
0.0
 14
11.41162618125084
 24
33.51804263749997
 34
0.0
 50
90.0
100
AcDbRotatedDimension
1001
ACAD
1000
DSTYLE
1002
{
1002
}
  0
DIMENSION
  5
6CD1
330
17
100
AcDbEntity
  8
R-ANNO-DIMS
100
AcDbDimension
  2
*D3
 10
8.041610785294579
 20
33.51804263749997
 30
0.0
 11
7.854610785294574
 21
35.64304263749999
 31
0.0
 70
    32
  1
OD
 71
     5
 42
-1.0
  3
NSD1$0
100
AcDbAlignedDimension
 13
9.131431023935562
 23
37.76804263750002
 33
0.0
 14
11.41162618125084
 24
33.51804263749997
 34
0.0
 50
90.0
100
AcDbRotatedDimension
1001
ACAD
1000
DSTYLE
1002
{
1002
}
  0
DIMENSION
  5
6CD2
330
17
100
AcDbEntity
  8
R-ANNO-DIMS
100
AcDbDimension
  2
*D4
 10
8.666610785294579
 20
33.51804263749997
 30
0.0
 11
8.479610785294575
 21
35.5180426375
 31
0.0
 70
    32
  1
FH
 71
     5
 42
-1.0
  3
NSD1$0
100
AcDbAlignedDimension
 13
11.54403078529463
 23
37.51804263750002
 33
0.0
 14
11.41162618125084
 24
33.51804263749997
 34
0.0
 50
90.0
100
AcDbRotatedDimension
1001
ACAD
1000
DSTYLE
1002
{
1002
}
  0
DIMENSION
  5
6CD3
330
17
100
AcDbEntity
  8
R-ANNO-DIMS
100
AcDbDimension
  2
*D5
 10
9.916610785294585
 20
35.51904263750382
 30
0.0
 11
9.916610785294579
 21
36.41699967253528
 31
0.0
 70
   160
 71
     5
 42
-1.0
  3
NSD1$0
100
AcDbAlignedDimension
 13
11.54403078529463
 23
37.51804263750002
 33
0.0
 14
11.55403078529462
 24
35.51904263750382
 34
0.0
 50
90.0
100
AcDbRotatedDimension
1001
ACAD
1000
DSTYLE
1002
{
1002
}
  0
DIMENSION
  5
6CD6
330
17
100
AcDbEntity
  8
R-ANNO-DIMS
100
AcDbDimension
  2
*D6
 10
9.916610785294579
 20
33.51804263749997
 30
0.0
 11
9.729610785294575
 21
34.5185426375019
 31
0.0
 70
    32
  1
DLO
 71
     5
 42
-1.0
  3
NSD1$0
100
AcDbAlignedDimension
 13
11.55403078529462
 23
35.51904263750382
 33
0.0
 14
11.41162618125084
 24
33.51804263749997
 34
0.0
 50
90.0
100
AcDbRotatedDimension
1001
ACAD
1000
DSTYLE
1002
{
1002
}
  0
LINE
  5
6CD7
330
17
100
AcDbEntity
  8
R-SWTS-DET1
100
AcDbLine
 10
11.66903078529465
 20
33.51804263749997
 30
0.0
 11
11.66903078529459
 21
35.52904263750382
 31
0.0
  0
DIMENSION
  5
6CDB
330
17
100
AcDbEntity
  8
R-ANNO-DIMS
100
AcDbDimension
  2
*D7
 10
8.666610785294587
 20
37.76804263750002
 30
0.0
 11
8.666610785294579
 21
39.43837597083335
 31
0.0
 70
   160
  1
SHIM SPACE
 71
     5
 42
-1.0
  3
NSD1$0
100
AcDbAlignedDimension
 13
11.54403078529463
 23
37.51804263750002
 33
0.0
 14
11.13801083059961
 24
37.76804263750002
 34
0.0
 50
90.0
100
AcDbRotatedDimension
1001
ACAD
1000
DSTYLE
1002
{
1002
}
  0
DIMENSION
  5
6CDC
330
17
100
AcDbEntity
  8
R-ANNO-DIMS
100
AcDbDimension
  2
*D8
 10
9.291610785294587
 20
37.51804263750002
 30
0.0
 11
9.291610785294579
 21
38.52170930416669
 31
0.0
 70
   160
 71
     5
 42
-1.0
  3
NSD1$0
100
AcDbAlignedDimension
 13
9.805429522807884
 23
37.08054263749996
 33
0.0
 14
11.54403078529463
 24
37.51804263750002
 34
0.0
 50
90.0
100
AcDbRotatedDimension
1001
ACAD
1000
DSTYLE
1002
{
1002
}
  0
LINE
  5
6CDE
330
17
100
AcDbEntity
  8
R-SWTS-DET3
  6
CENTER
100
AcDbLine
 10
13.92015337882645
 20
38.36470330070351
 30
0.0
 11
13.92015337882646
 21
36.60895130070362
 31
0.0
  0
LINE
  5
6CE0
330
17
100
AcDbEntity
  8
R-SWTS-DET1
100
AcDbLine
 10
12.7403357852946
 20
37.08054263749996
 30
0.0
 11
11.66903078529465
 21
37.08054263749995
 31
0.0
  0
LINE
  5
6CE1
330
17
100
AcDbEntity
  8
R-SWTS-DET1
100
AcDbLine
 10
11.66903078529465
 20
37.08054263749995
 30
0.0
 11
11.66903078529465
 21
35.71404263750381
 31
0.0
  0
CIRCLE
  5
6CE2
330
17
100
AcDbEntity
  8
R-SWTS-DET3
100
AcDbCircle
 10
11.85013502805045
 20
37.61949620915316
 30
0.0
 40
0.1460250000000009
  0
ARC
  5
6CE3
330
17
100
AcDbEntity
  8
R-SWTS-DET3
100
AcDbCircle
 10
11.29519172470178
 20
37.54619690541757
 30
0.0
 40
0.2504267175816111
100
AcDbArc
 50
353.5448646659804
 51
62.35888106505984
  0
LINE
  5
6CE4
330
17
100
AcDbEntity
  8
R-SWTS-DET3
100
AcDbLine
 10
11.9092014927683
 20
37.51804263750002
 30
0.0
 11
11.9092014927683
 21
37.76804263750002
 31
0.0
  0
LINE
  5
6CE5
330
17
100
AcDbEntity
  8
R-SWTS-DET1
100
AcDbLine
 10
16.1690307852946
 20
35.5290426375038
 30
0.0
 11
16.1690307852946
 21
33.51804263749997
 31
0.0
  0
LINE
  5
6CE9
330
17
100
AcDbEntity
  8
R-SWTS-DET1
100
AcDbLine
 10
16.1690307852946
 20
37.08054263749996
 30
0.0
 11
16.1690307852946
 21
35.70404263750381
 31
0.0
  0
LINE
  5
6CEB
330
17
100
AcDbEntity
  8
R-SWTS-DET3
100
AcDbLine
 10
15.9010543968981
 20
37.51804263750002
 30
0.0
 11
15.9010543968981
 21
37.76804263750002
 31
0.0
  0
LWPOLYLINE
  5
6CEF
330
17
100
AcDbEntity
  8
R-SWTS-DET1
100
AcDbPolyline
 90
        6
 70
     0
 43
0.0
 10
52.62357597510586
 20
14.72596064012074
 10
52.62357597510586
 20
12.20776064012074
 10
52.83582816522875
 20
12.15484022545831
 10
52.41100358739332
 20
12.04891956190791
 10
52.62325577751619
 20
11.99599914724547
 10
52.62325577751619
 20
9.477799147245484
  0
LWPOLYLINE
  5
6CF0
330
17
100
AcDbEntity
  8
R-SWTS-DET1
100
AcDbPolyline
 90
        6
 70
     0
 43
0.0
 10
46.62357597510586
 20
14.72596064012074
 10
46.62357597510586
 20
12.20776064012074
 10
46.83582816522874
 20
12.15484022545831
 10
46.41100358739332
 20
12.04891956190791
 10
46.62325577751619
 20
11.99599914724547
 10
46.62325577751619
 20
9.477799147245484
  0
LINE
  5
6CF2
330
17
100
AcDbEntity
  8
R-SWTS-DET1
  6
Continuous
100
AcDbLine
 10
48.62357597510587
 20
9.850960640120739
 30
0.0
 11
46.62389617269553
 21
9.850960640120739
 31
0.0
  0
DIMENSION
  5
6CF4
330
17
100
AcDbEntity
  8
R-ANNO-DIMS
100
AcDbDimension
  2
*D9
 10
46.62325577751619
 20
8.13896064012075
 30
0.0
 11
47.62341587631103
 21
8.325960640120749
 31
0.0
 70
    32
  1
DLO
 71
     5
 42
-1.0
  3
SHOP_DETAILS_NORCROSS
100
AcDbAlignedDimension
 13
48.62357597510587
 23
9.850960640120739
 33
0.0
 14
46.62325577751619
 24
9.509799147245466
 34
0.0
100
AcDbRotatedDimension
1001
ACAD
1000
DSTYLE
1002
{
1070
    78
1070
     1
1070
   270
1070
     7
1070
   284
1070
     1
1070
   140
1040
0.25
1070
    74
1070
     0
1070
    73
1070
     0
1070
    77
1070
     1
1070
    76
1070
     1
1070
     3
1000
"
1070
   147
1040
0.062
1070
    42
1040
0.125
1070
    44
1040
0.125
1070
    43
1040
0.375
1070
   178
1070
   256
1070
   177
1070
   256
1070
   176
1070
   256
1070
   141
1040
0.0
1070
    41
1040
0.2
1002
}
  0
LINE
  5
6CF5
330
17
100
AcDbEntity
  8
R-SWTS-DET1
  6
Continuous
100
AcDbLine
 10
52.62325577751619
 20
9.725960640120753
 30
0.0
 11
46.62389617269553
 21
9.725960640120739
 31
0.0
  0
DIMENSION
  5
6CF6
330
17
100
AcDbEntity
  8
R-ANNO-DIMS
100
AcDbDimension
  2
*D10
 10
52.62325577751619
 20
8.13896064012075
 30
0.0
 11
51.62341587631103
 21
8.325960640120749
 31
0.0
 70
    32
  1
DLO
 71
     5
 42
-1.0
  3
SHOP_DETAILS_NORCROSS
100
AcDbAlignedDimension
 13
50.62357597510587
 23
9.850960640120739
 33
0.0
 14
52.62325577751619
 24
9.509799147245466
 34
0.0
100
AcDbRotatedDimension
1001
ACAD
1000
DSTYLE
1002
{
1070
    78
1070
     1
1070
   270
1070
     7
1070
   284
1070
     1
1070
   140
1040
0.25
1070
    74
1070
     0
1070
    73
1070
     0
1070
    77
1070
     1
1070
    76
1070
     1
1070
     3
1000
"
1070
   147
1040
0.062
1070
    42
1040
0.125
1070
    44
1040
0.125
1070
    43
1040
0.375
1070
   178
1070
   256
1070
   177
1070
   256
1070
   176
1070
   256
1070
   141
1040
0.0
1070
    41
1040
0.2
1002
}
  0
DIMENSION
  5
6CF7
330
17
100
AcDbEntity
  8
R-ANNO-DIMS
100
AcDbDimension
  2
*D11
 10
50.62357597510587
 20
8.13896064012075
 30
0.0
 11
49.62357597510586
 21
8.325960640120749
 31
0.0
 70
    32
 71
     5
 42
-1.0
  3
SHOP_DETAILS_NORCROSS
100
AcDbAlignedDimension
 13
48.62357597510587
 23
9.850960640120739
 33
0.0
 14
50.62357597510587
 24
9.850960640120739
 34
0.0
100
AcDbRotatedDimension
1001
ACAD
1000
DSTYLE
1002
{
1070
    78
1070
     1
1070
   270
1070
     7
1070
   284
1070
     1
1070
   140
1040
0.25
1070
    74
1070
     0
1070
    73
1070
     0
1070
    77
1070
     1
1070
    76
1070
     1
1070
     3
1000
"
1070
   147
1040
0.062
1070
    42
1040
0.125
1070
    44
1040
0.125
1070
    43
1040
0.375
1070
   178
1070
   256
1070
   177
1070
   256
1070
   176
1070
   256
1070
   141
1040
0.0
1070
    41
1040
0.2
1002
}
  0
LINE
  5
6CF8
330
17
100
AcDbEntity
  8
R-SWTS-DET1
  6
Continuous
100
AcDbLine
 10
50.62357597510587
 20
9.850960640120739
 30
0.0
 11
52.62325577751619
 21
9.850960640120739
 31
0.0
  0
LINE
  5
6CFB
330
17
100
AcDbEntity
  8
R-SWTS-DET1
  6
Continuous
100
AcDbLine
 10
48.62357597510584
 20
14.35096064012074
 30
0.0
 11
46.62389617269551
 21
14.35096064012074
 31
0.0
  0
LINE
  5
6CFC
330
17
100
AcDbEntity
  8
R-SWTS-DET1
  6
Continuous
100
AcDbLine
 10
52.62357597510586
 20
14.47596064012075
 30
0.0
 11
46.62389617269551
 21
14.47596064012074
 31
0.0
  0
LINE
  5
6CFD
330
17
100
AcDbEntity
  8
R-SWTS-DET1
  6
Continuous
100
AcDbLine
 10
50.62357597510588
 20
14.35096064012074
 30
0.0
 11
52.62325577751621
 21
14.35096064012074
 31
0.0
  0
LWPOLYLINE
  5
6D00
330
17
100
AcDbEntity
  8
R-SWTS-DET1
100
AcDbPolyline
 90
        6
 70
     0
 43
0.0
 10
43.7550516829433
 20
14.60096064012074
 10
43.7550516829433
 20
12.20097064012075
 10
43.54279949282042
 20
12.15095064012075
 10
43.96762407065584
 20
12.05097064012074
 10
43.75537188053297
 20
12.00097064012075
 10
43.75537188053297
 20
9.600960640120739
  0
LINE
  5
6D01
330
17
100
AcDbEntity
  8
R-SWTS-DET3
100
AcDbLine
 10
39.50473148535362
 20
14.73034813499985
 30
0.0
 11
39.50473148535362
 21
9.480348134999864
 31
0.0
  0
LINE
  5
6D02
330
17
100
AcDbEntity
  8
R-SWTS-DET3
100
AcDbLine
 10
39.75473148535362
 20
13.94099662115959
 30
0.0
 11
39.75473148535362
 21
10.10966681566037
 31
0.0
  0
LINE
  5
6D03
330
17
100
AcDbEntity
  8
R-SWTS-DET3
100
AcDbLine
 10
39.75473148535362
 20
10.06932289747575
 30
0.0
 11
39.50473148535362
 21
14.14733725859884
 31
0.0
  0
LINE
  5
6D04
330
17
100
AcDbEntity
  8
R-SWTS-DET3
100
AcDbLine
 10
39.50473148535362
 20
10.06932289747575
 30
0.0
 11
39.75423148535363
 21
14.14733725859884
 31
0.0
  0
LINE
  5
6D05
330
17
100
AcDbEntity
  8
R-SWTS-DET3
100
AcDbLine
 10
39.75473148535362
 20
10.06932289747575
 30
0.0
 11
39.75473148535362
 21
14.14733725859884
 31
0.0
  0
DIMENSION
  5
6D09
330
17
100
AcDbEntity
  8
R-ANNO-DIMS
100
AcDbDimension
  2
*D12
 10
39.50473148535362
 20
7.546412464847612
 30
0.0
 11
37.83439815202028
 21
7.733412464847613
 31
0.0
 70
    32
  1
SHIM SPACE
 71
     5
 42
-1.0
  3
SHOP_DETAILS_NORCROSS
100
AcDbAlignedDimension
 13
39.75473148535362
 23
9.725960640120767
 33
0.0
 14
39.50473148535362
 24
9.48034813499985
 34
0.0
100
AcDbRotatedDimension
1001
ACAD
1000
DSTYLE
1002
{
1070
    78
1070
     1
1070
   270
1070
     7
1070
   284
1070
     1
1070
   140
1040
0.25
1070
    74
1070
     0
1070
    73
1070
     0
1070
    77
1070
     1
1070
    76
1070
     1
1070
     3
1000
"
1070
   147
1040
0.062
1070
   287
1070
     3
1070
    42
1040
0.125
1070
    44
1040
0.125
1070
    43
1040
0.375
1070
   271
1070
     4
1070
   178
1070
   256
1070
   177
1070
   256
1070
   176
1070
   256
1070
   141
1040
0.0
1070
    41
1040
0.2
1002
}
  0
LINE
  5
6D0A
330
17
100
AcDbEntity
  8
R-SWTS-DET1
100
AcDbLine
 10
41.75473148535362
 20
9.850960640120753
 30
0.0
 11
43.75473148535363
 21
9.850960640120753
 31
0.0
  0
LINE
  5
6D0C
330
17
100
AcDbEntity
  8
R-SWTS-DET1
100
AcDbLine
 10
39.75473148535362
 20
9.725960640120781
 30
0.0
 11
43.75473148535363
 21
9.725960640120753
 31
0.0
  0
DIMENSION
  5
6D0D
330
17
100
AcDbEntity
  8
R-ANNO-DIMS
100
AcDbDimension
  2
*D13
 10
43.75537188053297
 20
6.983912464847612
 30
0.0
 11
41.63005168294329
 21
7.170912464847613
 31
0.0
 70
    32
  1
OD  
 71
     5
 42
-1.0
  3
SHOP_DETAILS_NORCROSS
100
AcDbAlignedDimension
 13
39.50473148535362
 23
9.48034813499985
 33
0.0
 14
43.75537188053297
 24
9.600960640120739
 34
0.0
100
AcDbRotatedDimension
1001
ACAD
1000
DSTYLE
1002
{
1070
    78
1070
     1
1070
   270
1070
     7
1070
   284
1070
     1
1070
   140
1040
0.25
1070
    74
1070
     0
1070
    73
1070
     0
1070
    77
1070
     1
1070
    76
1070
     1
1070
     3
1000
"
1070
   147
1040
0.062
1070
   287
1070
     3
1070
    42
1040
0.125
1070
    44
1040
0.125
1070
    43
1040
0.375
1070
   271
1070
     4
1070
   178
1070
   256
1070
   177
1070
   256
1070
   176
1070
   256
1070
   141
1040
0.0
1070
    41
1040
0.2
1002
}
  0
DIMENSION
  5
6D0E
330
17
100
AcDbEntity
  8
R-ANNO-DIMS
100
AcDbDimension
  2
*D14
 10
43.75537188053297
 20
7.546412464847612
 30
0.0
 11
41.75505168294329
 21
7.733412464847613
 31
0.0
 70
    32
  1
FW  
 71
     5
 42
-1.0
  3
SHOP_DETAILS_NORCROSS
100
AcDbAlignedDimension
 13
39.75473148535362
 23
9.725960640120767
 33
0.0
 14
43.75537188053297
 24
9.600960640120739
 34
0.0
100
AcDbRotatedDimension
1001
ACAD
1000
DSTYLE
1002
{
1070
    78
1070
     1
1070
   270
1070
     7
1070
   284
1070
     1
1070
   140
1040
0.25
1070
    74
1070
     0
1070
    73
1070
     0
1070
    77
1070
     1
1070
    76
1070
     1
1070
     3
1000
"
1070
   147
1040
0.062
1070
   287
1070
     3
1070
    42
1040
0.125
1070
    44
1040
0.125
1070
    43
1040
0.375
1070
   271
1070
     4
1070
   178
1070
   256
1070
   177
1070
   256
1070
   176
1070
   256
1070
   141
1040
0.0
1070
    41
1040
0.2
1002
}
  0
DIMENSION
  5
6D0F
330
17
100
AcDbEntity
  8
R-ANNO-DIMS
100
AcDbDimension
  2
*D15
 10
43.75537188053297
 20
8.108912464847612
 30
0.0
 11
42.7550516829433
 21
8.295912464847612
 31
0.0
 70
    32
  1
DLO
 71
     5
 42
-1.0
  3
SHOP_DETAILS_NORCROSS
100
AcDbAlignedDimension
 13
41.75473148535362
 23
9.725960640120767
 33
0.0
 14
43.75537188053297
 24
9.600960640120739
 34
0.0
100
AcDbRotatedDimension
1001
ACAD
1000
DSTYLE
1002
{
1070
    78
1070
     1
1070
   270
1070
     7
1070
   284
1070
     1
1070
   140
1040
0.25
1070
    74
1070
     0
1070
    73
1070
     0
1070
    77
1070
     1
1070
    76
1070
     1
1070
     3
1000
"
1070
   147
1040
0.062
1070
   287
1070
     3
1070
    42
1040
0.125
1070
    44
1040
0.125
1070
    43
1040
0.375
1070
   271
1070
     4
1070
   178
1070
   256
1070
   177
1070
   256
1070
   176
1070
   256
1070
   141
1040
0.0
1070
    41
1040
0.2
1002
}
  0
DIMENSION
  5
6D10
330
17
100
AcDbEntity
  8
R-ANNO-DIMS
100
AcDbDimension
  2
*D16
 10
41.75473148535362
 20
8.108912464847612
 30
0.0
 11
40.75473148535362
 21
8.295912464847612
 31
0.0
 70
    32
 71
     5
 42
-1.0
  3
SHOP_DETAILS_NORCROSS
100
AcDbAlignedDimension
 13
39.75473148535362
 23
9.725960640120767
 33
0.0
 14
41.75473148535362
 24
9.725960640120767
 34
0.0
100
AcDbRotatedDimension
1001
ACAD
1000
DSTYLE
1002
{
1070
    78
1070
     1
1070
   270
1070
     7
1070
   284
1070
     1
1070
   140
1040
0.25
1070
    74
1070
     0
1070
    73
1070
     0
1070
    77
1070
     1
1070
    76
1070
     1
1070
     3
1000
"
1070
   147
1040
0.062
1070
   287
1070
     3
1070
    42
1040
0.125
1070
    44
1040
0.125
1070
    43
1040
0.375
1070
   271
1070
     4
1070
   178
1070
   256
1070
   177
1070
   256
1070
   176
1070
   256
1070
   141
1040
0.0
1070
    41
1040
0.2
1002
}
  0
CIRCLE
  5
6D11
330
17
100
AcDbEntity
  8
R-SWTS-DET3
100
AcDbCircle
 10
39.62998148535362
 20
9.944322909533518
 30
0.0
 40
0.125
  0
ARC
  5
6D12
330
17
100
AcDbEntity
  8
R-SWTS-DET3
100
AcDbCircle
 10
39.77789149567653
 20
9.40351189502423
 30
0.0
 40
0.3277259795604861
100
AcDbArc
 50
94.05240328147833
 51
146.4600980743394
  0
LINE
  5
6D13
330
17
100
AcDbEntity
  8
R-SWTS-DET3
100
AcDbLine
 10
39.50473148535362
 20
10.06932289747575
 30
0.0
 11
39.75423148535363
 21
10.06932289747575
 31
0.0
  0
LINE
  5
6D15
330
17
100
AcDbEntity
  8
R-SWTS-DET1
  6
Continuous
100
AcDbLine
 10
39.75473148535363
 20
9.850960640120739
 30
0.0
 11
39.75473148535362
 21
9.725960640120781
 31
0.0
  0
LINE
  5
6D17
330
17
100
AcDbEntity
  8
R-SWTS-DET1
100
AcDbLine
 10
41.75473148535362
 20
14.35096064012074
 30
0.0
 11
43.7550516829433
 21
14.35096064012074
 31
0.0
  0
LINE
  5
6D19
330
17
100
AcDbEntity
  8
R-SWTS-DET1
100
AcDbLine
 10
39.75473148535363
 20
14.47596064012075
 30
0.0
 11
43.7550516829433
 21
14.47596064012074
 31
0.0
  0
LINE
  5
6D1C
330
17
100
AcDbEntity
  8
R-SWTS-DET3
100
AcDbLine
 10
39.50473148535362
 20
14.14733725859884
 30
0.0
 11
39.75423148535363
 21
14.14733725859884
 31
0.0
  0
LINE
  5
6D1E
330
17
100
AcDbEntity
  8
R-SWTS-DET1
  6
Continuous
100
AcDbLine
 10
39.75473148535363
 20
14.35096064012074
 30
0.0
 11
39.75473148535363
 21
14.47596064012075
 31
0.0
  0
DIMENSION
  5
6D27
330
17
100
AcDbEntity
  8
R-ANNO-DIMS
100
AcDbDimension
  2
*D17
 10
9.965106465451256
 20
28.99914029690702
 30
0.0
 11
9.778106465451251
 21
27.99898019811218
 31
0.0
 70
    32
  1
DLO
 71
     5
 42
-1.0
  3
SHOP_DETAILS_NORCROSS
100
AcDbAlignedDimension
 13
11.73494497257598
 23
26.99882009931734
 33
0.0
 14
11.46094497257598
 24
28.99914029690702
 34
0.0
 50
270.0
100
AcDbRotatedDimension
1001
ACAD
1000
DSTYLE
1002
{
1070
    78
1070
     1
1070
   270
1070
     7
1070
   284
1070
     1
1070
   140
1040
0.25
1070
    74
1070
     0
1070
    73
1070
     0
1070
    77
1070
     1
1070
    76
1070
     1
1070
     3
1000
"
1070
   147
1040
0.062
1070
    42
1040
0.125
1070
    44
1040
0.125
1070
    43
1040
0.375
1070
   178
1070
   256
1070
   177
1070
   256
1070
   176
1070
   256
1070
   141
1040
0.0
1070
    41
1040
0.2
1002
}
  0
LINE
  5
6D29
330
17
100
AcDbEntity
  8
R-SWTS-DET1
100
AcDbLine
 10
16.17710646545125
 20
28.99882009931734
 30
0.0
 11
16.17710646545125
 21
22.99882009931734
 31
0.0
  0
LINE
  5
6D2A
330
17
100
AcDbEntity
  8
R-SWTS-DET1
100
AcDbLine
 10
11.67710646545125
 20
28.99882009931734
 30
0.0
 11
11.67710646545125
 21
22.99882009931734
 31
0.0
  0
LWPOLYLINE
  5
6D2F
330
17
100
AcDbEntity
  8
R-SWTS-DET1
100
AcDbPolyline
 90
        6
 70
     0
 43
0.0
 10
16.42710646545125
 20
22.99882009931734
 10
14.03390646545125
 20
22.99882009931734
 10
13.98098605078882
 20
22.78656790919447
 10
13.87506538723842
 20
23.21139248702988
 10
13.82214497257599
 20
22.99914029690702
 10
11.42894497257599
 20
22.99914029690702
  0
DIMENSION
  5
6D31
330
17
100
AcDbEntity
  8
R-ANNO-DIMS
100
AcDbDimension
  2
*D18
 10
9.965106465451256
 20
22.99914029690702
 30
0.0
 11
9.778106465451253
 21
23.99898019811218
 31
0.0
 70
    32
  1
DLO
 71
     5
 42
-1.0
  3
SHOP_DETAILS_NORCROSS
100
AcDbAlignedDimension
 13
11.70110646545126
 23
24.99882009931734
 33
0.0
 14
11.46094497257598
 24
22.99914029690702
 34
0.0
 50
270.0
100
AcDbRotatedDimension
1001
ACAD
1000
DSTYLE
1002
{
1070
    78
1070
     1
1070
   270
1070
     7
1070
   284
1070
     1
1070
   140
1040
0.25
1070
    74
1070
     0
1070
    73
1070
     0
1070
    77
1070
     1
1070
    76
1070
     1
1070
     3
1000
"
1070
   147
1040
0.062
1070
    42
1040
0.125
1070
    44
1040
0.125
1070
    43
1040
0.375
1070
   178
1070
   256
1070
   177
1070
   256
1070
   176
1070
   256
1070
   141
1040
0.0
1070
    41
1040
0.2
1002
}
  0
DIMENSION
  5
6D32
330
17
100
AcDbEntity
  8
R-ANNO-DIMS
100
AcDbDimension
  2
*D19
 10
9.965106465451256
 20
24.99882009931734
 30
0.0
 11
9.778106465451253
 21
25.99882009931735
 31
0.0
 70
    32
 71
     5
 42
-1.0
  3
SHOP_DETAILS_NORCROSS
100
AcDbAlignedDimension
 13
11.73494497257598
 23
26.99882009931734
 33
0.0
 14
11.70110646545126
 24
24.99882009931734
 34
0.0
 50
270.0
100
AcDbRotatedDimension
1001
ACAD
1000
DSTYLE
1002
{
1070
    78
1070
     1
1070
   270
1070
     7
1070
   284
1070
     1
1070
   140
1040
0.25
1070
    74
1070
     0
1070
    73
1070
     0
1070
    77
1070
     1
1070
    76
1070
     1
1070
     3
1000
"
1070
   147
1040
0.062
1070
    42
1040
0.125
1070
    44
1040
0.125
1070
    43
1040
0.375
1070
   178
1070
   256
1070
   177
1070
   256
1070
   176
1070
   256
1070
   141
1040
0.0
1070
    41
1040
0.2
1002
}
  0
LWPOLYLINE
  5
6D3B
330
17
100
AcDbEntity
  8
R-SWTS-DET1
100
AcDbPolyline
 90
        6
 70
     0
 43
0.0
 10
16.42710646545125
 20
28.99882009931734
 10
14.03390646545125
 20
28.99882009931734
 10
13.98098605078882
 20
28.78656790919448
 10
13.87506538723842
 20
29.21139248702989
 10
13.82214497257599
 20
28.99914029690702
 10
11.42894497257599
 20
28.99914029690702
  0
LWPOLYLINE
  5
6D47
330
17
100
AcDbEntity
  8
R-SWTS-DET1
100
AcDbPolyline
 90
        6
 70
     0
 43
0.0
 10
16.57089752613589
 20
20.61485728045624
 10
14.1709075261359
 20
20.61485728045624
 10
14.12088752613589
 20
20.81483728045624
 10
14.02090752613589
 20
20.41485728045624
 10
13.97090752613589
 20
20.61485728045624
 10
11.57089752613589
 20
20.61485728045624
  0
LINE
  5
6D48
330
17
100
AcDbEntity
  8
R-SWTS-DET3
100
AcDbLine
 10
12.06202544113786
 20
16.36585728046004
 30
0.0
 11
16.05387834526766
 21
16.61585728046004
 31
0.0
  0
LINE
  5
6D49
330
17
100
AcDbEntity
  8
R-SWTS-DET3
100
AcDbLine
 10
12.0693311673667
 20
16.61585728046004
 30
0.0
 11
16.05387834526766
 21
16.61585728046004
 31
0.0
  0
LINE
  5
6D4A
330
17
100
AcDbEntity
  8
R-SWTS-DET3
100
AcDbLine
 10
16.05387834526766
 20
16.36585728046004
 30
0.0
 11
12.06202544113786
 21
16.61585728046004
 31
0.0
  0
LINE
  5
6D4B
330
17
100
AcDbEntity
  8
R-SWTS-DET3
100
AcDbLine
 10
16.69813473366416
 20
16.36585728046004
 30
0.0
 11
11.29083477896915
 21
16.36585728046004
 31
0.0
  0
DIMENSION
  5
6D50
330
17
100
AcDbEntity
  8
R-ANNO-DIMS
100
AcDbDimension
  2
*D20
 10
10.07588213017963
 20
20.61485728045624
 30
0.0
 11
9.888882130179625
 21
19.61485728045624
 31
0.0
 70
    32
  1
DLO
 71
     5
 42
-1.0
  3
NSD1$0
100
AcDbAlignedDimension
 13
11.84595473366415
 23
18.61485728045624
 33
0.0
 14
11.57089752613589
 24
20.61485728045624
 34
0.0
 50
90.0
100
AcDbRotatedDimension
1001
ACAD
1000
DSTYLE
1002
{
1002
}
  0
DIMENSION
  5
6D52
330
17
100
AcDbEntity
  8
R-ANNO-DIMS
100
AcDbDimension
  2
*D21
 10
8.200882130179628
 20
20.61485728045624
 30
0.0
 11
8.013882130179625
 21
18.49035728045809
 31
0.0
 70
    32
  1
OD
 71
     5
 42
-1.0
  3
NSD1$0
100
AcDbAlignedDimension
 13
9.292909955085548
 23
16.36585728045993
 33
0.0
 14
11.57089752613589
 24
20.61485728045624
 34
0.0
 50
90.0
100
AcDbRotatedDimension
1001
ACAD
1000
DSTYLE
1002
{
1002
}
  0
DIMENSION
  5
6D53
330
17
100
AcDbEntity
  8
R-ANNO-DIMS
100
AcDbDimension
  2
*D22
 10
8.825882130179628
 20
20.61485728045624
 30
0.0
 11
8.638882130179625
 21
18.61535728045813
 31
0.0
 70
    32
  1
FH
 71
     5
 42
-1.0
  3
NSD1$0
100
AcDbAlignedDimension
 13
11.69685473366417
 23
16.61585728046001
 33
0.0
 14
11.57089752613589
 24
20.61485728045624
 34
0.0
 50
90.0
100
AcDbRotatedDimension
1001
ACAD
1000
DSTYLE
1002
{
1002
}
  0
DIMENSION
  5
6D55
330
17
100
AcDbEntity
  8
R-ANNO-DIMS
100
AcDbDimension
  2
*D23
 10
9.450882130179628
 20
20.61485728045624
 30
0.0
 11
9.263882130179625
 21
18.67785728045815
 31
0.0
 70
    32
  1
MH
 71
     5
 42
-1.0
  3
NSD1$0
100
AcDbAlignedDimension
 13
9.898860472914662
 23
16.74085728046005
 33
0.0
 14
11.57089752613589
 24
20.61485728045624
 34
0.0
 50
90.0
100
AcDbRotatedDimension
1001
ACAD
1000
DSTYLE
1002
{
1002
}
  0
LINE
  5
6D56
330
17
100
AcDbEntity
  8
R-SWTS-DET1
100
AcDbLine
 10
11.82195473366414
 20
17.54190528045626
 30
0.0
 11
11.82195473366407
 21
20.61485728045624
 31
0.0
  0
DIMENSION
  5
6D57
330
17
100
AcDbEntity
  8
R-ANNO-DIMS
100
AcDbDimension
  2
*D24
 10
8.82588213017963
 20
16.36585728045993
 30
0.0
 11
8.825882130179628
 21
14.6955239471266
 31
0.0
 70
   160
  1
SHIM SPACE
 71
     5
 42
-1.0
  3
NSD1$0
100
AcDbAlignedDimension
 13
11.69685473366417
 23
16.61585728046001
 33
0.0
 14
11.29728217548466
 24
16.36585728045993
 34
0.0
 50
90.0
100
AcDbRotatedDimension
1001
ACAD
1000
DSTYLE
1002
{
1002
}
  0
LINE
  5
6D58
330
17
100
AcDbEntity
  8
R-SWTS-DET3
100
AcDbLine
 10
12.06202544113786
 20
16.61585728046004
 30
0.0
 11
12.06202544113786
 21
16.36585728046004
 31
0.0
  0
CIRCLE
  5
6D59
330
17
100
AcDbEntity
  8
R-SWTS-DET3
  6
Continuous
100
AcDbCircle
 10
12.01376224384995
 20
16.51335728046004
 30
0.0
 40
0.1474999999999955
  0
ARC
  5
6D5A
330
17
100
AcDbEntity
  8
R-SWTS-DET3
100
AcDbCircle
 10
11.44801567307134
 20
16.58770301254248
 30
0.0
 40
0.2504267175816111
100
AcDbArc
 50
297.6411189349402
 51
6.455135334019569
  0
DIMENSION
  5
6D5B
330
17
100
AcDbEntity
  8
R-ANNO-DIMS
100
AcDbDimension
  2
*D25
 10
9.45088213017963
 20
16.61585728046001
 30
0.0
 11
9.450882130179628
 21
15.67571461837165
 31
0.0
 70
   160
 71
     5
 42
-1.0
  3
NSD1$0
100
AcDbAlignedDimension
 13
9.898860472914662
 23
16.74085728046005
 33
0.0
 14
11.69685473366417
 24
16.61585728046001
 34
0.0
 50
90.0
100
AcDbRotatedDimension
1001
ACAD
1000
DSTYLE
1002
{
1002
}
  0
DIMENSION
  5
6D5D
330
17
100
AcDbEntity
  8
R-ANNO-DIMS
100
AcDbDimension
  2
*D26
 10
10.07588213017963
 20
18.61485728045624
 30
0.0
 11
10.07588213017963
 21
17.71114824542477
 31
0.0
 70
   160
 71
     5
 42
-1.0
  3
NSD1$0
100
AcDbAlignedDimension
 13
11.69685473366417
 23
16.61585728046001
 33
0.0
 14
11.84595473366415
 24
18.61485728045624
 34
0.0
 50
90.0
100
AcDbRotatedDimension
1001
ACAD
1000
DSTYLE
1002
{
1002
}
  0
HATCH
  5
6D60
330
17
100
AcDbEntity
  8
0
  6
Continuous
100
AcDbHatch
 10
0.0
 20
0.0
 30
0.0
210
0.0
220
0.0
230
1.0
  2
SOLID
 70
     1
 71
     1
 91
        1
 92
        1
 93
        4
 72
     1
 10
11.69685473366419
 20
17.05335728046006
 11
11.82185473366429
 21
17.05335728046006
 72
     1
 10
11.82185473366429
 20
17.05335728046006
 11
11.82185473366429
 21
16.74085728046006
 72
     1
 10
11.82185473366429
 20
16.74085728046006
 11
11.69685473366419
 21
16.74085728046006
 72
     1
 10
11.69685473366419
 20
16.74085728046006
 11
11.69685473366419
 21
17.05335728046006
 97
        1
330
6D61
 75
     0
 76
     1
 98
        1
 10
12.35995473366414
 20
17.61485728045622
  0
LWPOLYLINE
  5
6D61
102
{ACAD_REACTORS
330
6D60
102
}
330
17
100
AcDbEntity
  8
0
  6
Continuous
100
AcDbPolyline
 90
        4
 70
     1
 43
0.0
 10
11.69685473366419
 20
17.05335728046006
 10
11.82185473366429
 20
17.05335728046006
 10
11.82185473366429
 20
16.74085728046006
 10
11.69685473366419
 20
16.74085728046006
  0
LINE
  5
6D62
330
17
100
AcDbEntity
  8
R-SWTS-DET1
100
AcDbLine
 10
11.82195473366415
 20
16.74228906425272
 30
0.0
 11
11.82195473366414
 21
17.36790528046006
 31
0.0
  0
LINE
  5
6D67
330
17
100
AcDbEntity
  8
R-SWTS-DET1
100
AcDbLine
 10
16.32165473366413
 20
18.60485728045623
 30
0.0
 11
16.32165473366413
 21
20.61485728045624
 31
0.0
  0
LINE
  5
6D6A
330
17
100
AcDbEntity
  8
R-SWTS-DET3
100
AcDbLine
 10
16.05387834526766
 20
16.61585728046004
 30
0.0
 11
16.05387834526766
 21
16.36585728046004
 31
0.0
  0
LINE
  5
6D6B
330
17
100
AcDbEntity
  8
R-SWTS-DET3
  6
CENTER
100
AcDbLine
 10
14.06093027411516
 20
15.50636498400357
 30
0.0
 11
14.06093027411516
 21
17.50636498400357
 31
0.0
  0
LINE
  5
6D6D
330
17
100
AcDbEntity
  8
R-SWTS-DET1
100
AcDbLine
 10
16.32165473366413
 20
16.74085728046002
 30
0.0
 11
16.32165473366413
 21
18.41985728045623
 31
0.0
  0
LWPOLYLINE
  5
709C
330
17
100
AcDbEntity
  8
R-SWTS-DET1
100
AcDbPolyline
 90
       40
 70
     1
 43
0.0
 10
48.75357597510586
 20
14.28096064012074
 42
0.4142135623730951
 10
48.69357597510585
 20
14.22096064012074
 10
48.69357597510585
 20
12.76296064012075
 42
0.4142135623730821
 10
48.71357597510585
 20
12.74296064012075
 10
48.71357597510585
 20
12.39896064012075
 42
0.4142135623731146
 10
48.69357597510585
 20
12.37896064012075
 10
48.69357597510585
 20
11.83196064012075
 42
0.414213562373069
 10
48.71357597510585
 20
11.81196064012075
 10
48.71357597510585
 20
11.46796064012074
 42
0.4142135623731146
 10
48.69357597510585
 20
11.44796064012075
 10
48.69357597510585
 20
11.16491064012075
 42
0.4142135623731023
 10
48.76357597510585
 20
11.09491064012074
 10
48.79363140435444
 20
11.09491064012075
 42
-0.1990202627215678
 10
48.86790843305058
 20
11.06412602267768
 10
48.92915420586708
 20
11.00282937677657
 42
0.1990202627215683
 10
48.94330221133301
 20
10.99696564012075
 10
49.39857597510585
 20
10.99696564012075
 42
-0.4142135623730967
 10
49.56857597510586
 20
10.82696564012075
 10
49.56857597510586
 20
9.980960640120741
 42
0.4142135623730971
 10
49.62857597510585
 20
9.920960640120741
 10
49.99357597510586
 20
9.920960640120741
 42
0.4142135623730754
 10
50.05357597510585
 20
9.980960640120736
 10
50.05357597510592
 20
10.82696564012076
 42
-0.4142135623730759
 10
50.22357597510592
 20
10.99696564012075
 10
50.30384973887869
 20
10.99696564012075
 42
0.1990202627215667
 10
50.31799774434463
 20
11.00282937677657
 10
50.37924351716113
 20
11.06412602267768
 42
-0.1990202627215678
 10
50.45352054585727
 20
11.09491064012075
 10
50.48357597510586
 20
11.09491064012074
 42
0.4142135623730987
 10
50.55357597510585
 20
11.16491064012075
 10
50.55357597510585
 20
11.44796064012075
 42
0.4142135623731147
 10
50.53357597510586
 20
11.46796064012074
 10
50.53357597510586
 20
11.81196064012075
 42
0.4142135623730722
 10
50.55357597510585
 20
11.83196064012075
 10
50.55357597510585
 20
12.37896064012075
 42
0.4142135623731147
 10
50.53357597510586
 20
12.39896064012075
 10
50.53357597510586
 20
12.74296064012075
 42
0.4142135623730722
 10
50.55357597510585
 20
12.76296064012075
 10
50.55357597510585
 20
14.22096064012074
 42
0.414213562373094
 10
50.49357597510586
 20
14.28096064012074
  0
LWPOLYLINE
  5
709D
330
17
100
AcDbEntity
  8
R-SWTS-DET1
100
AcDbPolyline
 90
      108
 70
     1
 43
0.0
 10
48.71407597510586
 20
10.20096064012075
 42
0.4142135623730951
 10
48.69407597510586
 20
10.18096064012075
 10
48.69407597510586
 20
10.15196064012075
 42
0.4142135623730951
 10
48.71407597510586
 20
10.13196064012075
 10
48.72607597510586
 20
10.13196064012075
 10
48.72607597510586
 20
10.16096064012075
 10
48.76407597510585
 20
10.16096064012075
 10
48.8662342089222
 20
10.13852359213543
 42
-0.3541185725306985
 10
48.88207597510586
 20
10.11896064012075
 10
48.88207597510586
 20
10.07701064012075
 10
48.81545364463551
 20
10.01033297059108
 42
-0.1989123673796369
 10
48.79777597510585
 20
10.00301064012075
 10
48.72607597510586
 20
10.00301064012075
 10
48.72607597510586
 20
10.03201064012075
 10
48.64357597510586
 20
10.00301064012075
 10
48.65357597510586
 20
9.950011515086831
 10
48.62357597510585
 20
9.939466060541374
 10
48.62357597510585
 20
9.850960640120742
 10
50.62357597510587
 20
9.850960640120742
 10
50.62357597510587
 20
9.939466060541374
 10
50.59357597510586
 20
9.950011515086831
 10
50.60357597510585
 20
10.00301064012075
 10
50.52107597510586
 20
10.03201064012075
 10
50.52107597510586
 20
10.00301064012075
 10
50.44937597510585
 20
10.00301064012075
 42
-0.1989123673796361
 10
50.43169830557619
 20
10.01033297059108
 10
50.36507597510586
 20
10.07701064012075
 10
50.36507597510586
 20
10.11896064012075
 42
-0.3541185725307147
 10
50.3809177412895
 20
10.13852359213542
 10
50.48307597510586
 20
10.16096064012075
 10
50.52107597510586
 20
10.16096064012075
 10
50.52107597510586
 20
10.13196064012075
 10
50.53307597510586
 20
10.13196064012075
 42
0.4142135623730951
 10
50.55307597510585
 20
10.15196064012075
 10
50.55307597510585
 20
10.18096064012075
 42
0.4142135623730951
 10
50.53307597510586
 20
10.20096064012075
 10
50.33108097510585
 20
10.20096064012075
 42
0.4142135623730848
 10
50.29307597510586
 20
10.16295564012075
 10
50.31507597510586
 20
10.16295564012075
 10
50.31507597510586
 20
10.10095564012075
 10
50.29307597510586
 20
10.10095564012075
 10
50.29307597510586
 20
10.04617958402264
 42
0.1989018846181215
 10
50.30039759255785
 20
10.02850262754008
 10
50.37379209378537
 20
9.955102205306793
 42
-0.6681640521692635
 10
50.35964938774696
 20
9.920960640120743
 10
50.18357597510586
 20
9.920960640120743
 42
-0.4142135623731188
 10
50.12357597510586
 20
9.980960640120747
 10
50.12357597510592
 20
10.82696564012075
 42
-0.4142135623730755
 10
50.22357597510592
 20
10.92696564012075
 10
50.29007597510585
 20
10.92696564012075
 42
-0.4142135623730743
 10
50.31507597510586
 20
10.90196564012074
 10
50.31507597510586
 20
10.86496564012074
 10
50.29307597510586
 20
10.86496564012074
 42
0.4142135623730951
 10
50.33108097510585
 20
10.82696064012075
 10
50.53307597510586
 20
10.82696064012075
 42
0.4142135623730951
 10
50.55307597510585
 20
10.84696064012075
 10
50.55307597510585
 20
10.87596064012075
 42
0.4142135623730951
 10
50.53307597510586
 20
10.89596064012074
 10
50.52107597510586
 20
10.89596064012074
 10
50.52107597510586
 20
10.86696064012075
 10
50.48307597510586
 20
10.86696064012075
 10
50.3809177412895
 20
10.88939768810607
 42
-0.3541185725306792
 10
50.36507597510586
 20
10.90896064012075
 10
50.36507597510586
 20
10.95091064012075
 10
50.43169830557619
 20
11.01758830965041
 42
-0.1989123673796362
 10
50.44937597510585
 20
11.02491064012075
 10
50.52107597510586
 20
11.02491064012075
 10
50.52107597510586
 20
10.99591064012075
 10
50.60357597510585
 20
11.02491064012075
 10
50.59357597510586
 20
11.07790976515467
 10
50.62357597510587
 20
11.08845521970012
 10
50.62357597510587
 20
14.35096064012074
 10
48.62357597510585
 20
14.35096064012074
 10
48.62357597510585
 20
11.08845521970012
 10
48.65357597510586
 20
11.07790976515467
 10
48.64357597510586
 20
11.02491064012075
 10
48.72607597510586
 20
10.99591064012075
 10
48.72607597510586
 20
11.02491064012075
 10
48.79777597510585
 20
11.02491064012075
 42
-0.1989123673796472
 10
48.81545364463551
 20
11.01758830965041
 10
48.88207597510586
 20
10.95091064012075
 10
48.88207597510586
 20
10.90896064012075
 42
-0.3541185725306917
 10
48.8662342089222
 20
10.88939768810607
 10
48.76407597510585
 20
10.86696064012075
 10
48.72607597510586
 20
10.86696064012075
 10
48.72607597510586
 20
10.89596064012074
 10
48.71407597510586
 20
10.89596064012074
 42
0.4142135623730951
 10
48.69407597510586
 20
10.87596064012075
 10
48.69407597510586
 20
10.84696064012075
 42
0.4142135623730951
 10
48.71407597510586
 20
10.82696064012075
 10
48.91607097510586
 20
10.82696064012075
 42
0.4142135623730951
 10
48.95407597510586
 20
10.86496564012074
 10
48.93207597510586
 20
10.86496564012074
 10
48.93207597510586
 20
10.90196564012074
 42
-0.4142135623731054
 10
48.95707597510586
 20
10.92696564012075
 10
49.39857597510585
 20
10.92696564012075
 42
-0.4142135623730977
 10
49.49857597510586
 20
10.82696564012075
 10
49.49857597510585
 20
9.980960640120741
 42
-0.4142135623730908
 10
49.43857597510586
 20
9.920960640120741
 10
48.88750256246474
 20
9.920960640120743
 42
-0.6681640521692635
 10
48.87335985642635
 20
9.955102205306793
 10
48.94675435765385
 20
10.02850262754008
 42
0.1989018846181216
 10
48.95407597510586
 20
10.04617958402264
 10
48.95407597510586
 20
10.10095564012075
 10
48.93207597510586
 20
10.10095564012075
 10
48.93207597510586
 20
10.16295564012075
 10
48.95407597510586
 20
10.16295564012075
 42
0.4142135623730882
 10
48.91607097510586
 20
10.20096064012075
  0
TEXT
  5
709E
330
17
100
AcDbEntity
  8
PART_NUMBERS
100
AcDbText
 10
47.26017175386235
 20
15.10204874547042
 30
0.0
 40
0.25
  1
134WC005 MULLION
100
AcDbText
  0
LINE
  5
70F8
330
17
100
AcDbEntity
  8
R-SWTS-DET2
100
AcDbLine
 10
50.62357597510587
 20
9.883973813017281
 30
0.0
 11
52.62357597510586
 21
9.883973813017279
 31
0.0
  0
LINE
  5
70F9
330
17
100
AcDbEntity
  8
R-SWTS-DET2
100
AcDbLine
 10
50.62357597510587
 20
11.14617381301728
 30
0.0
 11
52.62357597510586
 21
11.14617381301728
 31
0.0
  0
LINE
  5
70FA
330
17
100
AcDbEntity
  8
R-SWTS-DET3
100
AcDbLine
 10
50.24857597510586
 20
10.63947381301728
 30
0.0
 11
52.62357597510586
 21
10.63947381301728
 31
0.0
  0
LINE
  5
70FB
330
17
100
AcDbEntity
  8
R-SWTS-DET3
100
AcDbLine
 10
50.24857597510586
 20
10.38947381301728
 30
0.0
 11
52.62357597510586
 21
10.38947381301728
 31
0.0
  0
LINE
  5
70FC
330
17
100
AcDbEntity
  8
R-SWTS-DET2
100
AcDbLine
 10
50.81029107988592
 20
10.38826064012076
 30
0.0
 11
50.70283976214907
 21
10.14184358976182
 31
0.0
  0
LINE
  5
70FD
330
17
100
AcDbEntity
  8
R-SWTS-DET2
100
AcDbLine
 10
50.70283976214907
 20
10.14184358976182
 30
0.0
 11
50.65344493200402
 21
9.882773813017276
 31
0.0
  0
LINE
  5
70FE
330
17
100
AcDbEntity
  8
R-SWTS-DET2
100
AcDbLine
 10
50.81029107988592
 20
10.6406869859138
 30
0.0
 11
50.70283976214907
 21
10.88710403627274
 31
0.0
  0
LINE
  5
70FF
330
17
100
AcDbEntity
  8
R-SWTS-DET3
100
AcDbLine
 10
50.24857597510586
 20
10.63947381301728
 30
0.0
 11
50.24857597510586
 21
10.38947381301728
 31
0.0
  0
LINE
  5
7100
330
17
100
AcDbEntity
  8
R-SWTS-DET2
100
AcDbLine
 10
50.30002023777446
 20
10.34665626070604
 30
0.0
 11
50.48032162755686
 21
10.3899869859138
 31
0.0
  0
ARC
  5
7101
330
17
100
AcDbEntity
  8
R-SWTS-DET2
100
AcDbCircle
 10
50.31199753248672
 20
10.29452381301728
 30
0.0
 40
0.0534906318026363
100
AcDbArc
 50
102.9390184097804
 51
257.4224697865404
  0
LINE
  5
7102
330
17
100
AcDbEntity
  8
R-SWTS-DET2
100
AcDbLine
 10
50.30034938588631
 20
10.24231683674571
 30
0.0
 11
50.48110771917722
 21
10.2019869859138
 31
0.0
  0
LINE
  5
7103
330
17
100
AcDbEntity
  8
R-SWTS-DET2
100
AcDbLine
 10
50.30002023777446
 20
10.68229136532852
 30
0.0
 11
50.48032162755686
 21
10.63896064012076
 31
0.0
  0
ARC
  5
7104
330
17
100
AcDbEntity
  8
R-SWTS-DET2
100
AcDbCircle
 10
50.31199753248672
 20
10.73442381301728
 30
0.0
 40
0.0534906318026363
100
AcDbArc
 50
102.5775302134595
 51
257.0609815902196
  0
LINE
  5
7105
330
17
100
AcDbEntity
  8
R-SWTS-DET2
100
AcDbLine
 10
50.30034938588631
 20
10.78663078928885
 30
0.0
 11
50.48110771917722
 21
10.82696064012076
 31
0.0
  0
LINE
  5
7106
330
17
100
AcDbEntity
  8
R-SWTS-DET2
100
AcDbLine
 10
50.70283976214907
 20
10.88710403627274
 30
0.0
 11
50.65344493200402
 21
11.14617381301728
 31
0.0
  0
LINE
  5
7107
330
17
100
AcDbEntity
  8
R-SWTS-DET2
100
AcDbLine
 10
48.62357597510585
 20
9.883973813017281
 30
0.0
 11
46.62357597510585
 21
9.883973813017281
 31
0.0
  0
LINE
  5
7108
330
17
100
AcDbEntity
  8
R-SWTS-DET2
100
AcDbLine
 10
48.62357597510585
 20
11.14617381301728
 30
0.0
 11
46.62357597510585
 21
11.14617381301728
 31
0.0
  0
LINE
  5
7109
330
17
100
AcDbEntity
  8
R-SWTS-DET3
100
AcDbLine
 10
48.99857597510585
 20
10.63947381301728
 30
0.0
 11
46.62357597510585
 21
10.63947381301728
 31
0.0
  0
LINE
  5
710A
330
17
100
AcDbEntity
  8
R-SWTS-DET3
100
AcDbLine
 10
48.99857597510585
 20
10.38947381301728
 30
0.0
 11
46.62357597510585
 21
10.38947381301728
 31
0.0
  0
LINE
  5
710B
330
17
100
AcDbEntity
  8
R-SWTS-DET2
100
AcDbLine
 10
48.4368608703258
 20
10.38826064012076
 30
0.0
 11
48.54431218806265
 21
10.14184358976182
 31
0.0
  0
LINE
  5
710C
330
17
100
AcDbEntity
  8
R-SWTS-DET2
100
AcDbLine
 10
48.54431218806265
 20
10.14184358976182
 30
0.0
 11
48.59370701820769
 21
9.882773813017278
 31
0.0
  0
LINE
  5
710D
330
17
100
AcDbEntity
  8
R-SWTS-DET2
100
AcDbLine
 10
48.4368608703258
 20
10.6406869859138
 30
0.0
 11
48.54431218806265
 21
10.88710403627274
 31
0.0
  0
LINE
  5
710E
330
17
100
AcDbEntity
  8
R-SWTS-DET3
100
AcDbLine
 10
48.99857597510585
 20
10.63947381301728
 30
0.0
 11
48.99857597510585
 21
10.38947381301728
 31
0.0
  0
LINE
  5
710F
330
17
100
AcDbEntity
  8
R-SWTS-DET2
100
AcDbLine
 10
48.94713171243726
 20
10.34665626070604
 30
0.0
 11
48.76683032265486
 21
10.3899869859138
 31
0.0
  0
ARC
  5
7110
330
17
100
AcDbEntity
  8
R-SWTS-DET2
100
AcDbCircle
 10
48.935154417725
 20
10.29452381301728
 30
0.0
 40
0.0534906318026363
100
AcDbArc
 50
282.5775302134596
 51
77.06098159021959
  0
LINE
  5
7111
330
17
100
AcDbEntity
  8
R-SWTS-DET2
100
AcDbLine
 10
48.9468025643254
 20
10.24231683674571
 30
0.0
 11
48.76604423103449
 21
10.2019869859138
 31
0.0
  0
LINE
  5
7112
330
17
100
AcDbEntity
  8
R-SWTS-DET2
100
AcDbLine
 10
48.94713171243726
 20
10.68229136532852
 30
0.0
 11
48.76683032265486
 21
10.63896064012076
 31
0.0
  0
ARC
  5
7113
330
17
100
AcDbEntity
  8
R-SWTS-DET2
100
AcDbCircle
 10
48.935154417725
 20
10.73442381301728
 30
0.0
 40
0.0534906318026363
100
AcDbArc
 50
282.9390184097804
 51
77.42246978654043
  0
LINE
  5
7114
330
17
100
AcDbEntity
  8
R-SWTS-DET2
100
AcDbLine
 10
48.9468025643254
 20
10.78663078928885
 30
0.0
 11
48.76604423103449
 21
10.82696064012076
 31
0.0
  0
LINE
  5
7115
330
17
100
AcDbEntity
  8
R-SWTS-DET2
100
AcDbLine
 10
48.54431218806265
 20
10.88710403627274
 30
0.0
 11
48.59370701820769
 21
11.14617381301728
 31
0.0
  0
LWPOLYLINE
  5
71D3
330
17
100
AcDbEntity
  8
R-SWTS-DET2
  6
HIDDEN
100
AcDbPolyline
 90
       24
 70
     1
 43
0.0
 10
39.75473148535363
 20
10.3069597277573
 10
39.75473148535363
 20
13.8969597277573
 10
39.83473148535363
 20
13.8969597277573
 10
39.83473148535363
 20
13.7269597277573
 10
39.92073148535363
 20
13.7269597277573
 10
39.92073148535363
 20
13.78871688122425
 10
40.13767289538643
 20
13.70973821121231
 42
-1.0
 10
40.11373148535363
 20
13.6439597277573
 10
40.00123148535362
 20
13.6849597277573
 42
0.4142135623730952
 10
39.97559723007139
 20
13.67300627820809
 10
39.97453003623245
 20
13.67012261479007
 42
-0.3152987888789714
 10
39.95573148535363
 20
13.6569597277573
 10
39.83473148535363
 20
13.6569597277573
 10
39.83473148535363
 20
10.5469597277573
 10
39.95573148535363
 20
10.54695972775731
 42
-0.3152987888789714
 10
39.97453003623245
 20
10.53379684072454
 10
39.97559723007139
 20
10.53091317730651
 42
0.4142135623730952
 10
40.00123148535362
 20
10.5189597277573
 10
40.11373148535363
 20
10.5599597277573
 42
-1.0
 10
40.13767289538642
 20
10.49418124430229
 10
39.92073148535363
 20
10.41520257429035
 10
39.92073148535363
 20
10.47695972775731
 10
39.83473148535363
 20
10.4769597277573
 10
39.83473148535363
 20
10.3069597277573
  0
LINE
  5
71D4
330
17
100
AcDbEntity
  8
R-SWTS-DET2
100
AcDbLine
 10
41.75473148535363
 20
9.883973813017266
 30
0.0
 11
43.75473148535363
 21
9.883973813017265
 31
0.0
  0
LINE
  5
71D5
330
17
100
AcDbEntity
  8
R-SWTS-DET2
100
AcDbLine
 10
41.75473148535363
 20
11.14617381301727
 30
0.0
 11
43.75473148535363
 21
11.14617381301727
 31
0.0
  0
LINE
  5
71D6
330
17
100
AcDbEntity
  8
R-SWTS-DET3
100
AcDbLine
 10
41.37973148535364
 20
10.63947381301727
 30
0.0
 11
43.75473148535363
 21
10.63947381301726
 31
0.0
  0
LINE
  5
71D7
330
17
100
AcDbEntity
  8
R-SWTS-DET3
100
AcDbLine
 10
41.37973148535364
 20
10.38947381301727
 30
0.0
 11
43.75473148535363
 21
10.38947381301726
 31
0.0
  0
LINE
  5
71D8
330
17
100
AcDbEntity
  8
R-SWTS-DET2
100
AcDbLine
 10
41.94144659013369
 20
10.38826064012075
 30
0.0
 11
41.83399527239684
 21
10.14184358976181
 31
0.0
  0
LINE
  5
71D9
330
17
100
AcDbEntity
  8
R-SWTS-DET2
100
AcDbLine
 10
41.83399527239684
 20
10.14184358976181
 30
0.0
 11
41.78460044225179
 21
9.882773813017262
 31
0.0
  0
LINE
  5
71DA
330
17
100
AcDbEntity
  8
R-SWTS-DET2
100
AcDbLine
 10
41.94144659013369
 20
10.64068698591378
 30
0.0
 11
41.83399527239684
 21
10.88710403627272
 31
0.0
  0
LINE
  5
71DB
330
17
100
AcDbEntity
  8
R-SWTS-DET3
100
AcDbLine
 10
41.37973148535364
 20
10.63947381301727
 30
0.0
 11
41.37973148535364
 21
10.38947381301727
 31
0.0
  0
LINE
  5
71DC
330
17
100
AcDbEntity
  8
R-SWTS-DET2
100
AcDbLine
 10
41.43117574802223
 20
10.34665626070602
 30
0.0
 11
41.61147713780463
 21
10.38998698591378
 31
0.0
  0
ARC
  5
71DD
330
17
100
AcDbEntity
  8
R-SWTS-DET2
100
AcDbCircle
 10
41.44315304273449
 20
10.29452381301727
 30
0.0
 40
0.0534906318026363
100
AcDbArc
 50
102.9390184097804
 51
257.4224697865404
  0
LINE
  5
71DE
330
17
100
AcDbEntity
  8
R-SWTS-DET2
100
AcDbLine
 10
41.43150489613408
 20
10.24231683674569
 30
0.0
 11
41.61226322942499
 21
10.20198698591379
 31
0.0
  0
LINE
  5
71DF
330
17
100
AcDbEntity
  8
R-SWTS-DET2
100
AcDbLine
 10
41.43117574802223
 20
10.68229136532851
 30
0.0
 11
41.61147713780463
 21
10.63896064012075
 31
0.0
  0
ARC
  5
71E0
330
17
100
AcDbEntity
  8
R-SWTS-DET2
100
AcDbCircle
 10
41.44315304273449
 20
10.73442381301727
 30
0.0
 40
0.0534906318026363
100
AcDbArc
 50
102.5775302134595
 51
257.0609815902196
  0
LINE
  5
71E1
330
17
100
AcDbEntity
  8
R-SWTS-DET2
100
AcDbLine
 10
41.43150489613408
 20
10.78663078928884
 30
0.0
 11
41.61226322942499
 21
10.82696064012075
 31
0.0
  0
LINE
  5
71E2
330
17
100
AcDbEntity
  8
R-SWTS-DET2
100
AcDbLine
 10
41.83399527239684
 20
10.88710403627272
 30
0.0
 11
41.78460044225179
 21
11.14617381301727
 31
0.0
  0
LWPOLYLINE
  5
740E
330
17
100
AcDbEntity
  8
R-SWTS-DET1
100
AcDbPolyline
 90
       73
 70
     1
 43
0.0
 10
11.60703078529464
 20
35.6340426375038
 42
0.4142135623730951
 10
11.61703078529463
 20
35.6240426375038
 10
11.65903078529466
 20
35.6240426375038
 42
-0.4142135623730951
 10
11.66903078529465
 20
35.61404263750379
 10
11.66903078529465
 20
35.52904263750381
 42
-0.4142135623731471
 10
11.65903078529465
 20
35.51904263750382
 10
11.55403078529462
 20
35.51904263750382
 42
-0.4142135623739275
 10
11.54403078529463
 20
35.52904263750381
 10
11.54403078529463
 20
37.51804263750002
 10
11.66903078529465
 20
37.51804263750002
 10
11.66903078529465
 20
37.4730426375
 10
12.44152965618942
 20
37.4730426375
 10
12.44152965618942
 20
37.51804263750005
 10
12.69152965618942
 20
37.5180426375
 10
12.69152965618941
 20
37.4730426375
 10
13.48203078529461
 20
37.4730426375
 10
13.48203078529461
 20
37.51804263750002
 10
13.54403078529462
 20
37.51804263750002
 10
13.54403078529462
 20
37.4730426375
 10
14.29403078529462
 20
37.4730426375
 10
14.29403078529462
 20
37.51804263750002
 10
14.35603078529461
 20
37.51804263750002
 10
14.35603078529464
 20
37.47304263750003
 10
15.14653191439982
 20
37.47304263750003
 10
15.14653191439982
 20
37.5180426375
 10
15.39653191439982
 20
37.51804263750005
 10
15.39653191439982
 20
37.47304263750002
 10
16.1690307852946
 20
37.4730426375
 10
16.1690307852946
 20
37.51804263750002
 10
16.29403078529463
 20
37.51804263750002
 10
16.29403078529463
 20
35.52904263750381
 42
-0.4142135623739275
 10
16.28403078529463
 20
35.51904263750382
 10
16.1790307852946
 20
35.51904263750382
 42
-0.4142135623731471
 10
16.1690307852946
 20
35.52904263750381
 10
16.1690307852946
 20
35.61404263750379
 42
-0.4142135623730951
 10
16.17903078529459
 20
35.6240426375038
 10
16.22103078529462
 20
35.6240426375038
 42
0.4142135623730951
 10
16.23103078529461
 20
35.6340426375038
 10
16.23103078529461
 20
35.70404263750382
 42
0.4142135623730951
 10
16.22103078529462
 20
35.71404263750381
 10
16.1690307852946
 20
35.71404263750381
 10
16.21269103933246
 20
35.7896644157688
 42
0.131652497587239
 10
16.21403078529461
 20
35.79466441576878
 10
16.21403078529461
 20
36.58199463750381
 10
16.1690307852946
 20
36.58199464546877
 10
16.1690307852946
 20
37.39304263750002
 10
15.35500571969148
 20
37.3930426375
 42
-0.3152987888789334
 10
15.34560879348369
 20
37.39962243606674
 10
15.32531159850243
 20
37.45538852095587
 42
0.3152987888785436
 10
15.3159146722946
 20
37.4619683195226
 10
15.2365319143998
 20
37.4619683195226
 42
0.4142135623727309
 10
15.22653191439982
 20
37.45196831952261
 10
15.22653191439982
 20
37.40304263749999
 42
-0.4142135623731471
 10
15.21653191439982
 20
37.39304263749999
 10
13.93393078529467
 20
37.39304263750002
 10
13.91893078529462
 20
37.4080426375
 10
13.90393078529464
 20
37.39304263750002
 10
12.62152965618941
 20
37.39304263749999
 42
-0.4142135623731471
 10
12.61152965618941
 20
37.40304263749999
 10
12.61152965618941
 20
37.45196831952261
 42
0.4142135623727309
 10
12.60152965618943
 20
37.4619683195226
 10
12.52214689829464
 20
37.4619683195226
 42
0.3152987888785437
 10
12.51274997208681
 20
37.45538852095587
 10
12.49245277710554
 20
37.39962243606674
 42
-0.3152987888789466
 10
12.4830558508977
 20
37.39304263749999
 10
11.66903078529465
 20
37.39304263750002
 10
11.66903078529465
 20
36.58199464546877
 10
11.62403078529464
 20
36.58199463750381
 10
11.62403078529464
 20
35.79466441576878
 42
0.1316524975872335
 10
11.62537053125679
 20
35.7896644157688
 10
11.66903078529465
 20
35.71404263750381
 10
11.61703078529463
 20
35.71404263750381
 42
0.4142135623730951
 10
11.60703078529464
 20
35.70404263750382
  0
LWPOLYLINE
  5
740F
330
17
100
AcDbEntity
  8
R-SWTS-DET1
100
AcDbPolyline
 90
       75
 70
     1
 43
0.0
 10
11.81648078529457
 20
35.62054263749999
 10
11.84548078529457
 20
35.62054263749999
 10
11.80945048226427
 20
35.51804263749999
 10
11.67413078529463
 20
35.51804263749999
 42
-0.4142135623733032
 10
11.6641307852946
 20
35.52804263750001
 10
11.66413078529463
 20
35.61304263749999
 42
0.4142135623733032
 10
11.65413078529462
 20
35.62304263749998
 10
11.62918976914324
 20
35.62304263749998
 42
-0.5773502691905092
 10
11.62052951510539
 20
35.63804263749999
 10
11.71808207398866
 20
35.80700862589414
 42
-0.267949192430891
 10
11.72680123785586
 20
35.81204263749997
 10
11.77442578529458
 20
35.81204263749997
 42
0.4142135623730951
 10
11.83442578529458
 20
35.87204263749998
 10
11.83442578529458
 20
36.29304263750001
 42
-0.4142135623730951
 10
12.01442578529458
 20
36.4730426375
 10
12.68043578529454
 20
36.4730426375
 42
0.4142135623730257
 10
12.74043578529456
 20
36.5330426375
 10
12.74043578529455
 20
37.32804263750001
 42
-0.9999999999999776
 10
12.82043578529452
 20
37.32804263750001
 10
12.82043578529456
 20
35.84191344143315
 42
0.1990202627215954
 10
12.82629952195038
 20
35.82776543596722
 10
12.88759616785149
 20
35.76651966315075
 42
-0.1990202627216068
 10
12.91838078529456
 20
35.69224263445459
 10
12.91838078529454
 20
35.6180426375
 42
0.4142135623731684
 10
12.93838078529454
 20
35.59804263749999
 10
16.01103990508027
 20
35.59804263750006
 42
0.3275382217171905
 10
16.0873550411935
 20
35.65404263749969
 42
-0.3275382217217361
 10
16.15413078529457
 20
35.70304263750006
 10
16.18613078529457
 20
35.70304263750006
 42
-0.414213562372991
 10
16.22613078529458
 20
35.66304263750008
 10
16.22613078529459
 20
35.62304263750006
 10
16.16413078529458
 20
35.62304263750006
 10
16.16413078529461
 20
35.52804263750005
 42
-0.4142135623726789
 10
16.15413078529461
 20
35.51804263750006
 10
12.84541108832488
 20
35.51804263749999
 10
12.80938078529456
 20
35.62054263750001
 10
12.83838078529456
 20
35.62054263750001
 10
12.83838078529456
 20
35.6922426375
 42
0.1989123673795612
 10
12.83105845482421
 20
35.70992030702969
 10
12.76438078529454
 20
35.77654263750002
 10
12.72243078529456
 20
35.77654263750002
 42
0.3541185725306532
 10
12.70286783327986
 20
35.76070087131636
 10
12.68043078529456
 20
35.65854263750002
 10
12.68043078529456
 20
35.62054263750001
 10
12.70943078529455
 20
35.62054263750001
 10
12.70943078529455
 20
35.60854263750001
 42
-0.4142135623730951
 10
12.68943078529454
 20
35.58854263750003
 10
12.66043078529455
 20
35.5885426375
 42
-0.4142135623730951
 10
12.64043078529455
 20
35.60854263750004
 10
12.64043078529455
 20
35.81053763750002
 42
-0.4142135623730951
 10
12.67843578529455
 20
35.84854263750002
 10
12.67843578529455
 20
35.82654263750003
 10
12.71543578529455
 20
35.82654263750003
 42
0.4142135623730951
 10
12.74043578529456
 20
35.85154263750003
 10
12.74043578529455
 20
36.33304263750002
 42
0.4142135623731645
 10
12.68043578529455
 20
36.39304263750001
 10
12.01442578529458
 20
36.39304263750001
 42
0.4142135623730951
 10
11.91442578529458
 20
36.29304263750001
 10
11.91442578529458
 20
35.85154263750001
 42
0.4142135623730951
 10
11.93942578529459
 20
35.8265426375
 10
11.97642578529459
 20
35.82654263750001
 10
11.97642578529459
 20
35.84854263750002
 42
-0.4142135623730951
 10
12.01443078529459
 20
35.81053763750002
 10
12.01443078529459
 20
35.60854263750001
 42
-0.4142135623730951
 10
11.99443078529458
 20
35.58854263749998
 10
11.96543078529459
 20
35.5885426375
 42
-0.414213562372991
 10
11.94543078529457
 20
35.6085426375
 10
11.94543078529457
 20
35.62054263749999
 10
11.97443078529457
 20
35.62054263749999
 10
11.97443078529457
 20
35.65854263749999
 10
11.95199373730928
 20
35.76070087131636
 42
0.3541185725307227
 10
11.93243078529457
 20
35.77654263749999
 10
11.89048078529459
 20
35.77654263749999
 10
11.82380311576492
 20
35.70992030702966
 42
0.198912367379643
 10
11.81648078529457
 20
35.6922426375
  0
LINE
  5
7410
330
17
100
AcDbEntity
  8
R-SWTS-DET2
100
AcDbLine
 10
12.97029767264595
 20
35.51804263749998
 30
0.0
 11
12.97029767264595
 21
33.51806276813657
 31
0.0
  0
LINE
  5
7411
330
17
100
AcDbEntity
  8
R-SWTS-DET3
100
AcDbLine
 10
12.4529439581911
 20
35.89304263749998
 30
0.0
 11
12.20294395819111
 21
35.89304263749998
 31
0.0
  0
LINE
  5
7412
330
17
100
AcDbEntity
  8
R-SWTS-DET3
100
AcDbLine
 10
12.4529439581911
 20
35.89304263749998
 30
0.0
 11
12.4529439581911
 21
33.51804263749998
 31
0.0
  0
LINE
  5
7413
330
17
100
AcDbEntity
  8
R-SWTS-DET3
100
AcDbLine
 10
12.20294395819111
 20
35.89304263749998
 30
0.0
 11
12.20294395819111
 21
33.51804263749998
 31
0.0
  0
LINE
  5
7414
330
17
100
AcDbEntity
  8
R-SWTS-DET2
100
AcDbLine
 10
11.68559024373626
 20
35.51804263749998
 30
0.0
 11
11.68559024373626
 21
33.51806276813657
 31
0.0
  0
LWPOLYLINE
  5
7417
330
17
100
AcDbEntity
  8
R-SWTS-DET2
100
AcDbPolyline
 90
       31
 70
     1
 43
0.0
 10
11.82940536233731
 20
35.63204466566443
 10
11.85622188887625
 20
35.62717036506646
 10
11.82209176475511
 20
35.51993576738471
 10
11.76114511409504
 20
35.51506146850602
 10
11.68559024373626
 20
35.51804263749998
 10
11.69568078529458
 20
35.48703309487874
 42
0.1257100272134179
 10
11.92767218731664
 20
35.43529076728508
 42
-0.2260837189018228
 10
12.08125774774824
 20
35.38557290864099
 10
12.17681305740793
 20
35.27463229048063
 42
0.6449762263124317
 10
12.20274734942612
 20
35.28637363295429
 10
12.20116761239806
 20
35.41561056858367
 42
0.1518691569180708
 10
12.18481483580174
 20
35.46004572293294
 10
12.14631164750648
 20
35.51997150220142
 42
-0.0293454671788447
 10
12.12891675830358
 20
35.57185414539404
 10
12.11168646872006
 20
35.69364815523107
 42
-0.6538117075652882
 10
12.13192727962292
 20
35.70063489219644
 10
12.17601902684524
 20
35.53538597470652
 42
0.8886355728344963
 10
12.20116761239806
 20
35.53744740560591
 10
12.20116761239806
 20
35.67169302599856
 42
0.0642046489364144
 10
12.15873515048864
 20
35.86030928270585
 42
0.6896355001773956
 10
12.05612642010053
 20
35.86030928270585
 42
0.0703560868358924
 10
12.01489395819111
 20
35.67169302599856
 10
12.01489395819111
 20
35.57599021566493
 10
11.94154720021452
 20
35.57599021566493
 10
11.91960640539705
 20
35.62960751536544
 10
11.95861226331052
 20
35.63448181424413
 10
11.92448213711851
 20
35.67103906357104
 10
11.95617439744979
 20
35.69297341282334
 10
11.89522774471884
 20
35.74659071080457
 10
11.83915682578024
 20
35.6807876630477
 10
11.86353548645844
 20
35.67103906357104
  0
LWPOLYLINE
  5
7418
330
17
100
AcDbEntity
  8
R-SWTS-DET2
100
AcDbPolyline
 90
       31
 70
     1
 43
0.0
 10
12.8264825540449
 20
35.63204466566443
 10
12.79966602750596
 20
35.62717036506646
 10
12.8337961516271
 20
35.51993576738471
 10
12.89474280228717
 20
35.51506146850602
 10
12.97029767264595
 20
35.51804263749998
 10
12.96020713108763
 20
35.48703309487874
 42
-0.1257100272134179
 10
12.72821572906557
 20
35.43529076728508
 42
0.2260837189018228
 10
12.57463016863397
 20
35.38557290864099
 10
12.47907485897427
 20
35.27463229048063
 42
-0.6449762263124317
 10
12.45314056695609
 20
35.28637363295429
 10
12.45472030398414
 20
35.41561056858367
 42
-0.1518691569180708
 10
12.47107308058047
 20
35.46004572293294
 10
12.50957626887572
 20
35.51997150220142
 42
0.0293454671788447
 10
12.52697115807862
 20
35.57185414539404
 10
12.54420144766215
 20
35.69364815523107
 42
0.6538117075652882
 10
12.52396063675929
 20
35.70063489219644
 10
12.47986888953696
 20
35.53538597470652
 42
-0.8886355728344963
 10
12.45472030398415
 20
35.53744740560591
 10
12.45472030398415
 20
35.67169302599856
 42
-0.0642046489364144
 10
12.49715276589357
 20
35.86030928270585
 42
-0.6896355001773956
 10
12.59976149628168
 20
35.86030928270585
 42
-0.0703560868358924
 10
12.6409939581911
 20
35.67169302599856
 10
12.6409939581911
 20
35.57599021566493
 10
12.71434071616769
 20
35.57599021566493
 10
12.73628151098516
 20
35.62960751536544
 10
12.69727565307168
 20
35.63448181424413
 10
12.7314057792637
 20
35.67103906357104
 10
12.69971351893242
 20
35.69297341282334
 10
12.76066017166337
 20
35.74659071080457
 10
12.81673109060197
 20
35.6807876630477
 10
12.79235242992377
 20
35.67103906357104
  0
LWPOLYLINE
  5
742C
330
17
100
AcDbEntity
  8
R-SWTS-DET1
100
AcDbPolyline
 90
      147
 70
     1
 43
0.0
 10
12.82255646545125
 20
25.10132009931735
 10
12.85155646545125
 20
25.10132009931735
 10
12.85155646545124
 20
25.17302009931735
 42
0.1989123673796818
 10
12.84423413498091
 20
25.19069776884701
 10
12.77755646545125
 20
25.25732009931735
 10
12.73560646545125
 20
25.25732009931735
 42
0.3541185725306837
 10
12.71604351343657
 20
25.2414783331337
 10
12.69360646545125
 20
25.13932009931735
 10
12.69360646545124
 20
25.10132009931735
 10
12.72260646545125
 20
25.10132009931735
 10
12.72260646545124
 20
25.08932009931735
 42
-0.4142135623731211
 10
12.70260646545125
 20
25.06932009931735
 10
12.67360646545125
 20
25.06932009931735
 42
-0.4142135623730951
 10
12.65360646545125
 20
25.08932009931735
 10
12.65360646545125
 20
25.29131509931735
 42
-0.4142135623730951
 10
12.69161146545124
 20
25.32932009931736
 10
12.69161146545124
 20
25.30732009931735
 10
12.72861146545124
 20
25.30732009931735
 42
0.4142135623731367
 10
12.75361146545125
 20
25.33232009931735
 10
12.75361146545126
 20
25.99382009931734
 42
0.4142135623730995
 10
12.69361146545126
 20
26.05382009931734
 10
12.18860646545126
 20
26.05382009931734
 42
0.4142135623730822
 10
12.16860646545126
 20
26.03382009931735
 10
12.16860646545126
 20
25.93632009931735
 42
-0.4142135623730875
 10
12.09860646545126
 20
25.86632009931735
 10
11.79160646545126
 20
25.86632009931735
 42
0.4142135623730951
 10
11.77160646545126
 20
25.84632009931735
 10
11.77160646545125
 20
25.28674475066371
 42
0.6681640521693201
 10
11.80574803063731
 20
25.2726020446253
 10
11.85514845287059
 20
25.32199848186536
 42
-0.1989018846181292
 10
11.87282540935315
 20
25.32932009931736
 10
11.92760146545125
 20
25.32932009931736
 10
11.92760146545125
 20
25.30732009931735
 10
11.98960146545126
 20
25.30732009931735
 10
11.98960146545126
 20
25.32932009931736
 42
-0.4142135623731088
 10
12.02760646545126
 20
25.29131509931736
 10
12.02760646545126
 20
25.08932009931736
 42
-0.4142135623731211
 10
12.00760646545126
 20
25.06932009931735
 10
11.97860646545126
 20
25.06932009931735
 42
-0.4142135623730951
 10
11.95860646545126
 20
25.08932009931736
 10
11.95860646545126
 20
25.10132009931736
 10
11.98760646545125
 20
25.10132009931736
 10
11.98760646545125
 20
25.13932009931735
 10
11.96516941746593
 20
25.24147833313371
 42
0.3541185725306844
 10
11.94560646545125
 20
25.25732009931735
 10
11.90365646545126
 20
25.25732009931735
 10
11.83697879592159
 20
25.19069776884702
 42
0.1989123673796933
 10
11.82965646545126
 20
25.17302009931735
 10
11.82965646545126
 20
25.10132009931736
 10
11.85865646545125
 20
25.10132009931736
 10
11.82965646545126
 20
25.01882009931736
 10
11.77665734041733
 20
25.02882009931735
 10
11.76611188587188
 20
24.99882009931735
 10
11.70160646545125
 20
24.99882009931735
 10
11.70160646545126
 20
26.12382009931734
 10
11.79153276113772
 20
26.12382009931734
 10
11.81008860674226
 20
26.09186280966507
 42
-0.5881107555336786
 10
11.79219964663065
 20
26.06182889785035
 42
0.4229287041880645
 10
11.77160646545125
 20
26.0418376963835
 10
11.77160646545126
 20
25.95632009931735
 42
0.4142135623730951
 10
11.79160646545126
 20
25.93632009931735
 10
12.09860646545126
 20
25.93632009931735
 10
12.09860646545126
 20
25.99882009931735
 10
12.00084629127278
 20
25.99882009931735
 10
11.97203617907566
 20
26.04883765521511
 42
-0.5770125539080718
 10
11.9893668111976
 20
26.07882009931734
 10
12.09860646545126
 20
26.07882009931734
 10
12.09860646545126
 20
26.10382009931734
 42
-0.4142135623730951
 10
12.11860646545126
 20
26.12382009931735
 10
12.69361146545126
 20
26.12382009931734
 42
0.4142135623730951
 10
12.75361146545126
 20
26.18382009931734
 10
12.75361146545125
 20
26.66532009931734
 42
0.4142135623731159
 10
12.72861146545125
 20
26.69032009931734
 10
12.69161146545125
 20
26.69032009931734
 10
12.69161146545125
 20
26.66832009931733
 42
-0.4142135623730951
 10
12.65360646545125
 20
26.70632509931734
 10
12.65360646545125
 20
26.90832009931734
 42
-0.4142135623730431
 10
12.67360646545125
 20
26.92832009931734
 10
12.70260646545126
 20
26.92832009931734
 42
-0.414213562373069
 10
12.72260646545125
 20
26.90832009931734
 10
12.72260646545125
 20
26.89632009931734
 10
12.69360646545125
 20
26.89632009931734
 10
12.69360646545125
 20
26.85832009931733
 10
12.71604351343657
 20
26.75616186550099
 42
0.3541185725307292
 10
12.73560646545125
 20
26.74032009931734
 10
12.77755646545125
 20
26.74032009931734
 10
12.84423413498091
 20
26.80694242978768
 42
0.198912367379694
 10
12.85155646545125
 20
26.82462009931734
 10
12.85155646545125
 20
26.89632009931734
 10
12.82255646545125
 20
26.89632009931734
 10
12.85155646545125
 20
26.97882009931734
 10
12.90455559048517
 20
26.96882009931734
 10
12.91510104503063
 20
26.99882009931735
 10
16.15360646545125
 20
26.99882009931735
 10
16.15360646545125
 20
24.99882009931738
 10
16.05077929359659
 20
24.99882009931735
 10
16.05077929359659
 20
25.07882009931735
 10
15.94277929359661
 20
25.07882009931735
 42
-0.4142135623730951
 10
15.88077929359661
 20
25.14082009931735
 10
15.88077929359659
 20
25.15882009931734
 10
16.05360646545125
 20
25.15882009931734
 42
0.4142135623730951
 10
16.07360646545125
 20
25.17882009931734
 10
16.07360646545125
 20
26.11782009931737
 42
0.4142135623730951
 10
16.05360646545125
 20
26.13782009931736
 10
15.91360646545124
 20
26.13782009931736
 42
-0.414213562373095
 10
15.90360646545124
 20
26.14782009931737
 10
15.90360646545124
 20
26.20782009931736
 42
-0.4142135623730951
 10
15.91360646545124
 20
26.21782009931736
 10
16.05360646545124
 20
26.21782009931735
 42
0.414213562373069
 10
16.07360646545124
 20
26.23782009931735
 10
16.07360646545124
 20
26.89882009931735
 42
0.4142135623730951
 10
16.05360646545124
 20
26.91882009931735
 10
15.37903119579485
 20
26.91882009931735
 10
15.33403119579485
 20
26.87382009931735
 10
15.08403119579485
 20
26.87382009931735
 10
15.03903119579485
 20
26.91882009931735
 10
13.69710646545126
 20
26.91882009931735
 42
0.4142135623730993
 10
13.63710646545126
 20
26.85882009931735
 10
13.63710646545126
 20
26.57266208952674
 10
13.75594845566064
 20
26.45382009931736
 10
14.12143635212668
 20
26.45382009931735
 42
-0.9999999999999998
 10
14.12143635212668
 20
26.37382009931736
 10
13.72281137067079
 20
26.37382009931735
 10
13.55710646545126
 20
26.53952500453689
 10
13.55710646545126
 20
26.85882009931736
 42
0.4142135623730908
 10
13.49710646545126
 20
26.91882009931735
 10
12.99155646545125
 20
26.91882009931735
 42
0.4142135623730908
 10
12.93155646545125
 20
26.85882009931735
 10
12.93155646545125
 20
26.82254781850978
 42
-0.1990202627215648
 10
12.90223778217215
 20
26.75180779118012
 10
12.88347520210708
 20
26.73306078309798
 42
0.1990202627215767
 10
12.87761146545126
 20
26.71891277763204
 10
12.87761146545126
 20
26.43682009931735
 10
12.90457921172285
 20
26.43682009931735
 42
-0.4931454260313008
 10
12.91423846998574
 20
26.42423190886633
 10
12.83358672607202
 20
26.12323550286129
 10
12.83355146545125
 20
25.33688712167042
 42
0.199020262721546
 10
12.83941520210707
 20
25.32273911620449
 10
12.91077184800818
 20
25.25144169267405
 42
-0.1990202627215685
 10
12.94155646545125
 20
25.17716466397791
 10
12.94155646545125
 20
25.15882009931734
 10
13.07455559048515
 20
25.15882009931735
 10
13.07455559048514
 20
25.14082009931734
 42
-0.4142135623731117
 10
13.01255559048514
 20
25.07882009931734
 10
12.90455559048516
 20
25.07882009931735
 10
12.90455559048517
 20
25.02882009931735
 10
12.85155646545124
 20
25.01882009931736
  0
LWPOLYLINE
  5
742D
330
17
100
AcDbEntity
  8
R-SWTS-DET2
100
AcDbPolyline
 90
       49
 70
     1
 43
0.0
 10
14.79232686082544
 20
26.75088777112745
 42
0.4142135623730951
 10
14.77232686082543
 20
26.73088777112746
 10
14.77232686082543
 20
26.52136189412472
 42
-0.4142135623730951
 10
14.71032686082543
 20
26.45936189412472
 10
14.60728751625794
 20
26.45936189412472
 42
0.5836453620014595
 10
14.59015840686043
 20
26.42903747592086
 42
-0.2917882532423142
 10
14.58401704078236
 20
26.18711038642404
 10
14.47824049008255
 20
26.18711038642404
 10
14.45345592613847
 20
26.23003851041862
 42
3.265165369800561
 10
14.34145592613847
 20
26.23003851041862
 10
14.31667136095094
 20
26.18711038427032
 10
14.21581610268515
 20
26.18711036283288
 42
0.4142135001167244
 10
14.19581610693629
 20
26.16711036283288
 10
14.19581610693629
 20
26.14908514611919
 42
-0.4142135623730951
 10
14.17581610693629
 20
26.12908514611919
 10
14.13381610693629
 20
26.1290851461192
 10
14.03701319017541
 20
26.24044419480511
 10
13.82689866210154
 20
26.24044419480511
 10
13.7300957864863
 20
26.12908514611919
 10
13.68809578648631
 20
26.12908514611919
 42
-0.4142135623730951
 10
13.66809578648631
 20
26.14908514611919
 10
13.66809578648631
 20
26.16711036219911
 42
0.4142134982762367
 10
13.64809579086311
 20
26.18711036219911
 10
13.54724049132602
 20
26.18711038427032
 10
13.52245592613849
 20
26.23003851041862
 42
3.265165369800561
 10
13.41045592613849
 20
26.23003851041862
 10
13.38567136219441
 20
26.18711038642404
 10
13.2798948114946
 20
26.18711038642404
 42
-0.2917882532423119
 10
13.27375344541653
 20
26.42903747592086
 42
0.5836453620014551
 10
13.25662433601902
 20
26.45936189412472
 10
12.91021308419693
 20
26.45936189412472
 42
-0.4142135623730951
 10
12.89021308419693
 20
26.47936189412472
 10
12.89021308419693
 20
26.56436189412473
 42
-0.4142135623730951
 10
12.91021308419693
 20
26.58436189412472
 10
13.51361903655065
 20
26.58436189412472
 10
13.724160831358
 20
26.37382009931736
 10
14.13975102091896
 20
26.37382009931736
 10
14.3502928157263
 20
26.58436189412472
 10
14.62732686082544
 20
26.58436189412472
 42
0.4142135623730951
 10
14.64732686082544
 20
26.60436189412472
 10
14.64732686082544
 20
26.81388777112746
 42
-0.4142135623731035
 10
14.70932686082544
 20
26.87588777112746
 10
15.80960646545127
 20
26.87588777112746
 42
-0.4142135623731013
 10
16.05960646545128
 20
26.62588777112745
 10
16.05960646545127
 20
26.26488777112745
 42
-0.8391187447063689
 10
16.00141522651718
 20
26.2546284316087
 10
15.93460646545127
 20
26.5097413948064
 10
15.93460646545128
 20
26.62588777112745
 42
0.4142135623731034
 10
15.80960646545127
 20
26.75088777112745
  0
LINE
  5
742E
330
17
100
AcDbEntity
  8
R-SWTS-DET2
100
AcDbLine
 10
11.71014593523633
 20
26.99882009931733
 30
0.0
 11
11.71014593523633
 21
28.99882009931733
 31
0.0
  0
LINE
  5
742F
330
17
100
AcDbEntity
  8
R-SWTS-DET2
100
AcDbLine
 10
12.97234593523633
 20
26.99882009931733
 30
0.0
 11
12.97234593523633
 21
28.99882009931733
 31
0.0
  0
LINE
  5
7430
330
17
100
AcDbEntity
  8
R-SWTS-DET3
100
AcDbLine
 10
12.46564593523633
 20
26.62382009931734
 30
0.0
 11
12.46564593523633
 21
28.99882009931733
 31
0.0
  0
LINE
  5
7431
330
17
100
AcDbEntity
  8
R-SWTS-DET3
100
AcDbLine
 10
12.21564593523633
 20
26.62382009931734
 30
0.0
 11
12.21564593523633
 21
28.99882009931733
 31
0.0
  0
LINE
  5
7432
330
17
100
AcDbEntity
  8
R-SWTS-DET2
100
AcDbLine
 10
12.21443276233981
 20
27.1855352040974
 30
0.0
 11
11.96801571198087
 21
27.07808388636054
 31
0.0
  0
LINE
  5
7433
330
17
100
AcDbEntity
  8
R-SWTS-DET2
100
AcDbLine
 10
11.96801571198087
 20
27.07808388636054
 30
0.0
 11
11.70894593523633
 21
27.02868905621549
 31
0.0
  0
LINE
  5
7434
330
17
100
AcDbEntity
  8
R-SWTS-DET2
100
AcDbLine
 10
12.46685910813285
 20
27.1855352040974
 30
0.0
 11
12.71327615849179
 21
27.07808388636053
 31
0.0
  0
LINE
  5
7435
330
17
100
AcDbEntity
  8
R-SWTS-DET3
100
AcDbLine
 10
12.46564593523633
 20
26.62382009931734
 30
0.0
 11
12.21564593523633
 21
26.62382009931734
 31
0.0
  0
LINE
  5
7436
330
17
100
AcDbEntity
  8
R-SWTS-DET2
100
AcDbLine
 10
12.17282838292509
 20
26.67526436198593
 30
0.0
 11
12.21615910813285
 21
26.85556575176833
 31
0.0
  0
ARC
  5
7437
330
17
100
AcDbEntity
  8
R-SWTS-DET2
100
AcDbCircle
 10
12.12069593523633
 20
26.68724165669819
 30
0.0
 40
0.0534906318026363
100
AcDbArc
 50
192.5775302134595
 51
347.0609815902198
  0
LINE
  5
7438
330
17
100
AcDbEntity
  8
R-SWTS-DET2
100
AcDbLine
 10
12.06848895896476
 20
26.67559351009778
 30
0.0
 11
12.02815910813285
 21
26.85635184338869
 31
0.0
  0
LINE
  5
7439
330
17
100
AcDbEntity
  8
R-SWTS-DET2
100
AcDbLine
 10
12.50846348754757
 20
26.67526436198593
 30
0.0
 11
12.46513276233981
 21
26.85556575176833
 31
0.0
  0
ARC
  5
743A
330
17
100
AcDbEntity
  8
R-SWTS-DET2
100
AcDbCircle
 10
12.56059593523633
 20
26.68724165669819
 30
0.0
 40
0.0534906318026363
100
AcDbArc
 50
192.9390184097802
 51
347.4224697865404
  0
LINE
  5
743B
330
17
100
AcDbEntity
  8
R-SWTS-DET2
100
AcDbLine
 10
12.6128029115079
 20
26.67559351009778
 30
0.0
 11
12.65313276233981
 21
26.85635184338869
 31
0.0
  0
LINE
  5
743C
330
17
100
AcDbEntity
  8
R-SWTS-DET2
100
AcDbLine
 10
12.71327615849179
 20
27.07808388636053
 30
0.0
 11
12.97234593523633
 21
27.02868905621549
 31
0.0
  0
LINE
  5
743D
330
17
100
AcDbEntity
  8
R-SWTS-DET2
100
AcDbLine
 10
11.71014593523633
 20
24.99882009931734
 30
0.0
 11
11.71014593523633
 21
22.99882009931734
 31
0.0
  0
LINE
  5
743E
330
17
100
AcDbEntity
  8
R-SWTS-DET2
100
AcDbLine
 10
12.97234593523633
 20
24.99882009931734
 30
0.0
 11
12.97234593523633
 21
22.99882009931734
 31
0.0
  0
LINE
  5
743F
330
17
100
AcDbEntity
  8
R-SWTS-DET3
100
AcDbLine
 10
12.46564593523633
 20
25.37382009931734
 30
0.0
 11
12.46564593523633
 21
22.99882009931734
 31
0.0
  0
LINE
  5
7440
330
17
100
AcDbEntity
  8
R-SWTS-DET3
100
AcDbLine
 10
12.21564593523633
 20
25.37382009931734
 30
0.0
 11
12.21564593523633
 21
22.99882009931734
 31
0.0
  0
LINE
  5
7441
330
17
100
AcDbEntity
  8
R-SWTS-DET2
100
AcDbLine
 10
12.21443276233981
 20
24.81210499453728
 30
0.0
 11
11.96801571198087
 21
24.91955631227413
 31
0.0
  0
LINE
  5
7442
330
17
100
AcDbEntity
  8
R-SWTS-DET2
100
AcDbLine
 10
11.96801571198087
 20
24.91955631227413
 30
0.0
 11
11.70894593523632
 21
24.96895114241918
 31
0.0
  0
LINE
  5
7443
330
17
100
AcDbEntity
  8
R-SWTS-DET2
100
AcDbLine
 10
12.46685910813285
 20
24.81210499453728
 30
0.0
 11
12.71327615849179
 21
24.91955631227413
 31
0.0
  0
LINE
  5
7444
330
17
100
AcDbEntity
  8
R-SWTS-DET3
100
AcDbLine
 10
12.46564593523633
 20
25.37382009931734
 30
0.0
 11
12.21564593523633
 21
25.37382009931734
 31
0.0
  0
LINE
  5
7445
330
17
100
AcDbEntity
  8
R-SWTS-DET2
100
AcDbLine
 10
12.17282838292509
 20
25.32237583664874
 30
0.0
 11
12.21615910813285
 21
25.14207444686634
 31
0.0
  0
ARC
  5
7446
330
17
100
AcDbEntity
  8
R-SWTS-DET2
100
AcDbCircle
 10
12.12069593523633
 20
25.31039854193648
 30
0.0
 40
0.0534906318026363
100
AcDbArc
 50
12.93901840978022
 51
167.4224697865404
  0
LINE
  5
7447
330
17
100
AcDbEntity
  8
R-SWTS-DET2
100
AcDbLine
 10
12.06848895896476
 20
25.32204668853689
 30
0.0
 11
12.02815910813285
 21
25.14128835524598
 31
0.0
  0
LINE
  5
7448
330
17
100
AcDbEntity
  8
R-SWTS-DET2
100
AcDbLine
 10
12.50846348754757
 20
25.32237583664874
 30
0.0
 11
12.46513276233981
 21
25.14207444686634
 31
0.0
  0
ARC
  5
7449
330
17
100
AcDbEntity
  8
R-SWTS-DET2
100
AcDbCircle
 10
12.56059593523633
 20
25.31039854193648
 30
0.0
 40
0.0534906318026363
100
AcDbArc
 50
12.57753021345956
 51
167.0609815902198
  0
LINE
  5
744A
330
17
100
AcDbEntity
  8
R-SWTS-DET2
100
AcDbLine
 10
12.6128029115079
 20
25.32204668853689
 30
0.0
 11
12.65313276233981
 21
25.14128835524598
 31
0.0
  0
LINE
  5
744B
330
17
100
AcDbEntity
  8
R-SWTS-DET2
100
AcDbLine
 10
12.71327615849179
 20
24.91955631227413
 30
0.0
 11
12.97234593523633
 21
24.96895114241918
 31
0.0
  0
LINE
  5
744C
330
17
100
AcDbEntity
  8
R-SWTS-DET2
100
AcDbLine
 10
12.11963011965822
 20
26.12382009931734
 30
0.0
 11
12.11963011965822
 21
26.62382009931735
 31
0.0
  0
LINE
  5
744D
330
17
100
AcDbEntity
  8
R-SWTS-DET2
100
AcDbLine
 10
12.11963011965822
 20
26.62382009931735
 30
0.0
 11
12.55713011965822
 21
26.62382009931735
 31
0.0
  0
LINE
  5
744E
330
17
100
AcDbEntity
  8
R-SWTS-DET2
100
AcDbLine
 10
12.11963011965822
 20
26.12382009931734
 30
0.0
 11
12.55713011965822
 21
26.12382009931734
 31
0.0
  0
LINE
  5
744F
330
17
100
AcDbEntity
  8
R-SWTS-DET2
100
AcDbLine
 10
12.55713011965822
 20
26.12382009931734
 30
0.0
 11
12.55713011965822
 21
26.62382009931735
 31
0.0
  0
LWPOLYLINE
  5
7450
330
17
100
AcDbEntity
  8
R-SWTS-DET1
100
AcDbPolyline
 90
       38
 70
     1
 43
0.0
 10
11.78110646545126
 20
26.26739059399601
 10
11.78110646545126
 20
26.70084825464288
 42
-0.6681640521692748
 10
11.81524803063731
 20
26.71499096068128
 10
11.85464845287059
 20
26.67559371676933
 42
0.1989018846181243
 10
11.87232540935315
 20
26.66827209931733
 10
11.92710146545126
 20
26.66827209931733
 10
11.92710146545126
 20
26.69027209931734
 10
11.98910146545126
 20
26.69027209931734
 10
11.98910146545126
 20
26.66827209931733
 42
0.4142135623731018
 10
12.02710646545126
 20
26.70627709931733
 10
12.02710646545126
 20
26.90827209931733
 42
0.4142135623730951
 10
12.00710646545126
 20
26.92827209931734
 10
11.97810646545126
 20
26.92827209931734
 42
0.4142135623730951
 10
11.95810646545126
 20
26.90827209931733
 10
11.95810646545126
 20
26.89627209931733
 10
11.98710646545126
 20
26.89627209931733
 10
11.98710646545126
 20
26.85827209931733
 10
11.96466941746594
 20
26.75611386550098
 42
-0.3541185725306984
 10
11.94510646545126
 20
26.74027209931733
 10
11.90315646545126
 20
26.74027209931733
 10
11.8364787959216
 20
26.80689442978767
 42
-0.1989123673796526
 10
11.82915646545126
 20
26.82457209931734
 10
11.82915646545126
 20
26.89627209931733
 10
11.85815646545126
 20
26.89627209931733
 10
11.82915646545126
 20
26.97877209931733
 10
11.77615734041734
 20
26.96877209931733
 10
11.76561188587188
 20
26.99877209931734
 10
11.70110646545126
 20
26.99877209931734
 10
11.70110646545126
 20
26.12382009931734
 10
11.79103276113773
 20
26.12382009931734
 10
11.92935512533257
 20
25.95896667873149
 42
0.2217003395847705
 10
11.94467629244089
 20
25.95182209931734
 10
12.04040803815126
 20
25.95182209931734
 42
0.4142135623731211
 10
12.05040803815127
 20
25.96182209931734
 10
12.05040803815127
 20
25.98882009931734
 42
0.4142135623730951
 10
12.04040803815126
 20
25.99882009931734
 10
12.00034629127278
 20
25.99882009931734
 10
11.78578529834294
 20
26.25453517341016
 42
-0.1763214014867929
  0
LINE
  5
7451
330
17
100
AcDbEntity
  8
R-SWTS-DET2
100
AcDbLine
 10
13.45095597613849
 20
26.41238771112745
 30
0.0
 11
13.48195593613849
 21
26.41238771112745
 31
0.0
  0
LINE
  5
7452
330
17
100
AcDbEntity
  8
R-SWTS-DET2
100
AcDbLine
 10
13.45095597613849
 20
26.21338783112745
 30
0.0
 11
13.48195593613849
 21
26.21338783112745
 31
0.0
  0
LINE
  5
7453
330
17
100
AcDbEntity
  8
R-SWTS-DET2
100
AcDbLine
 10
13.36695598613849
 20
26.32838777112745
 30
0.0
 11
13.36695598613849
 21
26.29738777112745
 31
0.0
  0
LINE
  5
7454
330
17
100
AcDbEntity
  8
R-SWTS-DET2
100
AcDbLine
 10
13.56595586613849
 20
26.32838777112745
 30
0.0
 11
13.56595586613849
 21
26.29738777112745
 31
0.0
  0
LINE
  5
7455
330
17
100
AcDbEntity
  8
R-SWTS-DET2
100
AcDbLine
 10
13.45095597613849
 20
26.41238771112745
 30
0.0
 11
13.45095597613849
 21
26.37813775112745
 31
0.0
  0
LINE
  5
7456
330
17
100
AcDbEntity
  8
R-SWTS-DET2
100
AcDbLine
 10
13.48195593613849
 20
26.41238771112745
 30
0.0
 11
13.48195593613849
 21
26.37813775112745
 31
0.0
  0
LINE
  5
7457
330
17
100
AcDbEntity
  8
R-SWTS-DET2
100
AcDbLine
 10
13.36695598613849
 20
26.32838777112745
 30
0.0
 11
13.40120600613849
 21
26.32838777112745
 31
0.0
  0
LINE
  5
7458
330
17
100
AcDbEntity
  8
R-SWTS-DET2
100
AcDbLine
 10
13.36695598613849
 20
26.29738777112745
 30
0.0
 11
13.40120600613849
 21
26.29738777112745
 31
0.0
  0
LINE
  5
7459
330
17
100
AcDbEntity
  8
R-SWTS-DET2
100
AcDbLine
 10
13.53170596613849
 20
26.32838777112745
 30
0.0
 11
13.56595586613849
 21
26.32838777112745
 31
0.0
  0
LINE
  5
745A
330
17
100
AcDbEntity
  8
R-SWTS-DET2
100
AcDbLine
 10
13.53170596613849
 20
26.29738777112745
 30
0.0
 11
13.56595586613849
 21
26.29738777112745
 31
0.0
  0
LINE
  5
745B
330
17
100
AcDbEntity
  8
R-SWTS-DET2
100
AcDbLine
 10
13.45095597613849
 20
26.24763779112745
 30
0.0
 11
13.45095597613849
 21
26.21338783112745
 31
0.0
  0
LINE
  5
745C
330
17
100
AcDbEntity
  8
R-SWTS-DET2
100
AcDbLine
 10
13.48195593613849
 20
26.24763779112745
 30
0.0
 11
13.48195593613849
 21
26.21338783112745
 31
0.0
  0
CIRCLE
  5
745F
330
17
100
AcDbEntity
  8
R-SWTS-DET2
100
AcDbCircle
 10
13.46645592613849
 20
26.31288777112745
 30
0.0
 40
0.1865
  0
ARC
  5
7460
330
17
100
AcDbEntity
  8
R-SWTS-DET2
100
AcDbCircle
 10
13.40120600613849
 20
26.24763779112745
 30
0.0
 40
0.04975
100
AcDbArc
 50
0.0
 51
89.99990999999999
  0
ARC
  5
7461
330
17
100
AcDbEntity
  8
R-SWTS-DET2
100
AcDbCircle
 10
13.53170596613849
 20
26.24763779112745
 30
0.0
 40
0.04975
100
AcDbArc
 50
89.99997000000004
 51
180.0
  0
ARC
  5
7462
330
17
100
AcDbEntity
  8
R-SWTS-DET2
100
AcDbCircle
 10
13.53170596613849
 20
26.37813775112745
 30
0.0
 40
0.04975
100
AcDbArc
 50
180.0
 51
270.0
  0
ARC
  5
7463
330
17
100
AcDbEntity
  8
R-SWTS-DET2
100
AcDbCircle
 10
13.40120600613849
 20
26.37813775112745
 30
0.0
 40
0.04975
100
AcDbArc
 50
270.0
 51
0.0
  0
LINE
  5
7464
330
17
100
AcDbEntity
  8
R-SWTS-DET2
100
AcDbLine
 10
14.38195597613847
 20
26.41238771112745
 30
0.0
 11
14.41295593613847
 21
26.41238771112745
 31
0.0
  0
LINE
  5
7465
330
17
100
AcDbEntity
  8
R-SWTS-DET2
100
AcDbLine
 10
14.38195597613847
 20
26.21338783112745
 30
0.0
 11
14.41295593613847
 21
26.21338783112745
 31
0.0
  0
LINE
  5
7466
330
17
100
AcDbEntity
  8
R-SWTS-DET2
100
AcDbLine
 10
14.29795598613847
 20
26.32838777112745
 30
0.0
 11
14.29795598613847
 21
26.29738777112745
 31
0.0
  0
LINE
  5
7467
330
17
100
AcDbEntity
  8
R-SWTS-DET2
100
AcDbLine
 10
14.49695586613847
 20
26.32838777112745
 30
0.0
 11
14.49695586613847
 21
26.29738777112745
 31
0.0
  0
LINE
  5
7468
330
17
100
AcDbEntity
  8
R-SWTS-DET2
100
AcDbLine
 10
14.38195597613847
 20
26.41238771112745
 30
0.0
 11
14.38195597613847
 21
26.37813775112745
 31
0.0
  0
LINE
  5
7469
330
17
100
AcDbEntity
  8
R-SWTS-DET2
100
AcDbLine
 10
14.41295593613847
 20
26.41238771112745
 30
0.0
 11
14.41295593613847
 21
26.37813775112745
 31
0.0
  0
LINE
  5
746A
330
17
100
AcDbEntity
  8
R-SWTS-DET2
100
AcDbLine
 10
14.29795598613847
 20
26.32838777112745
 30
0.0
 11
14.33220600613847
 21
26.32838777112745
 31
0.0
  0
LINE
  5
746B
330
17
100
AcDbEntity
  8
R-SWTS-DET2
100
AcDbLine
 10
14.29795598613847
 20
26.29738777112745
 30
0.0
 11
14.33220600613847
 21
26.29738777112745
 31
0.0
  0
LINE
  5
746C
330
17
100
AcDbEntity
  8
R-SWTS-DET2
100
AcDbLine
 10
14.46270596613847
 20
26.32838777112745
 30
0.0
 11
14.49695586613847
 21
26.32838777112745
 31
0.0
  0
LINE
  5
746D
330
17
100
AcDbEntity
  8
R-SWTS-DET2
100
AcDbLine
 10
14.46270596613847
 20
26.29738777112745
 30
0.0
 11
14.49695586613847
 21
26.29738777112745
 31
0.0
  0
LINE
  5
746E
330
17
100
AcDbEntity
  8
R-SWTS-DET2
100
AcDbLine
 10
14.38195597613847
 20
26.24763779112745
 30
0.0
 11
14.38195597613847
 21
26.21338783112745
 31
0.0
  0
LINE
  5
746F
330
17
100
AcDbEntity
  8
R-SWTS-DET2
100
AcDbLine
 10
14.41295593613847
 20
26.24763779112745
 30
0.0
 11
14.41295593613847
 21
26.21338783112745
 31
0.0
  0
CIRCLE
  5
7472
330
17
100
AcDbEntity
  8
R-SWTS-DET2
100
AcDbCircle
 10
14.39745592613847
 20
26.31288777112745
 30
0.0
 40
0.1865
  0
ARC
  5
7473
330
17
100
AcDbEntity
  8
R-SWTS-DET2
100
AcDbCircle
 10
14.33220600613847
 20
26.24763779112745
 30
0.0
 40
0.04975
100
AcDbArc
 50
0.0
 51
89.99990999999999
  0
ARC
  5
7474
330
17
100
AcDbEntity
  8
R-SWTS-DET2
100
AcDbCircle
 10
14.46270596613847
 20
26.24763779112745
 30
0.0
 40
0.04975
100
AcDbArc
 50
89.99997000000004
 51
180.0
  0
ARC
  5
7475
330
17
100
AcDbEntity
  8
R-SWTS-DET2
100
AcDbCircle
 10
14.46270596613847
 20
26.37813775112745
 30
0.0
 40
0.04975
100
AcDbArc
 50
180.0
 51
270.0
  0
ARC
  5
7476
330
17
100
AcDbEntity
  8
R-SWTS-DET2
100
AcDbCircle
 10
14.33220600613847
 20
26.37813775112745
 30
0.0
 40
0.04975
100
AcDbArc
 50
270.0
 51
0.0
  0
LINE
  5
7477
330
17
100
AcDbEntity
  8
R-SWTS-DET2
100
AcDbLine
 10
14.02695613613848
 20
26.5657825948051
 30
0.0
 11
13.99695616613848
 21
26.6907825948051
 31
0.0
  0
LINE
  5
7478
330
17
100
AcDbEntity
  8
R-SWTS-DET2
100
AcDbLine
 10
13.99695598613847
 20
26.6907832948051
 30
0.0
 11
13.86695604613848
 21
26.6907832948051
 31
0.0
  0
LINE
  5
7479
330
17
100
AcDbEntity
  8
R-SWTS-DET2
100
AcDbLine
 10
13.83695595613848
 20
26.5657827948051
 30
0.0
 11
13.86695598613848
 21
26.69078279480511
 31
0.0
  0
LINE
  5
747A
330
17
100
AcDbEntity
  8
R-SWTS-DET2
100
AcDbLine
 10
14.12445552613848
 20
26.12828335106987
 30
0.0
 11
14.02695571613848
 21
26.2404441948051
 31
0.0
  0
LINE
  5
747B
330
17
100
AcDbEntity
  8
R-SWTS-DET2
100
AcDbLine
 10
13.73945632613848
 20
26.12828336725681
 30
0.0
 11
13.83695625613848
 21
26.2404442948051
 31
0.0
  0
LINE
  5
747C
330
17
100
AcDbEntity
  8
R-SWTS-DET2
100
AcDbLine
 10
13.73945602613848
 20
26.1282832948051
 30
0.0
 11
14.12445582613847
 21
26.1282832948051
 31
0.0
  0
LINE
  5
747D
330
17
100
AcDbEntity
  8
R-SWTS-DET2
100
AcDbLine
 10
14.02695595613848
 20
26.2404442948051
 30
0.0
 11
14.02695595613848
 21
26.5657832948051
 31
0.0
  0
LINE
  5
747E
330
17
100
AcDbEntity
  8
R-SWTS-DET2
100
AcDbLine
 10
13.83695601613848
 20
26.2404445948051
 30
0.0
 11
13.83695601613848
 21
26.5657832948051
 31
0.0
  0
LINE
  5
747F
330
17
100
AcDbEntity
  8
R-SWTS-DET2
100
AcDbLine
 10
14.02695553613848
 20
26.2404441948051
 30
0.0
 11
13.83695631613848
 21
26.2404441948051
 31
0.0
  0
TEXT
  5
7491
330
17
100
AcDbEntity
  8
PART_NUMBERS
100
AcDbText
 10
16.93386514323079
 20
18.12976161028297
 30
0.0
 40
0.25
  1
450VG004 GLASS STOP
100
AcDbText
  0
LINE
  5
7492
330
17
100
AcDbEntity
  8
R-SWTS-DET2
100
AcDbLine
 10
13.12679527522247
 20
18.61485728045624
 30
0.0
 11
13.12679527522247
 21
20.61483714981966
 31
0.0
  0
LINE
  5
7493
330
17
100
AcDbEntity
  8
R-SWTS-DET3
100
AcDbLine
 10
12.60944156076763
 20
18.24085728046005
 30
0.0
 11
12.35944156076763
 21
18.24085728046005
 31
0.0
  0
LINE
  5
7494
330
17
100
AcDbEntity
  8
R-SWTS-DET3
100
AcDbLine
 10
12.60944156076763
 20
18.24085728046005
 30
0.0
 11
12.60944156076763
 21
20.61585728046005
 31
0.0
  0
LINE
  5
7495
330
17
100
AcDbEntity
  8
R-SWTS-DET3
100
AcDbLine
 10
12.35944156076763
 20
18.24085728046005
 30
0.0
 11
12.35944156076763
 21
20.61585728046005
 31
0.0
  0
LINE
  5
7496
330
17
100
AcDbEntity
  8
R-SWTS-DET2
100
AcDbLine
 10
11.84208784631278
 20
18.61485728045624
 30
0.0
 11
11.84208784631278
 21
20.61483714981966
 31
0.0
  0
LWPOLYLINE
  5
7499
330
17
100
AcDbEntity
  8
R-SWTS-DET1
100
AcDbPolyline
 90
       62
 70
     1
 43
0.0
 10
14.50885473366422
 20
16.66085728046004
 10
14.50885473366422
 20
16.61585728046003
 10
14.4468547336642
 20
16.61585728046003
 10
14.4468547336642
 20
16.66085728046004
 10
13.6968547336642
 20
16.66085728046004
 10
13.6968547336642
 20
16.61585728046003
 10
13.63485473366422
 20
16.61585728046003
 10
13.63485473366419
 20
16.66085728046002
 10
12.62453174122653
 20
16.66085728046003
 10
12.62453174122653
 20
16.61585728046003
 10
12.56253174122652
 20
16.61585728046003
 10
12.56253174122652
 20
16.66085728046003
 10
11.82185473366423
 20
16.66085728046004
 10
11.82185473366423
 20
16.61585728046003
 10
11.69685473366418
 20
16.61585728046003
 10
11.69685473366421
 20
17.54190528045625
 42
-0.4142135623731471
 10
11.7068547336642
 20
17.55190528045625
 10
11.8118547336642
 20
17.55190528045625
 42
-0.4142135623730951
 10
11.82185473366421
 20
17.54190528045623
 10
11.82185473366419
 20
17.45690528045625
 42
-0.4142135623730951
 10
11.81185473366421
 20
17.44690528045623
 10
11.76985473366421
 20
17.44690528045623
 42
0.4142135623730951
 10
11.75985473366422
 20
17.43690528045624
 10
11.75985473366422
 20
17.36690528045622
 42
0.4142135623730951
 10
11.76985473366421
 20
17.35690528045623
 10
11.81185473366421
 20
17.35690528045623
 42
-0.4142135623730951
 10
11.82185473366419
 20
17.34690528045621
 10
11.82185473366429
 20
16.74085728046006
 10
14.05695473366417
 20
16.74085728046003
 10
14.07195473366421
 20
16.72585728046004
 10
14.08695473366419
 20
16.74085728046003
 10
15.36935586276941
 20
16.74085728046006
 42
-0.4142135623731471
 10
15.37935586276941
 20
16.73085728046006
 10
15.37935586276941
 20
16.68193159843744
 42
0.4142135623727309
 10
15.38935586276939
 20
16.67193159843745
 10
15.46873862066418
 20
16.67193159843745
 42
0.3152987888785436
 10
15.47813554687201
 20
16.67851139700417
 10
15.49843274185328
 20
16.73427748189331
 42
-0.3152987888789013
 10
15.50782966806113
 20
16.74085728046006
 10
16.32185473366418
 20
16.74085728046003
 10
16.32185473366418
 20
17.55190528045623
 10
16.36685473366419
 20
17.55190528045623
 10
16.36685473366419
 20
18.33923550219127
 42
0.1316524975872385
 10
16.36551498770202
 20
18.34423550219125
 10
16.32185473366418
 20
18.41985728045624
 10
16.3738547336642
 20
18.41985728045624
 42
0.4142135623730951
 10
16.38385473366419
 20
18.42985728045623
 10
16.38385473366419
 20
18.49985728045625
 42
0.4142135623730951
 10
16.3738547336642
 20
18.50985728045624
 10
16.33185473366418
 20
18.50985728045624
 42
-0.4142135623730951
 10
16.32185473366418
 20
18.51985728045626
 10
16.32185473366418
 20
18.60485728045623
 42
-0.4142135623731471
 10
16.33185473366418
 20
18.61485728045623
 10
16.43685473366423
 20
18.61485728045623
 42
-0.4142135623739276
 10
16.4468547336642
 20
18.60485728045624
 10
16.4468547336642
 20
16.61585728046003
 10
16.32185473366418
 20
16.61585728046003
 10
16.32185473366418
 20
16.66085728046004
 10
15.5493558627694
 20
16.66085728046006
 10
15.5493558627694
 20
16.61585728046
 10
15.2993558627694
 20
16.61585728046004
 10
15.29935586276941
 20
16.66085728046004
  0
LWPOLYLINE
  5
749A
330
17
100
AcDbEntity
  8
R-SWTS-DET1
100
AcDbPolyline
 90
       71
 70
     1
 43
0.0
 10
12.89805973366429
 20
18.28235728045999
 10
12.89805973366426
 20
17.80085728046003
 42
-0.4142135623731645
 10
12.83805973366425
 20
17.74085728046004
 10
12.28800673366428
 20
17.74085728046004
 42
0.4142135623730951
 10
12.24305473366427
 20
17.69590528046003
 10
12.13381507941061
 20
17.69590528046003
 42
0.577012553908249
 10
12.1164844472887
 20
17.66592283635781
 10
12.14529455948579
 20
17.61590528046005
 10
12.24305473366427
 20
17.61590528046005
 10
12.24305473366427
 20
17.55340528046005
 10
11.93605473366427
 20
17.55340528046005
 42
-0.4142135623733032
 10
11.91605473366427
 20
17.57340528046006
 10
11.91605473366427
 20
17.6589228775262
 42
-0.4229287041884656
 10
11.93664791484366
 20
17.67891407899305
 42
0.5881107555335757
 10
11.95453687495529
 20
17.70894799080778
 10
11.93598102935073
 20
17.74090528046003
 10
11.84605473366428
 20
17.74090528046005
 10
11.84605473366428
 20
17.55290528046006
 10
11.83205473366428
 20
17.55290528046006
 42
0.4142135623726789
 10
11.82205473366428
 20
17.54290528046007
 10
11.82205473366431
 20
17.44790528046005
 10
11.7600547336643
 20
17.44790528046006
 10
11.76005473366432
 20
17.40790528046004
 42
0.414213562373004
 10
11.80005473366432
 20
17.36790528046006
 10
11.8367006873823
 20
17.36790528046006
 42
0.4142135623731373
 10
11.91670068738229
 20
17.44790528046008
 10
11.91670068738229
 20
17.45340528046004
 42
-0.414213562373134
 10
11.93670068738229
 20
17.47340528046005
 10
12.24305473366427
 20
17.47340528046005
 42
0.4142135623731049
 10
12.32305473366427
 20
17.55340528046005
 10
12.32305473366427
 20
17.64085728046004
 42
-0.4142135623730951
 10
12.34305473366427
 20
17.66085728046004
 10
12.83805973366425
 20
17.66085728046004
 42
-0.4142135623730951
 10
12.89805973366426
 20
17.60085728046004
 10
12.89805973366425
 20
16.80585728046004
 42
0.9999999999999998
 10
12.97805973366426
 20
16.80585728046004
 10
12.97805973366429
 20
18.2919864765269
 42
-0.1990202627215649
 10
12.98392347032011
 20
18.30613448199284
 10
13.0452201162212
 20
18.36738025480931
 42
0.1990202627215781
 10
13.07600473366427
 20
18.44165728350545
 10
13.07600473366427
 20
18.51585728046004
 42
-0.4142135623730951
 10
13.09600473366427
 20
18.53585728046004
 10
16.16175473366425
 20
18.53585728046003
 42
-0.4142135623731673
 10
16.24175473366425
 20
18.45585728046001
 10
16.24175473366423
 20
18.35641461676354
 42
0.7673269879790925
 10
16.27907524173991
 20
18.34641461676353
 10
16.36535600385351
 20
18.49585728046002
 42
0.5773502691904737
 10
16.35669574981565
 20
18.51085728046004
 10
16.33175473366429
 20
18.51085728046004
 42
-0.4142135623733032
 10
16.32175473366427
 20
18.52085728046002
 10
16.3217547336643
 20
18.60585728046
 42
0.4142135623733032
 10
16.31175473366428
 20
18.61585728046003
 10
13.00303503669458
 20
18.61585728046004
 10
12.96700473366427
 20
18.51335728046002
 10
12.99600473366427
 20
18.51335728046002
 10
12.99600473366427
 20
18.44165728046003
 42
-0.1989123673795722
 10
12.98868240319392
 20
18.42397961093035
 10
12.92200473366426
 20
18.35735728046001
 10
12.88005473366427
 20
18.35735728046003
 42
-0.3541185725306887
 10
12.86049178164957
 20
18.37319904664367
 10
12.83805473366427
 20
18.47535728046001
 10
12.83805473366427
 20
18.51335728046002
 10
12.86705473366426
 20
18.51335728046002
 10
12.86705473366426
 20
18.52535728046002
 42
0.4142135623733033
 10
12.84705473366426
 20
18.54535728046002
 10
12.81805473366427
 20
18.54535728046003
 42
0.414213562373095
 10
12.79805473366428
 20
18.52535728046001
 10
12.79805473366428
 20
18.32336228046001
 42
0.4142135623730951
 10
12.83605973366428
 20
18.28535728046001
 10
12.83605973366428
 20
18.30735728046
 10
12.87305973366428
 20
18.30735728046
 42
-0.4142135623730951
1001
MCAD_NO_VIS
1070
     1
  0
LWPOLYLINE
  5
749B
330
17
100
AcDbEntity
  8
R-SWTS-DET1
100
AcDbPolyline
 90
       38
 70
     1
 43
0.0
 10
11.92595473366415
 20
17.88347577513492
 10
11.92595473366415
 20
18.31693343578178
 42
-0.6681640521692748
 10
11.9600962988502
 20
18.33107614182018
 10
11.99949672108348
 20
18.29167889790823
 42
0.1989018846181243
 10
12.01717367756604
 20
18.28435728045624
 10
12.07194973366415
 20
18.28435728045624
 10
12.07194973366415
 20
18.30635728045624
 10
12.13394973366415
 20
18.30635728045624
 10
12.13394973366415
 20
18.28435728045623
 42
0.4142135623731018
 10
12.17195473366415
 20
18.32236228045623
 10
12.17195473366415
 20
18.52435728045623
 42
0.4142135623730951
 10
12.15195473366415
 20
18.54435728045624
 10
12.12295473366415
 20
18.54435728045624
 42
0.4142135623730951
 10
12.10295473366415
 20
18.52435728045624
 10
12.10295473366415
 20
18.51235728045624
 10
12.13195473366415
 20
18.51235728045623
 10
12.13195473366415
 20
18.47435728045624
 10
12.10951768567883
 20
18.37219904663988
 42
-0.3541185725306984
 10
12.08995473366415
 20
18.35635728045624
 10
12.04800473366415
 20
18.35635728045624
 10
11.98132706413448
 20
18.42297961092657
 42
-0.1989123673796526
 10
11.97400473366415
 20
18.44065728045624
 10
11.97400473366415
 20
18.51235728045624
 10
12.00300473366415
 20
18.51235728045624
 10
11.97400473366415
 20
18.59485728045624
 10
11.92100560863023
 20
18.58485728045624
 10
11.91046015408477
 20
18.61485728045624
 10
11.84595473366415
 20
18.61485728045624
 10
11.84595473366415
 20
17.73990528045624
 10
11.93588102935061
 20
17.73990528045624
 10
12.07420339354546
 20
17.57505185987039
 42
0.2217003395847705
 10
12.08952456065377
 20
17.56790728045624
 10
12.18525630636415
 20
17.56790728045624
 42
0.4142135623731211
 10
12.19525630636415
 20
17.57790728045624
 10
12.19525630636415
 20
17.60490528045624
 42
0.4142135623730951
 10
12.18525630636415
 20
17.61490528045624
 10
12.14519455948567
 20
17.61490528045624
 10
11.93063356655583
 20
17.87062035454907
 42
-0.1763214014867929
  0
LINE
  5
749C
330
17
100
AcDbEntity
  8
R-SWTS-DET2
100
AcDbLine
 10
12.26313107945722
 20
17.74085728046004
 30
0.0
 11
12.26313107945722
 21
18.24085728046004
 31
0.0
  0
LINE
  5
749D
330
17
100
AcDbEntity
  8
R-SWTS-DET2
100
AcDbLine
 10
12.26313107945722
 20
18.24085728046004
 30
0.0
 11
12.70063107945722
 21
18.24085728046004
 31
0.0
  0
LINE
  5
749E
330
17
100
AcDbEntity
  8
R-SWTS-DET2
100
AcDbLine
 10
12.26313107945722
 20
17.74085728046004
 30
0.0
 11
12.70063107945722
 21
17.74085728046004
 31
0.0
  0
LINE
  5
749F
330
17
100
AcDbEntity
  8
R-SWTS-DET2
100
AcDbLine
 10
12.70063107945722
 20
17.74085728046004
 30
0.0
 11
12.70063107945722
 21
18.24085728046004
 31
0.0
  0
LWPOLYLINE
  5
74A0
330
17
100
AcDbEntity
  8
R-SWTS-DET2
100
AcDbPolyline
 90
       31
 70
     1
 43
0.0
 10
12.98298015662142
 20
18.50085525229179
 10
12.95616363008249
 20
18.50572955288976
 10
12.99029375420362
 20
18.61296415057151
 10
13.05124040486369
 20
18.61783844945019
 10
13.12679527522247
 20
18.61485728045624
 10
13.11670473366415
 20
18.64586682307748
 42
0.1257100272134179
 10
12.88471333164209
 20
18.69760915067113
 42
-0.2260837189018228
 10
12.73112777121049
 20
18.74732700931523
 10
12.6355724615508
 20
18.85826762747559
 42
0.6449762263124317
 10
12.60963816953261
 20
18.84652628500193
 10
12.61121790656067
 20
18.71728934937254
 42
0.1518691569180708
 10
12.627570683157
 20
18.67285419502328
 10
12.66607387145225
 20
18.61292841575481
 42
-0.0293454671788447
 10
12.68346876065514
 20
18.56104577256218
 10
12.70069905023867
 20
18.43925176272514
 42
-0.6538117075652882
 10
12.68045823933581
 20
18.43226502575978
 10
12.63636649211349
 20
18.5975139432497
 42
0.8886355728344963
 10
12.61121790656067
 20
18.59545251235031
 10
12.61121790656067
 20
18.46120689195765
 42
0.0642046489364144
 10
12.65365036847009
 20
18.27259063525037
 42
0.6896355001773956
 10
12.7562590988582
 20
18.27259063525037
 42
0.0703560868358924
 10
12.79749156076763
 20
18.46120689195765
 10
12.79749156076763
 20
18.55690970229129
 10
12.87083831874421
 20
18.55690970229129
 10
12.89277911356168
 20
18.50329240259078
 10
12.85377325564821
 20
18.49841810371209
 10
12.88790338184022
 20
18.46186085438517
 10
12.85621112150894
 20
18.43992650513288
 10
12.91715777423989
 20
18.38630920715164
 10
12.97322869317849
 20
18.45211225490852
 10
12.94885003250029
 20
18.46186085438517
  0
LWPOLYLINE
  5
74A1
330
17
100
AcDbEntity
  8
R-SWTS-DET2
100
AcDbPolyline
 90
       31
 70
     1
 43
0.0
 10
11.98590296491383
 20
18.50085525229179
 10
12.01271949145277
 20
18.50572955288976
 10
11.97858936733164
 20
18.61296415057151
 10
11.91764271667157
 20
18.61783844945019
 10
11.84208784631278
 20
18.61485728045624
 10
11.8521783878711
 20
18.64586682307748
 42
-0.1257100272134179
 10
12.08416978989316
 20
18.69760915067113
 42
0.2260837189018228
 10
12.23775535032477
 20
18.74732700931523
 10
12.33331065998445
 20
18.85826762747559
 42
-0.6449762263124317
 10
12.35924495200264
 20
18.84652628500193
 10
12.35766521497459
 20
18.71728934937254
 42
-0.1518691569180708
 10
12.34131243837826
 20
18.67285419502328
 10
12.30280925008301
 20
18.61292841575481
 42
0.0293454671788447
 10
12.28541436088011
 20
18.56104577256218
 10
12.26818407129658
 20
18.43925176272514
 42
0.6538117075652882
 10
12.28842488219944
 20
18.43226502575978
 10
12.33251662942177
 20
18.5975139432497
 42
-0.8886355728344963
 10
12.35766521497459
 20
18.59545251235031
 10
12.35766521497459
 20
18.46120689195765
 42
-0.0642046489364144
 10
12.31523275306516
 20
18.27259063525037
 42
-0.6896355001773956
 10
12.21262402267705
 20
18.27259063525037
 42
-0.0703560868358924
 10
12.17139156076763
 20
18.46120689195765
 10
12.17139156076763
 20
18.55690970229129
 10
12.09804480279104
 20
18.55690970229129
 10
12.07610400797357
 20
18.50329240259078
 10
12.11510986588705
 20
18.49841810371209
 10
12.08097973969503
 20
18.46186085438517
 10
12.11267200002631
 20
18.43992650513288
 10
12.05172534729537
 20
18.38630920715164
 10
11.99565442835676
 20
18.45211225490852
 10
12.02003308903497
 20
18.46186085438517
  0
LWPOLYLINE
  5
74E3
330
17
100
AcDbEntity
  8
R-SWTS-DET1
100
AcDbPolyline
 90
       96
 70
     1
 43
0.0
 10
41.49623148535363
 20
10.07701064012074
 10
41.49623148535363
 20
10.11896064012074
 42
-0.3541185725307177
 10
41.51207325153727
 20
10.13852359213541
 10
41.61423148535362
 20
10.16096064012073
 10
41.65223148535363
 20
10.16096064012073
 10
41.65223148535363
 20
10.13196064012074
 10
41.66423148535363
 20
10.13196064012074
 42
0.4142135623730951
 10
41.68423148535363
 20
10.15196064012074
 10
41.68423148535363
 20
10.18096064012073
 42
0.4142135623730951
 10
41.66423148535363
 20
10.20096064012073
 10
41.46223648535363
 20
10.20096064012073
 42
0.4142135623730951
 10
41.42423148535363
 20
10.16295564012074
 10
41.44623148535363
 20
10.16295564012074
 10
41.44623148535363
 20
10.10095564012074
 10
41.42423148535363
 20
10.10095564012074
 10
41.42423148535363
 20
10.04617958402263
 42
0.198901884618128
 10
41.43155310280563
 20
10.02850262754007
 10
41.50494760403313
 20
9.955102205306786
 42
-0.668164052169275
 10
41.49080489799473
 20
9.920960640120735
 10
40.56473148535363
 20
9.920960640120735
 42
-0.4142135623730951
 10
40.50473148535362
 20
9.980960640120734
 10
40.50473148535362
 20
10.82696564012073
 42
-0.4142135623730951
 10
40.60473148535362
 20
10.92696564012074
 10
41.42123148535363
 20
10.92696564012074
 42
-0.4142135623730951
 10
41.44623148535363
 20
10.90196564012073
 10
41.44623148535363
 20
10.86496564012073
 10
41.42423148535363
 20
10.86496564012073
 42
0.4142135623730951
 10
41.46223648535363
 20
10.82696064012074
 10
41.66423148535363
 20
10.82696064012074
 42
0.4142135623730951
 10
41.68423148535363
 20
10.84696064012073
 10
41.68423148535363
 20
10.87596064012074
 42
0.4142135623730951
 10
41.66423148535363
 20
10.89596064012074
 10
41.65223148535363
 20
10.89596064012074
 10
41.65223148535363
 20
10.86696064012073
 10
41.61423148535362
 20
10.86696064012073
 10
41.51207325153727
 20
10.88939768810606
 42
-0.3541185725307012
 10
41.49623148535363
 20
10.90896064012074
 10
41.49623148535363
 20
10.95091064012074
 10
41.56285381582397
 20
11.0175883096504
 42
-0.1989123673796526
 10
41.58053148535363
 20
11.02491064012073
 10
41.65223148535363
 20
11.02491064012073
 10
41.65223148535363
 20
10.99591064012074
 10
41.73473148535363
 20
11.02491064012073
 10
41.72473148535362
 20
11.07790976515466
 10
41.75473148535362
 20
11.08845521970011
 10
41.75473148535362
 20
14.35096064012073
 10
39.75473148535363
 20
14.35096064012073
 10
39.75473148535363
 20
13.8969597277573
 10
39.83473148535363
 20
13.8969597277573
 10
39.83473148535363
 20
13.7889597277573
 42
0.4142135623730951
 10
39.89673148535363
 20
13.72695972775729
 10
39.91473148535363
 20
13.7269597277573
 10
39.91473148535363
 20
13.9149597277573
 42
0.4142135623730951
 10
39.85273148535363
 20
13.9769597277573
 10
39.82473148535362
 20
13.97695972775729
 10
39.82473148535362
 20
14.22096064012073
 42
-0.4142135623730863
 10
39.88473148535362
 20
14.28096064012073
 10
41.62473148535352
 20
14.28096064012073
 42
-0.4142135623730864
 10
41.68473148535352
 20
14.22096064012073
 10
41.68473148535357
 20
12.76296064012085
 42
-0.4142135623722106
 10
41.66473148535363
 20
12.74296064012085
 10
41.66473148535363
 20
12.39896064012085
 42
-0.4142135623722627
 10
41.68473148535357
 20
12.37896064012085
 10
41.68473148535357
 20
11.83196064012085
 42
-0.4142135623722106
 10
41.66473148535363
 20
11.81196064012073
 10
41.66473148535363
 20
11.46796064012074
 42
-0.4142135623722627
 10
41.68473148535357
 20
11.44796064012073
 10
41.68473148535364
 20
11.16491064012073
 42
-0.4142135623731023
 10
41.61473148535363
 20
11.09491064012074
 10
41.58467605610504
 20
11.09491064012074
 42
0.1990202627215684
 10
41.5103990274089
 20
11.06412602267767
 10
41.4491532545924
 20
11.00282937677655
 42
-0.1990202627215683
 10
41.43500524912647
 20
10.99696564012073
 10
40.60473148535362
 20
10.99696564012074
 42
0.4142135623730958
 10
40.43473148535362
 20
10.82696564012073
 10
40.43473148535362
 20
9.980960640120734
 42
-0.4142135623730951
 10
40.37473148535362
 20
9.920960640120735
 10
39.88473148535362
 20
9.920960640120735
 42
-0.4142135623730951
 10
39.82473148535363
 20
9.980960640120734
 10
39.82473148535362
 20
10.22495972775732
 10
39.85273148535363
 20
10.22495972775731
 42
0.4142135623730951
 10
39.91473148535363
 20
10.28695972775731
 10
39.91473148535363
 20
10.4749597277573
 10
39.89673148535363
 20
10.4749597277573
 42
0.4142135623730951
 10
39.83473148535363
 20
10.4129597277573
 10
39.83473148535363
 20
10.3049597277573
 10
39.75473148535363
 20
10.3049597277573
 10
39.75473148535363
 20
9.850960640120735
 10
41.75473148535362
 20
9.850960640120735
 10
41.75473148535362
 20
9.939466060541363
 10
41.72473148535362
 20
9.950011515086817
 10
41.73473148535363
 20
10.00301064012074
 10
41.65223148535363
 20
10.03201064012074
 10
41.65223148535363
 20
10.00301064012074
 10
41.58053148535363
 20
10.00301064012074
 42
-0.1989123673796526
 10
41.56285381582397
 20
10.01033297059107
  0
LINE
  5
75CE
330
17
100
AcDbEntity
  8
R-ANNO-DIMS
100
AcDbLine
 10
10.01742868832616
 20
37.08054263749996
 30
0.0
 11
11.58115615962595
 21
37.08054263749996
 31
0.0
  0
LINE
  5
75F1
330
17
100
AcDbEntity
  8
R-ANNO-DIMS
100
AcDbLine
 10
10.25586650179676
 20
16.74085728046005
 30
0.0
 11
11.5789959462204
 21
16.74085728046005
 31
0.0
  0
LINE
  5
75F2
330
17
100
AcDbEntity
  8
R-SWTS-DET1
100
AcDbLine
 10
16.32165473366413
 20
16.74228906425272
 30
0.0
 11
11.82195473366415
 21
16.74228906425272
 31
0.0
  0
LWPOLYLINE
  5
7639
330
17
100
AcDbEntity
  8
R-SWTS-DET1
100
AcDbPolyline
 90
       33
 70
     1
 43
0.0
 10
14.35027929359659
 20
25.07881009931735
 10
14.36027929359659
 20
25.06881009931735
 10
14.37027929359659
 20
25.07881009931735
 10
14.64500872450939
 20
25.07881009931736
 10
14.64500872450939
 20
25.36481296321804
 42
-0.9999999999999998
 10
14.72500299670803
 20
25.36481296321804
 10
14.72500299670803
 20
25.13881009931735
 42
0.4142135623731037
 10
14.78500299670803
 20
25.07881009931735
 10
15.81078502139795
 20
25.07881009931735
 10
15.81078502139795
 20
25.19979436231241
 42
-0.3398956733201681
 10
15.82563922840095
 20
25.21912104889955
 42
0.4336842270758682
 10
15.83898873416394
 20
25.24529600625616
 10
15.79802629085216
 20
25.35783939430095
 42
-1.000000000000008
 10
15.86380477430718
 20
25.38178080433375
 10
15.9427756526409
 20
25.16481009931736
 10
15.88077929359658
 20
25.16481009931736
 10
15.88077929359658
 20
25.07881009931735
 10
16.05077929359658
 20
25.07881009931735
 10
16.05077929359659
 20
24.99882009931735
 10
12.90455559048516
 20
24.99882009931735
 10
12.90455559048516
 20
25.07881009931735
 10
13.07455559048516
 20
25.07881009931735
 10
13.07455559048516
 20
25.16481009931736
 10
13.01255923144084
 20
25.16481009931736
 10
13.09153010977456
 20
25.38178080433375
 42
-1.000000000000004
 10
13.15730859322957
 20
25.35783939430095
 10
13.1163461499178
 20
25.24529600625616
 42
0.4336842270758725
 10
13.12969565568079
 20
25.21912104889955
 42
-0.3398956733201617
 10
13.14454986268379
 20
25.19979436231242
 10
13.14454986268379
 20
25.07881009931735
 10
13.41927929359659
 20
25.07881009931735
 10
13.42927929359659
 20
25.06881009931735
 10
13.43927929359659
 20
25.07881009931735
  0
MTEXT
  5
7752
102
{ACAD_XDICTIONARY
360
7753
102
}
330
17
100
AcDbEntity
  8
TEXT
100
AcDbMText
 10
1.000000084398437
 20
2.0
 30
0.0
 40
0.375
 41
15.4571868900598
 71
     1
 72
     5
  1
ENGINEERING CHANGE:  97910-094 (MARCH 2017)\PFILE NAME:  KCDC031 SHEET 01 OF 08.DWG
 73
     1
 44
1.0
1001
ACAD
1000
ACAD_MTEXT_COLUMN_INFO_BEGIN
1070
    75
1070
     2
1070
    79
1070
     0
1070
    76
1070
     1
1070
    78
1070
     0
1070
    48
1040
15.4571868900598
1070
    49
1040
1.25
1070
    50
1070
     1
1040
0.0
1000
ACAD_MTEXT_COLUMN_INFO_END
1000
MTEXTBEGIN
1070
    73
1070
     1
1070
    44
1040
1.0
1070
    74
1070
     0
1000
MTEXTEND
  0
INSERT
  5
7F04
330
17
100
AcDbEntity
  8
0
100
AcDbBlockReference
  2
Kawneer Logo English
 10
1.000000084398437
 20
2.5
 30
0.0
 41
5.337
 42
5.337
 43
5.337
  0
ENDSEC
  0
SECTION
  2
OBJECTS
  0
DICTIONARY
  5
C
330
0
100
AcDbDictionary
281
     1
  3
ACAD_CIP_PREVIOUS_PRODUCT_INFO
350
772C
  3
ACAD_COLOR
350
769F
  3
ACAD_FIELDLIST
350
7750
  3
ACAD_GROUP
350
D
  3
ACAD_LAYOUT
350
485C
  3
ACAD_MATERIAL
350
766D
  3
ACAD_MLEADERSTYLE
350
76B4
  3
ACAD_MLINESTYLE
350
1A
  3
ACAD_PLOTSETTINGS
350
485D
  3
ACAD_PLOTSTYLENAME
350
485A
  3
ACAD_SCALELIST
350
76A2
  3
ACAD_TABLESTYLE
350
76A0
  3
ACAD_VISUALSTYLE
350
7686
  3
ACDB_RECOMPOSE_DATA
350
7F98
  3
ACDBVARIABLEDICTIONARY
350
3E
  3
DWGPROPS
350
7F99
  0
DICTIONARY
  5
76E7
330
8
100
AcDbDictionary
280
     1
281
     1
  0
DICTIONARY
  5
76D3
330
2
100
AcDbDictionary
280
     1
281
     1
  3
ACAD_LAYERSTATES
360
76D4
  0
DICTIONARY
  5
775D
330
E
100
AcDbDictionary
280
     1
281
     1
  3
ADSK_XREC_LAYER_RECONCILED
360
775E
  0
DICTIONARY
  5
775F
330
65A3
100
AcDbDictionary
280
     1
281
     1
  3
ADSK_XREC_LAYER_RECONCILED
360
7760
  0
DICTIONARY
  5
7761
330
65A4
100
AcDbDictionary
280
     1
281
     1
  3
ADSK_XREC_LAYER_RECONCILED
360
7762
  0
DICTIONARY
  5
7763
330
65A5
100
AcDbDictionary
280
     1
281
     1
  3
ADSK_XREC_LAYER_RECONCILED
360
7764
  0
DICTIONARY
  5
7765
330
65A6
100
AcDbDictionary
280
     1
281
     1
  3
ADSK_XREC_LAYER_RECONCILED
360
7766
  0
DICTIONARY
  5
7767
330
65A7
100
AcDbDictionary
280
     1
281
     1
  3
ADSK_XREC_LAYER_RECONCILED
360
7768
  0
DICTIONARY
  5
7741
330
7740
100
AcDbDictionary
280
     1
281
     1
  3
ADSK_XREC_LAYER_RECONCILED
360
776B
  0
DICTIONARY
  5
4A11
330
17
100
AcDbDictionary
280
     1
281
     1
  3
ACAD_LAYOUTSELFREF
360
7661
  0
DICTIONARY
  5
4A0F
330
14
100
AcDbDictionary
280
     1
281
     1
  3
ACAD_LAYOUTSELFREF
360
7660
  0
DICTIONARY
  5
7F00
330
7EF6
100
AcDbDictionary
280
     1
281
     1
  3
ACAD_SORTENTS
360
7F01
  0
DICTIONARY
  5
7F96
330
7EF7
100
AcDbDictionary
280
     1
281
     1
  3
ACAD_MTEXT_2008_RT
360
7F97
  0
DICTIONARY
  5
7753
330
7752
100
AcDbDictionary
280
     1
281
     1
  0
XRECORD
  5
772C
102
{ACAD_REACTORS
330
C
102
}
330
C
100
AcDbXrecord
280
     1
300
ACD
300
2012
300
85730ACD_2012_0F
  0
DICTIONARY
  5
769F
102
{ACAD_REACTORS
330
C
102
}
330
C
100
AcDbDictionary
281
     1
  0
FIELDLIST
  5
7750
102
{ACAD_REACTORS
330
C
102
}
330
C
100
AcDbIdSet
 90
        0
100
AcDbFieldList
  0
DICTIONARY
  5
D
102
{ACAD_REACTORS
330
C
102
}
330
C
100
AcDbDictionary
281
     1
  0
DICTIONARY
  5
485C
102
{ACAD_REACTORS
330
C
102
}
330
C
100
AcDbDictionary
281
     1
  3
Layout1
350
485F
  3
Model
350
485E
  0
DICTIONARY
  5
766D
102
{ACAD_REACTORS
330
C
102
}
330
C
100
AcDbDictionary
281
     1
  3
ByBlock
350
7676
  3
ByLayer
350
766E
  3
Global
350
767E
  0
DICTIONARY
  5
76B4
102
{ACAD_REACTORS
330
C
102
}
330
C
100
AcDbDictionary
281
     1
  3
Standard
350
76B5
  0
DICTIONARY
  5
1A
102
{ACAD_REACTORS
330
C
102
}
330
C
100
AcDbDictionary
281
     1
  3
STANDARD
350
1B
  0
DICTIONARY
  5
485D
102
{ACAD_REACTORS
330
C
102
}
330
C
100
AcDbDictionary
281
     1
  0
ACDBDICTIONARYWDFLT
  5
485A
102
{ACAD_REACTORS
330
C
102
}
330
C
100
AcDbDictionary
281
     1
  3
Normal
350
485B
100
AcDbDictionaryWithDefault
340
485B
  0
DICTIONARY
  5
76A2
102
{ACAD_REACTORS
330
C
102
}
330
C
100
AcDbDictionary
281
     1
  3
A0
350
76A3
  3
A1
350
7ED4
  3
A2
350
7ED5
  3
A3
350
7ED6
  3
A4
350
7ED7
  3
A5
350
7ED8
  3
A6
350
7ED9
  3
A7
350
7EDA
  3
A8
350
7EDB
  3
A9
350
7EDC
  3
B0
350
7EDD
  3
B1
350
7EDE
  3
B2
350
7EDF
  3
B3
350
7EE0
  3
B4
350
7EE1
  3
B5
350
7EE2
  3
B6
350
7EE3
  0
DICTIONARY
  5
76A0
102
{ACAD_REACTORS
330
C
102
}
330
C
100
AcDbDictionary
281
     1
  3
Standard
350
76A1
  0
DICTIONARY
  5
7686
102
{ACAD_REACTORS
330
C
102
}
330
C
100
AcDbDictionary
281
     1
  3
2dWireframe
350
768C
  3
3D Hidden
350
7EF4
  3
3dWireframe
350
7EF5
  3
Basic
350
768B
  3
Brighten
350
7692
  3
ColorChange
350
7696
  3
Conceptual
350
768F
  3
Dim
350
7691
  3
EdgeColorOff
350
769E
  3
Facepattern
350
7695
  3
Flat
350
7687
  3
FlatWithEdges
350
7688
  3
Gouraud
350
7689
  3
GouraudWithEdges
350
768A
  3
Hidden
350
768E
  3
JitterOff
350
769C
  3
Linepattern
350
7694
  3
OverhangOff
350
769D
  3
Realistic
350
7690
  3
Shaded
350
769B
  3
Shaded with edges
350
769A
  3
Shades of Gray
350
7697
  3
Sketchy
350
7698
  3
Thicken
350
7693
  3
Wireframe
350
768D
  3
X-Ray
350
7699
  0
XRECORD
  5
7F98
102
{ACAD_REACTORS
330
C
102
}
330
C
100
AcDbXrecord
280
     1
 90
        1
330
76A1
330
7752
330
7EF7
  0
DICTIONARY
  5
3E
102
{ACAD_REACTORS
330
C
102
}
330
C
100
AcDbDictionary
281
     1
  3
CANNOSCALE
350
7724
  3
CMLEADERSTYLE
350
7723
  3
CTABLESTYLE
350
7722
  3
DIMADEC
350
3F
  3
DIMASSOC
350
7727
  3
INDEXCTL
350
7726
  3
LAYEREVAL
350
7EC8
  3
LAYERNOTIFY
350
7EC9
  3
LIGHTINGUNITS
350
7EC7
  3
MSLTSCALE
350
7EC6
  3
SORTENTS
350
7725
  3
XCLIPFRAME
350
7F94
  0
XRECORD
  5
7F99
102
{ACAD_REACTORS
330
C
102
}
330
C
100
AcDbXrecord
280
     1
  1
DWGPROPS COOKIE
  2

  3

  4

  6

  7

  8
quadiss
  9

300
=
301
=
302
=
303
=
304
=
305
=
306
=
307
=
308
=
309
=
 40
0.8252473263888887
 41
2450777.537570949
 42
2457807.530866956
  1

 90
        0
  0
DICTIONARY
  5
76D4
102
{ACAD_REACTORS
330
76D3
102
}
330
76D3
100
AcDbDictionary
281
     1
  0
XRECORD
  5
775E
102
{ACAD_REACTORS
330
775D
102
}
330
775D
100
AcDbXrecord
280
     1
290
     1
  0
XRECORD
  5
7760
102
{ACAD_REACTORS
330
775F
102
}
330
775F
100
AcDbXrecord
280
     1
290
     1
  0
XRECORD
  5
7762
102
{ACAD_REACTORS
330
7761
102
}
330
7761
100
AcDbXrecord
280
     1
290
     1
  0
XRECORD
  5
7764
102
{ACAD_REACTORS
330
7763
102
}
330
7763
100
AcDbXrecord
280
     1
290
     1
  0
XRECORD
  5
7766
102
{ACAD_REACTORS
330
7765
102
}
330
7765
100
AcDbXrecord
280
     1
290
     1
  0
XRECORD
  5
7768
102
{ACAD_REACTORS
330
7767
102
}
330
7767
100
AcDbXrecord
280
     1
290
     1
  0
XRECORD
  5
776B
102
{ACAD_REACTORS
330
7741
102
}
330
7741
100
AcDbXrecord
280
     1
290
     1
  0
XRECORD
  5
7661
102
{ACAD_REACTORS
330
4A11
102
}
330
4A11
100
AcDbXrecord
280
     1
340
17
  0
XRECORD
  5
7660
102
{ACAD_REACTORS
330
4A0F
102
}
330
4A0F
100
AcDbXrecord
280
     1
340
14
  0
SORTENTSTABLE
  5
7F01
102
{ACAD_REACTORS
330
7F00
102
}
330
7F00
100
AcDbSortentsTable
330
7EF6
  0
XRECORD
  5
7F97
102
{ACAD_REACTORS
330
7F96
102
}
330
7F96
100
AcDbXrecord
280
     1
 40
102645.0
  1
\pxqr;{\fArial TUR|b0|i0|c0|p34;\T1.05;AN ARCONIC COMPANY}
  0
LAYOUT
  5
485F
102
{ACAD_XDICTIONARY
360
7F9C
102
}
102
{ACAD_REACTORS
330
485C
102
}
330
485C
100
AcDbPlotSettings
  1

  2
\\NOAKCI-SRV7\Marketing Communications - HP4550hdn
  4

  6

 40
0.0
 41
0.0
 42
0.0
 43
0.0
 44
0.0
 45
0.0
 46
0.0
 47
0.0
 48
0.0
 49
0.0
140
0.0
141
0.0
142
1.0
143
1.0
 70
   688
 72
     0
 73
     0
 74
     5
  7
monochrome.ctb
 75
    16
147
1.0
148
0.0
149
0.0
100
AcDbLayout
  1
Layout1
 70
     1
 71
     1
 10
0.0
 20
0.0
 11
12.0
 21
9.0
 12
0.0
 22
0.0
 32
0.0
 14
1.000000000000000E+20
 24
1.000000000000000E+20
 34
1.000000000000000E+20
 15
-1.000000000000000E+20
 25
-1.000000000000000E+20
 35
-1.000000000000000E+20
146
0.0
 13
0.0
 23
0.0
 33
0.0
 16
1.0
 26
0.0
 36
0.0
 17
0.0
 27
1.0
 37
0.0
 76
     0
330
14
  0
LAYOUT
  5
485E
102
{ACAD_XDICTIONARY
360
7F9A
102
}
102
{ACAD_REACTORS
330
485C
102
}
330
485C
100
AcDbPlotSettings
  1

  2
\\KWRKCI-HUB03\KCI_MKT_HP9000_PCL6
  4
11x17
  6

 40
3.174999952316284
 41
3.174999952316284
 42
3.17498779296875
 43
3.17498779296875
 44
279.3999938964844
 45
431.8000183105469
 46
0.0
 47
0.0
 48
0.0
 49
0.0
140
0.0
141
0.0
142
1.0
143
4.051530155393382
 70
 11952
 72
     0
 73
     1
 74
     1
  7
monochrome.ctb
 75
     0
147
0.2468203275418804
148
0.0525966469568914
149
0.0326778140019542
100
AcDbLayout
  1
Model
 70
     1
 71
     0
 10
0.0
 20
0.0
 11
12.0
 21
9.0
 12
0.0
 22
0.0
 32
0.0
 14
0.0
 24
0.0
 34
0.0
 15
0.0
 25
0.0
 35
0.0
146
0.0
 13
0.0
 23
0.0
 33
0.0
 16
1.0
 26
0.0
 36
0.0
 17
0.0
 27
1.0
 37
0.0
 76
     0
330
17
331
763A
  0
MATERIAL
  5
7676
102
{ACAD_XDICTIONARY
360
7677
102
}
102
{ACAD_REACTORS
330
766D
102
}
330
766D
100
AcDbMaterial
  1
ByBlock
 72
     0
 43
0.0208333333333333
 43
0.0
 43
0.0
 43
0.0
 43
0.0
 43
0.0208333333333333
 43
0.0
 43
0.0
 43
0.0
 43
0.0
 43
1.0
 43
0.0
 43
0.0
 43
0.0
 43
0.0
 43
1.0
 77
     0
 47
0.0208333333333333
 47
0.0
 47
0.0
 47
0.0
 47
0.0
 47
0.0208333333333333
 47
0.0
 47
0.0
 47
0.0
 47
0.0
 47
1.0
 47
0.0
 47
0.0
 47
0.0
 47
0.0
 47
1.0
171
     0
 49
0.0208333333333333
 49
0.0
 49
0.0
 49
0.0
 49
0.0
 49
0.0208333333333333
 49
0.0
 49
0.0
 49
0.0
 49
0.0
 49
1.0
 49
0.0
 49
0.0
 49
0.0
 49
0.0
 49
1.0
175
     0
142
0.0208333333333333
142
0.0
142
0.0
142
0.0
142
0.0
142
0.0208333333333333
142
0.0
142
0.0
142
0.0
142
0.0
142
1.0
142
0.0
142
0.0
142
0.0
142
0.0
142
1.0
179
     0
144
0.0208333333333333
144
0.0
144
0.0
144
0.0
144
0.0
144
0.0208333333333333
144
0.0
144
0.0
144
0.0
144
0.0
144
1.0
144
0.0
144
0.0
144
0.0
144
0.0
144
1.0
147
0.0208333333333333
147
0.0
147
0.0
147
0.0
147
0.0
147
0.0208333333333333
147
0.0
147
0.0
147
0.0
147
0.0
147
1.0
147
0.0
147
0.0
147
0.0
147
0.0
147
1.0
  0
MATERIAL
  5
766E
102
{ACAD_XDICTIONARY
360
766F
102
}
102
{ACAD_REACTORS
330
766D
102
}
330
766D
100
AcDbMaterial
  1
ByLayer
 72
     0
 43
0.0208333333333333
 43
0.0
 43
0.0
 43
0.0
 43
0.0
 43
0.0208333333333333
 43
0.0
 43
0.0
 43
0.0
 43
0.0
 43
1.0
 43
0.0
 43
0.0
 43
0.0
 43
0.0
 43
1.0
 77
     0
 47
0.0208333333333333
 47
0.0
 47
0.0
 47
0.0
 47
0.0
 47
0.0208333333333333
 47
0.0
 47
0.0
 47
0.0
 47
0.0
 47
1.0
 47
0.0
 47
0.0
 47
0.0
 47
0.0
 47
1.0
171
     0
 49
0.0208333333333333
 49
0.0
 49
0.0
 49
0.0
 49
0.0
 49
0.0208333333333333
 49
0.0
 49
0.0
 49
0.0
 49
0.0
 49
1.0
 49
0.0
 49
0.0
 49
0.0
 49
0.0
 49
1.0
175
     0
142
0.0208333333333333
142
0.0
142
0.0
142
0.0
142
0.0
142
0.0208333333333333
142
0.0
142
0.0
142
0.0
142
0.0
142
1.0
142
0.0
142
0.0
142
0.0
142
0.0
142
1.0
179
     0
144
0.0208333333333333
144
0.0
144
0.0
144
0.0
144
0.0
144
0.0208333333333333
144
0.0
144
0.0
144
0.0
144
0.0
144
1.0
144
0.0
144
0.0
144
0.0
144
0.0
144
1.0
147
0.0208333333333333
147
0.0
147
0.0
147
0.0
147
0.0
147
0.0208333333333333
147
0.0
147
0.0
147
0.0
147
0.0
147
1.0
147
0.0
147
0.0
147
0.0
147
0.0
147
1.0
  0
MATERIAL
  5
767E
102
{ACAD_XDICTIONARY
360
767F
102
}
102
{ACAD_REACTORS
330
766D
102
}
330
766D
100
AcDbMaterial
  1
Global
 72
     0
 43
0.0208333333333333
 43
0.0
 43
0.0
 43
0.0
 43
0.0
 43
0.0208333333333333
 43
0.0
 43
0.0
 43
0.0
 43
0.0
 43
1.0
 43
0.0
 43
0.0
 43
0.0
 43
0.0
 43
1.0
 77
     0
 47
0.0208333333333333
 47
0.0
 47
0.0
 47
0.0
 47
0.0
 47
0.0208333333333333
 47
0.0
 47
0.0
 47
0.0
 47
0.0
 47
1.0
 47
0.0
 47
0.0
 47
0.0
 47
0.0
 47
1.0
171
     0
 49
0.0208333333333333
 49
0.0
 49
0.0
 49
0.0
 49
0.0
 49
0.0208333333333333
 49
0.0
 49
0.0
 49
0.0
 49
0.0
 49
1.0
 49
0.0
 49
0.0
 49
0.0
 49
0.0
 49
1.0
175
     0
142
0.0208333333333333
142
0.0
142
0.0
142
0.0
142
0.0
142
0.0208333333333333
142
0.0
142
0.0
142
0.0
142
0.0
142
1.0
142
0.0
142
0.0
142
0.0
142
0.0
142
1.0
179
     0
144
0.0208333333333333
144
0.0
144
0.0
144
0.0
144
0.0
144
0.0208333333333333
144
0.0
144
0.0
144
0.0
144
0.0
144
1.0
144
0.0
144
0.0
144
0.0
144
0.0
144
1.0
147
0.0208333333333333
147
0.0
147
0.0
147
0.0
147
0.0
147
0.0208333333333333
147
0.0
147
0.0
147
0.0
147
0.0
147
1.0
147
0.0
147
0.0
147
0.0
147
0.0
147
1.0
  0
MLEADERSTYLE
  5
76B5
102
{ACAD_REACTORS
330
76B4
102
}
330
76B4
100
AcDbMLeaderStyle
170
     2
171
     1
172
     0
 90
        2
 40
0.0
 41
0.0
173
     1
 91
-1056964608
340
11
 92
       -2
290
     1
 42
0.09
291
     1
 43
0.36
  3
Standard
 44
0.18
300

342
F
174
     1
178
     6
175
     1
176
     0
 93
-1056964608
 45
0.18
292
     0
297
     0
 46
0.18
 94
-1056964608
 47
1.0
 49
1.0
140
1.0
293
     1
141
0.0
294
     1
177
     0
142
1.0
295
     0
296
     0
143
0.125
1001
ACAD_MLEADERVER
1070
     2
  0
MLINESTYLE
  5
1B
102
{ACAD_REACTORS
330
1A
102
}
330
1A
100
AcDbMlineStyle
  2
STANDARD
 70
     0
  3

 62
   256
 51
90.0
 52
90.0
 71
     2
 49
0.5
 62
   256
  6
BYLAYER
 49
-0.5
 62
   256
  6
BYLAYER
  0
ACDBPLACEHOLDER
  5
485B
102
{ACAD_REACTORS
330
485A
102
}
330
485A
  0
SCALE
  5
76A3
102
{ACAD_REACTORS
330
76A2
102
}
330
76A2
100
AcDbScale
 70
     0
300
1:1
140
1.0
141
1.0
290
     1
  0
SCALE
  5
7ED4
102
{ACAD_REACTORS
330
76A2
102
}
330
76A2
100
AcDbScale
 70
     0
300
1/128" = 1'-0"
140
0.0078125
141
12.0
290
     0
  0
SCALE
  5
7ED5
102
{ACAD_REACTORS
330
76A2
102
}
330
76A2
100
AcDbScale
 70
     0
300
1/64" = 1'-0"
140
0.015625
141
12.0
290
     0
  0
SCALE
  5
7ED6
102
{ACAD_REACTORS
330
76A2
102
}
330
76A2
100
AcDbScale
 70
     0
300
1/32" = 1'-0"
140
0.03125
141
12.0
290
     0
  0
SCALE
  5
7ED7
102
{ACAD_REACTORS
330
76A2
102
}
330
76A2
100
AcDbScale
 70
     0
300
1/16" = 1'-0"
140
0.0625
141
12.0
290
     0
  0
SCALE
  5
7ED8
102
{ACAD_REACTORS
330
76A2
102
}
330
76A2
100
AcDbScale
 70
     0
300
3/32" = 1'-0"
140
0.09375
141
12.0
290
     0
  0
SCALE
  5
7ED9
102
{ACAD_REACTORS
330
76A2
102
}
330
76A2
100
AcDbScale
 70
     0
300
1/8" = 1'-0"
140
0.125
141
12.0
290
     0
  0
SCALE
  5
7EDA
102
{ACAD_REACTORS
330
76A2
102
}
330
76A2
100
AcDbScale
 70
     0
300
3/16" = 1'-0"
140
0.1875
141
12.0
290
     0
  0
SCALE
  5
7EDB
102
{ACAD_REACTORS
330
76A2
102
}
330
76A2
100
AcDbScale
 70
     0
300
1/4" = 1'-0"
140
0.25
141
12.0
290
     0
  0
SCALE
  5
7EDC
102
{ACAD_REACTORS
330
76A2
102
}
330
76A2
100
AcDbScale
 70
     0
300
3/8" = 1'-0"
140
0.375
141
12.0
290
     0
  0
SCALE
  5
7EDD
102
{ACAD_REACTORS
330
76A2
102
}
330
76A2
100
AcDbScale
 70
     0
300
1/2" = 1'-0"
140
0.5
141
12.0
290
     0
  0
SCALE
  5
7EDE
102
{ACAD_REACTORS
330
76A2
102
}
330
76A2
100
AcDbScale
 70
     0
300
3/4" = 1'-0"
140
0.75
141
12.0
290
     0
  0
SCALE
  5
7EDF
102
{ACAD_REACTORS
330
76A2
102
}
330
76A2
100
AcDbScale
 70
     0
300
1" = 1'-0"
140
1.0
141
12.0
290
     0
  0
SCALE
  5
7EE0
102
{ACAD_REACTORS
330
76A2
102
}
330
76A2
100
AcDbScale
 70
     0
300
1-1/2" = 1'-0"
140
1.5
141
12.0
290
     0
  0
SCALE
  5
7EE1
102
{ACAD_REACTORS
330
76A2
102
}
330
76A2
100
AcDbScale
 70
     0
300
3" = 1'-0"
140
3.0
141
12.0
290
     0
  0
SCALE
  5
7EE2
102
{ACAD_REACTORS
330
76A2
102
}
330
76A2
100
AcDbScale
 70
     0
300
6" = 1'-0"
140
6.0
141
12.0
290
     0
  0
SCALE
  5
7EE3
102
{ACAD_REACTORS
330
76A2
102
}
330
76A2
100
AcDbScale
 70
     0
300
1'-0" = 1'-0"
140
12.0
141
12.0
290
     0
  0
TABLESTYLE
  5
76A1
102
{ACAD_XDICTIONARY
360
76E3
102
}
102
{ACAD_REACTORS
330
76A0
102
}
330
76A0
100
AcDbTableStyle
  3
Standard
 70
     0
 71
     0
 40
0.06
 41
0.06
280
     0
281
     0
  7
STANDARD
140
0.18
170
     2
 62
     0
 63
     7
283
     0
274
    -2
284
     1
 64
     0
275
    -2
285
     1
 65
     0
276
    -2
286
     1
 66
     0
277
    -2
287
     1
 67
     0
278
    -2
288
     1
 68
     0
279
    -2
289
     1
 69
     0
  7
STANDARD
140
0.25
170
     5
 62
     0
 63
     7
283
     0
274
    -2
284
     1
 64
     0
275
    -2
285
     1
 65
     0
276
    -2
286
     1
 66
     0
277
    -2
287
     1
 67
     0
278
    -2
288
     1
 68
     0
279
    -2
289
     1
 69
     0
  7
STANDARD
140
0.18
170
     5
 62
     0
 63
     7
283
     0
274
    -2
284
     1
 64
     0
275
    -2
285
     1
 65
     0
276
    -2
286
     1
 66
     0
277
    -2
287
     1
 67
     0
278
    -2
288
     1
 68
     0
279
    -2
289
     1
 69
     0
  0
VISUALSTYLE
  5
768C
102
{ACAD_XDICTIONARY
360
7FAB
102
}
102
{ACAD_REACTORS
330
7686
102
}
330
7686
100
AcDbVisualStyle
  2
2dWireframe
 70
     4
 71
     0
 72
     2
 73
     0
 90
        0
 40
-0.6
 41
-30.0
 62
     5
 63
     7
 74
     1
 91
        4
 64
     7
 65
   257
 75
     1
175
     1
 42
1.0
 92
        0
 66
   257
 43
1.0
 76
     1
 77
     6
 78
     2
 67
     7
 79
     5
170
     0
171
     0
290
     0
174
     0
 93
        1
 44
0.0
173
     0
291
     0
 45
0.0
1001
ACAD
1000
AcDbSavedByObjectVersion
1070
     0
  0
VISUALSTYLE
  5
7EF4
102
{ACAD_XDICTIONARY
360
7FD2
102
}
102
{ACAD_REACTORS
330
7686
102
}
330
7686
100
AcDbVisualStyle
  2
3D Hidden
 70
     6
 71
     1
 72
     2
 73
     2
 90
        0
 40
-0.6
 41
-30.0
 62
     5
 63
     7
 74
     2
 91
        2
 64
     7
 65
   257
 75
     2
175
     1
 42
40.0
 92
        0
 66
   257
 43
1.0
 76
     1
 77
     6
 78
     2
 67
     7
 79
     3
170
     0
171
     0
290
     0
174
     0
 93
        1
 44
0.0
173
     0
291
     0
 45
0.0
1001
ACAD
1000
AcDbSavedByObjectVersion
1070
     0
  0
VISUALSTYLE
  5
7EF5
102
{ACAD_XDICTIONARY
360
7FD4
102
}
102
{ACAD_REACTORS
330
7686
102
}
330
7686
100
AcDbVisualStyle
  2
3dWireframe
 70
     5
 71
     0
 72
     2
 73
     0
 90
        0
 40
-0.6
 41
-30.0
 62
     5
 63
     7
 74
     1
 91
        4
 64
     7
 65
   257
 75
     1
175
     1
 42
1.0
 92
        0
 66
   257
 43
1.0
 76
     1
 77
     6
 78
     2
 67
     7
 79
     5
170
     0
171
     0
290
     0
174
     0
 93
        1
 44
0.0
173
     0
291
     0
 45
0.0
1001
ACAD
1000
AcDbSavedByObjectVersion
1070
     0
  0
VISUALSTYLE
  5
768B
102
{ACAD_XDICTIONARY
360
7FA9
102
}
102
{ACAD_REACTORS
330
7686
102
}
330
7686
100
AcDbVisualStyle
  2
Basic
 70
     7
 71
     1
 72
     0
 73
     1
 90
        0
 40
-0.6
 41
-30.0
 62
     5
 63
     7
 74
     0
 91
        4
 64
     7
 65
   257
 75
     1
175
     1
 42
1.0
 92
        8
 66
     7
 43
1.0
 76
     1
 77
     6
 78
     2
 67
     7
 79
     5
170
     0
171
     0
290
     0
174
     0
 93
        1
 44
0.0
173
     0
291
     1
 45
0.0
1001
ACAD
1000
AcDbSavedByObjectVersion
1070
     0
  0
VISUALSTYLE
  5
7692
102
{ACAD_XDICTIONARY
360
7FB7
102
}
102
{ACAD_REACTORS
330
7686
102
}
330
7686
100
AcDbVisualStyle
  2
Brighten
 70
    12
 71
     2
 72
     2
 73
     0
 90
        0
 40
-0.6
 41
-30.0
 62
     5
 63
     7
 74
     1
 91
        4
 64
     7
 65
   257
 75
     1
175
     1
 42
1.0
 92
        8
 66
     7
 43
1.0
 76
     1
 77
     6
 78
     2
 67
     7
 79
     5
170
     0
171
     0
290
     0
174
     0
 93
        1
 44
50.0
173
     0
291
     1
 45
0.0
1001
ACAD
1000
AcDbSavedByObjectVersion
1070
     0
  0
VISUALSTYLE
  5
7696
102
{ACAD_XDICTIONARY
360
7FBF
102
}
102
{ACAD_REACTORS
330
7686
102
}
330
7686
100
AcDbVisualStyle
  2
ColorChange
 70
    16
 71
     2
 72
     2
 73
     3
 90
        0
 40
-0.6
 41
-30.0
 62
     5
 63
     8
 74
     1
 91
        4
 64
     7
 65
   257
 75
     1
175
     1
 42
1.0
 92
        8
 66
     8
 43
1.0
 76
     1
 77
     6
 78
     2
 67
     7
 79
     5
170
     0
171
     0
290
     0
174
     0
 93
        1
 44
0.0
173
     0
291
     1
 45
0.0
1001
ACAD
1000
AcDbSavedByObjectVersion
1070
     0
  0
VISUALSTYLE
  5
768F
102
{ACAD_XDICTIONARY
360
7FB1
102
}
102
{ACAD_REACTORS
330
7686
102
}
330
7686
100
AcDbVisualStyle
  2
Conceptual
 70
     9
 71
     3
 72
     2
 73
     0
 90
        0
 40
-0.6
 41
-30.0
 62
     5
 63
     7
 74
     2
 91
        2
 64
     7
 65
   257
 75
     1
175
     1
 42
179.0
 92
        8
 66
     7
 43
1.0
 76
     1
 77
     6
 78
     2
 67
     7
 79
     3
170
     0
171
     0
290
     0
174
     0
 93
        1
 44
0.0
173
     0
291
     0
 45
0.0
1001
ACAD
1000
AcDbSavedByObjectVersion
1070
     0
  0
VISUALSTYLE
  5
7691
102
{ACAD_XDICTIONARY
360
7FB5
102
}
102
{ACAD_REACTORS
330
7686
102
}
330
7686
100
AcDbVisualStyle
  2
Dim
 70
    11
 71
     2
 72
     2
 73
     0
 90
        0
 40
-0.6
 41
-30.0
 62
     5
 63
     7
 74
     1
 91
        4
 64
     7
 65
   257
 75
     1
175
     1
 42
1.0
 92
        8
 66
     7
 43
1.0
 76
     1
 77
     6
 78
     2
 67
     7
 79
     5
170
     0
171
     0
290
     0
174
     0
 93
        1
 44
-50.0
173
     0
291
     1
 45
0.0
1001
ACAD
1000
AcDbSavedByObjectVersion
1070
     0
  0
VISUALSTYLE
  5
769E
102
{ACAD_XDICTIONARY
360
7FCF
102
}
102
{ACAD_REACTORS
330
7686
102
}
330
7686
100
AcDbVisualStyle
  2
EdgeColorOff
 70
    22
 71
     2
 72
     2
 73
     0
 90
        0
 40
-0.6
 41
-30.0
 62
     5
 63
     7
 74
     1
 91
        4
 64
     7
 65
   257
 75
     1
175
     1
 42
1.0
 92
        8
 66
     7
 43
1.0
 76
     1
 77
     6
 78
     2
 67
     7
 79
     5
170
     0
171
     0
290
     0
174
     0
 93
        1
 44
0.0
173
     0
291
     1
 45
0.0
1001
ACAD
1000
AcDbSavedByObjectVersion
1070
     0
  0
VISUALSTYLE
  5
7695
102
{ACAD_XDICTIONARY
360
7FBD
102
}
102
{ACAD_REACTORS
330
7686
102
}
330
7686
100
AcDbVisualStyle
  2
Facepattern
 70
    15
 71
     2
 72
     2
 73
     0
 90
        0
 40
-0.6
 41
-30.0
 62
     5
 63
     7
 74
     1
 91
        4
 64
     7
 65
   257
 75
     1
175
     1
 42
1.0
 92
        8
 66
     7
 43
1.0
 76
     1
 77
     6
 78
     2
 67
     7
 79
     5
170
     0
171
     0
290
     0
174
     0
 93
        1
 44
0.0
173
     0
291
     1
 45
0.0
1001
ACAD
1000
AcDbSavedByObjectVersion
1070
     0
  0
VISUALSTYLE
  5
7687
102
{ACAD_XDICTIONARY
360
7FA1
102
}
102
{ACAD_REACTORS
330
7686
102
}
330
7686
100
AcDbVisualStyle
  2
Flat
 70
     0
 71
     2
 72
     1
 73
     1
 90
        2
 40
-0.6
 41
30.0
 62
     5
 63
     7
 74
     0
 91
        0
 64
     7
 65
   257
 75
     1
175
     1
 42
1.0
 92
        8
 66
     7
 43
1.0
 76
     1
 77
     6
 78
     2
 67
     7
 79
     5
170
     0
171
     0
290
     0
174
     0
 93
       13
 44
0.0
173
     0
291
     1
 45
0.0
1001
ACAD
1000
AcDbSavedByObjectVersion
1070
     0
  0
VISUALSTYLE
  5
7688
102
{ACAD_XDICTIONARY
360
7FA3
102
}
102
{ACAD_REACTORS
330
7686
102
}
330
7686
100
AcDbVisualStyle
  2
FlatWithEdges
 70
     1
 71
     2
 72
     1
 73
     1
 90
        2
 40
-0.6
 41
30.0
 62
     5
 63
     7
 74
     1
 91
        0
 64
     7
 65
   257
 75
     1
175
     1
 42
1.0
 92
        0
 66
   257
 43
1.0
 76
     1
 77
     6
 78
     2
 67
     7
 79
     5
170
     0
171
     0
290
     0
174
     0
 93
       13
 44
0.0
173
     0
291
     1
 45
0.0
1001
ACAD
1000
AcDbSavedByObjectVersion
1070
     0
  0
VISUALSTYLE
  5
7689
102
{ACAD_XDICTIONARY
360
7FA5
102
}
102
{ACAD_REACTORS
330
7686
102
}
330
7686
100
AcDbVisualStyle
  2
Gouraud
 70
     2
 71
     2
 72
     2
 73
     1
 90
        2
 40
-0.6
 41
30.0
 62
     5
 63
     7
 74
     0
 91
        0
 64
     7
 65
   257
 75
     1
175
     1
 42
1.0
 92
        0
 66
     7
 43
1.0
 76
     1
 77
     6
 78
     2
 67
     7
 79
     5
170
     0
171
     0
290
     0
174
     0
 93
       13
 44
0.0
173
     0
291
     1
 45
0.0
1001
ACAD
1000
AcDbSavedByObjectVersion
1070
     0
  0
VISUALSTYLE
  5
768A
102
{ACAD_XDICTIONARY
360
7FA7
102
}
102
{ACAD_REACTORS
330
7686
102
}
330
7686
100
AcDbVisualStyle
  2
GouraudWithEdges
 70
     3
 71
     2
 72
     2
 73
     1
 90
        2
 40
-0.6
 41
30.0
 62
     5
 63
     7
 74
     1
 91
        0
 64
     7
 65
   257
 75
     1
175
     1
 42
1.0
 92
        0
 66
   257
 43
1.0
 76
     1
 77
     6
 78
     2
 67
     7
 79
     5
170
     0
171
     0
290
     0
174
     0
 93
       13
 44
0.0
173
     0
291
     1
 45
0.0
1001
ACAD
1000
AcDbSavedByObjectVersion
1070
     0
  0
VISUALSTYLE
  5
768E
102
{ACAD_XDICTIONARY
360
7FAF
102
}
102
{ACAD_REACTORS
330
7686
102
}
330
7686
100
AcDbVisualStyle
  2
Hidden
 70
     6
 71
     1
 72
     2
 73
     2
 90
        0
 40
-0.6
 41
-30.0
 62
     5
 63
     7
 74
     2
 91
        2
 64
     7
 65
   257
 75
     2
175
     1
 42
40.0
 92
        0
 66
   257
 43
1.0
 76
     1
 77
     6
 78
     2
 67
     7
 79
     3
170
     0
171
     0
290
     0
174
     0
 93
        1
 44
0.0
173
     0
291
     0
 45
0.0
1001
ACAD
1000
AcDbSavedByObjectVersion
1070
     0
  0
VISUALSTYLE
  5
769C
102
{ACAD_XDICTIONARY
360
7FCB
102
}
102
{ACAD_REACTORS
330
7686
102
}
330
7686
100
AcDbVisualStyle
  2
JitterOff
 70
    20
 71
     2
 72
     2
 73
     0
 90
        0
 40
-0.6
 41
-30.0
 62
     5
 63
     7
 74
     1
 91
        4
 64
     7
 65
   257
 75
     1
175
     1
 42
1.0
 92
       10
 66
     7
 43
1.0
 76
     1
 77
     6
 78
     2
 67
     7
 79
     5
170
     0
171
     0
290
     0
174
     0
 93
        1
 44
0.0
173
     0
291
     1
 45
0.0
1001
ACAD
1000
AcDbSavedByObjectVersion
1070
     0
  0
VISUALSTYLE
  5
7694
102
{ACAD_XDICTIONARY
360
7FBB
102
}
102
{ACAD_REACTORS
330
7686
102
}
330
7686
100
AcDbVisualStyle
  2
Linepattern
 70
    14
 71
     2
 72
     2
 73
     0
 90
        0
 40
-0.6
 41
-30.0
 62
     5
 63
     7
 74
     1
 91
        4
 64
     7
 65
   257
 75
     7
175
     7
 42
1.0
 92
        8
 66
     7
 43
1.0
 76
     1
 77
     6
 78
     2
 67
     7
 79
     5
170
     0
171
     0
290
     0
174
     0
 93
        1
 44
0.0
173
     0
291
     1
 45
0.0
1001
ACAD
1000
AcDbSavedByObjectVersion
1070
     0
  0
VISUALSTYLE
  5
769D
102
{ACAD_XDICTIONARY
360
7FCD
102
}
102
{ACAD_REACTORS
330
7686
102
}
330
7686
100
AcDbVisualStyle
  2
OverhangOff
 70
    21
 71
     2
 72
     2
 73
     0
 90
        0
 40
-0.6
 41
-30.0
 62
     5
 63
     7
 74
     1
 91
        4
 64
     7
 65
   257
 75
     1
175
     1
 42
1.0
 92
        9
 66
     7
 43
1.0
 76
     1
 77
     6
 78
     2
 67
     7
 79
     5
170
     0
171
     0
290
     0
174
     0
 93
        1
 44
0.0
173
     0
291
     1
 45
0.0
1001
ACAD
1000
AcDbSavedByObjectVersion
1070
     0
  0
VISUALSTYLE
  5
7690
102
{ACAD_XDICTIONARY
360
7FB3
102
}
102
{ACAD_REACTORS
330
7686
102
}
330
7686
100
AcDbVisualStyle
  2
Realistic
 70
     8
 71
     2
 72
     2
 73
     0
 90
        2
 40
-0.6
 41
30.0
 62
     5
 63
     7
 74
     0
 91
        0
 64
     7
 65
   257
 75
     1
175
     1
 42
1.0
 92
        8
 66
   257
 43
1.0
 76
     1
 77
     6
 78
     2
 67
     7
 79
     3
170
     0
171
     0
290
     0
174
     0
 93
       13
 44
0.0
173
     0
291
     0
 45
0.0
1001
ACAD
1000
AcDbSavedByObjectVersion
1070
     0
  0
VISUALSTYLE
  5
769B
102
{ACAD_XDICTIONARY
360
7FC9
102
}
102
{ACAD_REACTORS
330
7686
102
}
330
7686
100
AcDbVisualStyle
  2
Shaded
 70
    27
 71
     2
 72
     2
 73
     1
 90
        2
 40
-0.6
 41
30.0
 62
     5
 63
     7
 74
     0
 91
        4
 64
     7
 65
   257
 75
     1
175
     1
 42
1.0
 92
        8
 66
   257
 43
1.0
 76
     1
 77
     6
 78
     2
 67
     8
 79
     3
170
     0
171
     0
290
     0
174
     0
 93
        5
 44
0.0
173
     0
291
     0
 45
0.0
1001
ACAD
1000
AcDbSavedByObjectVersion
1070
     0
  0
VISUALSTYLE
  5
769A
102
{ACAD_XDICTIONARY
360
7FC7
102
}
102
{ACAD_REACTORS
330
7686
102
}
330
7686
100
AcDbVisualStyle
  2
Shaded with edges
 70
    26
 71
     2
 72
     2
 73
     1
 90
        2
 40
-0.6
 41
30.0
 62
     5
 63
     7
 74
     1
 91
       10
 64
     7
 65
   257
 75
     2
175
     1
 42
1.0
 92
        8
 66
   257
 43
1.0
 76
     1
 77
     6
 78
     2
 67
     7
 79
     3
170
     0
171
     0
290
     0
174
     0
 93
        5
 44
0.0
173
     0
291
     0
 45
0.0
1001
ACAD
1000
AcDbSavedByObjectVersion
1070
     0
  0
VISUALSTYLE
  5
7697
102
{ACAD_XDICTIONARY
360
7FC1
102
}
102
{ACAD_REACTORS
330
7686
102
}
330
7686
100
AcDbVisualStyle
  2
Shades of Gray
 70
    23
 71
     2
 72
     2
 73
     3
 90
        0
 40
-0.6
 41
-30.0
 62
     5
 63
     7
 74
     2
 91
        2
 64
     7
 65
     7
 75
     1
175
     1
 42
40.0
 92
        8
 66
     7
 43
1.0
 76
     1
 77
     6
 78
     2
 67
     7
 79
     3
170
     0
171
     0
290
     0
174
     0
 93
        1
 44
0.0
173
     0
291
     0
 45
0.0
1001
ACAD
1000
AcDbSavedByObjectVersion
1070
     0
  0
VISUALSTYLE
  5
7698
102
{ACAD_XDICTIONARY
360
7FC3
102
}
102
{ACAD_REACTORS
330
7686
102
}
330
7686
100
AcDbVisualStyle
  2
Sketchy
 70
    24
 71
     1
 72
     2
 73
     2
 90
        0
 40
-0.6
 41
-30.0
 62
     5
 63
     7
 74
     2
 91
        2
 64
     7
 65
     7
 75
     1
175
     1
 42
40.0
 92
       11
 66
     7
 43
1.0
 76
     1
 77
     6
 78
     2
 67
     7
 79
     6
170
     0
171
     0
290
     0
174
     0
 93
        1
 44
0.0
173
     0
291
     0
 45
0.0
1001
ACAD
1000
AcDbSavedByObjectVersion
1070
     0
  0
VISUALSTYLE
  5
7693
102
{ACAD_XDICTIONARY
360
7FB9
102
}
102
{ACAD_REACTORS
330
7686
102
}
330
7686
100
AcDbVisualStyle
  2
Thicken
 70
    13
 71
     2
 72
     2
 73
     0
 90
        0
 40
-0.6
 41
-30.0
 62
     5
 63
     7
 74
     1
 91
        4
 64
     7
 65
   257
 75
     1
175
     1
 42
1.0
 92
       12
 66
     7
 43
1.0
 76
     1
 77
     6
 78
     2
 67
     7
 79
     5
170
     0
171
     0
290
     0
174
     0
 93
        1
 44
0.0
173
     0
291
     1
 45
0.0
1001
ACAD
1000
AcDbSavedByObjectVersion
1070
     0
  0
VISUALSTYLE
  5
768D
102
{ACAD_XDICTIONARY
360
7FAD
102
}
102
{ACAD_REACTORS
330
7686
102
}
330
7686
100
AcDbVisualStyle
  2
Wireframe
 70
     5
 71
     0
 72
     2
 73
     0
 90
        0
 40
-0.6
 41
-30.0
 62
     5
 63
     7
 74
     1
 91
        4
 64
     7
 65
   257
 75
     1
175
     1
 42
1.0
 92
        0
 66
   257
 43
1.0
 76
     1
 77
     6
 78
     2
 67
     7
 79
     3
170
     0
171
     0
290
     0
174
     0
 93
        1
 44
0.0
173
     0
291
     0
 45
0.0
1001
ACAD
1000
AcDbSavedByObjectVersion
1070
     0
  0
VISUALSTYLE
  5
7699
102
{ACAD_XDICTIONARY
360
7FC5
102
}
102
{ACAD_REACTORS
330
7686
102
}
330
7686
100
AcDbVisualStyle
  2
X-Ray
 70
    25
 71
     2
 72
     2
 73
     1
 90
        1
 40
0.5
 41
-30.0
 62
     5
 63
     7
 74
     1
 91
        0
 64
     7
 65
   257
 75
     1
175
     1
 42
1.0
 92
        8
 66
     7
 43
1.0
 76
     1
 77
     6
 78
     2
 67
     7
 79
     3
170
     0
171
     0
290
     0
174
     0
 93
       13
 44
0.0
173
     0
291
     0
 45
0.0
1001
ACAD
1000
AcDbSavedByObjectVersion
1070
     0
  0
DICTIONARYVAR
  5
7724
102
{ACAD_REACTORS
330
3E
102
}
330
3E
100
DictionaryVariables
280
     0
  1
1:1
  0
DICTIONARYVAR
  5
7723
102
{ACAD_REACTORS
330
3E
102
}
330
3E
100
DictionaryVariables
280
     0
  1
STANDARD
  0
DICTIONARYVAR
  5
7722
102
{ACAD_REACTORS
330
3E
102
}
330
3E
100
DictionaryVariables
280
     0
  1
STANDARD
  0
DICTIONARYVAR
  5
3F
102
{ACAD_REACTORS
330
3E
102
}
330
3E
100
DictionaryVariables
280
     0
  1
0
  0
DICTIONARYVAR
  5
7727
102
{ACAD_REACTORS
330
3E
102
}
330
3E
100
DictionaryVariables
280
     0
  1
1
  0
DICTIONARYVAR
  5
7726
102
{ACAD_REACTORS
330
3E
102
}
330
3E
100
DictionaryVariables
280
     0
  1
0
  0
DICTIONARYVAR
  5
7EC8
102
{ACAD_REACTORS
330
3E
102
}
330
3E
100
DictionaryVariables
280
     0
  1
1
  0
DICTIONARYVAR
  5
7EC9
102
{ACAD_REACTORS
330
3E
102
}
330
3E
100
DictionaryVariables
280
     0
  1
15
  0
DICTIONARYVAR
  5
7EC7
102
{ACAD_REACTORS
330
3E
102
}
330
3E
100
DictionaryVariables
280
     0
  1
0
  0
DICTIONARYVAR
  5
7EC6
102
{ACAD_REACTORS
330
3E
102
}
330
3E
100
DictionaryVariables
280
     0
  1
0
  0
DICTIONARYVAR
  5
7725
102
{ACAD_REACTORS
330
3E
102
}
330
3E
100
DictionaryVariables
280
     0
  1
127
  0
DICTIONARYVAR
  5
7F94
102
{ACAD_REACTORS
330
3E
102
}
330
3E
100
DictionaryVariables
280
     0
  1
2
  0
DICTIONARY
  5
7F9C
330
485F
100
AcDbDictionary
280
     1
281
     1
  3
ACAD_XREC_ROUNDTRIP
360
7F9D
  0
DICTIONARY
  5
7F9A
330
485E
100
AcDbDictionary
280
     1
281
     1
  3
ACAD_XREC_ROUNDTRIP
360
7F9B
  0
DICTIONARY
  5
7677
330
7676
100
AcDbDictionary
280
     1
281
     1
  3
ACAD_XREC_ROUNDTRIP
360
7F9F
  3
BUMPTILE
360
7679
  3
DIFFUSETILE
360
7678
  3
OPACITYTILE
360
767C
  3
REFLECTIONTILE
360
767B
  3
REFRACTIONTILE
360
767D
  3
SPECULARTILE
360
767A
  0
DICTIONARY
  5
766F
330
766E
100
AcDbDictionary
280
     1
281
     1
  3
ACAD_XREC_ROUNDTRIP
360
7F9E
  3
BUMPTILE
360
7671
  3
DIFFUSETILE
360
7670
  3
OPACITYTILE
360
7674
  3
REFLECTIONTILE
360
7673
  3
REFRACTIONTILE
360
7675
  3
SPECULARTILE
360
7672
  0
DICTIONARY
  5
767F
330
767E
100
AcDbDictionary
280
     1
281
     1
  3
ACAD_XREC_ROUNDTRIP
360
7FA0
  3
BUMPTILE
360
7681
  3
DIFFUSETILE
360
7680
  3
OPACITYTILE
360
7684
  3
REFLECTIONTILE
360
7683
  3
REFRACTIONTILE
360
7685
  3
SPECULARTILE
360
7682
  0
DICTIONARY
  5
76E3
330
76A1
100
AcDbDictionary
280
     1
281
     1
  3
ACAD_ROUNDTRIP_2008_TABLESTYLE_CELLSTYLEMAP
360
7F95
  3
ACAD_XREC_ROUNDTRIP
360
7FD1
  0
DICTIONARY
  5
7FAB
330
768C
100
AcDbDictionary
280
     1
281
     1
  3
ACAD_XREC_ROUNDTRIP
360
7FAC
  0
DICTIONARY
  5
7FD2
330
7EF4
100
AcDbDictionary
280
     1
281
     1
  3
ACAD_XREC_ROUNDTRIP
360
7FD3
  0
DICTIONARY
  5
7FD4
330
7EF5
100
AcDbDictionary
280
     1
281
     1
  3
ACAD_XREC_ROUNDTRIP
360
7FD5
  0
DICTIONARY
  5
7FA9
330
768B
100
AcDbDictionary
280
     1
281
     1
  3
ACAD_XREC_ROUNDTRIP
360
7FAA
  0
DICTIONARY
  5
7FB7
330
7692
100
AcDbDictionary
280
     1
281
     1
  3
ACAD_XREC_ROUNDTRIP
360
7FB8
  0
DICTIONARY
  5
7FBF
330
7696
100
AcDbDictionary
280
     1
281
     1
  3
ACAD_XREC_ROUNDTRIP
360
7FC0
  0
DICTIONARY
  5
7FB1
330
768F
100
AcDbDictionary
280
     1
281
     1
  3
ACAD_XREC_ROUNDTRIP
360
7FB2
  0
DICTIONARY
  5
7FB5
330
7691
100
AcDbDictionary
280
     1
281
     1
  3
ACAD_XREC_ROUNDTRIP
360
7FB6
  0
DICTIONARY
  5
7FCF
330
769E
100
AcDbDictionary
280
     1
281
     1
  3
ACAD_XREC_ROUNDTRIP
360
7FD0
  0
DICTIONARY
  5
7FBD
330
7695
100
AcDbDictionary
280
     1
281
     1
  3
ACAD_XREC_ROUNDTRIP
360
7FBE
  0
DICTIONARY
  5
7FA1
330
7687
100
AcDbDictionary
280
     1
281
     1
  3
ACAD_XREC_ROUNDTRIP
360
7FA2
  0
DICTIONARY
  5
7FA3
330
7688
100
AcDbDictionary
280
     1
281
     1
  3
ACAD_XREC_ROUNDTRIP
360
7FA4
  0
DICTIONARY
  5
7FA5
330
7689
100
AcDbDictionary
280
     1
281
     1
  3
ACAD_XREC_ROUNDTRIP
360
7FA6
  0
DICTIONARY
  5
7FA7
330
768A
100
AcDbDictionary
280
     1
281
     1
  3
ACAD_XREC_ROUNDTRIP
360
7FA8
  0
DICTIONARY
  5
7FAF
330
768E
100
AcDbDictionary
280
     1
281
     1
  3
ACAD_XREC_ROUNDTRIP
360
7FB0
  0
DICTIONARY
  5
7FCB
330
769C
100
AcDbDictionary
280
     1
281
     1
  3
ACAD_XREC_ROUNDTRIP
360
7FCC
  0
DICTIONARY
  5
7FBB
330
7694
100
AcDbDictionary
280
     1
281
     1
  3
ACAD_XREC_ROUNDTRIP
360
7FBC
  0
DICTIONARY
  5
7FCD
330
769D
100
AcDbDictionary
280
     1
281
     1
  3
ACAD_XREC_ROUNDTRIP
360
7FCE
  0
DICTIONARY
  5
7FB3
330
7690
100
AcDbDictionary
280
     1
281
     1
  3
ACAD_XREC_ROUNDTRIP
360
7FB4
  0
DICTIONARY
  5
7FC9
330
769B
100
AcDbDictionary
280
     1
281
     1
  3
ACAD_XREC_ROUNDTRIP
360
7FCA
  0
DICTIONARY
  5
7FC7
330
769A
100
AcDbDictionary
280
     1
281
     1
  3
ACAD_XREC_ROUNDTRIP
360
7FC8
  0
DICTIONARY
  5
7FC1
330
7697
100
AcDbDictionary
280
     1
281
     1
  3
ACAD_XREC_ROUNDTRIP
360
7FC2
  0
DICTIONARY
  5
7FC3
330
7698
100
AcDbDictionary
280
     1
281
     1
  3
ACAD_XREC_ROUNDTRIP
360
7FC4
  0
DICTIONARY
  5
7FB9
330
7693
100
AcDbDictionary
280
     1
281
     1
  3
ACAD_XREC_ROUNDTRIP
360
7FBA
  0
DICTIONARY
  5
7FAD
330
768D
100
AcDbDictionary
280
     1
281
     1
  3
ACAD_XREC_ROUNDTRIP
360
7FAE
  0
DICTIONARY
  5
7FC5
330
7699
100
AcDbDictionary
280
     1
281
     1
  3
ACAD_XREC_ROUNDTRIP
360
7FC6
  0
XRECORD
  5
7F9D
102
{ACAD_REACTORS
330
7F9C
102
}
330
7F9C
100
AcDbXrecord
280
     1
102
SHADEPLOT
 70
     0
102
SHADEPLOTRESLEVEL
 70
     2
102
SHADEPLOTCUSTOMDPI
 70
   300
  0
XRECORD
  5
7F9B
102
{ACAD_REACTORS
330
7F9A
102
}
330
7F9A
100
AcDbXrecord
280
     1
102
SHADEPLOT
 70
     0
102
SHADEPLOTRESLEVEL
 70
     2
102
SHADEPLOTCUSTOMDPI
 70
   300
  0
XRECORD
  5
7F9F
102
{ACAD_REACTORS
330
7677
102
}
330
7677
100
AcDbXrecord
280
     1
102
MATERIAL
148
0.0
149
0.0
149
0.0
 93
        0
 94
      127
282
     0
 72
     0
 77
     0
171
     0
175
     0
179
     0
273
     0
  0
XRECORD
  5
7679
102
{ACAD_REACTORS
330
7677
102
}
330
7677
100
AcDbXrecord
280
     1
270
     1
271
     1
  0
XRECORD
  5
7678
102
{ACAD_REACTORS
330
7677
102
}
330
7677
100
AcDbXrecord
280
     1
270
     1
271
     1
  0
XRECORD
  5
767C
102
{ACAD_REACTORS
330
7677
102
}
330
7677
100
AcDbXrecord
280
     1
270
     1
271
     1
  0
XRECORD
  5
767B
102
{ACAD_REACTORS
330
7677
102
}
330
7677
100
AcDbXrecord
280
     1
270
     1
271
     1
  0
XRECORD
  5
767D
102
{ACAD_REACTORS
330
7677
102
}
330
7677
100
AcDbXrecord
280
     1
270
     1
271
     1
  0
XRECORD
  5
767A
102
{ACAD_REACTORS
330
7677
102
}
330
7677
100
AcDbXrecord
280
     1
270
     1
271
     1
  0
XRECORD
  5
7F9E
102
{ACAD_REACTORS
330
766F
102
}
330
766F
100
AcDbXrecord
280
     1
102
MATERIAL
148
0.0
149
0.0
149
0.0
 93
        0
 94
      127
282
     0
 72
     0
 77
     0
171
     0
175
     0
179
     0
273
     0
  0
XRECORD
  5
7671
102
{ACAD_REACTORS
330
766F
102
}
330
766F
100
AcDbXrecord
280
     1
270
     1
271
     1
  0
XRECORD
  5
7670
102
{ACAD_REACTORS
330
766F
102
}
330
766F
100
AcDbXrecord
280
     1
270
     1
271
     1
  0
XRECORD
  5
7674
102
{ACAD_REACTORS
330
766F
102
}
330
766F
100
AcDbXrecord
280
     1
270
     1
271
     1
  0
XRECORD
  5
7673
102
{ACAD_REACTORS
330
766F
102
}
330
766F
100
AcDbXrecord
280
     1
270
     1
271
     1
  0
XRECORD
  5
7675
102
{ACAD_REACTORS
330
766F
102
}
330
766F
100
AcDbXrecord
280
     1
270
     1
271
     1
  0
XRECORD
  5
7672
102
{ACAD_REACTORS
330
766F
102
}
330
766F
100
AcDbXrecord
280
     1
270
     1
271
     1
  0
XRECORD
  5
7FA0
102
{ACAD_REACTORS
330
767F
102
}
330
767F
100
AcDbXrecord
280
     1
102
MATERIAL
148
0.0
149
0.0
149
0.0
 93
        0
 94
      127
282
     0
 72
     0
 77
     0
171
     0
175
     0
179
     0
273
     0
  0
XRECORD
  5
7681
102
{ACAD_REACTORS
330
767F
102
}
330
767F
100
AcDbXrecord
280
     1
270
     1
271
     1
  0
XRECORD
  5
7680
102
{ACAD_REACTORS
330
767F
102
}
330
767F
100
AcDbXrecord
280
     1
270
     1
271
     1
  0
XRECORD
  5
7684
102
{ACAD_REACTORS
330
767F
102
}
330
767F
100
AcDbXrecord
280
     1
270
     1
271
     1
  0
XRECORD
  5
7683
102
{ACAD_REACTORS
330
767F
102
}
330
767F
100
AcDbXrecord
280
     1
270
     1
271
     1
  0
XRECORD
  5
7685
102
{ACAD_REACTORS
330
767F
102
}
330
767F
100
AcDbXrecord
280
     1
270
     1
271
     1
  0
XRECORD
  5
7682
102
{ACAD_REACTORS
330
767F
102
}
330
767F
100
AcDbXrecord
280
     1
270
     1
271
     1
  0
CELLSTYLEMAP
  5
7F95
102
{ACAD_REACTORS
330
76E3
102
}
330
76E3
100
AcDbCellStyleMap
 90
        3
300
CELLSTYLE
  1
TABLEFORMAT_BEGIN
 90
        5
170
     1
 91
        0
 92
    32768
 62
   257
 93
        1
300
CONTENTFORMAT
  1
CONTENTFORMAT_BEGIN
 90
        0
 91
        0
 92
      512
 93
        0
300

 40
0.0
140
1.0
 94
        5
 62
     0
340
F
144
0.25
309
CONTENTFORMAT_END
171
     0
 94
        0
309
TABLEFORMAT_END
  1
CELLSTYLE_BEGIN
 90
        1
 91
        1
300
_TITLE
309
CELLSTYLE_END
300
CELLSTYLE
  1
TABLEFORMAT_BEGIN
 90
        5
170
     1
 91
        0
 92
        0
 62
   257
 93
        1
300
CONTENTFORMAT
  1
CONTENTFORMAT_BEGIN
 90
        0
 91
        0
 92
      512
 93
        0
300

 40
0.0
140
1.0
 94
        5
 62
     0
340
F
144
0.18
309
CONTENTFORMAT_END
171
     0
 94
        0
309
TABLEFORMAT_END
  1
CELLSTYLE_BEGIN
 90
        2
 91
        1
300
_HEADER
309
CELLSTYLE_END
300
CELLSTYLE
  1
TABLEFORMAT_BEGIN
 90
        5
170
     1
 91
        0
 92
        0
 62
   257
 93
        1
300
CONTENTFORMAT
  1
CONTENTFORMAT_BEGIN
 90
        0
 91
        0
 92
      512
 93
        0
300

 40
0.0
140
1.0
 94
        2
 62
     0
340
F
144
0.18
309
CONTENTFORMAT_END
171
     0
 94
        0
309
TABLEFORMAT_END
  1
CELLSTYLE_BEGIN
 90
        3
 91
        2
300
_DATA
309
CELLSTYLE_END
  0
XRECORD
  5
7FD1
102
{ACAD_REACTORS
330
76E3
102
}
330
76E3
100
AcDbXrecord
280
     1
102
ACAD_ROUNDTRIP_PRE2007_TABLESTYLE
 90
      512
 91
        0
  1

 92
      512
 93
        0
  2

 94
      512
 95
        0
  3

  0
XRECORD
  5
7FAC
102
{ACAD_REACTORS
330
7FAB
102
}
330
7FAB
100
AcDbXrecord
280
     1
102
RTVSPropertyOp0
 70
     1
102
RTVSPropertyOp1
 70
     1
102
RTVSPropertyOp2
 70
     1
102
RTVSPropertyOp3
 70
     1
102
RTVSPropertyOp4
 70
     1
102
RTVSPropertyOp5
 70
     1
102
RTVSPropertyOp6
 70
     1
102
RTVSPropertyOp7
 70
     1
102
RTVSPropertyOp8
 70
     1
102
RTVSPropertyOp9
 70
     1
102
RTVSPropertyOp10
 70
     1
102
RTVSPropertyOp11
 70
     1
102
RTVSPropertyOp12
 70
     1
102
RTVSPropertyOp13
 70
     1
102
RTVSPropertyOp14
 70
     1
102
RTVSPropertyOp15
 70
     1
102
RTVSPropertyOp16
 70
     1
102
RTVSPropertyOp17
 70
     1
102
RTVSPropertyOp18
 70
     1
102
RTVSPropertyOp19
 70
     1
102
RTVSPropertyOp20
 70
     1
102
RTVSPropertyOp21
 70
     1
102
RTVSPropertyOp22
 70
     1
102
RTVSPropertyOp23
 70
     1
102
RTVSPropertyOp24
 70
     1
102
RTVSPropertyOp25
 70
     1
102
RTVSPropertyOp26
 70
     1
102
RTVSPropertyOp27
 70
     1
102
RTVSPropertyOp28
 70
     1
102
RTVSPropertyOp29
 70
     1
102
RTVSPropertyOp30
 70
     1
102
RTVSPropertyOp31
 70
     1
102
RTVSPropertyOp32
 70
     1
  0
XRECORD
  5
7FD3
102
{ACAD_REACTORS
330
7FD2
102
}
330
7FD2
100
AcDbXrecord
280
     1
102
RTVSPropertyOp0
 70
     1
102
RTVSPropertyOp1
 70
     1
102
RTVSPropertyOp2
 70
     1
102
RTVSPropertyOp3
 70
     1
102
RTVSPropertyOp4
 70
     1
102
RTVSPropertyOp5
 70
     1
102
RTVSPropertyOp6
 70
     1
102
RTVSPropertyOp7
 70
     1
102
RTVSPropertyOp8
 70
     1
102
RTVSPropertyOp9
 70
     1
102
RTVSPropertyOp10
 70
     1
102
RTVSPropertyOp11
 70
     1
102
RTVSPropertyOp12
 70
     1
102
RTVSPropertyOp13
 70
     1
102
RTVSPropertyOp14
 70
     1
102
RTVSPropertyOp15
 70
     1
102
RTVSPropertyOp16
 70
     1
102
RTVSPropertyOp17
 70
     1
102
RTVSPropertyOp18
 70
     1
102
RTVSPropertyOp19
 70
     1
102
RTVSPropertyOp20
 70
     1
102
RTVSPropertyOp21
 70
     1
102
RTVSPropertyOp22
 70
     1
102
RTVSPropertyOp23
 70
     1
102
RTVSPropertyOp24
 70
     1
102
RTVSPropertyOp25
 70
     1
102
RTVSPropertyOp26
 70
     1
102
RTVSPropertyOp27
 70
     1
102
RTVSPropertyOp28
 70
     1
102
RTVSPropertyOp29
 70
     1
102
RTVSPropertyOp30
 70
     1
102
RTVSPropertyOp31
 70
     1
102
RTVSPropertyOp32
 70
     1
  0
XRECORD
  5
7FD5
102
{ACAD_REACTORS
330
7FD4
102
}
330
7FD4
100
AcDbXrecord
280
     1
102
RTVSPropertyOp0
 70
     1
102
RTVSPropertyOp1
 70
     1
102
RTVSPropertyOp2
 70
     1
102
RTVSPropertyOp3
 70
     1
102
RTVSPropertyOp4
 70
     1
102
RTVSPropertyOp5
 70
     1
102
RTVSPropertyOp6
 70
     1
102
RTVSPropertyOp7
 70
     1
102
RTVSPropertyOp8
 70
     1
102
RTVSPropertyOp9
 70
     1
102
RTVSPropertyOp10
 70
     1
102
RTVSPropertyOp11
 70
     1
102
RTVSPropertyOp12
 70
     1
102
RTVSPropertyOp13
 70
     1
102
RTVSPropertyOp14
 70
     1
102
RTVSPropertyOp15
 70
     1
102
RTVSPropertyOp16
 70
     1
102
RTVSPropertyOp17
 70
     1
102
RTVSPropertyOp18
 70
     1
102
RTVSPropertyOp19
 70
     1
102
RTVSPropertyOp20
 70
     1
102
RTVSPropertyOp21
 70
     1
102
RTVSPropertyOp22
 70
     1
102
RTVSPropertyOp23
 70
     1
102
RTVSPropertyOp24
 70
     1
102
RTVSPropertyOp25
 70
     1
102
RTVSPropertyOp26
 70
     1
102
RTVSPropertyOp27
 70
     1
102
RTVSPropertyOp28
 70
     1
102
RTVSPropertyOp29
 70
     1
102
RTVSPropertyOp30
 70
     1
102
RTVSPropertyOp31
 70
     1
102
RTVSPropertyOp32
 70
     1
  0
XRECORD
  5
7FAA
102
{ACAD_REACTORS
330
7FA9
102
}
330
7FA9
100
AcDbXrecord
280
     1
102
RTVSPropertyOp0
 70
     1
102
RTVSPropertyOp1
 70
     1
102
RTVSPropertyOp2
 70
     1
102
RTVSPropertyOp3
 70
     1
102
RTVSPropertyOp4
 70
     1
102
RTVSPropertyOp5
 70
     1
102
RTVSPropertyOp6
 70
     1
102
RTVSPropertyOp7
 70
     1
102
RTVSPropertyOp8
 70
     1
102
RTVSPropertyOp9
 70
     1
102
RTVSPropertyOp10
 70
     1
102
RTVSPropertyOp11
 70
     1
102
RTVSPropertyOp12
 70
     1
102
RTVSPropertyOp13
 70
     1
102
RTVSPropertyOp14
 70
     1
102
RTVSPropertyOp15
 70
     1
102
RTVSPropertyOp16
 70
     1
102
RTVSPropertyOp17
 70
     1
102
RTVSPropertyOp18
 70
     1
102
RTVSPropertyOp19
 70
     1
102
RTVSPropertyOp20
 70
     1
102
RTVSPropertyOp21
 70
     1
102
RTVSPropertyOp22
 70
     1
102
RTVSPropertyOp23
 70
     1
102
RTVSPropertyOp24
 70
     1
102
RTVSPropertyOp25
 70
     1
102
RTVSPropertyOp26
 70
     1
102
RTVSPropertyOp27
 70
     1
102
RTVSPropertyOp28
 70
     1
102
RTVSPropertyOp29
 70
     1
102
RTVSPropertyOp30
 70
     1
102
RTVSPropertyOp31
 70
     1
102
RTVSPropertyOp32
 70
     1
  0
XRECORD
  5
7FB8
102
{ACAD_REACTORS
330
7FB7
102
}
330
7FB7
100
AcDbXrecord
280
     1
102
RTVSPropertyOp0
 70
     1
102
RTVSPropertyOp1
 70
     1
102
RTVSPropertyOp2
 70
     1
102
RTVSPropertyOp3
 70
     1
102
RTVSPropertyOp4
 70
     1
102
RTVSPropertyOp5
 70
     1
102
RTVSPropertyOp6
 70
     1
102
RTVSPropertyOp7
 70
     1
102
RTVSPropertyOp8
 70
     1
102
RTVSPropertyOp9
 70
     1
102
RTVSPropertyOp10
 70
     1
102
RTVSPropertyOp11
 70
     1
102
RTVSPropertyOp12
 70
     1
102
RTVSPropertyOp13
 70
     1
102
RTVSPropertyOp14
 70
     1
102
RTVSPropertyOp15
 70
     1
102
RTVSPropertyOp16
 70
     1
102
RTVSPropertyOp17
 70
     1
102
RTVSPropertyOp18
 70
     1
102
RTVSPropertyOp19
 70
     1
102
RTVSPropertyOp20
 70
     1
102
RTVSPropertyOp21
 70
     1
102
RTVSPropertyOp22
 70
     1
102
RTVSPropertyOp23
 70
     1
102
RTVSPropertyOp24
 70
     1
102
RTVSPropertyOp25
 70
     1
102
RTVSPropertyOp26
 70
     1
102
RTVSPropertyOp27
 70
     1
102
RTVSPropertyOp28
 70
     1
102
RTVSPropertyOp29
 70
     1
102
RTVSPropertyOp30
 70
     1
102
RTVSPropertyOp31
 70
     1
102
RTVSPropertyOp32
 70
     1
  0
XRECORD
  5
7FC0
102
{ACAD_REACTORS
330
7FBF
102
}
330
7FBF
100
AcDbXrecord
280
     1
102
RTVSPropertyOp0
 70
     1
102
RTVSPropertyOp1
 70
     1
102
RTVSPropertyOp2
 70
     1
102
RTVSPropertyOp3
 70
     1
102
RTVSPropertyOp4
 70
     1
102
RTVSPropertyOp5
 70
     1
102
RTVSPropertyOp6
 70
     1
102
RTVSPropertyOp7
 70
     1
102
RTVSPropertyOp8
 70
     1
102
RTVSPropertyOp9
 70
     1
102
RTVSPropertyOp10
 70
     1
102
RTVSPropertyOp11
 70
     1
102
RTVSPropertyOp12
 70
     1
102
RTVSPropertyOp13
 70
     1
102
RTVSPropertyOp14
 70
     1
102
RTVSPropertyOp15
 70
     1
102
RTVSPropertyOp16
 70
     1
102
RTVSPropertyOp17
 70
     1
102
RTVSPropertyOp18
 70
     1
102
RTVSPropertyOp19
 70
     1
102
RTVSPropertyOp20
 70
     1
102
RTVSPropertyOp21
 70
     1
102
RTVSPropertyOp22
 70
     1
102
RTVSPropertyOp23
 70
     1
102
RTVSPropertyOp24
 70
     1
102
RTVSPropertyOp25
 70
     1
102
RTVSPropertyOp26
 70
     1
102
RTVSPropertyOp27
 70
     1
102
RTVSPropertyOp28
 70
     1
102
RTVSPropertyOp29
 70
     1
102
RTVSPropertyOp30
 70
     1
102
RTVSPropertyOp31
 70
     1
102
RTVSPropertyOp32
 70
     1
  0
XRECORD
  5
7FB2
102
{ACAD_REACTORS
330
7FB1
102
}
330
7FB1
100
AcDbXrecord
280
     1
102
RTVSPropertyOp0
 70
     1
102
RTVSPropertyOp1
 70
     1
102
RTVSPropertyOp2
 70
     1
102
RTVSPropertyOp3
 70
     1
102
RTVSPropertyOp4
 70
     1
102
RTVSPropertyOp5
 70
     1
102
RTVSPropertyOp6
 70
     1
102
RTVSPropertyOp7
 70
     1
102
RTVSPropertyOp8
 70
     1
102
RTVSPropertyOp9
 70
     1
102
RTVSPropertyOp10
 70
     1
102
RTVSPropertyOp11
 70
     1
102
RTVSPropertyOp12
 70
     1
102
RTVSPropertyOp13
 70
     1
102
RTVSPropertyOp14
 70
     1
102
RTVSPropertyOp15
 70
     1
102
RTVSPropertyOp16
 70
     1
102
RTVSPropertyOp17
 70
     1
102
RTVSPropertyOp18
 70
     1
102
RTVSPropertyOp19
 70
     1
102
RTVSPropertyOp20
 70
     1
102
RTVSPropertyOp21
 70
     1
102
RTVSPropertyOp22
 70
     1
102
RTVSPropertyOp23
 70
     1
102
RTVSPropertyOp24
 70
     1
102
RTVSPropertyOp25
 70
     1
102
RTVSPropertyOp26
 70
     1
102
RTVSPropertyOp27
 70
     1
102
RTVSPropertyOp28
 70
     1
102
RTVSPropertyOp29
 70
     1
102
RTVSPropertyOp30
 70
     1
102
RTVSPropertyOp31
 70
     1
102
RTVSPropertyOp32
 70
     1
  0
XRECORD
  5
7FB6
102
{ACAD_REACTORS
330
7FB5
102
}
330
7FB5
100
AcDbXrecord
280
     1
102
RTVSPropertyOp0
 70
     1
102
RTVSPropertyOp1
 70
     1
102
RTVSPropertyOp2
 70
     1
102
RTVSPropertyOp3
 70
     1
102
RTVSPropertyOp4
 70
     1
102
RTVSPropertyOp5
 70
     1
102
RTVSPropertyOp6
 70
     1
102
RTVSPropertyOp7
 70
     1
102
RTVSPropertyOp8
 70
     1
102
RTVSPropertyOp9
 70
     1
102
RTVSPropertyOp10
 70
     1
102
RTVSPropertyOp11
 70
     1
102
RTVSPropertyOp12
 70
     1
102
RTVSPropertyOp13
 70
     1
102
RTVSPropertyOp14
 70
     1
102
RTVSPropertyOp15
 70
     1
102
RTVSPropertyOp16
 70
     1
102
RTVSPropertyOp17
 70
     1
102
RTVSPropertyOp18
 70
     1
102
RTVSPropertyOp19
 70
     1
102
RTVSPropertyOp20
 70
     1
102
RTVSPropertyOp21
 70
     1
102
RTVSPropertyOp22
 70
     1
102
RTVSPropertyOp23
 70
     1
102
RTVSPropertyOp24
 70
     1
102
RTVSPropertyOp25
 70
     1
102
RTVSPropertyOp26
 70
     1
102
RTVSPropertyOp27
 70
     1
102
RTVSPropertyOp28
 70
     1
102
RTVSPropertyOp29
 70
     1
102
RTVSPropertyOp30
 70
     1
102
RTVSPropertyOp31
 70
     1
102
RTVSPropertyOp32
 70
     1
  0
XRECORD
  5
7FD0
102
{ACAD_REACTORS
330
7FCF
102
}
330
7FCF
100
AcDbXrecord
280
     1
102
RTVSPropertyOp0
 70
     0
102
RTVSPropertyOp1
 70
     0
102
RTVSPropertyOp2
 70
     0
102
RTVSPropertyOp3
 70
     0
102
RTVSPropertyOp4
 70
     0
102
RTVSPropertyOp5
 70
     0
102
RTVSPropertyOp6
 70
     0
102
RTVSPropertyOp7
 70
     0
102
RTVSPropertyOp8
 70
     0
102
RTVSPropertyOp9
 70
     0
102
RTVSPropertyOp10
 70
     0
102
RTVSPropertyOp11
 70
     0
102
RTVSPropertyOp12
 70
     0
102
RTVSPropertyOp13
 70
     0
102
RTVSPropertyOp14
 70
     2
102
RTVSPropertyOp15
 70
     0
102
RTVSPropertyOp16
 70
     0
102
RTVSPropertyOp17
 70
     0
102
RTVSPropertyOp18
 70
     0
102
RTVSPropertyOp19
 70
     0
102
RTVSPropertyOp20
 70
     0
102
RTVSPropertyOp21
 70
     0
102
RTVSPropertyOp22
 70
     0
102
RTVSPropertyOp23
 70
     0
102
RTVSPropertyOp24
 70
     0
102
RTVSPropertyOp25
 70
     0
102
RTVSPropertyOp26
 70
     0
102
RTVSPropertyOp27
 70
     0
102
RTVSPropertyOp28
 70
     1
102
RTVSPropertyOp29
 70
     1
102
RTVSPropertyOp30
 70
     1
102
RTVSPropertyOp31
 70
     1
102
RTVSPropertyOp32
 70
     1
  0
XRECORD
  5
7FBE
102
{ACAD_REACTORS
330
7FBD
102
}
330
7FBD
100
AcDbXrecord
280
     1
102
RTVSPropertyOp0
 70
     1
102
RTVSPropertyOp1
 70
     1
102
RTVSPropertyOp2
 70
     1
102
RTVSPropertyOp3
 70
     1
102
RTVSPropertyOp4
 70
     1
102
RTVSPropertyOp5
 70
     1
102
RTVSPropertyOp6
 70
     1
102
RTVSPropertyOp7
 70
     1
102
RTVSPropertyOp8
 70
     1
102
RTVSPropertyOp9
 70
     1
102
RTVSPropertyOp10
 70
     1
102
RTVSPropertyOp11
 70
     1
102
RTVSPropertyOp12
 70
     1
102
RTVSPropertyOp13
 70
     1
102
RTVSPropertyOp14
 70
     1
102
RTVSPropertyOp15
 70
     1
102
RTVSPropertyOp16
 70
     1
102
RTVSPropertyOp17
 70
     1
102
RTVSPropertyOp18
 70
     1
102
RTVSPropertyOp19
 70
     1
102
RTVSPropertyOp20
 70
     1
102
RTVSPropertyOp21
 70
     1
102
RTVSPropertyOp22
 70
     1
102
RTVSPropertyOp23
 70
     1
102
RTVSPropertyOp24
 70
     1
102
RTVSPropertyOp25
 70
     1
102
RTVSPropertyOp26
 70
     1
102
RTVSPropertyOp27
 70
     1
102
RTVSPropertyOp28
 70
     1
102
RTVSPropertyOp29
 70
     1
102
RTVSPropertyOp30
 70
     1
102
RTVSPropertyOp31
 70
     1
102
RTVSPropertyOp32
 70
     1
  0
XRECORD
  5
7FA2
102
{ACAD_REACTORS
330
7FA1
102
}
330
7FA1
100
AcDbXrecord
280
     1
102
RTVSPropertyOp0
 70
     1
102
RTVSPropertyOp1
 70
     1
102
RTVSPropertyOp2
 70
     1
102
RTVSPropertyOp3
 70
     1
102
RTVSPropertyOp4
 70
     1
102
RTVSPropertyOp5
 70
     1
102
RTVSPropertyOp6
 70
     1
102
RTVSPropertyOp7
 70
     1
102
RTVSPropertyOp8
 70
     1
102
RTVSPropertyOp9
 70
     1
102
RTVSPropertyOp10
 70
     1
102
RTVSPropertyOp11
 70
     1
102
RTVSPropertyOp12
 70
     1
102
RTVSPropertyOp13
 70
     1
102
RTVSPropertyOp14
 70
     1
102
RTVSPropertyOp15
 70
     1
102
RTVSPropertyOp16
 70
     1
102
RTVSPropertyOp17
 70
     1
102
RTVSPropertyOp18
 70
     1
102
RTVSPropertyOp19
 70
     1
102
RTVSPropertyOp20
 70
     1
102
RTVSPropertyOp21
 70
     1
102
RTVSPropertyOp22
 70
     1
102
RTVSPropertyOp23
 70
     1
102
RTVSPropertyOp24
 70
     1
102
RTVSPropertyOp25
 70
     1
102
RTVSPropertyOp26
 70
     1
102
RTVSPropertyOp27
 70
     1
102
RTVSPropertyOp28
 70
     1
102
RTVSPropertyOp29
 70
     1
102
RTVSPropertyOp30
 70
     1
102
RTVSPropertyOp31
 70
     1
102
RTVSPropertyOp32
 70
     1
  0
XRECORD
  5
7FA4
102
{ACAD_REACTORS
330
7FA3
102
}
330
7FA3
100
AcDbXrecord
280
     1
102
RTVSPropertyOp0
 70
     1
102
RTVSPropertyOp1
 70
     1
102
RTVSPropertyOp2
 70
     1
102
RTVSPropertyOp3
 70
     1
102
RTVSPropertyOp4
 70
     1
102
RTVSPropertyOp5
 70
     1
102
RTVSPropertyOp6
 70
     1
102
RTVSPropertyOp7
 70
     1
102
RTVSPropertyOp8
 70
     1
102
RTVSPropertyOp9
 70
     1
102
RTVSPropertyOp10
 70
     1
102
RTVSPropertyOp11
 70
     1
102
RTVSPropertyOp12
 70
     1
102
RTVSPropertyOp13
 70
     1
102
RTVSPropertyOp14
 70
     1
102
RTVSPropertyOp15
 70
     1
102
RTVSPropertyOp16
 70
     1
102
RTVSPropertyOp17
 70
     1
102
RTVSPropertyOp18
 70
     1
102
RTVSPropertyOp19
 70
     1
102
RTVSPropertyOp20
 70
     1
102
RTVSPropertyOp21
 70
     1
102
RTVSPropertyOp22
 70
     1
102
RTVSPropertyOp23
 70
     1
102
RTVSPropertyOp24
 70
     1
102
RTVSPropertyOp25
 70
     1
102
RTVSPropertyOp26
 70
     1
102
RTVSPropertyOp27
 70
     1
102
RTVSPropertyOp28
 70
     1
102
RTVSPropertyOp29
 70
     1
102
RTVSPropertyOp30
 70
     1
102
RTVSPropertyOp31
 70
     1
102
RTVSPropertyOp32
 70
     1
  0
XRECORD
  5
7FA6
102
{ACAD_REACTORS
330
7FA5
102
}
330
7FA5
100
AcDbXrecord
280
     1
102
RTVSPropertyOp0
 70
     1
102
RTVSPropertyOp1
 70
     1
102
RTVSPropertyOp2
 70
     1
102
RTVSPropertyOp3
 70
     1
102
RTVSPropertyOp4
 70
     1
102
RTVSPropertyOp5
 70
     1
102
RTVSPropertyOp6
 70
     1
102
RTVSPropertyOp7
 70
     1
102
RTVSPropertyOp8
 70
     1
102
RTVSPropertyOp9
 70
     1
102
RTVSPropertyOp10
 70
     1
102
RTVSPropertyOp11
 70
     1
102
RTVSPropertyOp12
 70
     1
102
RTVSPropertyOp13
 70
     1
102
RTVSPropertyOp14
 70
     1
102
RTVSPropertyOp15
 70
     1
102
RTVSPropertyOp16
 70
     1
102
RTVSPropertyOp17
 70
     1
102
RTVSPropertyOp18
 70
     1
102
RTVSPropertyOp19
 70
     1
102
RTVSPropertyOp20
 70
     1
102
RTVSPropertyOp21
 70
     1
102
RTVSPropertyOp22
 70
     1
102
RTVSPropertyOp23
 70
     1
102
RTVSPropertyOp24
 70
     1
102
RTVSPropertyOp25
 70
     1
102
RTVSPropertyOp26
 70
     1
102
RTVSPropertyOp27
 70
     1
102
RTVSPropertyOp28
 70
     1
102
RTVSPropertyOp29
 70
     1
102
RTVSPropertyOp30
 70
     1
102
RTVSPropertyOp31
 70
     1
102
RTVSPropertyOp32
 70
     1
  0
XRECORD
  5
7FA8
102
{ACAD_REACTORS
330
7FA7
102
}
330
7FA7
100
AcDbXrecord
280
     1
102
RTVSPropertyOp0
 70
     1
102
RTVSPropertyOp1
 70
     1
102
RTVSPropertyOp2
 70
     1
102
RTVSPropertyOp3
 70
     1
102
RTVSPropertyOp4
 70
     1
102
RTVSPropertyOp5
 70
     1
102
RTVSPropertyOp6
 70
     1
102
RTVSPropertyOp7
 70
     1
102
RTVSPropertyOp8
 70
     1
102
RTVSPropertyOp9
 70
     1
102
RTVSPropertyOp10
 70
     1
102
RTVSPropertyOp11
 70
     1
102
RTVSPropertyOp12
 70
     1
102
RTVSPropertyOp13
 70
     1
102
RTVSPropertyOp14
 70
     1
102
RTVSPropertyOp15
 70
     1
102
RTVSPropertyOp16
 70
     1
102
RTVSPropertyOp17
 70
     1
102
RTVSPropertyOp18
 70
     1
102
RTVSPropertyOp19
 70
     1
102
RTVSPropertyOp20
 70
     1
102
RTVSPropertyOp21
 70
     1
102
RTVSPropertyOp22
 70
     1
102
RTVSPropertyOp23
 70
     1
102
RTVSPropertyOp24
 70
     1
102
RTVSPropertyOp25
 70
     1
102
RTVSPropertyOp26
 70
     1
102
RTVSPropertyOp27
 70
     1
102
RTVSPropertyOp28
 70
     1
102
RTVSPropertyOp29
 70
     1
102
RTVSPropertyOp30
 70
     1
102
RTVSPropertyOp31
 70
     1
102
RTVSPropertyOp32
 70
     1
  0
XRECORD
  5
7FB0
102
{ACAD_REACTORS
330
7FAF
102
}
330
7FAF
100
AcDbXrecord
280
     1
102
RTVSPropertyOp0
 70
     1
102
RTVSPropertyOp1
 70
     1
102
RTVSPropertyOp2
 70
     1
102
RTVSPropertyOp3
 70
     1
102
RTVSPropertyOp4
 70
     1
102
RTVSPropertyOp5
 70
     1
102
RTVSPropertyOp6
 70
     1
102
RTVSPropertyOp7
 70
     1
102
RTVSPropertyOp8
 70
     1
102
RTVSPropertyOp9
 70
     1
102
RTVSPropertyOp10
 70
     1
102
RTVSPropertyOp11
 70
     1
102
RTVSPropertyOp12
 70
     1
102
RTVSPropertyOp13
 70
     1
102
RTVSPropertyOp14
 70
     1
102
RTVSPropertyOp15
 70
     1
102
RTVSPropertyOp16
 70
     1
102
RTVSPropertyOp17
 70
     1
102
RTVSPropertyOp18
 70
     1
102
RTVSPropertyOp19
 70
     1
102
RTVSPropertyOp20
 70
     1
102
RTVSPropertyOp21
 70
     1
102
RTVSPropertyOp22
 70
     1
102
RTVSPropertyOp23
 70
     1
102
RTVSPropertyOp24
 70
     1
102
RTVSPropertyOp25
 70
     1
102
RTVSPropertyOp26
 70
     1
102
RTVSPropertyOp27
 70
     1
102
RTVSPropertyOp28
 70
     1
102
RTVSPropertyOp29
 70
     1
102
RTVSPropertyOp30
 70
     1
102
RTVSPropertyOp31
 70
     1
102
RTVSPropertyOp32
 70
     1
  0
XRECORD
  5
7FCC
102
{ACAD_REACTORS
330
7FCB
102
}
330
7FCB
100
AcDbXrecord
280
     1
102
RTVSPropertyOp0
 70
     0
102
RTVSPropertyOp1
 70
     0
102
RTVSPropertyOp2
 70
     0
102
RTVSPropertyOp3
 70
     0
102
RTVSPropertyOp4
 70
     0
102
RTVSPropertyOp5
 70
     0
102
RTVSPropertyOp6
 70
     0
102
RTVSPropertyOp7
 70
     0
102
RTVSPropertyOp8
 70
     0
102
RTVSPropertyOp9
 70
     0
102
RTVSPropertyOp10
 70
     0
102
RTVSPropertyOp11
 70
     0
102
RTVSPropertyOp12
 70
     0
102
RTVSPropertyOp13
 70
     0
102
RTVSPropertyOp14
 70
     2
102
RTVSPropertyOp15
 70
     0
102
RTVSPropertyOp16
 70
     0
102
RTVSPropertyOp17
 70
     0
102
RTVSPropertyOp18
 70
     0
102
RTVSPropertyOp19
 70
     0
102
RTVSPropertyOp20
 70
     0
102
RTVSPropertyOp21
 70
     0
102
RTVSPropertyOp22
 70
     0
102
RTVSPropertyOp23
 70
     0
102
RTVSPropertyOp24
 70
     0
102
RTVSPropertyOp25
 70
     0
102
RTVSPropertyOp26
 70
     0
102
RTVSPropertyOp27
 70
     0
102
RTVSPropertyOp28
 70
     1
102
RTVSPropertyOp29
 70
     1
102
RTVSPropertyOp30
 70
     1
102
RTVSPropertyOp31
 70
     1
102
RTVSPropertyOp32
 70
     1
  0
XRECORD
  5
7FBC
102
{ACAD_REACTORS
330
7FBB
102
}
330
7FBB
100
AcDbXrecord
280
     1
102
RTVSPropertyOp0
 70
     1
102
RTVSPropertyOp1
 70
     1
102
RTVSPropertyOp2
 70
     1
102
RTVSPropertyOp3
 70
     1
102
RTVSPropertyOp4
 70
     1
102
RTVSPropertyOp5
 70
     1
102
RTVSPropertyOp6
 70
     1
102
RTVSPropertyOp7
 70
     1
102
RTVSPropertyOp8
 70
     1
102
RTVSPropertyOp9
 70
     1
102
RTVSPropertyOp10
 70
     1
102
RTVSPropertyOp11
 70
     1
102
RTVSPropertyOp12
 70
     1
102
RTVSPropertyOp13
 70
     1
102
RTVSPropertyOp14
 70
     1
102
RTVSPropertyOp15
 70
     1
102
RTVSPropertyOp16
 70
     1
102
RTVSPropertyOp17
 70
     1
102
RTVSPropertyOp18
 70
     1
102
RTVSPropertyOp19
 70
     1
102
RTVSPropertyOp20
 70
     1
102
RTVSPropertyOp21
 70
     1
102
RTVSPropertyOp22
 70
     1
102
RTVSPropertyOp23
 70
     1
102
RTVSPropertyOp24
 70
     1
102
RTVSPropertyOp25
 70
     1
102
RTVSPropertyOp26
 70
     1
102
RTVSPropertyOp27
 70
     1
102
RTVSPropertyOp28
 70
     1
102
RTVSPropertyOp29
 70
     1
102
RTVSPropertyOp30
 70
     1
102
RTVSPropertyOp31
 70
     1
102
RTVSPropertyOp32
 70
     1
  0
XRECORD
  5
7FCE
102
{ACAD_REACTORS
330
7FCD
102
}
330
7FCD
100
AcDbXrecord
280
     1
102
RTVSPropertyOp0
 70
     0
102
RTVSPropertyOp1
 70
     0
102
RTVSPropertyOp2
 70
     0
102
RTVSPropertyOp3
 70
     0
102
RTVSPropertyOp4
 70
     0
102
RTVSPropertyOp5
 70
     0
102
RTVSPropertyOp6
 70
     0
102
RTVSPropertyOp7
 70
     0
102
RTVSPropertyOp8
 70
     0
102
RTVSPropertyOp9
 70
     0
102
RTVSPropertyOp10
 70
     0
102
RTVSPropertyOp11
 70
     0
102
RTVSPropertyOp12
 70
     0
102
RTVSPropertyOp13
 70
     0
102
RTVSPropertyOp14
 70
     2
102
RTVSPropertyOp15
 70
     0
102
RTVSPropertyOp16
 70
     0
102
RTVSPropertyOp17
 70
     0
102
RTVSPropertyOp18
 70
     0
102
RTVSPropertyOp19
 70
     0
102
RTVSPropertyOp20
 70
     0
102
RTVSPropertyOp21
 70
     0
102
RTVSPropertyOp22
 70
     0
102
RTVSPropertyOp23
 70
     0
102
RTVSPropertyOp24
 70
     0
102
RTVSPropertyOp25
 70
     0
102
RTVSPropertyOp26
 70
     0
102
RTVSPropertyOp27
 70
     0
102
RTVSPropertyOp28
 70
     1
102
RTVSPropertyOp29
 70
     1
102
RTVSPropertyOp30
 70
     1
102
RTVSPropertyOp31
 70
     1
102
RTVSPropertyOp32
 70
     1
  0
XRECORD
  5
7FB4
102
{ACAD_REACTORS
330
7FB3
102
}
330
7FB3
100
AcDbXrecord
280
     1
102
RTVSPropertyOp0
 70
     1
102
RTVSPropertyOp1
 70
     1
102
RTVSPropertyOp2
 70
     1
102
RTVSPropertyOp3
 70
     1
102
RTVSPropertyOp4
 70
     1
102
RTVSPropertyOp5
 70
     1
102
RTVSPropertyOp6
 70
     1
102
RTVSPropertyOp7
 70
     1
102
RTVSPropertyOp8
 70
     1
102
RTVSPropertyOp9
 70
     1
102
RTVSPropertyOp10
 70
     1
102
RTVSPropertyOp11
 70
     1
102
RTVSPropertyOp12
 70
     1
102
RTVSPropertyOp13
 70
     1
102
RTVSPropertyOp14
 70
     1
102
RTVSPropertyOp15
 70
     1
102
RTVSPropertyOp16
 70
     1
102
RTVSPropertyOp17
 70
     1
102
RTVSPropertyOp18
 70
     1
102
RTVSPropertyOp19
 70
     1
102
RTVSPropertyOp20
 70
     1
102
RTVSPropertyOp21
 70
     1
102
RTVSPropertyOp22
 70
     1
102
RTVSPropertyOp23
 70
     1
102
RTVSPropertyOp24
 70
     1
102
RTVSPropertyOp25
 70
     1
102
RTVSPropertyOp26
 70
     1
102
RTVSPropertyOp27
 70
     1
102
RTVSPropertyOp28
 70
     1
102
RTVSPropertyOp29
 70
     1
102
RTVSPropertyOp30
 70
     1
102
RTVSPropertyOp31
 70
     1
102
RTVSPropertyOp32
 70
     1
  0
XRECORD
  5
7FCA
102
{ACAD_REACTORS
330
7FC9
102
}
330
7FC9
100
AcDbXrecord
280
     1
102
RTVSPropertyOp0
 70
     1
102
RTVSPropertyOp1
 70
     1
102
RTVSPropertyOp2
 70
     1
102
RTVSPropertyOp3
 70
     1
102
RTVSPropertyOp4
 70
     1
102
RTVSPropertyOp5
 70
     1
102
RTVSPropertyOp6
 70
     1
102
RTVSPropertyOp7
 70
     1
102
RTVSPropertyOp8
 70
     1
102
RTVSPropertyOp9
 70
     1
102
RTVSPropertyOp10
 70
     1
102
RTVSPropertyOp11
 70
     1
102
RTVSPropertyOp12
 70
     1
102
RTVSPropertyOp13
 70
     1
102
RTVSPropertyOp14
 70
     1
102
RTVSPropertyOp15
 70
     1
102
RTVSPropertyOp16
 70
     1
102
RTVSPropertyOp17
 70
     1
102
RTVSPropertyOp18
 70
     1
102
RTVSPropertyOp19
 70
     1
102
RTVSPropertyOp20
 70
     1
102
RTVSPropertyOp21
 70
     1
102
RTVSPropertyOp22
 70
     1
102
RTVSPropertyOp23
 70
     1
102
RTVSPropertyOp24
 70
     1
102
RTVSPropertyOp25
 70
     1
102
RTVSPropertyOp26
 70
     1
102
RTVSPropertyOp27
 70
     1
102
RTVSPropertyOp28
 70
     1
102
RTVSPropertyOp29
 70
     1
102
RTVSPropertyOp30
 70
     1
102
RTVSPropertyOp31
 70
     1
102
RTVSPropertyOp32
 70
     1
  0
XRECORD
  5
7FC8
102
{ACAD_REACTORS
330
7FC7
102
}
330
7FC7
100
AcDbXrecord
280
     1
102
RTVSPropertyOp0
 70
     1
102
RTVSPropertyOp1
 70
     1
102
RTVSPropertyOp2
 70
     1
102
RTVSPropertyOp3
 70
     1
102
RTVSPropertyOp4
 70
     1
102
RTVSPropertyOp5
 70
     1
102
RTVSPropertyOp6
 70
     1
102
RTVSPropertyOp7
 70
     1
102
RTVSPropertyOp8
 70
     1
102
RTVSPropertyOp9
 70
     1
102
RTVSPropertyOp10
 70
     1
102
RTVSPropertyOp11
 70
     1
102
RTVSPropertyOp12
 70
     1
102
RTVSPropertyOp13
 70
     1
102
RTVSPropertyOp14
 70
     1
102
RTVSPropertyOp15
 70
     1
102
RTVSPropertyOp16
 70
     1
102
RTVSPropertyOp17
 70
     1
102
RTVSPropertyOp18
 70
     1
102
RTVSPropertyOp19
 70
     1
102
RTVSPropertyOp20
 70
     1
102
RTVSPropertyOp21
 70
     1
102
RTVSPropertyOp22
 70
     1
102
RTVSPropertyOp23
 70
     1
102
RTVSPropertyOp24
 70
     1
102
RTVSPropertyOp25
 70
     1
102
RTVSPropertyOp26
 70
     1
102
RTVSPropertyOp27
 70
     1
102
RTVSPropertyOp28
 70
     1
102
RTVSPropertyOp29
 70
     1
102
RTVSPropertyOp30
 70
     1
102
RTVSPropertyOp31
 70
     1
102
RTVSPropertyOp32
 70
     1
  0
XRECORD
  5
7FC2
102
{ACAD_REACTORS
330
7FC1
102
}
330
7FC1
100
AcDbXrecord
280
     1
102
RTVSPropertyOp0
 70
     1
102
RTVSPropertyOp1
 70
     1
102
RTVSPropertyOp2
 70
     1
102
RTVSPropertyOp3
 70
     1
102
RTVSPropertyOp4
 70
     1
102
RTVSPropertyOp5
 70
     1
102
RTVSPropertyOp6
 70
     1
102
RTVSPropertyOp7
 70
     1
102
RTVSPropertyOp8
 70
     1
102
RTVSPropertyOp9
 70
     1
102
RTVSPropertyOp10
 70
     1
102
RTVSPropertyOp11
 70
     1
102
RTVSPropertyOp12
 70
     1
102
RTVSPropertyOp13
 70
     1
102
RTVSPropertyOp14
 70
     1
102
RTVSPropertyOp15
 70
     1
102
RTVSPropertyOp16
 70
     1
102
RTVSPropertyOp17
 70
     1
102
RTVSPropertyOp18
 70
     1
102
RTVSPropertyOp19
 70
     1
102
RTVSPropertyOp20
 70
     1
102
RTVSPropertyOp21
 70
     1
102
RTVSPropertyOp22
 70
     1
102
RTVSPropertyOp23
 70
     1
102
RTVSPropertyOp24
 70
     1
102
RTVSPropertyOp25
 70
     1
102
RTVSPropertyOp26
 70
     1
102
RTVSPropertyOp27
 70
     1
102
RTVSPropertyOp28
 70
     1
102
RTVSPropertyOp29
 70
     1
102
RTVSPropertyOp30
 70
     1
102
RTVSPropertyOp31
 70
     1
102
RTVSPropertyOp32
 70
     1
  0
XRECORD
  5
7FC4
102
{ACAD_REACTORS
330
7FC3
102
}
330
7FC3
100
AcDbXrecord
280
     1
102
RTVSPropertyOp0
 70
     1
102
RTVSPropertyOp1
 70
     1
102
RTVSPropertyOp2
 70
     1
102
RTVSPropertyOp3
 70
     1
102
RTVSPropertyOp4
 70
     1
102
RTVSPropertyOp5
 70
     1
102
RTVSPropertyOp6
 70
     1
102
RTVSPropertyOp7
 70
     1
102
RTVSPropertyOp8
 70
     1
102
RTVSPropertyOp9
 70
     1
102
RTVSPropertyOp10
 70
     1
102
RTVSPropertyOp11
 70
     1
102
RTVSPropertyOp12
 70
     1
102
RTVSPropertyOp13
 70
     1
102
RTVSPropertyOp14
 70
     1
102
RTVSPropertyOp15
 70
     1
102
RTVSPropertyOp16
 70
     1
102
RTVSPropertyOp17
 70
     1
102
RTVSPropertyOp18
 70
     1
102
RTVSPropertyOp19
 70
     1
102
RTVSPropertyOp20
 70
     1
102
RTVSPropertyOp21
 70
     1
102
RTVSPropertyOp22
 70
     1
102
RTVSPropertyOp23
 70
     1
102
RTVSPropertyOp24
 70
     1
102
RTVSPropertyOp25
 70
     1
102
RTVSPropertyOp26
 70
     1
102
RTVSPropertyOp27
 70
     1
102
RTVSPropertyOp28
 70
     1
102
RTVSPropertyOp29
 70
     1
102
RTVSPropertyOp30
 70
     1
102
RTVSPropertyOp31
 70
     1
102
RTVSPropertyOp32
 70
     1
  0
XRECORD
  5
7FBA
102
{ACAD_REACTORS
330
7FB9
102
}
330
7FB9
100
AcDbXrecord
280
     1
102
RTVSPropertyOp0
 70
     1
102
RTVSPropertyOp1
 70
     1
102
RTVSPropertyOp2
 70
     1
102
RTVSPropertyOp3
 70
     1
102
RTVSPropertyOp4
 70
     1
102
RTVSPropertyOp5
 70
     1
102
RTVSPropertyOp6
 70
     1
102
RTVSPropertyOp7
 70
     1
102
RTVSPropertyOp8
 70
     1
102
RTVSPropertyOp9
 70
     1
102
RTVSPropertyOp10
 70
     1
102
RTVSPropertyOp11
 70
     1
102
RTVSPropertyOp12
 70
     1
102
RTVSPropertyOp13
 70
     1
102
RTVSPropertyOp14
 70
     1
102
RTVSPropertyOp15
 70
     1
102
RTVSPropertyOp16
 70
     1
102
RTVSPropertyOp17
 70
     1
102
RTVSPropertyOp18
 70
     1
102
RTVSPropertyOp19
 70
     1
102
RTVSPropertyOp20
 70
     1
102
RTVSPropertyOp21
 70
     1
102
RTVSPropertyOp22
 70
     1
102
RTVSPropertyOp23
 70
     1
102
RTVSPropertyOp24
 70
     1
102
RTVSPropertyOp25
 70
     1
102
RTVSPropertyOp26
 70
     1
102
RTVSPropertyOp27
 70
     1
102
RTVSPropertyOp28
 70
     1
102
RTVSPropertyOp29
 70
     1
102
RTVSPropertyOp30
 70
     1
102
RTVSPropertyOp31
 70
     1
102
RTVSPropertyOp32
 70
     1
  0
XRECORD
  5
7FAE
102
{ACAD_REACTORS
330
7FAD
102
}
330
7FAD
100
AcDbXrecord
280
     1
102
RTVSPropertyOp0
 70
     1
102
RTVSPropertyOp1
 70
     1
102
RTVSPropertyOp2
 70
     1
102
RTVSPropertyOp3
 70
     1
102
RTVSPropertyOp4
 70
     1
102
RTVSPropertyOp5
 70
     1
102
RTVSPropertyOp6
 70
     1
102
RTVSPropertyOp7
 70
     1
102
RTVSPropertyOp8
 70
     1
102
RTVSPropertyOp9
 70
     1
102
RTVSPropertyOp10
 70
     1
102
RTVSPropertyOp11
 70
     1
102
RTVSPropertyOp12
 70
     1
102
RTVSPropertyOp13
 70
     1
102
RTVSPropertyOp14
 70
     1
102
RTVSPropertyOp15
 70
     1
102
RTVSPropertyOp16
 70
     1
102
RTVSPropertyOp17
 70
     1
102
RTVSPropertyOp18
 70
     1
102
RTVSPropertyOp19
 70
     1
102
RTVSPropertyOp20
 70
     1
102
RTVSPropertyOp21
 70
     1
102
RTVSPropertyOp22
 70
     1
102
RTVSPropertyOp23
 70
     1
102
RTVSPropertyOp24
 70
     1
102
RTVSPropertyOp25
 70
     1
102
RTVSPropertyOp26
 70
     1
102
RTVSPropertyOp27
 70
     1
102
RTVSPropertyOp28
 70
     1
102
RTVSPropertyOp29
 70
     1
102
RTVSPropertyOp30
 70
     1
102
RTVSPropertyOp31
 70
     1
102
RTVSPropertyOp32
 70
     1
  0
XRECORD
  5
7FC6
102
{ACAD_REACTORS
330
7FC5
102
}
330
7FC5
100
AcDbXrecord
280
     1
102
RTVSPropertyOp0
 70
     1
102
RTVSPropertyOp1
 70
     1
102
RTVSPropertyOp2
 70
     1
102
RTVSPropertyOp3
 70
     1
102
RTVSPropertyOp4
 70
     1
102
RTVSPropertyOp5
 70
     1
102
RTVSPropertyOp6
 70
     1
102
RTVSPropertyOp7
 70
     1
102
RTVSPropertyOp8
 70
     1
102
RTVSPropertyOp9
 70
     1
102
RTVSPropertyOp10
 70
     1
102
RTVSPropertyOp11
 70
     1
102
RTVSPropertyOp12
 70
     1
102
RTVSPropertyOp13
 70
     1
102
RTVSPropertyOp14
 70
     1
102
RTVSPropertyOp15
 70
     1
102
RTVSPropertyOp16
 70
     1
102
RTVSPropertyOp17
 70
     1
102
RTVSPropertyOp18
 70
     1
102
RTVSPropertyOp19
 70
     1
102
RTVSPropertyOp20
 70
     1
102
RTVSPropertyOp21
 70
     1
102
RTVSPropertyOp22
 70
     1
102
RTVSPropertyOp23
 70
     1
102
RTVSPropertyOp24
 70
     1
102
RTVSPropertyOp25
 70
     1
102
RTVSPropertyOp26
 70
     1
102
RTVSPropertyOp27
 70
     1
102
RTVSPropertyOp28
 70
     1
102
RTVSPropertyOp29
 70
     1
102
RTVSPropertyOp30
 70
     1
102
RTVSPropertyOp31
 70
     1
102
RTVSPropertyOp32
 70
     1
  0
ENDSEC
  0
EOF
