  0
SECTION
  2
HEADER
  9
$ACADVER
  1
AC1015
  9
$ACADMAINTVER
 70
    20
  9
$DWGCODEPAGE
  3
ANSI_1252
  9
$INSBASE
 10
0.0
 20
0.0
 30
0.0
  9
$EXTMIN
 10
0.0
 20
0.0
 30
0.0
  9
$EXTMAX
 10
67.85899319401801
 20
42.16016963571056
 30
0.0
  9
$LIMMIN
 10
0.0
 20
0.0
  9
$LIMMAX
 10
12.0
 20
9.0
  9
$ORTHOMODE
 70
     0
  9
$REGENMODE
 70
     1
  9
$FILLMODE
 70
     1
  9
$QTEXTMODE
 70
     0
  9
$MIRRTEXT
 70
     1
  9
$LTSCALE
 40
0.5
  9
$ATTMODE
 70
     1
  9
$TEXTSIZE
 40
0.25
  9
$TRACEWID
 40
0.05
  9
$TEXTSTYLE
  7
STANDARD
  9
$CLAYER
  8
0
  9
$CELTYPE
  6
BYLAYER
  9
$CECOLOR
 62
   256
  9
$CELTSCALE
 40
1.0
  9
$DISPSILH
 70
     0
  9
$DIMSCALE
 40
1.0
  9
$DIMASZ
 40
0.2
  9
$DIMEXO
 40
0.125
  9
$DIMDLI
 40
0.375
  9
$DIMRND
 40
0.0
  9
$DIMDLE
 40
0.0
  9
$DIMEXE
 40
0.125
  9
$DIMTP
 40
0.0
  9
$DIMTM
 40
0.0
  9
$DIMTXT
 40
0.25
  9
$DIMCEN
 40
0.0
  9
$DIMTSZ
 40
0.0
  9
$DIMTOL
 70
     0
  9
$DIMLIM
 70
     0
  9
$DIMTIH
 70
     0
  9
$DIMTOH
 70
     0
  9
$DIMSE1
 70
     0
  9
$DIMSE2
 70
     0
  9
$DIMTAD
 70
     1
  9
$DIMZIN
 70
     3
  9
$DIMBLK
  1

  9
$DIMASO
 70
     1
  9
$DIMSHO
 70
     1
  9
$DIMPOST
  1

  9
$DIMAPOST
  1

  9
$DIMALT
 70
     0
  9
$DIMALTD
 70
     2
  9
$DIMALTF
 40
25.4
  9
$DIMLFAC
 40
1.0
  9
$DIMTOFL
 70
     0
  9
$DIMTVP
 40
0.0
  9
$DIMTIX
 70
     0
  9
$DIMSOXD
 70
     0
  9
$DIMSAH
 70
     0
  9
$DIMBLK1
  1

  9
$DIMBLK2
  1

  9
$DIMSTYLE
  2
STANDARD
  9
$DIMCLRD
 70
     0
  9
$DIMCLRE
 70
     0
  9
$DIMCLRT
 70
     0
  9
$DIMTFAC
 40
1.0
  9
$DIMGAP
 40
0.125
  9
$DIMJUST
 70
     0
  9
$DIMSD1
 70
     0
  9
$DIMSD2
 70
     0
  9
$DIMTOLJ
 70
     1
  9
$DIMTZIN
 70
     3
  9
$DIMALTZ
 70
     3
  9
$DIMALTTZ
 70
     3
  9
$DIMUPT
 70
     0
  9
$DIMDEC
 70
     5
  9
$DIMTDEC
 70
     5
  9
$DIMALTU
 70
     4
  9
$DIMALTTD
 70
     2
  9
$DIMTXSTY
  7
STANDARD
  9
$DIMAUNIT
 70
     0
  9
$DIMADEC
 70
     0
  9
$DIMALTRND
 40
0.0
  9
$DIMAZIN
 70
     0
  9
$DIMDSEP
 70
    46
  9
$DIMATFIT
 70
     0
  9
$DIMFRAC
 70
     2
  9
$DIMLDRBLK
  1

  9
$DIMLUNIT
 70
     4
  9
$DIMLWD
 70
    -2
  9
$DIMLWE
 70
    -2
  9
$DIMTMOVE
 70
     0
  9
$LUNITS
 70
     2
  9
$LUPREC
 70
     5
  9
$SKETCHINC
 40
0.1
  9
$FILLETRAD
 40
0.0
  9
$AUNITS
 70
     0
  9
$AUPREC
 70
     0
  9
$MENU
  1
ACAD
  9
$ELEVATION
 40
0.0
  9
$PELEVATION
 40
0.0
  9
$THICKNESS
 40
0.0
  9
$LIMCHECK
 70
     0
  9
$CHAMFERA
 40
0.0
  9
$CHAMFERB
 40
0.0
  9
$CHAMFERC
 40
0.0
  9
$CHAMFERD
 40
0.0
  9
$SKPOLY
 70
     0
  9
$TDCREATE
 40
2450777.537570949
  9
$TDUCREATE
 40
2450777.745904282
  9
$TDUPDATE
 40
2457807.530923032
  9
$TDUUPDATE
 40
2457807.739256366
  9
$TDINDWG
 40
0.8027794560
  9
$TDUSRTIMER
 40
0.8027794560
  9
$USRTIMER
 70
     1
  9
$ANGBASE
 50
0.0
  9
$ANGDIR
 70
     0
  9
$PDMODE
 70
     0
  9
$PDSIZE
 40
0.0
  9
$PLINEWID
 40
0.0
  9
$SPLFRAME
 70
     0
  9
$SPLINETYPE
 70
     6
  9
$SPLINESEGS
 70
     8
  9
$HANDSEED
  5
888A
  9
$SURFTAB1
 70
     6
  9
$SURFTAB2
 70
     6
  9
$SURFTYPE
 70
     6
  9
$SURFU
 70
     6
  9
$SURFV
 70
     6
  9
$UCSBASE
  2

  9
$UCSNAME
  2

  9
$UCSORG
 10
0.0
 20
0.0
 30
0.0
  9
$UCSXDIR
 10
1.0
 20
0.0
 30
0.0
  9
$UCSYDIR
 10
0.0
 20
1.0
 30
0.0
  9
$UCSORTHOREF
  2

  9
$UCSORTHOVIEW
 70
     0
  9
$UCSORGTOP
 10
0.0
 20
0.0
 30
0.0
  9
$UCSORGBOTTOM
 10
0.0
 20
0.0
 30
0.0
  9
$UCSORGLEFT
 10
0.0
 20
0.0
 30
0.0
  9
$UCSORGRIGHT
 10
0.0
 20
0.0
 30
0.0
  9
$UCSORGFRONT
 10
0.0
 20
0.0
 30
0.0
  9
$UCSORGBACK
 10
0.0
 20
0.0
 30
0.0
  9
$PUCSBASE
  2

  9
$PUCSNAME
  2

  9
$PUCSORG
 10
0.0
 20
0.0
 30
0.0
  9
$PUCSXDIR
 10
1.0
 20
0.0
 30
0.0
  9
$PUCSYDIR
 10
0.0
 20
1.0
 30
0.0
  9
$PUCSORTHOREF
  2

  9
$PUCSORTHOVIEW
 70
     0
  9
$PUCSORGTOP
 10
0.0
 20
0.0
 30
0.0
  9
$PUCSORGBOTTOM
 10
0.0
 20
0.0
 30
0.0
  9
$PUCSORGLEFT
 10
0.0
 20
0.0
 30
0.0
  9
$PUCSORGRIGHT
 10
0.0
 20
0.0
 30
0.0
  9
$PUCSORGFRONT
 10
0.0
 20
0.0
 30
0.0
  9
$PUCSORGBACK
 10
0.0
 20
0.0
 30
0.0
  9
$USERI1
 70
     0
  9
$USERI2
 70
     0
  9
$USERI3
 70
     0
  9
$USERI4
 70
     0
  9
$USERI5
 70
     0
  9
$USERR1
 40
0.0
  9
$USERR2
 40
0.0
  9
$USERR3
 40
0.0
  9
$USERR4
 40
0.0
  9
$USERR5
 40
0.0
  9
$WORLDVIEW
 70
     1
  9
$SHADEDGE
 70
     3
  9
$SHADEDIF
 70
    70
  9
$TILEMODE
 70
     1
  9
$MAXACTVP
 70
    16
  9
$PINSBASE
 10
0.0
 20
0.0
 30
0.0
  9
$PLIMCHECK
 70
     0
  9
$PEXTMIN
 10
1.000000000000000E+20
 20
1.000000000000000E+20
 30
1.000000000000000E+20
  9
$PEXTMAX
 10
-1.000000000000000E+20
 20
-1.000000000000000E+20
 30
-1.000000000000000E+20
  9
$PLIMMIN
 10
0.0
 20
0.0
  9
$PLIMMAX
 10
12.0
 20
9.0
  9
$UNITMODE
 70
     0
  9
$VISRETAIN
 70
     0
  9
$PLINEGEN
 70
     0
  9
$PSLTSCALE
 70
     1
  9
$TREEDEPTH
 70
  3020
  9
$CMLSTYLE
  2
STANDARD
  9
$CMLJUST
 70
     0
  9
$CMLSCALE
 40
1.0
  9
$PROXYGRAPHICS
 70
     1
  9
$MEASUREMENT
 70
     0
  9
$CELWEIGHT
370
    -1
  9
$ENDCAPS
280
     0
  9
$JOINSTYLE
280
     0
  9
$LWDISPLAY
290
     0
  9
$INSUNITS
 70
     0
  9
$HYPERLINKBASE
  1

  9
$STYLESHEET
  1
monochrome.ctb
  9
$XEDIT
290
     1
  9
$CEPSNTYPE
380
     0
  9
$PSTYLEMODE
290
     1
  9
$FINGERPRINTGUID
  2
{AFB9463B-F323-4607-850C-DC68DBB64F67}
  9
$VERSIONGUID
  2
{42D5EA1B-DF15-400C-BAC9-7A4EEA730C14}
  9
$EXTNAMES
290
     1
  9
$PSVPSCALE
 40
0.0
  9
$OLESTARTUP
290
     0
  0
ENDSEC
  0
SECTION
  2
CLASSES
  0
CLASS
  1
DICTIONARYVAR
  2
AcDbDictionaryVar
  3
ObjectDBX Classes
 90
        0
280
     0
281
     0
  0
CLASS
  1
ACDBDICTIONARYWDFLT
  2
AcDbDictionaryWithDefault
  3
ObjectDBX Classes
 90
        0
280
     0
281
     0
  0
CLASS
  1
ACDBPLACEHOLDER
  2
AcDbPlaceHolder
  3
ObjectDBX Classes
 90
        0
280
     0
281
     0
  0
CLASS
  1
LAYOUT
  2
AcDbLayout
  3
ObjectDBX Classes
 90
        0
280
     0
281
     0
  0
CLASS
  1
MATERIAL
  2
AcDbMaterial
  3
ObjectDBX Classes
 90
     1153
280
     0
281
     0
  0
CLASS
  1
VISUALSTYLE
  2
AcDbVisualStyle
  3
ObjectDBX Classes
 90
     4095
280
     0
281
     0
  0
CLASS
  1
TABLESTYLE
  2
AcDbTableStyle
  3
ObjectDBX Classes
 90
     4095
280
     0
281
     0
  0
CLASS
  1
SCALE
  2
AcDbScale
  3
ObjectDBX Classes
 90
     1153
280
     0
281
     0
  0
CLASS
  1
MLEADERSTYLE
  2
AcDbMLeaderStyle
  3
ACDB_MLEADERSTYLE_CLASS
 90
     4095
280
     0
281
     0
  0
CLASS
  1
SORTENTSTABLE
  2
AcDbSortentsTable
  3
ObjectDBX Classes
 90
        0
280
     0
281
     0
  0
CLASS
  1
CELLSTYLEMAP
  2
AcDbCellStyleMap
  3
ObjectDBX Classes
 90
     1152
280
     0
281
     0
  0
CLASS
  1
EXACXREFPANELOBJECT
  2
ExAcXREFPanelObject
  3
EXAC_ESW
 90
     1025
280
     0
281
     0
  0
CLASS
  1
NPOCOLLECTION
  2
AcDbImpNonPersistentObjectsCollection
  3
ObjectDBX Classes
 90
     1153
280
     0
281
     0
  0
CLASS
  1
FIELD
  2
AcDbField
  3
ObjectDBX Classes
 90
    33920
280
     0
281
     0
  0
CLASS
  1
FIELDLIST
  2
AcDbFieldList
  3
ObjectDBX Classes
 90
     1152
280
     0
281
     0
  0
ENDSEC
  0
SECTION
  2
TABLES
  0
TABLE
  2
VPORT
  5
8
102
{ACAD_XDICTIONARY
360
82AD
102
}
330
0
100
AcDbSymbolTable
 70
     1
  0
VPORT
  5
81EA
330
8
100
AcDbSymbolTableRecord
100
AcDbViewportTableRecord
  2
*Active
 70
     0
 10
0.0
 20
0.0
 11
1.0
 21
1.0
 12
47.16906731316629
 22
21.08008501418487
 13
0.0
 23
0.0
 14
1.0
 24
1.0
 15
0.0
 25
0.0
 16
0.0
 26
0.0
 36
1.0
 17
0.0
 27
0.0
 37
0.0
 40
42.54982914261732
 41
2.681260945709281
 42
50.0
 43
0.0
 44
0.0
 50
0.0
 51
0.0
 71
     0
 72
  2000
 73
     1
 74
     0
 75
     0
 76
     0
 77
     0
 78
     0
281
     0
 65
     1
110
0.0
120
0.0
130
0.0
111
1.0
121
0.0
131
0.0
112
0.0
122
1.0
132
0.0
 79
     0
146
0.0
1001
ACAD_NAV_VCDISPLAY
1070
     3
  0
ENDTAB
  0
TABLE
  2
LTYPE
  5
5
330
0
100
AcDbSymbolTable
 70
     5
  0
LTYPE
  5
11
330
5
100
AcDbSymbolTableRecord
100
AcDbLinetypeTableRecord
  2
BYBLOCK
 70
     0
  3

 72
    65
 73
     0
 40
0.0
  0
LTYPE
  5
12
330
5
100
AcDbSymbolTableRecord
100
AcDbLinetypeTableRecord
  2
BYLAYER
 70
     0
  3

 72
    65
 73
     0
 40
0.0
  0
LTYPE
  5
13
330
5
100
AcDbSymbolTableRecord
100
AcDbLinetypeTableRecord
  2
CONTINUOUS
 70
     0
  3
Solid line
 72
    65
 73
     0
 40
0.0
  0
LTYPE
  5
659A
330
5
100
AcDbSymbolTableRecord
100
AcDbLinetypeTableRecord
  2
CENTER
 70
     0
  3
____ _ ____ _ ____ _ ____ _ ____ _ ____ _ ____ 
 72
    65
 73
     4
 40
2.0
 49
1.25
 74
     0
 49
-0.25
 74
     0
 49
0.25
 74
     0
 49
-0.25
 74
     0
  0
LTYPE
  5
6BFA
330
5
100
AcDbSymbolTableRecord
100
AcDbLinetypeTableRecord
  2
HIDDEN
 70
     0
  3
__ __ __ __ __ __ __ __ __ __ __ __ __ __ __ __
 72
    65
 73
     2
 40
0.375
 49
0.25
 74
     0
 49
-0.125
 74
     0
  0
LTYPE
  5
8799
330
5
100
AcDbSymbolTableRecord
100
AcDbLinetypeTableRecord
  2
DASHED
 70
     0
  3
Dashed __ __ __ __ __ __ __ __ __ __ __ __ __ _
 72
    65
 73
     2
 40
0.75
 49
0.5
 74
     0
 49
-0.25
 74
     0
  0
LTYPE
  5
879A
330
5
100
AcDbSymbolTableRecord
100
AcDbLinetypeTableRecord
  2
DOT
 70
     0
  3
Dot . . . . . . . . . . . . . . . . . . . . . .
 72
    65
 73
     2
 40
0.25
 49
0.0
 74
     0
 49
-0.25
 74
     0
  0
ENDTAB
  0
TABLE
  2
LAYER
  5
2
102
{ACAD_XDICTIONARY
360
828C
102
}
330
0
100
AcDbSymbolTable
 70
     9
  0
LAYER
  5
E
102
{ACAD_XDICTIONARY
360
829C
102
}
330
2
100
AcDbSymbolTableRecord
100
AcDbLayerTableRecord
  2
0
 70
     0
 62
     7
  6
CONTINUOUS
370
    -3
390
485B
  0
LAYER
  5
65A3
102
{ACAD_XDICTIONARY
360
829E
102
}
330
2
100
AcDbSymbolTableRecord
100
AcDbLayerTableRecord
  2
R-SWTS-DET1
 70
     0
 62
     1
  6
CONTINUOUS
370
    -3
390
485B
  0
LAYER
  5
65A4
102
{ACAD_XDICTIONARY
360
82A0
102
}
330
2
100
AcDbSymbolTableRecord
100
AcDbLayerTableRecord
  2
PART_NUMBERS
 70
     0
 62
     6
  6
CONTINUOUS
370
    -3
390
485B
  0
LAYER
  5
65A5
102
{ACAD_XDICTIONARY
360
82A2
102
}
330
2
100
AcDbSymbolTableRecord
100
AcDbLayerTableRecord
  2
R-ANNO-DIMS
 70
     0
 62
     3
  6
CONTINUOUS
370
    -3
390
485B
  0
LAYER
  5
65A6
102
{ACAD_XDICTIONARY
360
82A4
102
}
330
2
100
AcDbSymbolTableRecord
100
AcDbLayerTableRecord
  2
R-SWTS-DET2
 70
     0
 62
     4
  6
CONTINUOUS
370
    -3
390
485B
  0
LAYER
  5
65A7
102
{ACAD_XDICTIONARY
360
82A6
102
}
330
2
100
AcDbSymbolTableRecord
100
AcDbLayerTableRecord
  2
R-SWTS-DET3
 70
     0
 62
     5
  6
CONTINUOUS
370
    -3
390
485B
  0
LAYER
  5
6BFE
330
2
100
AcDbSymbolTableRecord
100
AcDbLayerTableRecord
  2
DEFPOINTS
 70
     0
 62
     7
  6
CONTINUOUS
290
     0
370
    -3
390
485B
  0
LAYER
  5
8306
102
{ACAD_XDICTIONARY
360
8307
102
}
330
2
100
AcDbSymbolTableRecord
100
AcDbLayerTableRecord
  2
TEXT
 70
     0
 62
     3
  6
CONTINUOUS
370
    -3
390
485B
  0
LAYER
  5
879B
330
2
100
AcDbSymbolTableRecord
100
AcDbLayerTableRecord
  2
Kawneer Logo-English
 70
     0
 62
     7
  6
CONTINUOUS
370
    -3
390
485B
1001
AcAecLayerStandard
1000

1000

1001
AcCmTransparency
1071
        0
  0
ENDTAB
  0
TABLE
  2
STYLE
  5
3
330
0
100
AcDbSymbolTable
 70
     1
  0
STYLE
  5
F
330
3
100
AcDbSymbolTableRecord
100
AcDbTextStyleTableRecord
  2
STANDARD
 70
     0
 40
0.0
 41
1.0
 50
0.0
 71
     0
 42
0.25
  3
arial.ttf
  4

1001
ACAD
1000
Arial
1071
       34
  0
ENDTAB
  0
TABLE
  2
VIEW
  5
6
330
0
100
AcDbSymbolTable
 70
     0
  0
ENDTAB
  0
TABLE
  2
UCS
  5
7
330
0
100
AcDbSymbolTable
 70
     0
  0
ENDTAB
  0
TABLE
  2
APPID
  5
9
330
0
100
AcDbSymbolTable
 70
    16
  0
APPID
  5
10
330
9
100
AcDbSymbolTableRecord
100
AcDbRegAppTableRecord
  2
ACAD
 70
     0
  0
APPID
  5
4AF6
330
9
100
AcDbSymbolTableRecord
100
AcDbRegAppTableRecord
  2
MCAD_NO_VIS
 70
     0
  0
APPID
  5
830A
330
9
100
AcDbSymbolTableRecord
100
AcDbRegAppTableRecord
  2
ACAD_NAV_VCDISPLAY
 70
     0
  0
APPID
  5
879C
330
9
100
AcDbSymbolTableRecord
100
AcDbRegAppTableRecord
  2
ACAD_EXEMPT_FROM_CAD_STANDARDS
 70
     0
  0
APPID
  5
879D
330
9
100
AcDbSymbolTableRecord
100
AcDbRegAppTableRecord
  2
GradientColor1ACI
 70
     0
  0
APPID
  5
879E
330
9
100
AcDbSymbolTableRecord
100
AcDbRegAppTableRecord
  2
GradientColor2ACI
 70
     0
  0
APPID
  5
879F
330
9
100
AcDbSymbolTableRecord
100
AcDbRegAppTableRecord
  2
ACAD_MLEADERVER
 70
     0
  0
APPID
  5
87A0
330
9
100
AcDbSymbolTableRecord
100
AcDbRegAppTableRecord
  2
ACAD_PSEXT
 70
     0
  0
APPID
  5
87A1
330
9
100
AcDbSymbolTableRecord
100
AcDbRegAppTableRecord
  2
ACAD_DSTYLE_DIMJAG
 70
     0
  0
APPID
  5
87A2
330
9
100
AcDbSymbolTableRecord
100
AcDbRegAppTableRecord
  2
ACAD_DSTYLE_DIMTALN
 70
     0
  0
APPID
  5
87A3
330
9
100
AcDbSymbolTableRecord
100
AcDbRegAppTableRecord
  2
ACAD_DSTYLE_DIMBREAK
 70
     0
  0
APPID
  5
87A4
330
9
100
AcDbSymbolTableRecord
100
AcDbRegAppTableRecord
  2
AcDbDynamicBlockGUID
 70
     0
  0
APPID
  5
87A5
330
9
100
AcDbSymbolTableRecord
100
AcDbRegAppTableRecord
  2
ACAUTHENVIRON
 70
     0
  0
APPID
  5
87A6
330
9
100
AcDbSymbolTableRecord
100
AcDbRegAppTableRecord
  2
AcDbDynamicBlockTrueName
 70
     0
  0
APPID
  5
87A7
330
9
100
AcDbSymbolTableRecord
100
AcDbRegAppTableRecord
  2
AcAecLayerStandard
 70
     0
  0
APPID
  5
87A8
330
9
100
AcDbSymbolTableRecord
100
AcDbRegAppTableRecord
  2
AcCmTransparency
 70
     0
  0
ENDTAB
  0
TABLE
  2
DIMSTYLE
  5
A
330
0
100
AcDbSymbolTable
 70
     4
100
AcDbDimStyleTable
 71
     1
340
26C
  0
DIMSTYLE
105
26C
102
{ACAD_REACTORS
330
8145
102
}
330
A
100
AcDbSymbolTableRecord
100
AcDbDimStyleTableRecord
  2
STANDARD
 70
     0
340
F
  0
DIMSTYLE
105
6C04
102
{ACAD_REACTORS
330
780A
330
7812
330
7814
330
7851
330
7853
330
7854
330
7866
330
786A
330
786B
330
786C
330
786D
102
}
330
A
100
AcDbSymbolTableRecord
100
AcDbDimStyleTableRecord
  2
SHOP_DETAILS_NORCROSS
 70
     0
  3
"
 41
0.2
 42
0.125
 43
0.375
 44
0.125
 73
     0
 74
     0
 76
     1
 77
     1
 78
     1
140
0.25
141
0.0
147
0.062
176
   256
177
   256
178
   256
276
     2
277
     5
284
     1
340
F
  0
DIMSTYLE
105
6C05
102
{ACAD_REACTORS
330
77EA
330
77EB
330
77EC
330
77ED
330
77F1
330
77F2
330
782C
330
782E
330
782F
330
7830
330
7832
330
7837
330
7839
102
}
330
A
100
AcDbSymbolTableRecord
100
AcDbDimStyleTableRecord
  2
NSD1$0
 70
     0
  3
"
 41
0.2
 42
0.125
 43
0.375
 44
0.125
 73
     0
 74
     0
 76
     1
 77
     1
 78
     1
140
0.25
141
0.0
147
0.062
176
   256
177
   256
178
   256
276
     2
277
     5
284
     1
340
F
  0
DIMSTYLE
105
6C06
102
{ACAD_REACTORS
330
77E7
102
}
330
A
100
AcDbSymbolTableRecord
100
AcDbDimStyleTableRecord
  2
NSD2$0
 70
     0
  3
"
 41
0.2
 42
0.125
 43
0.375
 44
0.125
 73
     0
 74
     0
 77
     1
 78
     1
140
0.25
141
0.0
147
0.062
176
   256
177
   256
178
   256
276
     2
277
     5
284
     1
340
F
  0
ENDTAB
  0
TABLE
  2
BLOCK_RECORD
  5
1
330
0
100
AcDbSymbolTable
 70
    27
  0
BLOCK_RECORD
  5
17
102
{ACAD_XDICTIONARY
360
4A11
102
}
330
1
100
AcDbSymbolTableRecord
100
AcDbBlockTableRecord
  2
*MODEL_SPACE
340
485E
  0
BLOCK_RECORD
  5
14
102
{ACAD_XDICTIONARY
360
4A0F
102
}
330
1
100
AcDbSymbolTableRecord
100
AcDbBlockTableRecord
  2
*PAPER_SPACE
340
485F
  0
BLOCK_RECORD
  5
788C
330
1
100
AcDbSymbolTableRecord
100
AcDbBlockTableRecord
  2
*D0
340
0
  0
BLOCK_RECORD
  5
7898
330
1
100
AcDbSymbolTableRecord
100
AcDbBlockTableRecord
  2
*D1
340
0
  0
BLOCK_RECORD
  5
78A3
330
1
100
AcDbSymbolTableRecord
100
AcDbBlockTableRecord
  2
*D2
340
0
  0
BLOCK_RECORD
  5
78AE
330
1
100
AcDbSymbolTableRecord
100
AcDbBlockTableRecord
  2
*D3
340
0
  0
BLOCK_RECORD
  5
78B9
330
1
100
AcDbSymbolTableRecord
100
AcDbBlockTableRecord
  2
*D4
340
0
  0
BLOCK_RECORD
  5
78C4
330
1
100
AcDbSymbolTableRecord
100
AcDbBlockTableRecord
  2
*D5
340
0
  0
BLOCK_RECORD
  5
78D0
330
1
100
AcDbSymbolTableRecord
100
AcDbBlockTableRecord
  2
*D6
340
0
  0
BLOCK_RECORD
  5
78E7
330
1
100
AcDbSymbolTableRecord
100
AcDbBlockTableRecord
  2
*D7
340
0
  0
BLOCK_RECORD
  5
78F2
330
1
100
AcDbSymbolTableRecord
100
AcDbBlockTableRecord
  2
*D8
340
0
  0
BLOCK_RECORD
  5
78FD
330
1
100
AcDbSymbolTableRecord
100
AcDbBlockTableRecord
  2
*D9
340
0
  0
BLOCK_RECORD
  5
7920
330
1
100
AcDbSymbolTableRecord
100
AcDbBlockTableRecord
  2
*D10
340
0
  0
BLOCK_RECORD
  5
792B
330
1
100
AcDbSymbolTableRecord
100
AcDbBlockTableRecord
  2
*D11
340
0
  0
BLOCK_RECORD
  5
7936
330
1
100
AcDbSymbolTableRecord
100
AcDbBlockTableRecord
  2
*D12
340
0
  0
BLOCK_RECORD
  5
7941
330
1
100
AcDbSymbolTableRecord
100
AcDbBlockTableRecord
  2
*D13
340
0
  0
BLOCK_RECORD
  5
794C
330
1
100
AcDbSymbolTableRecord
100
AcDbBlockTableRecord
  2
*D14
340
0
  0
BLOCK_RECORD
  5
7958
330
1
100
AcDbSymbolTableRecord
100
AcDbBlockTableRecord
  2
*D15
340
0
  0
BLOCK_RECORD
  5
7964
330
1
100
AcDbSymbolTableRecord
100
AcDbBlockTableRecord
  2
*D16
340
0
  0
BLOCK_RECORD
  5
796F
330
1
100
AcDbSymbolTableRecord
100
AcDbBlockTableRecord
  2
*D17
340
0
  0
BLOCK_RECORD
  5
797A
330
1
100
AcDbSymbolTableRecord
100
AcDbBlockTableRecord
  2
*D18
340
0
  0
BLOCK_RECORD
  5
7985
330
1
100
AcDbSymbolTableRecord
100
AcDbBlockTableRecord
  2
*D19
340
0
  0
BLOCK_RECORD
  5
7990
330
1
100
AcDbSymbolTableRecord
100
AcDbBlockTableRecord
  2
*D20
340
0
  0
BLOCK_RECORD
  5
799C
330
1
100
AcDbSymbolTableRecord
100
AcDbBlockTableRecord
  2
*D21
340
0
  0
BLOCK_RECORD
  5
79A7
330
1
100
AcDbSymbolTableRecord
100
AcDbBlockTableRecord
  2
*D22
340
0
  0
BLOCK_RECORD
  5
79B2
330
1
100
AcDbSymbolTableRecord
100
AcDbBlockTableRecord
  2
*D23
340
0
  0
BLOCK_RECORD
  5
79BD
330
1
100
AcDbSymbolTableRecord
100
AcDbBlockTableRecord
  2
*D24
340
0
  0
BLOCK_RECORD
  5
8146
330
1
100
AcDbSymbolTableRecord
100
AcDbBlockTableRecord
  2
*D25
340
0
  0
BLOCK_RECORD
  5
87AB
102
{ACAD_XDICTIONARY
360
87B5
102
}
330
1
100
AcDbSymbolTableRecord
100
AcDbBlockTableRecord
  2
Kawneer Logo English
340
0
102
{BLKREFS
331
87B9
102
}
1001
ACAD
1000
DesignCenter Data
1002
{
1070
     1
1070
     1
1002
}
  0
ENDTAB
  0
ENDSEC
  0
SECTION
  2
BLOCKS
  0
BLOCK
  5
3C
330
17
100
AcDbEntity
  8
0
100
AcDbBlockBegin
  2
*MODEL_SPACE
 70
     0
 10
0.0
 20
0.0
 30
0.0
  3
*MODEL_SPACE
  1

  0
ENDBLK
  5
3D
330
17
100
AcDbEntity
  8
0
100
AcDbBlockEnd
  0
BLOCK
  5
3A
330
14
100
AcDbEntity
 67
     1
  8
0
100
AcDbBlockBegin
  2
*PAPER_SPACE
 70
     0
 10
0.0
 20
0.0
 30
0.0
  3
*PAPER_SPACE
  1

  0
ENDBLK
  5
3B
330
14
100
AcDbEntity
 67
     1
  8
0
100
AcDbBlockEnd
  0
BLOCK
  5
7896
330
788C
100
AcDbEntity
  8
0
100
AcDbBlockBegin
  2
*D0
 70
     1
 10
0.0
 20
0.0
 30
0.0
  3
*D0
  1

  0
LINE
  5
7F5B
330
788C
100
AcDbEntity
  8
R-ANNO-DIMS
370
    -2
100
AcDbLine
 10
16.20616719892806
 20
33.95978143514891
 30
0.0
 11
16.20616719892806
 21
32.21256593385992
 31
0.0
  0
LINE
  5
7F5C
330
788C
100
AcDbEntity
  8
R-ANNO-DIMS
370
    -2
100
AcDbLine
 10
11.71616719892915
 20
33.9597814351489
 30
0.0
 11
11.71616719892915
 21
32.21256593385992
 31
0.0
  0
LINE
  5
7F5D
330
788C
100
AcDbEntity
  8
R-ANNO-DIMS
370
    -2
100
AcDbLine
 10
16.00616719892806
 20
32.33756593385992
 30
0.0
 11
11.91616719892915
 21
32.33756593385992
 31
0.0
  0
SOLID
  5
7F5E
330
788C
100
AcDbEntity
  8
R-ANNO-DIMS
100
AcDbTrace
 10
16.00616719892806
 20
32.37089926719325
 30
0.0
 11
16.00616719892806
 21
32.30423260052659
 31
0.0
 12
16.20616719892806
 22
32.33756593385992
 32
0.0
 13
16.20616719892806
 23
32.33756593385992
 33
0.0
  0
SOLID
  5
7F5F
330
788C
100
AcDbEntity
  8
R-ANNO-DIMS
100
AcDbTrace
 10
11.91616719892915
 20
32.37089926719325
 30
0.0
 11
11.91616719892915
 21
32.30423260052659
 31
0.0
 12
11.71616719892915
 22
32.33756593385992
 32
0.0
 13
11.71616719892915
 23
32.33756593385992
 33
0.0
  0
MTEXT
  5
7F60
330
788C
100
AcDbEntity
  8
R-ANNO-DIMS
100
AcDbMText
 10
13.96116719892861
 20
32.52456593385992
 30
0.0
 40
0.25
 41
0.0
 71
     5
 72
     1
  1
\A1;4 1/2"
 73
     1
 44
1.0
1001
ACAD
1000
MTEXTBEGIN
1070
    73
1070
     1
1070
    44
1040
1.0
1070
    74
1070
     0
1000
MTEXTEND
  0
POINT
  5
7F61
330
788C
100
AcDbEntity
  8
DEFPOINTS
 62
     0
100
AcDbPoint
 10
16.20616719892806
 20
34.08478143514891
 30
0.0
  0
POINT
  5
7F62
330
788C
100
AcDbEntity
  8
DEFPOINTS
 62
     0
100
AcDbPoint
 10
11.71616719892915
 20
34.0847814351489
 30
0.0
  0
POINT
  5
7F63
330
788C
100
AcDbEntity
  8
DEFPOINTS
 62
     0
100
AcDbPoint
 10
11.71616719892915
 20
32.33756593385992
 30
0.0
  0
ENDBLK
  5
7897
330
788C
100
AcDbEntity
  8
0
100
AcDbBlockEnd
  0
BLOCK
  5
78A1
330
7898
100
AcDbEntity
  8
0
100
AcDbBlockBegin
  2
*D1
 70
     1
 10
0.0
 20
0.0
 30
0.0
  3
*D1
  1

  0
LINE
  5
7F41
330
7898
100
AcDbEntity
  8
R-ANNO-DIMS
370
    -2
100
AcDbLine
 10
11.48141717627558
 20
36.09961793386376
 30
0.0
 11
9.843997176275552
 21
36.09961793386376
 31
0.0
  0
LINE
  5
7F42
330
7898
100
AcDbEntity
  8
R-ANNO-DIMS
370
    -2
100
AcDbLine
 10
9.96899717627555
 20
35.89961793386376
 30
0.0
 11
9.96899717627555
 21
34.2847814351489
 31
0.0
  0
SOLID
  5
7F43
330
7898
100
AcDbEntity
  8
R-ANNO-DIMS
100
AcDbTrace
 10
9.935663842942217
 20
35.89961793386376
 30
0.0
 11
10.00233050960888
 21
35.89961793386376
 31
0.0
 12
9.968997176275552
 22
36.09961793386376
 32
0.0
 13
9.968997176275552
 23
36.09961793386376
 33
0.0
  0
SOLID
  5
7F44
330
7898
100
AcDbEntity
  8
R-ANNO-DIMS
100
AcDbTrace
 10
9.935663842942217
 20
34.2847814351489
 30
0.0
 11
10.00233050960888
 21
34.2847814351489
 31
0.0
 12
9.96899717627555
 22
34.0847814351489
 32
0.0
 13
9.96899717627555
 23
34.0847814351489
 33
0.0
  0
MTEXT
  5
7F45
330
7898
100
AcDbEntity
  8
R-ANNO-DIMS
100
AcDbMText
 10
9.781997176275545
 20
35.09219968450633
 30
0.0
 40
0.25
 41
0.0
 71
     5
 72
     1
  1
\A1;DLO
 11
0.0000000000000001
 21
1.0
 31
0.0
 73
     1
 44
1.0
1001
ACAD
1000
MTEXTBEGIN
1070
    73
1070
     1
1070
    44
1040
1.0
1070
    74
1070
     0
1000
MTEXTEND
  0
POINT
  5
7F46
330
7898
100
AcDbEntity
  8
DEFPOINTS
 62
     0
100
AcDbPoint
 10
11.60641717627558
 20
36.09961793386376
 30
0.0
  0
POINT
  5
7F47
330
7898
100
AcDbEntity
  8
DEFPOINTS
 62
     0
100
AcDbPoint
 10
11.46401257223181
 20
34.0847814351489
 30
0.0
  0
POINT
  5
7F48
330
7898
100
AcDbEntity
  8
DEFPOINTS
 62
     0
100
AcDbPoint
 10
9.96899717627555
 20
34.0847814351489
 30
0.0
  0
ENDBLK
  5
78A2
330
7898
100
AcDbEntity
  8
0
100
AcDbBlockEnd
  0
BLOCK
  5
78AC
330
78A3
100
AcDbEntity
  8
0
100
AcDbBlockBegin
  2
*D2
 70
     1
 10
0.0
 20
0.0
 30
0.0
  3
*D2
  1

  0
LINE
  5
7F39
330
78A3
100
AcDbEntity
  8
R-ANNO-DIMS
370
    -2
100
AcDbLine
 10
11.47141717627559
 20
38.09861793385996
 30
0.0
 11
8.593997176275552
 21
38.09861793385996
 31
0.0
  0
LINE
  5
7F3A
330
78A3
100
AcDbEntity
  8
R-ANNO-DIMS
370
    -2
100
AcDbLine
 10
8.718997176275552
 20
37.89861793385995
 30
0.0
 11
8.71899717627555
 21
34.2847814351489
 31
0.0
  0
SOLID
  5
7F3B
330
78A3
100
AcDbEntity
  8
R-ANNO-DIMS
100
AcDbTrace
 10
8.685663842942219
 20
37.89861793385995
 30
0.0
 11
8.752330509608885
 21
37.89861793385995
 31
0.0
 12
8.718997176275552
 22
38.09861793385996
 32
0.0
 13
8.718997176275552
 23
38.09861793385996
 33
0.0
  0
SOLID
  5
7F3C
330
78A3
100
AcDbEntity
  8
R-ANNO-DIMS
100
AcDbTrace
 10
8.685663842942217
 20
34.2847814351489
 30
0.0
 11
8.752330509608883
 21
34.2847814351489
 31
0.0
 12
8.71899717627555
 22
34.0847814351489
 32
0.0
 13
8.71899717627555
 23
34.0847814351489
 33
0.0
  0
MTEXT
  5
7F3D
330
78A3
100
AcDbEntity
  8
R-ANNO-DIMS
100
AcDbMText
 10
8.531997176275545
 20
36.09169968450443
 30
0.0
 40
0.25
 41
0.0
 71
     5
 72
     1
  1
\A1;FH
 11
0.0000000000000001
 21
1.0
 31
0.0
 73
     1
 44
1.0
1001
ACAD
1000
MTEXTBEGIN
1070
    73
1070
     1
1070
    44
1040
1.0
1070
    74
1070
     0
1000
MTEXTEND
  0
POINT
  5
7F3E
330
78A3
100
AcDbEntity
  8
DEFPOINTS
 62
     0
100
AcDbPoint
 10
11.59641717627559
 20
38.09861793385996
 30
0.0
  0
POINT
  5
7F3F
330
78A3
100
AcDbEntity
  8
DEFPOINTS
 62
     0
100
AcDbPoint
 10
11.46401257223181
 20
34.0847814351489
 30
0.0
  0
POINT
  5
7F40
330
78A3
100
AcDbEntity
  8
DEFPOINTS
 62
     0
100
AcDbPoint
 10
8.71899717627555
 20
34.0847814351489
 30
0.0
  0
ENDBLK
  5
78AD
330
78A3
100
AcDbEntity
  8
0
100
AcDbBlockEnd
  0
BLOCK
  5
78B7
330
78AE
100
AcDbEntity
  8
0
100
AcDbBlockBegin
  2
*D3
 70
     1
 10
0.0
 20
0.0
 30
0.0
  3
*D3
  1

  0
LINE
  5
8134
330
78AE
100
AcDbEntity
  8
R-ANNO-DIMS
370
    -2
100
AcDbLine
 10
9.046216175302589
 20
38.34861793385996
 30
0.0
 11
7.968997176275552
 21
38.34861793385996
 31
0.0
  0
LINE
  5
8135
330
78AE
100
AcDbEntity
  8
R-ANNO-DIMS
370
    -2
100
AcDbLine
 10
8.093997176275552
 20
38.14861793385995
 30
0.0
 11
8.09399717627555
 21
34.2847814351489
 31
0.0
  0
SOLID
  5
8136
330
78AE
100
AcDbEntity
  8
R-ANNO-DIMS
100
AcDbTrace
 10
8.060663842942219
 20
38.14861793385995
 30
0.0
 11
8.127330509608885
 21
38.14861793385995
 31
0.0
 12
8.093997176275552
 22
38.34861793385996
 32
0.0
 13
8.093997176275552
 23
38.34861793385996
 33
0.0
  0
SOLID
  5
8137
330
78AE
100
AcDbEntity
  8
R-ANNO-DIMS
100
AcDbTrace
 10
8.060663842942217
 20
34.2847814351489
 30
0.0
 11
8.127330509608883
 21
34.2847814351489
 31
0.0
 12
8.09399717627555
 22
34.0847814351489
 32
0.0
 13
8.09399717627555
 23
34.0847814351489
 33
0.0
  0
MTEXT
  5
8138
330
78AE
100
AcDbEntity
  8
R-ANNO-DIMS
100
AcDbMText
 10
7.906997176275544
 20
36.21669968450443
 30
0.0
 40
0.25
 41
0.0
 71
     5
 72
     1
  1
\A1;OD
 11
0.0000000000000001
 21
1.0
 31
0.0
 73
     1
 44
1.0
1001
ACAD
1000
MTEXTBEGIN
1070
    73
1070
     1
1070
    44
1040
1.0
1070
    74
1070
     0
1000
MTEXTEND
  0
POINT
  5
8139
330
78AE
100
AcDbEntity
  8
DEFPOINTS
 62
     0
100
AcDbPoint
 10
9.171216175302589
 20
38.34861793385996
 30
0.0
  0
POINT
  5
813A
330
78AE
100
AcDbEntity
  8
DEFPOINTS
 62
     0
100
AcDbPoint
 10
11.46401257223181
 20
34.0847814351489
 30
0.0
  0
POINT
  5
813B
330
78AE
100
AcDbEntity
  8
DEFPOINTS
 62
     0
100
AcDbPoint
 10
8.09399717627555
 20
34.0847814351489
 30
0.0
  0
ENDBLK
  5
78B8
330
78AE
100
AcDbEntity
  8
0
100
AcDbBlockEnd
  0
BLOCK
  5
78C2
330
78B9
100
AcDbEntity
  8
0
100
AcDbBlockBegin
  2
*D4
 70
     1
 10
0.0
 20
0.0
 30
0.0
  3
*D4
  1

  0
LINE
  5
81D9
330
78B9
100
AcDbEntity
  8
R-ANNO-DIMS
370
    -2
100
AcDbLine
 10
9.691189955440933
 20
37.66111793385996
 30
0.0
 11
9.218997176275552
 21
37.66111793385996
 31
0.0
  0
LINE
  5
81DA
330
78B9
100
AcDbEntity
  8
R-ANNO-DIMS
370
    -2
100
AcDbLine
 10
9.343997176275552
 20
37.46111793385996
 30
0.0
 11
9.34399717627555
 21
34.2847814351489
 31
0.0
  0
SOLID
  5
81DB
330
78B9
100
AcDbEntity
  8
R-ANNO-DIMS
100
AcDbTrace
 10
9.310663842942219
 20
37.46111793385996
 30
0.0
 11
9.377330509608885
 21
37.46111793385996
 31
0.0
 12
9.343997176275552
 22
37.66111793385996
 32
0.0
 13
9.343997176275552
 23
37.66111793385996
 33
0.0
  0
SOLID
  5
81DC
330
78B9
100
AcDbEntity
  8
R-ANNO-DIMS
100
AcDbTrace
 10
9.310663842942217
 20
34.2847814351489
 30
0.0
 11
9.377330509608883
 21
34.2847814351489
 31
0.0
 12
9.34399717627555
 22
34.0847814351489
 32
0.0
 13
9.34399717627555
 23
34.0847814351489
 33
0.0
  0
MTEXT
  5
81DD
330
78B9
100
AcDbEntity
  8
R-ANNO-DIMS
100
AcDbMText
 10
9.156997176275545
 20
35.87294968450443
 30
0.0
 40
0.25
 41
0.0
 71
     5
 72
     1
  1
\A1;MH
 11
0.0000000000000001
 21
1.0
 31
0.0
 73
     1
 44
1.0
1001
ACAD
1000
MTEXTBEGIN
1070
    73
1070
     1
1070
    44
1040
1.0
1070
    74
1070
     0
1000
MTEXTEND
  0
POINT
  5
81DE
330
78B9
100
AcDbEntity
  8
DEFPOINTS
 62
     0
100
AcDbPoint
 10
9.816189955440933
 20
37.66111793385996
 30
0.0
  0
POINT
  5
81DF
330
78B9
100
AcDbEntity
  8
DEFPOINTS
 62
     0
100
AcDbPoint
 10
11.46401257223181
 20
34.0847814351489
 30
0.0
  0
POINT
  5
81E0
330
78B9
100
AcDbEntity
  8
DEFPOINTS
 62
     0
100
AcDbPoint
 10
9.34399717627555
 20
34.0847814351489
 30
0.0
  0
ENDBLK
  5
78C3
330
78B9
100
AcDbEntity
  8
0
100
AcDbBlockEnd
  0
BLOCK
  5
78CE
330
78C4
100
AcDbEntity
  8
0
100
AcDbBlockBegin
  2
*D5
 70
     1
 10
0.0
 20
0.0
 30
0.0
  3
*D5
  1

  0
LINE
  5
813C
330
78C4
100
AcDbEntity
  8
R-ANNO-DIMS
370
    -2
100
AcDbLine
 10
11.47141717627559
 20
38.09861793385996
 30
0.0
 11
8.593997176275557
 21
38.09861793385996
 31
0.0
  0
LINE
  5
813D
330
78C4
100
AcDbEntity
  8
R-ANNO-DIMS
370
    -2
100
AcDbLine
 10
8.718997176275557
 20
37.89861793385995
 30
0.0
 11
8.718997176275557
 21
37.69861793385996
 31
0.0
  0
LINE
  5
813E
330
78C4
100
AcDbEntity
  8
R-ANNO-DIMS
370
    -2
100
AcDbLine
 10
8.718997176275557
 20
38.54861793385996
 30
0.0
 11
8.718997176275557
 21
41.28928460052661
 31
0.0
  0
SOLID
  5
813F
330
78C4
100
AcDbEntity
  8
R-ANNO-DIMS
100
AcDbTrace
 10
8.685663842942224
 20
37.89861793385995
 30
0.0
 11
8.75233050960889
 21
37.89861793385995
 31
0.0
 12
8.718997176275557
 22
38.09861793385996
 32
0.0
 13
8.718997176275557
 23
38.09861793385996
 33
0.0
  0
SOLID
  5
8140
330
78C4
100
AcDbEntity
  8
R-ANNO-DIMS
100
AcDbTrace
 10
8.685663842942224
 20
38.54861793385996
 30
0.0
 11
8.75233050960889
 21
38.54861793385996
 31
0.0
 12
8.718997176275557
 22
38.34861793385996
 32
0.0
 13
8.718997176275557
 23
38.34861793385996
 33
0.0
  0
MTEXT
  5
8141
330
78C4
100
AcDbEntity
  8
R-ANNO-DIMS
100
AcDbMText
 10
8.531997176275551
 20
40.01895126719328
 30
0.0
 40
0.25
 41
0.0
 71
     5
 72
     1
  1
\A1;SHIM SPACE
 11
0.0000000000000001
 21
1.0
 31
0.0
 73
     1
 44
1.0
1001
ACAD
1000
MTEXTBEGIN
1070
    73
1070
     1
1070
    44
1040
1.0
1070
    74
1070
     0
1000
MTEXTEND
  0
POINT
  5
8142
330
78C4
100
AcDbEntity
  8
DEFPOINTS
 62
     0
100
AcDbPoint
 10
11.59641717627559
 20
38.09861793385996
 30
0.0
  0
POINT
  5
8143
330
78C4
100
AcDbEntity
  8
DEFPOINTS
 62
     0
100
AcDbPoint
 10
11.19039722158058
 20
38.34861793385996
 30
0.0
  0
POINT
  5
8144
330
78C4
100
AcDbEntity
  8
DEFPOINTS
 62
     0
100
AcDbPoint
 10
8.718997176275557
 20
38.34861793385996
 30
0.0
  0
ENDBLK
  5
78CF
330
78C4
100
AcDbEntity
  8
0
100
AcDbBlockEnd
  0
BLOCK
  5
78DA
330
78D0
100
AcDbEntity
  8
0
100
AcDbBlockBegin
  2
*D6
 70
     1
 10
0.0
 20
0.0
 30
0.0
  3
*D6
  1

  0
LINE
  5
81E1
330
78D0
100
AcDbEntity
  8
R-ANNO-DIMS
370
    -2
100
AcDbLine
 10
9.691189955440933
 20
37.66111793385996
 30
0.0
 11
9.218997176275557
 21
37.66111793385996
 31
0.0
  0
LINE
  5
81E2
330
78D0
100
AcDbEntity
  8
R-ANNO-DIMS
370
    -2
100
AcDbLine
 10
9.343997176275557
 20
37.46111793385996
 30
0.0
 11
9.343997176275557
 21
37.26111793385996
 31
0.0
  0
LINE
  5
81E3
330
78D0
100
AcDbEntity
  8
R-ANNO-DIMS
370
    -2
100
AcDbLine
 10
9.343997176275557
 20
38.29861793385996
 30
0.0
 11
9.343997176275557
 21
39.70595126719329
 31
0.0
  0
SOLID
  5
81E4
330
78D0
100
AcDbEntity
  8
R-ANNO-DIMS
100
AcDbTrace
 10
9.310663842942224
 20
37.46111793385996
 30
0.0
 11
9.37733050960889
 21
37.46111793385996
 31
0.0
 12
9.343997176275557
 22
37.66111793385996
 32
0.0
 13
9.343997176275557
 23
37.66111793385996
 33
0.0
  0
SOLID
  5
81E5
330
78D0
100
AcDbEntity
  8
R-ANNO-DIMS
100
AcDbTrace
 10
9.310663842942224
 20
38.29861793385996
 30
0.0
 11
9.37733050960889
 21
38.29861793385996
 31
0.0
 12
9.343997176275557
 22
38.09861793385996
 32
0.0
 13
9.343997176275557
 23
38.09861793385996
 33
0.0
  0
MTEXT
  5
81E6
330
78D0
100
AcDbEntity
  8
R-ANNO-DIMS
100
AcDbMText
 10
9.156997176275551
 20
39.10228460052663
 30
0.0
 40
0.25
 41
0.0
 71
     5
 72
     1
  1
\A1;7/16"
 11
0.0000000000000001
 21
1.0
 31
0.0
 73
     1
 44
1.0
1001
ACAD
1000
MTEXTBEGIN
1070
    73
1070
     1
1070
    44
1040
1.0
1070
    74
1070
     0
1000
MTEXTEND
  0
POINT
  5
81E7
330
78D0
100
AcDbEntity
  8
DEFPOINTS
 62
     0
100
AcDbPoint
 10
9.816189955440933
 20
37.66111793385996
 30
0.0
  0
POINT
  5
81E8
330
78D0
100
AcDbEntity
  8
DEFPOINTS
 62
     0
100
AcDbPoint
 10
11.59641717627559
 20
38.09861793385996
 30
0.0
  0
POINT
  5
81E9
330
78D0
100
AcDbEntity
  8
DEFPOINTS
 62
     0
100
AcDbPoint
 10
9.343997176275557
 20
38.09861793385996
 30
0.0
  0
ENDBLK
  5
78DB
330
78D0
100
AcDbEntity
  8
0
100
AcDbBlockEnd
  0
BLOCK
  5
78F0
330
78E7
100
AcDbEntity
  8
0
100
AcDbBlockBegin
  2
*D7
 70
     1
 10
0.0
 20
0.0
 30
0.0
  3
*D7
  1

  0
LINE
  5
7FB8
330
78E7
100
AcDbEntity
  8
R-ANNO-DIMS
370
    -2
100
AcDbLine
 10
11.65425568340027
 20
27.04899079389985
 30
0.0
 11
9.884417176275553
 21
27.04899079389985
 31
0.0
  0
LINE
  5
7FB9
330
78E7
100
AcDbEntity
  8
R-ANNO-DIMS
370
    -2
100
AcDbLine
 10
10.00941717627555
 20
27.24899079389985
 30
0.0
 11
10.00941717627555
 21
28.84931099148952
 31
0.0
  0
SOLID
  5
7FBA
330
78E7
100
AcDbEntity
  8
R-ANNO-DIMS
100
AcDbTrace
 10
9.97608384294222
 20
27.24899079389985
 30
0.0
 11
10.04275050960888
 21
27.24899079389985
 31
0.0
 12
10.00941717627555
 22
27.04899079389985
 32
0.0
 13
10.00941717627555
 23
27.04899079389985
 33
0.0
  0
SOLID
  5
7FBB
330
78E7
100
AcDbEntity
  8
R-ANNO-DIMS
100
AcDbTrace
 10
9.976083842942221
 20
28.84931099148952
 30
0.0
 11
10.04275050960889
 21
28.84931099148952
 31
0.0
 12
10.00941717627555
 22
29.04931099148952
 32
0.0
 13
10.00941717627555
 23
29.04931099148952
 33
0.0
  0
MTEXT
  5
7FBC
330
78E7
100
AcDbEntity
  8
R-ANNO-DIMS
100
AcDbMText
 10
9.82241717627555
 20
28.04915089269469
 30
0.0
 40
0.25
 41
0.0
 71
     5
 72
     1
  1
\A1;DLO
 11
0.0000000000000001
 21
1.0
 31
0.0
 73
     1
 44
1.0
1001
ACAD
1000
MTEXTBEGIN
1070
    73
1070
     1
1070
    44
1040
1.0
1070
    74
1070
     0
1000
MTEXTEND
  0
POINT
  5
7FBD
330
78E7
100
AcDbEntity
  8
DEFPOINTS
 62
     0
100
AcDbPoint
 10
11.77925568340027
 20
27.04899079389985
 30
0.0
  0
POINT
  5
7FBE
330
78E7
100
AcDbEntity
  8
DEFPOINTS
 62
     0
100
AcDbPoint
 10
11.50525568340027
 20
29.04931099148952
 30
0.0
  0
POINT
  5
7FBF
330
78E7
100
AcDbEntity
  8
DEFPOINTS
 62
     0
100
AcDbPoint
 10
10.00941717627555
 20
29.04931099148952
 30
0.0
  0
ENDBLK
  5
78F1
330
78E7
100
AcDbEntity
  8
0
100
AcDbBlockEnd
  0
BLOCK
  5
78FB
330
78F2
100
AcDbEntity
  8
0
100
AcDbBlockBegin
  2
*D8
 70
     1
 10
0.0
 20
0.0
 30
0.0
  3
*D8
  1

  0
LINE
  5
7FC0
330
78F2
100
AcDbEntity
  8
R-ANNO-DIMS
370
    -2
100
AcDbLine
 10
11.62041717627556
 20
25.04899079389985
 30
0.0
 11
9.884417176275555
 21
25.04899079389985
 31
0.0
  0
LINE
  5
7FC1
330
78F2
100
AcDbEntity
  8
R-ANNO-DIMS
370
    -2
100
AcDbLine
 10
10.00941717627555
 20
24.84899079389985
 30
0.0
 11
10.00941717627555
 21
23.24931099148952
 31
0.0
  0
SOLID
  5
7FC2
330
78F2
100
AcDbEntity
  8
R-ANNO-DIMS
100
AcDbTrace
 10
9.976083842942221
 20
24.84899079389985
 30
0.0
 11
10.04275050960889
 21
24.84899079389985
 31
0.0
 12
10.00941717627555
 22
25.04899079389985
 32
0.0
 13
10.00941717627555
 23
25.04899079389985
 33
0.0
  0
SOLID
  5
7FC3
330
78F2
100
AcDbEntity
  8
R-ANNO-DIMS
100
AcDbTrace
 10
9.976083842942221
 20
23.24931099148952
 30
0.0
 11
10.04275050960889
 21
23.24931099148952
 31
0.0
 12
10.00941717627555
 22
23.04931099148952
 32
0.0
 13
10.00941717627555
 23
23.04931099148952
 33
0.0
  0
MTEXT
  5
7FC4
330
78F2
100
AcDbEntity
  8
R-ANNO-DIMS
100
AcDbMText
 10
9.822417176275552
 20
24.04915089269469
 30
0.0
 40
0.25
 41
0.0
 71
     5
 72
     1
  1
\A1;DLO
 11
0.0000000000000001
 21
1.0
 31
0.0
 73
     1
 44
1.0
1001
ACAD
1000
MTEXTBEGIN
1070
    73
1070
     1
1070
    44
1040
1.0
1070
    74
1070
     0
1000
MTEXTEND
  0
POINT
  5
7FC5
330
78F2
100
AcDbEntity
  8
DEFPOINTS
 62
     0
100
AcDbPoint
 10
11.74541717627556
 20
25.04899079389985
 30
0.0
  0
POINT
  5
7FC6
330
78F2
100
AcDbEntity
  8
DEFPOINTS
 62
     0
100
AcDbPoint
 10
11.50525568340027
 20
23.04931099148952
 30
0.0
  0
POINT
  5
7FC7
330
78F2
100
AcDbEntity
  8
DEFPOINTS
 62
     0
100
AcDbPoint
 10
10.00941717627555
 20
23.04931099148952
 30
0.0
  0
ENDBLK
  5
78FC
330
78F2
100
AcDbEntity
  8
0
100
AcDbBlockEnd
  0
BLOCK
  5
7906
330
78FD
100
AcDbEntity
  8
0
100
AcDbBlockBegin
  2
*D9
 70
     1
 10
0.0
 20
0.0
 30
0.0
  3
*D9
  1

  0
LINE
  5
7FC8
330
78FD
100
AcDbEntity
  8
R-ANNO-DIMS
370
    -2
100
AcDbLine
 10
11.65425568340027
 20
27.04899079389985
 30
0.0
 11
9.884417176275555
 21
27.04899079389985
 31
0.0
  0
LINE
  5
7FC9
330
78FD
100
AcDbEntity
  8
R-ANNO-DIMS
370
    -2
100
AcDbLine
 10
10.00941717627555
 20
26.84899079389985
 30
0.0
 11
10.00941717627555
 21
25.24899079389985
 31
0.0
  0
SOLID
  5
7FCA
330
78FD
100
AcDbEntity
  8
R-ANNO-DIMS
100
AcDbTrace
 10
9.976083842942221
 20
26.84899079389985
 30
0.0
 11
10.04275050960889
 21
26.84899079389985
 31
0.0
 12
10.00941717627555
 22
27.04899079389985
 32
0.0
 13
10.00941717627555
 23
27.04899079389985
 33
0.0
  0
SOLID
  5
7FCB
330
78FD
100
AcDbEntity
  8
R-ANNO-DIMS
100
AcDbTrace
 10
9.976083842942221
 20
25.24899079389985
 30
0.0
 11
10.04275050960889
 21
25.24899079389985
 31
0.0
 12
10.00941717627555
 22
25.04899079389985
 32
0.0
 13
10.00941717627555
 23
25.04899079389985
 33
0.0
  0
MTEXT
  5
7FCC
330
78FD
100
AcDbEntity
  8
R-ANNO-DIMS
100
AcDbMText
 10
9.822417176275552
 20
26.04899079389985
 30
0.0
 40
0.25
 41
0.0
 71
     5
 72
     1
  1
\A1;2"
 11
0.0000000000000001
 21
1.0
 31
0.0
 73
     1
 44
1.0
1001
ACAD
1000
MTEXTBEGIN
1070
    73
1070
     1
1070
    44
1040
1.0
1070
    74
1070
     0
1000
MTEXTEND
  0
POINT
  5
7FCD
330
78FD
100
AcDbEntity
  8
DEFPOINTS
 62
     0
100
AcDbPoint
 10
11.77925568340027
 20
27.04899079389985
 30
0.0
  0
POINT
  5
7FCE
330
78FD
100
AcDbEntity
  8
DEFPOINTS
 62
     0
100
AcDbPoint
 10
11.74541717627556
 20
25.04899079389985
 30
0.0
  0
POINT
  5
7FCF
330
78FD
100
AcDbEntity
  8
DEFPOINTS
 62
     0
100
AcDbPoint
 10
10.00941717627555
 20
25.04899079389985
 30
0.0
  0
ENDBLK
  5
7907
330
78FD
100
AcDbEntity
  8
0
100
AcDbBlockEnd
  0
BLOCK
  5
7929
330
7920
100
AcDbEntity
  8
0
100
AcDbBlockBegin
  2
*D10
 70
     1
 10
0.0
 20
0.0
 30
0.0
  3
*D10
  1

  0
LINE
  5
800E
330
7920
100
AcDbEntity
  8
R-ANNO-DIMS
370
    -2
100
AcDbLine
 10
11.479177657586
 20
18.76873497860251
 30
0.0
 11
9.848205054101461
 21
18.76873497860251
 31
0.0
  0
LINE
  5
800F
330
7920
100
AcDbEntity
  8
R-ANNO-DIMS
370
    -2
100
AcDbLine
 10
9.973205054101461
 20
18.96873497860251
 30
0.0
 11
9.973205054101462
 21
20.5778194773174
 31
0.0
  0
SOLID
  5
8010
330
7920
100
AcDbEntity
  8
R-ANNO-DIMS
100
AcDbTrace
 10
9.939871720768127
 20
18.96873497860251
 30
0.0
 11
10.00653838743479
 21
18.96873497860251
 31
0.0
 12
9.973205054101461
 22
18.76873497860251
 32
0.0
 13
9.973205054101461
 23
18.76873497860251
 33
0.0
  0
SOLID
  5
8011
330
7920
100
AcDbEntity
  8
R-ANNO-DIMS
100
AcDbTrace
 10
9.939871720768129
 20
20.5778194773174
 30
0.0
 11
10.00653838743479
 21
20.5778194773174
 31
0.0
 12
9.973205054101462
 22
20.7778194773174
 32
0.0
 13
9.973205054101462
 23
20.7778194773174
 33
0.0
  0
MTEXT
  5
8012
330
7920
100
AcDbEntity
  8
R-ANNO-DIMS
100
AcDbMText
 10
9.78620505410146
 20
19.77327722795996
 30
0.0
 40
0.25
 41
0.0
 71
     5
 72
     1
  1
\A1;DLO
 11
0.0000000000000001
 21
1.0
 31
0.0
 73
     1
 44
1.0
1001
ACAD
1000
MTEXTBEGIN
1070
    73
1070
     1
1070
    44
1040
1.0
1070
    74
1070
     0
1000
MTEXTEND
  0
POINT
  5
8013
330
7920
100
AcDbEntity
  8
DEFPOINTS
 62
     0
100
AcDbPoint
 10
11.604177657586
 20
18.76873497860251
 30
0.0
  0
POINT
  5
8014
330
7920
100
AcDbEntity
  8
DEFPOINTS
 62
     0
100
AcDbPoint
 10
11.46822045005773
 20
20.7778194773174
 30
0.0
  0
POINT
  5
8015
330
7920
100
AcDbEntity
  8
DEFPOINTS
 62
     0
100
AcDbPoint
 10
9.973205054101462
 20
20.7778194773174
 30
0.0
  0
ENDBLK
  5
792A
330
7920
100
AcDbEntity
  8
0
100
AcDbBlockEnd
  0
BLOCK
  5
7934
330
792B
100
AcDbEntity
  8
0
100
AcDbBlockBegin
  2
*D11
 70
     1
 10
0.0
 20
0.0
 30
0.0
  3
*D11
  1

  0
LINE
  5
8187
330
792B
100
AcDbEntity
  8
R-ANNO-DIMS
370
    -2
100
AcDbLine
 10
9.047908914590323
 20
16.51973497860623
 30
0.0
 11
7.973205054101461
 21
16.51973497860623
 31
0.0
  0
LINE
  5
8188
330
792B
100
AcDbEntity
  8
R-ANNO-DIMS
370
    -2
100
AcDbLine
 10
8.098205054101461
 20
16.71973497860623
 30
0.0
 11
8.098205054101462
 21
20.5778194773174
 31
0.0
  0
SOLID
  5
8189
330
792B
100
AcDbEntity
  8
R-ANNO-DIMS
100
AcDbTrace
 10
8.064871720768127
 20
16.71973497860623
 30
0.0
 11
8.131538387434794
 21
16.71973497860623
 31
0.0
 12
8.098205054101461
 22
16.51973497860623
 32
0.0
 13
8.098205054101461
 23
16.51973497860623
 33
0.0
  0
SOLID
  5
818A
330
792B
100
AcDbEntity
  8
R-ANNO-DIMS
100
AcDbTrace
 10
8.064871720768129
 20
20.5778194773174
 30
0.0
 11
8.131538387434796
 21
20.5778194773174
 31
0.0
 12
8.098205054101462
 22
20.7778194773174
 32
0.0
 13
8.098205054101462
 23
20.7778194773174
 33
0.0
  0
MTEXT
  5
818B
330
792B
100
AcDbEntity
  8
R-ANNO-DIMS
100
AcDbMText
 10
7.911205054101458
 20
18.64877722796182
 30
0.0
 40
0.25
 41
0.0
 71
     5
 72
     1
  1
\A1;OD
 11
0.0000000000000001
 21
1.0
 31
0.0
 73
     1
 44
1.0
1001
ACAD
1000
MTEXTBEGIN
1070
    73
1070
     1
1070
    44
1040
1.0
1070
    74
1070
     0
1000
MTEXTEND
  0
POINT
  5
818C
330
792B
100
AcDbEntity
  8
DEFPOINTS
 62
     0
100
AcDbPoint
 10
9.172908914590323
 20
16.51973497860623
 30
0.0
  0
POINT
  5
818D
330
792B
100
AcDbEntity
  8
DEFPOINTS
 62
     0
100
AcDbPoint
 10
11.46822045005773
 20
20.7778194773174
 30
0.0
  0
POINT
  5
818E
330
792B
100
AcDbEntity
  8
DEFPOINTS
 62
     0
100
AcDbPoint
 10
8.098205054101462
 20
20.7778194773174
 30
0.0
  0
ENDBLK
  5
7935
330
792B
100
AcDbEntity
  8
0
100
AcDbBlockEnd
  0
BLOCK
  5
793F
330
7936
100
AcDbEntity
  8
0
100
AcDbBlockBegin
  2
*D12
 70
     1
 10
0.0
 20
0.0
 30
0.0
  3
*D12
  1

  0
LINE
  5
7FEC
330
7936
100
AcDbEntity
  8
R-ANNO-DIMS
370
    -2
100
AcDbLine
 10
11.46917765758601
 20
16.76973497860631
 30
0.0
 11
8.598205054101461
 21
16.76973497860631
 31
0.0
  0
LINE
  5
7FED
330
7936
100
AcDbEntity
  8
R-ANNO-DIMS
370
    -2
100
AcDbLine
 10
8.723205054101461
 20
16.96973497860631
 30
0.0
 11
8.723205054101462
 21
20.5778194773174
 31
0.0
  0
SOLID
  5
7FEE
330
7936
100
AcDbEntity
  8
R-ANNO-DIMS
100
AcDbTrace
 10
8.689871720768127
 20
16.96973497860631
 30
0.0
 11
8.756538387434794
 21
16.96973497860631
 31
0.0
 12
8.723205054101461
 22
16.76973497860631
 32
0.0
 13
8.723205054101461
 23
16.76973497860631
 33
0.0
  0
SOLID
  5
7FEF
330
7936
100
AcDbEntity
  8
R-ANNO-DIMS
100
AcDbTrace
 10
8.689871720768129
 20
20.5778194773174
 30
0.0
 11
8.756538387434796
 21
20.5778194773174
 31
0.0
 12
8.723205054101462
 22
20.7778194773174
 32
0.0
 13
8.723205054101462
 23
20.7778194773174
 33
0.0
  0
MTEXT
  5
7FF0
330
7936
100
AcDbEntity
  8
R-ANNO-DIMS
100
AcDbMText
 10
8.53620505410146
 20
18.77377722796186
 30
0.0
 40
0.25
 41
0.0
 71
     5
 72
     1
  1
\A1;FH
 11
0.0000000000000001
 21
1.0
 31
0.0
 73
     1
 44
1.0
1001
ACAD
1000
MTEXTBEGIN
1070
    73
1070
     1
1070
    44
1040
1.0
1070
    74
1070
     0
1000
MTEXTEND
  0
POINT
  5
7FF1
330
7936
100
AcDbEntity
  8
DEFPOINTS
 62
     0
100
AcDbPoint
 10
11.59417765758601
 20
16.76973497860631
 30
0.0
  0
POINT
  5
7FF2
330
7936
100
AcDbEntity
  8
DEFPOINTS
 62
     0
100
AcDbPoint
 10
11.46822045005773
 20
20.7778194773174
 30
0.0
  0
POINT
  5
7FF3
330
7936
100
AcDbEntity
  8
DEFPOINTS
 62
     0
100
AcDbPoint
 10
8.723205054101462
 20
20.7778194773174
 30
0.0
  0
ENDBLK
  5
7940
330
7936
100
AcDbEntity
  8
0
100
AcDbBlockEnd
  0
BLOCK
  5
794A
330
7941
100
AcDbEntity
  8
0
100
AcDbBlockBegin
  2
*D13
 70
     1
 10
0.0
 20
0.0
 30
0.0
  3
*D13
  1

  0
LINE
  5
8176
330
7941
100
AcDbEntity
  8
R-ANNO-DIMS
370
    -2
100
AcDbLine
 10
9.669747248484895
 20
16.89473497860631
 30
0.0
 11
9.223205054101461
 21
16.89473497860631
 31
0.0
  0
LINE
  5
8177
330
7941
100
AcDbEntity
  8
R-ANNO-DIMS
370
    -2
100
AcDbLine
 10
9.348205054101461
 20
17.09473497860631
 30
0.0
 11
9.348205054101462
 21
20.5778194773174
 31
0.0
  0
SOLID
  5
8178
330
7941
100
AcDbEntity
  8
R-ANNO-DIMS
100
AcDbTrace
 10
9.314871720768127
 20
17.09473497860631
 30
0.0
 11
9.381538387434794
 21
17.09473497860631
 31
0.0
 12
9.348205054101461
 22
16.89473497860631
 32
0.0
 13
9.348205054101461
 23
16.89473497860631
 33
0.0
  0
SOLID
  5
8179
330
7941
100
AcDbEntity
  8
R-ANNO-DIMS
100
AcDbTrace
 10
9.314871720768129
 20
20.5778194773174
 30
0.0
 11
9.381538387434796
 21
20.5778194773174
 31
0.0
 12
9.348205054101462
 22
20.7778194773174
 32
0.0
 13
9.348205054101462
 23
20.7778194773174
 33
0.0
  0
MTEXT
  5
817A
330
7941
100
AcDbEntity
  8
R-ANNO-DIMS
100
AcDbMText
 10
9.16120505410146
 20
18.83627722796186
 30
0.0
 40
0.25
 41
0.0
 71
     5
 72
     1
  1
\A1;MH
 11
0.0000000000000001
 21
1.0
 31
0.0
 73
     1
 44
1.0
1001
ACAD
1000
MTEXTBEGIN
1070
    73
1070
     1
1070
    44
1040
1.0
1070
    74
1070
     0
1000
MTEXTEND
  0
POINT
  5
817B
330
7941
100
AcDbEntity
  8
DEFPOINTS
 62
     0
100
AcDbPoint
 10
9.794747248484895
 20
16.89473497860631
 30
0.0
  0
POINT
  5
817C
330
7941
100
AcDbEntity
  8
DEFPOINTS
 62
     0
100
AcDbPoint
 10
11.46822045005773
 20
20.7778194773174
 30
0.0
  0
POINT
  5
817D
330
7941
100
AcDbEntity
  8
DEFPOINTS
 62
     0
100
AcDbPoint
 10
9.348205054101462
 20
20.7778194773174
 30
0.0
  0
ENDBLK
  5
794B
330
7941
100
AcDbEntity
  8
0
100
AcDbBlockEnd
  0
BLOCK
  5
7956
330
794C
100
AcDbEntity
  8
0
100
AcDbBlockBegin
  2
*D14
 70
     1
 10
0.0
 20
0.0
 30
0.0
  3
*D14
  1

  0
LINE
  5
816D
330
794C
100
AcDbEntity
  8
R-ANNO-DIMS
370
    -2
100
AcDbLine
 10
11.46917765758601
 20
16.76973497860631
 30
0.0
 11
8.598205054101464
 21
16.76973497860631
 31
0.0
  0
LINE
  5
816E
330
794C
100
AcDbEntity
  8
R-ANNO-DIMS
370
    -2
100
AcDbLine
 10
8.723205054101464
 20
16.96973497860631
 30
0.0
 11
8.723205054101464
 21
17.16973497860631
 31
0.0
  0
LINE
  5
816F
330
794C
100
AcDbEntity
  8
R-ANNO-DIMS
370
    -2
100
AcDbLine
 10
8.723205054101464
 20
16.31973497860623
 30
0.0
 11
8.723205054101464
 21
13.57906831193957
 31
0.0
  0
SOLID
  5
8170
330
794C
100
AcDbEntity
  8
R-ANNO-DIMS
100
AcDbTrace
 10
8.689871720768131
 20
16.96973497860631
 30
0.0
 11
8.756538387434797
 21
16.96973497860631
 31
0.0
 12
8.723205054101464
 22
16.76973497860631
 32
0.0
 13
8.723205054101464
 23
16.76973497860631
 33
0.0
  0
SOLID
  5
8171
330
794C
100
AcDbEntity
  8
R-ANNO-DIMS
100
AcDbTrace
 10
8.689871720768131
 20
16.31973497860623
 30
0.0
 11
8.756538387434797
 21
16.31973497860623
 31
0.0
 12
8.723205054101464
 22
16.51973497860623
 32
0.0
 13
8.723205054101464
 23
16.51973497860623
 33
0.0
  0
MTEXT
  5
8172
330
794C
100
AcDbEntity
  8
R-ANNO-DIMS
100
AcDbMText
 10
8.536205054101463
 20
14.8494016452729
 30
0.0
 40
0.25
 41
0.0
 71
     5
 72
     1
  1
\A1;SHIM SPACE
 11
0.0000000000000001
 21
1.0
 31
0.0
 73
     1
 44
1.0
1001
ACAD
1000
MTEXTBEGIN
1070
    73
1070
     1
1070
    44
1040
1.0
1070
    74
1070
     0
1000
MTEXTEND
  0
POINT
  5
8173
330
794C
100
AcDbEntity
  8
DEFPOINTS
 62
     0
100
AcDbPoint
 10
11.59417765758601
 20
16.76973497860631
 30
0.0
  0
POINT
  5
8174
330
794C
100
AcDbEntity
  8
DEFPOINTS
 62
     0
100
AcDbPoint
 10
11.19460509940651
 20
16.51973497860623
 30
0.0
  0
POINT
  5
8175
330
794C
100
AcDbEntity
  8
DEFPOINTS
 62
     0
100
AcDbPoint
 10
8.723205054101464
 20
16.51973497860623
 30
0.0
  0
ENDBLK
  5
7957
330
794C
100
AcDbEntity
  8
0
100
AcDbBlockEnd
  0
BLOCK
  5
7962
330
7958
100
AcDbEntity
  8
0
100
AcDbBlockBegin
  2
*D15
 70
     1
 10
0.0
 20
0.0
 30
0.0
  3
*D15
  1

  0
LINE
  5
817E
330
7958
100
AcDbEntity
  8
R-ANNO-DIMS
370
    -2
100
AcDbLine
 10
9.669747248484895
 20
16.89473497860631
 30
0.0
 11
9.223205054101464
 21
16.89473497860631
 31
0.0
  0
LINE
  5
817F
330
7958
100
AcDbEntity
  8
R-ANNO-DIMS
370
    -2
100
AcDbLine
 10
9.348205054101464
 20
17.09473497860631
 30
0.0
 11
9.348205054101464
 21
17.29473497860631
 31
0.0
  0
LINE
  5
8180
330
7958
100
AcDbEntity
  8
R-ANNO-DIMS
370
    -2
100
AcDbLine
 10
9.348205054101464
 20
16.56973497860631
 30
0.0
 11
9.348205054101464
 21
15.35092564985128
 31
0.0
  0
SOLID
  5
8181
330
7958
100
AcDbEntity
  8
R-ANNO-DIMS
100
AcDbTrace
 10
9.314871720768131
 20
17.09473497860631
 30
0.0
 11
9.381538387434797
 21
17.09473497860631
 31
0.0
 12
9.348205054101464
 22
16.89473497860631
 32
0.0
 13
9.348205054101464
 23
16.89473497860631
 33
0.0
  0
SOLID
  5
8182
330
7958
100
AcDbEntity
  8
R-ANNO-DIMS
100
AcDbTrace
 10
9.314871720768131
 20
16.56973497860631
 30
0.0
 11
9.381538387434797
 21
16.56973497860631
 31
0.0
 12
9.348205054101464
 22
16.76973497860631
 32
0.0
 13
9.348205054101464
 23
16.76973497860631
 33
0.0
  0
MTEXT
  5
8183
330
7958
100
AcDbEntity
  8
R-ANNO-DIMS
100
AcDbMText
 10
9.161205054101463
 20
15.82959231651795
 30
0.0
 40
0.25
 41
0.0
 71
     5
 72
     1
  1
\A1;1/8"
 11
0.0000000000000001
 21
1.0
 31
0.0
 73
     1
 44
1.0
1001
ACAD
1000
MTEXTBEGIN
1070
    73
1070
     1
1070
    44
1040
1.0
1070
    74
1070
     0
1000
MTEXTEND
  0
POINT
  5
8184
330
7958
100
AcDbEntity
  8
DEFPOINTS
 62
     0
100
AcDbPoint
 10
9.794747248484895
 20
16.89473497860631
 30
0.0
  0
POINT
  5
8185
330
7958
100
AcDbEntity
  8
DEFPOINTS
 62
     0
100
AcDbPoint
 10
11.59417765758601
 20
16.76973497860631
 30
0.0
  0
POINT
  5
8186
330
7958
100
AcDbEntity
  8
DEFPOINTS
 62
     0
100
AcDbPoint
 10
9.348205054101464
 20
16.76973497860631
 30
0.0
  0
ENDBLK
  5
7963
330
7958
100
AcDbEntity
  8
0
100
AcDbBlockEnd
  0
BLOCK
  5
796D
330
7964
100
AcDbEntity
  8
0
100
AcDbBlockBegin
  2
*D16
 70
     1
 10
0.0
 20
0.0
 30
0.0
  3
*D16
  1

  0
LINE
  5
7FDC
330
7964
100
AcDbEntity
  8
R-ANNO-DIMS
370
    -2
100
AcDbLine
 10
11.46917765758601
 20
16.76973497860631
 30
0.0
 11
9.848205054101464
 21
16.76973497860631
 31
0.0
  0
LINE
  5
7FDD
330
7964
100
AcDbEntity
  8
R-ANNO-DIMS
370
    -2
100
AcDbLine
 10
9.973205054101464
 20
16.96973497860631
 30
0.0
 11
9.973205054101464
 21
18.57568776137666
 31
0.0
  0
SOLID
  5
7FDE
330
7964
100
AcDbEntity
  8
R-ANNO-DIMS
100
AcDbTrace
 10
9.939871720768131
 20
16.96973497860631
 30
0.0
 11
10.0065383874348
 21
16.96973497860631
 31
0.0
 12
9.973205054101464
 22
16.76973497860631
 32
0.0
 13
9.973205054101464
 23
16.76973497860631
 33
0.0
  0
SOLID
  5
7FDF
330
7964
100
AcDbEntity
  8
R-ANNO-DIMS
100
AcDbTrace
 10
9.939871720768131
 20
18.57568776137666
 30
0.0
 11
10.0065383874348
 21
18.57568776137666
 31
0.0
 12
9.973205054101464
 22
18.77568776137666
 32
0.0
 13
9.973205054101464
 23
18.77568776137666
 33
0.0
  0
MTEXT
  5
7FE0
330
7964
100
AcDbEntity
  8
R-ANNO-DIMS
100
AcDbMText
 10
9.786205054101463
 20
17.86502594357107
 30
0.0
 40
0.25
 41
0.0
 71
     5
 72
     1
  1
\A1;2"
 11
0.0000000000000001
 21
1.0
 31
0.0
 73
     1
 44
1.0
1001
ACAD
1000
MTEXTBEGIN
1070
    73
1070
     1
1070
    44
1040
1.0
1070
    74
1070
     0
1000
MTEXTEND
  0
POINT
  5
7FE1
330
7964
100
AcDbEntity
  8
DEFPOINTS
 62
     0
100
AcDbPoint
 10
11.59417765758601
 20
16.76973497860631
 30
0.0
  0
POINT
  5
7FE2
330
7964
100
AcDbEntity
  8
DEFPOINTS
 62
     0
100
AcDbPoint
 10
11.74347765758605
 20
18.77568776137666
 30
0.0
  0
POINT
  5
7FE3
330
7964
100
AcDbEntity
  8
DEFPOINTS
 62
     0
100
AcDbPoint
 10
9.973205054101464
 20
18.77568776137666
 30
0.0
  0
ENDBLK
  5
796E
330
7964
100
AcDbEntity
  8
0
100
AcDbBlockEnd
  0
BLOCK
  5
7978
330
796F
100
AcDbEntity
  8
0
100
AcDbBlockBegin
  2
*D17
 70
     1
 10
0.0
 20
0.0
 30
0.0
  3
*D17
  1

  0
LINE
  5
80D4
330
796F
100
AcDbEntity
  8
R-ANNO-DIMS
370
    -2
100
AcDbLine
 10
48.57686151207936
 20
9.648485238233604
 30
0.0
 11
48.57686151207936
 21
7.936485238233615
 31
0.0
  0
LINE
  5
80D5
330
796F
100
AcDbEntity
  8
R-ANNO-DIMS
370
    -2
100
AcDbLine
 10
48.37686151207935
 20
8.061485238233615
 30
0.0
 11
46.77654131448968
 21
8.061485238233615
 31
0.0
  0
SOLID
  5
80D6
330
796F
100
AcDbEntity
  8
R-ANNO-DIMS
100
AcDbTrace
 10
48.37686151207935
 20
8.094818571566948
 30
0.0
 11
48.37686151207935
 21
8.028151904900282
 31
0.0
 12
48.57686151207936
 22
8.061485238233615
 32
0.0
 13
48.57686151207936
 23
8.061485238233615
 33
0.0
  0
SOLID
  5
80D7
330
796F
100
AcDbEntity
  8
R-ANNO-DIMS
100
AcDbTrace
 10
46.77654131448968
 20
8.094818571566948
 30
0.0
 11
46.77654131448968
 21
8.028151904900282
 31
0.0
 12
46.57654131448968
 22
8.061485238233615
 32
0.0
 13
46.57654131448968
 23
8.061485238233615
 33
0.0
  0
MTEXT
  5
80D8
330
796F
100
AcDbEntity
  8
R-ANNO-DIMS
100
AcDbMText
 10
47.57670141328452
 20
8.248485238233614
 30
0.0
 40
0.25
 41
0.0
 71
     5
 72
     1
  1
\A1;DLO
 73
     1
 44
1.0
1001
ACAD
1000
MTEXTBEGIN
1070
    73
1070
     1
1070
    44
1040
1.0
1070
    74
1070
     0
1000
MTEXTEND
  0
POINT
  5
80D9
330
796F
100
AcDbEntity
  8
DEFPOINTS
 62
     0
100
AcDbPoint
 10
48.57686151207936
 20
9.773485238233604
 30
0.0
  0
POINT
  5
80DA
330
796F
100
AcDbEntity
  8
DEFPOINTS
 62
     0
100
AcDbPoint
 10
46.57654131448968
 20
9.432323745358331
 30
0.0
  0
POINT
  5
80DB
330
796F
100
AcDbEntity
  8
DEFPOINTS
 62
     0
100
AcDbPoint
 10
46.57654131448968
 20
8.061485238233615
 30
0.0
  0
ENDBLK
  5
7979
330
796F
100
AcDbEntity
  8
0
100
AcDbBlockEnd
  0
BLOCK
  5
7983
330
797A
100
AcDbEntity
  8
0
100
AcDbBlockBegin
  2
*D18
 70
     1
 10
0.0
 20
0.0
 30
0.0
  3
*D18
  1

  0
LINE
  5
80DC
330
797A
100
AcDbEntity
  8
R-ANNO-DIMS
370
    -2
100
AcDbLine
 10
50.57686151207935
 20
9.648485238233604
 30
0.0
 11
50.57686151207935
 21
7.936485238233615
 31
0.0
  0
LINE
  5
80DD
330
797A
100
AcDbEntity
  8
R-ANNO-DIMS
370
    -2
100
AcDbLine
 10
50.77686151207935
 20
8.061485238233615
 30
0.0
 11
52.37654131448968
 21
8.061485238233615
 31
0.0
  0
SOLID
  5
80DE
330
797A
100
AcDbEntity
  8
R-ANNO-DIMS
100
AcDbTrace
 10
50.77686151207935
 20
8.094818571566948
 30
0.0
 11
50.77686151207935
 21
8.028151904900282
 31
0.0
 12
50.57686151207935
 22
8.061485238233615
 32
0.0
 13
50.57686151207935
 23
8.061485238233615
 33
0.0
  0
SOLID
  5
80DF
330
797A
100
AcDbEntity
  8
R-ANNO-DIMS
100
AcDbTrace
 10
52.37654131448968
 20
8.094818571566948
 30
0.0
 11
52.37654131448968
 21
8.028151904900282
 31
0.0
 12
52.57654131448968
 22
8.061485238233615
 32
0.0
 13
52.57654131448968
 23
8.061485238233615
 33
0.0
  0
MTEXT
  5
80E0
330
797A
100
AcDbEntity
  8
R-ANNO-DIMS
100
AcDbMText
 10
51.57670141328452
 20
8.248485238233614
 30
0.0
 40
0.25
 41
0.0
 71
     5
 72
     1
  1
\A1;DLO
 73
     1
 44
1.0
1001
ACAD
1000
MTEXTBEGIN
1070
    73
1070
     1
1070
    44
1040
1.0
1070
    74
1070
     0
1000
MTEXTEND
  0
POINT
  5
80E1
330
797A
100
AcDbEntity
  8
DEFPOINTS
 62
     0
100
AcDbPoint
 10
50.57686151207935
 20
9.773485238233604
 30
0.0
  0
POINT
  5
80E2
330
797A
100
AcDbEntity
  8
DEFPOINTS
 62
     0
100
AcDbPoint
 10
52.57654131448968
 20
9.432323745358331
 30
0.0
  0
POINT
  5
80E3
330
797A
100
AcDbEntity
  8
DEFPOINTS
 62
     0
100
AcDbPoint
 10
52.57654131448968
 20
8.061485238233615
 30
0.0
  0
ENDBLK
  5
7984
330
797A
100
AcDbEntity
  8
0
100
AcDbBlockEnd
  0
BLOCK
  5
798E
330
7985
100
AcDbEntity
  8
0
100
AcDbBlockBegin
  2
*D19
 70
     1
 10
0.0
 20
0.0
 30
0.0
  3
*D19
  1

  0
LINE
  5
80E4
330
7985
100
AcDbEntity
  8
R-ANNO-DIMS
370
    -2
100
AcDbLine
 10
48.57686151207936
 20
9.648485238233604
 30
0.0
 11
48.57686151207936
 21
7.936485238233615
 31
0.0
  0
LINE
  5
80E5
330
7985
100
AcDbEntity
  8
R-ANNO-DIMS
370
    -2
100
AcDbLine
 10
48.77686151207935
 20
8.061485238233615
 30
0.0
 11
50.37686151207935
 21
8.061485238233615
 31
0.0
  0
SOLID
  5
80E6
330
7985
100
AcDbEntity
  8
R-ANNO-DIMS
100
AcDbTrace
 10
48.77686151207935
 20
8.094818571566948
 30
0.0
 11
48.77686151207935
 21
8.028151904900282
 31
0.0
 12
48.57686151207936
 22
8.061485238233615
 32
0.0
 13
48.57686151207936
 23
8.061485238233615
 33
0.0
  0
SOLID
  5
80E7
330
7985
100
AcDbEntity
  8
R-ANNO-DIMS
100
AcDbTrace
 10
50.37686151207935
 20
8.094818571566948
 30
0.0
 11
50.37686151207935
 21
8.028151904900282
 31
0.0
 12
50.57686151207935
 22
8.061485238233615
 32
0.0
 13
50.57686151207935
 23
8.061485238233615
 33
0.0
  0
MTEXT
  5
80E8
330
7985
100
AcDbEntity
  8
R-ANNO-DIMS
100
AcDbMText
 10
49.57686151207935
 20
8.248485238233614
 30
0.0
 40
0.25
 41
0.0
 71
     5
 72
     1
  1
\A1;2"
 73
     1
 44
1.0
1001
ACAD
1000
MTEXTBEGIN
1070
    73
1070
     1
1070
    44
1040
1.0
1070
    74
1070
     0
1000
MTEXTEND
  0
POINT
  5
80E9
330
7985
100
AcDbEntity
  8
DEFPOINTS
 62
     0
100
AcDbPoint
 10
48.57686151207936
 20
9.773485238233604
 30
0.0
  0
POINT
  5
80EA
330
7985
100
AcDbEntity
  8
DEFPOINTS
 62
     0
100
AcDbPoint
 10
50.57686151207935
 20
9.773485238233604
 30
0.0
  0
POINT
  5
80EB
330
7985
100
AcDbEntity
  8
DEFPOINTS
 62
     0
100
AcDbPoint
 10
50.57686151207935
 20
8.061485238233615
 30
0.0
  0
ENDBLK
  5
798F
330
7985
100
AcDbEntity
  8
0
100
AcDbBlockEnd
  0
BLOCK
  5
799A
330
7990
100
AcDbEntity
  8
0
100
AcDbBlockBegin
  2
*D20
 70
     1
 10
0.0
 20
0.0
 30
0.0
  3
*D20
  1

  0
LINE
  5
8191
330
7990
100
AcDbEntity
  8
R-ANNO-DIMS
370
    -2
100
AcDbLine
 10
39.61383017252395
 20
9.931574240376747
 30
0.0
 11
39.61383017252395
 21
7.752026065103592
 31
0.0
  0
LINE
  5
8192
330
7990
100
AcDbEntity
  8
R-ANNO-DIMS
370
    -2
100
AcDbLine
 10
39.81383017252395
 20
7.877026065103592
 30
0.0
 11
40.01383017252394
 21
7.877026065103592
 31
0.0
  0
LINE
  5
8193
330
7990
100
AcDbEntity
  8
R-ANNO-DIMS
370
    -2
100
AcDbLine
 10
39.16383017252395
 20
7.877026065103592
 30
0.0
 11
36.42316350585729
 21
7.877026065103592
 31
0.0
  0
SOLID
  5
8194
330
7990
100
AcDbEntity
  8
R-ANNO-DIMS
100
AcDbTrace
 10
39.81383017252395
 20
7.910359398436925
 30
0.0
 11
39.81383017252395
 21
7.843692731770259
 31
0.0
 12
39.61383017252395
 22
7.877026065103592
 32
0.0
 13
39.61383017252395
 23
7.877026065103592
 33
0.0
  0
SOLID
  5
8195
330
7990
100
AcDbEntity
  8
R-ANNO-DIMS
100
AcDbTrace
 10
39.16383017252395
 20
7.910359398436925
 30
0.0
 11
39.16383017252395
 21
7.843692731770259
 31
0.0
 12
39.36383017252395
 22
7.877026065103592
 32
0.0
 13
39.36383017252395
 23
7.877026065103592
 33
0.0
  0
MTEXT
  5
8196
330
7990
100
AcDbEntity
  8
R-ANNO-DIMS
100
AcDbMText
 10
37.69349683919062
 20
8.064026065103591
 30
0.0
 40
0.25
 41
0.0
 71
     5
 72
     1
  1
\A1;SHIM SPACE
 73
     1
 44
1.0
1001
ACAD
1000
MTEXTBEGIN
1070
    73
1070
     1
1070
    44
1040
1.0
1070
    74
1070
     0
1000
MTEXTEND
  0
POINT
  5
8197
330
7990
100
AcDbEntity
  8
DEFPOINTS
 62
     0
100
AcDbPoint
 10
39.61383017252395
 20
10.05657424037674
 30
0.0
  0
POINT
  5
8198
330
7990
100
AcDbEntity
  8
DEFPOINTS
 62
     0
100
AcDbPoint
 10
39.36383017252395
 20
9.81096173525583
 30
0.0
  0
POINT
  5
8199
330
7990
100
AcDbEntity
  8
DEFPOINTS
 62
     0
100
AcDbPoint
 10
39.36383017252395
 20
7.877026065103592
 30
0.0
  0
ENDBLK
  5
799B
330
7990
100
AcDbEntity
  8
0
100
AcDbBlockEnd
  0
BLOCK
  5
79A5
330
799C
100
AcDbEntity
  8
0
100
AcDbBlockBegin
  2
*D21
 70
     1
 10
0.0
 20
0.0
 30
0.0
  3
*D21
  1

  0
LINE
  5
809C
330
799C
100
AcDbEntity
  8
R-ANNO-DIMS
370
    -2
100
AcDbLine
 10
39.36383017252395
 20
9.68596173525583
 30
0.0
 11
39.36383017252395
 21
7.189526065103592
 31
0.0
  0
LINE
  5
809D
330
799C
100
AcDbEntity
  8
R-ANNO-DIMS
370
    -2
100
AcDbLine
 10
39.56383017252395
 20
7.314526065103592
 30
0.0
 11
43.4144705677033
 21
7.314526065103592
 31
0.0
  0
SOLID
  5
809E
330
799C
100
AcDbEntity
  8
R-ANNO-DIMS
100
AcDbTrace
 10
39.56383017252395
 20
7.347859398436925
 30
0.0
 11
39.56383017252395
 21
7.281192731770259
 31
0.0
 12
39.36383017252395
 22
7.314526065103592
 32
0.0
 13
39.36383017252395
 23
7.314526065103592
 33
0.0
  0
SOLID
  5
809F
330
799C
100
AcDbEntity
  8
R-ANNO-DIMS
100
AcDbTrace
 10
43.4144705677033
 20
7.347859398436925
 30
0.0
 11
43.4144705677033
 21
7.281192731770259
 31
0.0
 12
43.6144705677033
 22
7.314526065103592
 32
0.0
 13
43.6144705677033
 23
7.314526065103592
 33
0.0
  0
MTEXT
  5
80A0
330
799C
100
AcDbEntity
  8
R-ANNO-DIMS
100
AcDbMText
 10
41.48915037011362
 20
7.501526065103592
 30
0.0
 40
0.25
 41
0.0
 71
     5
 72
     1
  1
\A1;OD  
 73
     1
 44
1.0
1001
ACAD
1000
MTEXTBEGIN
1070
    73
1070
     1
1070
    44
1040
1.0
1070
    74
1070
     0
1000
MTEXTEND
  0
POINT
  5
80A1
330
799C
100
AcDbEntity
  8
DEFPOINTS
 62
     0
100
AcDbPoint
 10
39.36383017252395
 20
9.81096173525583
 30
0.0
  0
POINT
  5
80A2
330
799C
100
AcDbEntity
  8
DEFPOINTS
 62
     0
100
AcDbPoint
 10
43.6144705677033
 20
9.931574240376718
 30
0.0
  0
POINT
  5
80A3
330
799C
100
AcDbEntity
  8
DEFPOINTS
 62
     0
100
AcDbPoint
 10
43.6144705677033
 20
7.314526065103592
 30
0.0
  0
ENDBLK
  5
79A6
330
799C
100
AcDbEntity
  8
0
100
AcDbBlockEnd
  0
BLOCK
  5
79B0
330
79A7
100
AcDbEntity
  8
0
100
AcDbBlockBegin
  2
*D22
 70
     1
 10
0.0
 20
0.0
 30
0.0
  3
*D22
  1

  0
LINE
  5
80A4
330
79A7
100
AcDbEntity
  8
R-ANNO-DIMS
370
    -2
100
AcDbLine
 10
39.61383017252395
 20
9.931574240376747
 30
0.0
 11
39.61383017252395
 21
7.752026065103592
 31
0.0
  0
LINE
  5
80A5
330
79A7
100
AcDbEntity
  8
R-ANNO-DIMS
370
    -2
100
AcDbLine
 10
39.81383017252395
 20
7.877026065103592
 30
0.0
 11
43.4144705677033
 21
7.877026065103592
 31
0.0
  0
SOLID
  5
80A6
330
79A7
100
AcDbEntity
  8
R-ANNO-DIMS
100
AcDbTrace
 10
39.81383017252395
 20
7.910359398436925
 30
0.0
 11
39.81383017252395
 21
7.843692731770259
 31
0.0
 12
39.61383017252395
 22
7.877026065103592
 32
0.0
 13
39.61383017252395
 23
7.877026065103592
 33
0.0
  0
SOLID
  5
80A7
330
79A7
100
AcDbEntity
  8
R-ANNO-DIMS
100
AcDbTrace
 10
43.4144705677033
 20
7.910359398436925
 30
0.0
 11
43.4144705677033
 21
7.843692731770259
 31
0.0
 12
43.6144705677033
 22
7.877026065103592
 32
0.0
 13
43.6144705677033
 23
7.877026065103592
 33
0.0
  0
MTEXT
  5
80A8
330
79A7
100
AcDbEntity
  8
R-ANNO-DIMS
100
AcDbMText
 10
41.61415037011362
 20
8.064026065103591
 30
0.0
 40
0.25
 41
0.0
 71
     5
 72
     1
  1
\A1;FW  
 73
     1
 44
1.0
1001
ACAD
1000
MTEXTBEGIN
1070
    73
1070
     1
1070
    44
1040
1.0
1070
    74
1070
     0
1000
MTEXTEND
  0
POINT
  5
80A9
330
79A7
100
AcDbEntity
  8
DEFPOINTS
 62
     0
100
AcDbPoint
 10
39.61383017252395
 20
10.05657424037674
 30
0.0
  0
POINT
  5
80AA
330
79A7
100
AcDbEntity
  8
DEFPOINTS
 62
     0
100
AcDbPoint
 10
43.6144705677033
 20
9.931574240376718
 30
0.0
  0
POINT
  5
80AB
330
79A7
100
AcDbEntity
  8
DEFPOINTS
 62
     0
100
AcDbPoint
 10
43.6144705677033
 20
7.877026065103592
 30
0.0
  0
ENDBLK
  5
79B1
330
79A7
100
AcDbEntity
  8
0
100
AcDbBlockEnd
  0
BLOCK
  5
79BB
330
79B2
100
AcDbEntity
  8
0
100
AcDbBlockBegin
  2
*D23
 70
     1
 10
0.0
 20
0.0
 30
0.0
  3
*D23
  1

  0
LINE
  5
80B4
330
79B2
100
AcDbEntity
  8
R-ANNO-DIMS
370
    -2
100
AcDbLine
 10
41.61383017252396
 20
9.931574240376747
 30
0.0
 11
41.61383017252396
 21
8.314526065103592
 31
0.0
  0
LINE
  5
80B5
330
79B2
100
AcDbEntity
  8
R-ANNO-DIMS
370
    -2
100
AcDbLine
 10
41.81383017252396
 20
8.439526065103592
 30
0.0
 11
43.4144705677033
 21
8.439526065103592
 31
0.0
  0
SOLID
  5
80B6
330
79B2
100
AcDbEntity
  8
R-ANNO-DIMS
100
AcDbTrace
 10
41.81383017252396
 20
8.472859398436925
 30
0.0
 11
41.81383017252396
 21
8.406192731770259
 31
0.0
 12
41.61383017252396
 22
8.439526065103592
 32
0.0
 13
41.61383017252396
 23
8.439526065103592
 33
0.0
  0
SOLID
  5
80B7
330
79B2
100
AcDbEntity
  8
R-ANNO-DIMS
100
AcDbTrace
 10
43.4144705677033
 20
8.472859398436925
 30
0.0
 11
43.4144705677033
 21
8.406192731770259
 31
0.0
 12
43.6144705677033
 22
8.439526065103592
 32
0.0
 13
43.6144705677033
 23
8.439526065103592
 33
0.0
  0
MTEXT
  5
80B8
330
79B2
100
AcDbEntity
  8
R-ANNO-DIMS
100
AcDbMText
 10
42.61415037011363
 20
8.626526065103591
 30
0.0
 40
0.25
 41
0.0
 71
     5
 72
     1
  1
\A1;DLO
 73
     1
 44
1.0
1001
ACAD
1000
MTEXTBEGIN
1070
    73
1070
     1
1070
    44
1040
1.0
1070
    74
1070
     0
1000
MTEXTEND
  0
POINT
  5
80B9
330
79B2
100
AcDbEntity
  8
DEFPOINTS
 62
     0
100
AcDbPoint
 10
41.61383017252396
 20
10.05657424037674
 30
0.0
  0
POINT
  5
80BA
330
79B2
100
AcDbEntity
  8
DEFPOINTS
 62
     0
100
AcDbPoint
 10
43.6144705677033
 20
9.931574240376718
 30
0.0
  0
POINT
  5
80BB
330
79B2
100
AcDbEntity
  8
DEFPOINTS
 62
     0
100
AcDbPoint
 10
43.6144705677033
 20
8.439526065103592
 30
0.0
  0
ENDBLK
  5
79BC
330
79B2
100
AcDbEntity
  8
0
100
AcDbBlockEnd
  0
BLOCK
  5
79C6
330
79BD
100
AcDbEntity
  8
0
100
AcDbBlockBegin
  2
*D24
 70
     1
 10
0.0
 20
0.0
 30
0.0
  3
*D24
  1

  0
LINE
  5
80AC
330
79BD
100
AcDbEntity
  8
R-ANNO-DIMS
370
    -2
100
AcDbLine
 10
39.61383017252395
 20
9.931574240376747
 30
0.0
 11
39.61383017252395
 21
8.314526065103592
 31
0.0
  0
LINE
  5
80AD
330
79BD
100
AcDbEntity
  8
R-ANNO-DIMS
370
    -2
100
AcDbLine
 10
39.81383017252395
 20
8.439526065103592
 30
0.0
 11
41.41383017252396
 21
8.439526065103592
 31
0.0
  0
SOLID
  5
80AE
330
79BD
100
AcDbEntity
  8
R-ANNO-DIMS
100
AcDbTrace
 10
39.81383017252395
 20
8.472859398436925
 30
0.0
 11
39.81383017252395
 21
8.406192731770259
 31
0.0
 12
39.61383017252395
 22
8.439526065103592
 32
0.0
 13
39.61383017252395
 23
8.439526065103592
 33
0.0
  0
SOLID
  5
80AF
330
79BD
100
AcDbEntity
  8
R-ANNO-DIMS
100
AcDbTrace
 10
41.41383017252396
 20
8.472859398436925
 30
0.0
 11
41.41383017252396
 21
8.406192731770259
 31
0.0
 12
41.61383017252396
 22
8.439526065103592
 32
0.0
 13
41.61383017252396
 23
8.439526065103592
 33
0.0
  0
MTEXT
  5
80B0
330
79BD
100
AcDbEntity
  8
R-ANNO-DIMS
100
AcDbMText
 10
40.61383017252395
 20
8.626526065103591
 30
0.0
 40
0.25
 41
0.0
 71
     5
 72
     1
  1
\A1;2"
 73
     1
 44
1.0
1001
ACAD
1000
MTEXTBEGIN
1070
    73
1070
     1
1070
    44
1040
1.0
1070
    74
1070
     0
1000
MTEXTEND
  0
POINT
  5
80B1
330
79BD
100
AcDbEntity
  8
DEFPOINTS
 62
     0
100
AcDbPoint
 10
39.61383017252395
 20
10.05657424037674
 30
0.0
  0
POINT
  5
80B2
330
79BD
100
AcDbEntity
  8
DEFPOINTS
 62
     0
100
AcDbPoint
 10
41.61383017252396
 20
10.05657424037674
 30
0.0
  0
POINT
  5
80B3
330
79BD
100
AcDbEntity
  8
DEFPOINTS
 62
     0
100
AcDbPoint
 10
41.61383017252396
 20
8.439526065103592
 30
0.0
  0
ENDBLK
  5
79C7
330
79BD
100
AcDbEntity
  8
0
100
AcDbBlockEnd
  0
BLOCK
  5
8150
330
8146
100
AcDbEntity
  8
0
100
AcDbBlockBegin
  2
*D25
 70
     1
 10
0.0
 20
0.0
 30
0.0
  3
*D25
  1

  0
LINE
  5
821C
330
8146
100
AcDbEntity
  8
R-ANNO-DIMS
 62
     0
100
AcDbLine
 10
11.48141717627558
 20
36.09961793386376
 30
0.0
 11
9.843997176275552
 21
36.09961793386376
 31
0.0
  0
LINE
  5
821D
330
8146
100
AcDbEntity
  8
R-ANNO-DIMS
 62
     0
100
AcDbLine
 10
11.4714171762756
 20
38.09861793385996
 30
0.0
 11
9.843997176275552
 21
38.09861793385996
 31
0.0
  0
LINE
  5
821E
330
8146
100
AcDbEntity
  8
R-ANNO-DIMS
 62
     0
100
AcDbLine
 10
9.968997176275552
 20
36.29961793386377
 30
0.0
 11
9.968997176275552
 21
37.89861793385996
 31
0.0
  0
SOLID
  5
821F
330
8146
100
AcDbEntity
  8
R-ANNO-DIMS
 62
     0
100
AcDbTrace
 10
9.935663842942219
 20
36.29961793386377
 30
0.0
 11
10.00233050960888
 21
36.29961793386377
 31
0.0
 12
9.968997176275552
 22
36.09961793386376
 32
0.0
 13
9.968997176275552
 23
36.09961793386376
 33
0.0
  0
SOLID
  5
8220
330
8146
100
AcDbEntity
  8
R-ANNO-DIMS
 62
     0
100
AcDbTrace
 10
9.935663842942219
 20
37.89861793385996
 30
0.0
 11
10.00233050960888
 21
37.89861793385996
 31
0.0
 12
9.968997176275552
 22
38.09861793385996
 32
0.0
 13
9.968997176275552
 23
38.09861793385996
 33
0.0
  0
MTEXT
  5
8221
330
8146
100
AcDbEntity
  8
R-ANNO-DIMS
 62
     0
100
AcDbMText
 10
9.718997176275545
 20
37.09911793386186
 30
0.0
 40
0.25
 41
0.0
 71
     5
 72
     1
  1
\A1;2"
 11
0.0000000000000001
 21
1.0
 31
0.0
 73
     1
 44
1.0
1001
ACAD
1000
MTEXTBEGIN
1070
    73
1070
     1
1070
    44
1040
1.0
1070
    74
1070
     0
1000
MTEXTEND
  0
POINT
  5
8222
330
8146
100
AcDbEntity
  8
DEFPOINTS
 62
     0
100
AcDbPoint
 10
11.60641717627558
 20
36.09961793386376
 30
0.0
  0
POINT
  5
8223
330
8146
100
AcDbEntity
  8
DEFPOINTS
 62
     0
100
AcDbPoint
 10
11.5964171762756
 20
38.09861793385996
 30
0.0
  0
POINT
  5
8224
330
8146
100
AcDbEntity
  8
DEFPOINTS
 62
     0
100
AcDbPoint
 10
9.968997176275552
 20
38.09861793385996
 30
0.0
  0
ENDBLK
  5
8151
330
8146
100
AcDbEntity
  8
0
100
AcDbBlockEnd
  0
BLOCK
  5
87B7
330
87AB
100
AcDbEntity
  8
0
100
AcDbBlockBegin
  2
Kawneer Logo English
 70
     0
 10
0.0
 20
0.0
 30
0.0
  3
Kawneer Logo English
  1

  0
MTEXT
  5
87AC
102
{ACAD_XDICTIONARY
360
884A
102
}
330
87AB
100
AcDbEntity
  8
Kawneer Logo-English
100
AcDbMText
 10
1.510096758583198
 20
0.0372523876656778
 30
0.0
 40
0.036
 41
0.6125900866323382
 71
     3
 72
     5
  1
{\fArial TUR|b0|i0|c0|p34;\T1.05;AN ARCONIC COMPANY}
 73
     1
 44
1.0
1001
ACAD
1000
ACAD_MTEXT_COLUMN_INFO_BEGIN
1070
    75
1070
     2
1070
    79
1070
     0
1070
    76
1070
     1
1070
    78
1070
     0
1070
    48
1040
0.6125900866323382
1070
    49
1040
1.0
1070
    50
1070
     1
1040
0.0
1000
ACAD_MTEXT_COLUMN_INFO_END
1000
MTEXTBEGIN
1070
    73
1070
     1
1070
    44
1040
1.0
1070
    74
1070
     0
1000
MTEXTEND
  0
HATCH
  5
87AD
330
87AB
100
AcDbEntity
  8
Kawneer Logo-English
100
AcDbHatch
 10
0.0
 20
0.0
 30
0.0
210
0.0
220
0.0
230
1.0
  2
SOLID
 70
     1
 71
     0
 91
        1
 92
        1
 93
       81
 72
     1
 10
0.2706169776412204
 20
0.0336337282279411
 11
0.2687512969786691
 21
0.0350329887248546
 72
     1
 10
0.2687512969786696
 20
0.0350329887248547
 11
0.2633408230572721
 21
0.039137486182467
 72
     1
 10
0.2633408230572729
 20
0.0391374861824669
 11
0.2550385441089194
 21
0.0453875164020133
 72
     1
 10
0.2550385441089191
 20
0.0453875164020132
 11
0.2442175962661241
 21
0.053596511317238
 72
     1
 10
0.2442175962661235
 20
0.0535965113172379
 11
0.2314376837276472
 21
0.0632980507625037
 72
     1
 10
0.2314376837276479
 20
0.0632980507625037
 11
0.2172585106922595
 21
0.0741189986052996
 72
     1
 10
0.2172585106922598
 20
0.0741189986052996
 11
0.2019599292593419
 21
0.0856862187131167
 72
     1
 10
0.201959929259341
 20
0.0856862187131167
 11
0.1862882116939105
 21
0.0976265749534437
 72
     1
 10
0.1862882116939102
 20
0.0976265749534437
 11
0.1706164941284813
 21
0.1095669311937706
 72
     1
 10
0.1706164941284811
 20
0.1095669311937709
 11
0.1553179126955632
 21
0.1211341513015875
 72
     1
 10
0.1553179126955642
 20
0.1211341513015876
 11
0.1411387396601757
 21
0.131955099144384
 72
     1
 10
0.1411387396601755
 20
0.1319550991443839
 11
0.1284521111548274
 21
0.141749922622777
 72
     1
 10
0.1284521111548278
 20
0.1417499226227768
 11
0.117631163312031
 21
0.1499589175380016
 72
     1
 10
0.1176311633120304
 20
0.1499589175380017
 11
0.1094221683968068
 21
0.1563022317906752
 72
     1
 10
0.1094221683968062
 20
0.1563022317906754
 11
0.1041049785085351
 21
0.1604067292482882
 72
     1
 10
0.1041049785085351
 20
0.1604067292482878
 11
0.1023325818791119
 21
0.1618992737783286
 72
     1
 10
0.1023325818791116
 20
0.1618992737783289
 11
0.1043848306079176
 21
0.1636716704077524
 72
     1
 10
0.1043848306079194
 20
0.1636716704077524
 11
0.1100751566286996
 21
0.1683358720641301
 72
     1
 10
0.1100751566286986
 20
0.1683358720641301
 11
0.1189371397758159
 21
0.1757053106812067
 72
     1
 10
0.1189371397758161
 20
0.1757053106812067
 11
0.1304110758505067
 21
0.1851269980270901
 72
     1
 10
0.1304110758505059
 20
0.1851269980270902
 11
0.1439372606540007
 21
0.1963210820023967
 72
     1
 10
0.1439372606540017
 20
0.1963210820023967
 11
0.1589559899875385
 21
0.2087278584083611
 72
     1
 10
0.1589559899875379
 20
0.2087278584083611
 11
0.1750941277186041
 21
0.2220674751456017
 72
     1
 10
0.1750941277186047
 20
0.2220674751456017
 11
0.19169868561531
 21
0.2358735120484796
 72
     1
 10
0.1916986856153105
 20
0.2358735120484796
 11
0.208303243512014
 21
0.2495862649182301
 72
     1
 10
0.2083032435120131
 20
0.2495862649182304
 11
0.2244413812430811
 21
0.2628325976223432
 72
     1
 10
0.2244413812430812
 20
0.2628325976223429
 11
0.239460110576618
 21
0.2753326580614352
 72
     1
 10
0.2394601105766174
 20
0.2753326580614351
 11
0.2529862953801122
 21
0.2864334580036143
 72
     1
 10
0.2529862953801132
 20
0.2864334580036143
 11
0.2643669474216756
 21
0.2958551453494973
 72
     1
 10
0.2643669474216757
 20
0.2958551453494973
 11
0.2731356465356649
 21
0.3031312999334466
 72
     1
 10
0.273135646535664
 20
0.3031312999334466
 11
0.2788259725564443
 21
0.3077955015898243
 72
     1
 10
0.278825972556445
 20
0.3077955015898246
 11
0.2807849372521245
 21
0.3094746141861208
 72
     1
 10
0.2807849372521249
 20
0.3094746141861205
 11
0.2798520969208501
 21
0.3094746141861205
 72
     1
 10
0.2798520969208496
 20
0.3094746141861205
 11
0.2769602918938953
 21
0.3095678982192478
 72
     1
 10
0.2769602918938943
 20
0.3095678982192481
 11
0.2724826583037715
 21
0.3095678982192481
 72
     1
 10
0.2724826583037729
 20
0.3095678982192481
 11
0.2666057642167363
 21
0.3095678982192481
 72
     1
 10
0.266605764216735
 20
0.3095678982192481
 11
0.2597027457652953
 21
0.3095678982192481
 72
     1
 10
0.2597027457652956
 20
0.3095678982192481
 11
0.2519601710157094
 21
0.3095678982192481
 72
     1
 10
0.2519601710157104
 20
0.3095678982192481
 11
0.2437511761004851
 21
0.3095678982192481
 72
     1
 10
0.243751176100484
 20
0.3095678982192481
 11
0.2351690450527495
 21
0.3095678982192481
 72
     1
 10
0.2351690450527495
 20
0.3095678982192481
 11
0.2266801980381413
 21
0.3095678982192481
 72
     1
 10
0.2266801980381423
 20
0.3095678982192481
 11
0.2183779190897905
 21
0.3094746141861208
 72
     1
 10
0.2183779190897899
 20
0.3094746141861205
 11
0.2106353443402037
 21
0.3094746141861205
 72
     1
 10
0.2106353443402029
 20
0.3094746141861205
 11
0.2037323258887632
 21
0.3094746141861205
 72
     1
 10
0.203732325888764
 20
0.3094746141861205
 11
0.1978554318017273
 21
0.3094746141861205
 72
     1
 10
0.1978554318017278
 20
0.3094746141861205
 11
0.1932845141784786
 21
0.3094746141861205
 72
     1
 10
0.1932845141784787
 20
0.3094746141861205
 11
0.1903927091515244
 21
0.3094746141861205
 72
     1
 10
0.1903927091515234
 20
0.3094746141861205
 11
0.1893665847871204
 21
0.3094746141861205
 72
     1
 10
0.1893665847871206
 20
0.3094746141861205
 11
0.1879673242902067
 21
0.3077955015898243
 72
     1
 10
0.1879673242902076
 20
0.3077955015898246
 11
0.1841426789319786
 21
0.3030380159003196
 72
     1
 10
0.1841426789319787
 20
0.3030380159003192
 11
0.1780792167786874
 21
0.29576186131637
 72
     1
 10
0.1780792167786873
 20
0.29576186131637
 11
0.170243357995973
 21
0.2862468899373593
 72
     1
 10
0.170243357995973
 20
0.2862468899373593
 11
0.1610082387163447
 21
0.2750528059620528
 72
     1
 10
0.1610082387163438
 20
0.2750528059620528
 11
0.1507469950723126
 21
0.2624594614898328
 72
     1
 10
0.1507469950723133
 20
0.2624594614898328
 11
0.1396461951301336
 21
0.2491198447525922
 72
     1
 10
0.1396461951301333
 20
0.2491198447525922
 11
0.1282655430885727
 21
0.2352205238165866
 72
     1
 10
0.1282655430885726
 20
0.2352205238165868
 11
0.1168848910470102
 21
0.2214144869137089
 72
     1
 10
0.1168848910470102
 20
0.2214144869137087
 11
0.1058773751379587
 21
0.2079815861433408
 72
     1
 10
0.105877375137958
 20
0.2079815861433408
 11
0.0955228474608004
 21
0.1954815257042486
 72
     1
 10
0.0955228474608019
 20
0.1954815257042488
 11
0.0862877281811736
 21
0.1842874417289424
 72
     1
 10
0.0862877281811727
 20
0.1842874417289424
 11
0.0784518693984583
 21
0.1747724703499316
 72
     1
 10
0.0784518693984584
 20
0.1747724703499314
 11
0.0723884072451672
 21
0.1674963157659821
 72
     1
 10
0.0723884072451671
 20
0.1674963157659822
 11
0.0685637618869363
 21
0.1627388300764767
 72
     1
 10
0.0685637618869364
 20
0.1627388300764767
 11
0.0671645013900242
 21
0.1611530015133082
 72
     1
 10
0.0671645013900251
 20
0.1611530015133082
 11
0.0680040576881734
 21
0.1596604569832674
 72
     1
 10
0.0680040576881726
 20
0.1596604569832674
 11
0.0704294425494878
 21
0.1556492435587824
 72
     1
 10
0.0704294425494871
 20
0.1556492435587824
 11
0.0742540879077179
 21
0.1493059293061089
 72
     1
 10
0.0742540879077192
 20
0.1493059293061089
 11
0.0791048576303511
 21
0.1411902184240116
 72
     1
 10
0.0791048576303508
 20
0.1411902184240116
 11
0.0848884676842594
 21
0.1314886789787458
 72
     1
 10
0.0848884676842596
 20
0.1314886789787459
 11
0.0913250659700619
 21
0.1207610151690772
 72
     1
 10
0.0913250659700613
 20
0.1207610151690775
 11
0.0982280844214992
 21
0.1091937950612604
 72
     1
 10
0.0982280844214985
 20
0.1091937950612603
 11
0.1053176709391927
 21
0.0973467228540611
 72
     1
 10
0.105317670939193
 20
0.0973467228540612
 11
0.1124072574568872
 21
0.0854996506468619
 72
     1
 10
0.1124072574568871
 20
0.0854996506468617
 11
0.1193102759083267
 21
0.0739324305390446
 72
     1
 10
0.1193102759083278
 20
0.0739324305390448
 11
0.1257468741941283
 21
0.0632047667293762
 72
     1
 10
0.1257468741941277
 20
0.063204766729376
 11
0.1315304842480362
 21
0.0535032272841102
 72
     1
 10
0.1315304842480365
 20
0.0535032272841104
 11
0.1363812539706702
 21
0.0453875164020132
 72
     1
 10
0.1363812539706699
 20
0.0453875164020132
 11
0.1402058993288989
 21
0.0391374861824667
 72
     1
 10
0.1402058993288988
 20
0.0391374861824669
 11
0.1426312841902157
 21
0.0350329887248546
 72
     1
 10
0.1426312841902164
 20
0.0350329887248547
 11
0.1434708404883648
 21
0.0336337282279412
 72
     1
 10
0.143470840488364
 20
0.0336337282279411
 11
0.2706169776412211
 21
0.0336337282279411
 97
        0
 75
     0
 76
     1
 98
        1
 10
-0.3743130907707726
 20
-0.2500502867693841
1001
ACAD
1010
0.0
1020
0.0
1030
0.0
  0
HATCH
  5
87AE
330
87AB
100
AcDbEntity
  8
Kawneer Logo-English
100
AcDbHatch
 10
0.0
 20
0.0
 30
0.0
210
0.0
220
0.0
230
1.0
  2
SOLID
 70
     1
 71
     0
 91
        1
 92
        1
 93
       18
 72
     1
 10
0.0001865656044393
 20
0.2563959993365415
 11
-0.0000000024618153
 21
0.113671428651383
 72
     1
 10
-0.0000000024618159
 20
0.1136714286513832
 11
0.0012126899688416
 21
0.1152572572145516
 72
     1
 10
0.0012126899688421
 20
0.1152572572145516
 11
0.0045709151614355
 21
0.1197348908046738
 72
     1
 10
0.004570915161435
 20
0.119734890804674
 11
0.0098881050497044
 21
0.1268244773223682
 72
     1
 10
0.0098881050497044
 20
0.1268244773223682
 11
0.0166978394680158
 21
0.1359663125688683
 72
     1
 10
0.016697839468016
 20
0.1359663125688683
 11
0.0248135503501131
 21
0.1467872604116651
 72
     1
 10
0.024813550350113
 20
0.1467872604116652
 11
0.0338621015634867
 21
0.1588209006851195
 72
     1
 10
0.0338621015634872
 20
0.1588209006851194
 11
0.0434703569756247
 21
0.1716940972567221
 72
     1
 10
0.0434703569756247
 20
0.1716940972567224
 11
0.0534517485202732
 21
0.1850337139939626
 72
     1
 10
0.0534517485202724
 20
0.1850337139939624
 11
0.0634331400649208
 21
0.1983733307312025
 72
     1
 10
0.0634331400649222
 20
0.1983733307312024
 11
0.0730413954770597
 21
0.2112465273028051
 72
     1
 10
0.0730413954770595
 20
0.2112465273028053
 11
0.0820899466904331
 21
0.2233734516093873
 72
     1
 10
0.0820899466904321
 20
0.2233734516093873
 11
0.0902056575725293
 21
0.2341943994521837
 72
     1
 10
0.0902056575725308
 20
0.2341943994521837
 11
0.0970153919908422
 21
0.2433362346986839
 72
     1
 10
0.0970153919908405
 20
0.2433362346986839
 11
0.1022392978459834
 21
0.2503325371832507
 72
     1
 10
0.1022392978459843
 20
0.2503325371832508
 11
0.1056908070717041
 21
0.2549034548065008
 72
     1
 10
0.1056908070717046
 20
0.254903454806501
 11
0.1069034995023621
 21
0.2564892833696694
 72
     1
 10
0.1069034995023625
 20
0.2564892833696695
 11
0.0001865656044399
 21
0.2563959993365418
 97
        0
 75
     0
 76
     1
 98
        1
 10
-0.3743130907707726
 20
-0.2500502867693841
1001
ACAD
1010
0.0
1020
0.0
1030
0.0
  0
HATCH
  5
87AF
330
87AB
100
AcDbEntity
  8
Kawneer Logo-English
100
AcDbHatch
 10
0.0
 20
0.0
 30
0.0
210
0.0
220
0.0
230
1.0
  2
SOLID
 70
     1
 71
     0
 91
        2
 92
       16
 93
       76
 72
     1
 10
1.358402087941634
 20
0.1650709309046659
 11
1.358402087941634
 21
0.16796273593162
 72
     1
 10
1.358402087941634
 20
0.1679627359316202
 11
1.358402087941634
 21
0.1729067896873803
 72
     1
 10
1.358402087941634
 20
0.1729067896873803
 11
1.358402087941634
 21
0.1791568199069267
 72
     1
 10
1.358402087941634
 20
0.1791568199069267
 11
1.358402087941634
 21
0.1861531223914932
 72
     1
 10
1.358402087941634
 20
0.186153122391493
 11
1.358402087941634
 21
0.1931494248760595
 72
     1
 10
1.358402087941634
 20
0.1931494248760596
 11
1.358402087941634
 21
0.1994927391287338
 72
     1
 10
1.358402087941634
 20
0.1994927391287336
 11
1.358402087941634
 21
0.2044367928844937
 72
     1
 10
1.358402087941634
 20
0.2044367928844937
 11
1.358402087941634
 21
0.2072353138783208
 72
     1
 10
1.358402087941634
 20
0.2072353138783208
 11
1.359894632471676
 21
0.2072353138783208
 72
     1
 10
1.359894632471676
 20
0.2072353138783208
 11
1.362693153465502
 21
0.2072353138783208
 72
     1
 10
1.362693153465502
 20
0.2072353138783208
 11
1.366424514790605
 21
0.2072353138783208
 72
     1
 10
1.366424514790606
 20
0.2072353138783208
 11
1.371088716446983
 21
0.2072353138783208
 72
     1
 10
1.371088716446982
 20
0.2072353138783208
 11
1.376405906335254
 21
0.2072353138783208
 72
     1
 10
1.376405906335254
 20
0.2072353138783208
 11
1.382282800422289
 21
0.2072353138783208
 72
     1
 10
1.38228280042229
 20
0.2072353138783208
 11
1.388346262575581
 21
0.2072353138783208
 72
     1
 10
1.388346262575579
 20
0.2072353138783208
 11
1.394596292795125
 21
0.2072353138783208
 72
     1
 10
1.394596292795125
 20
0.2072353138783208
 11
1.400753038981545
 21
0.2072353138783208
 72
     1
 10
1.400753038981546
 20
0.2072353138783208
 11
1.406723217101709
 21
0.2072353138783208
 72
     1
 10
1.406723217101708
 20
0.2072353138783208
 11
1.412320259089362
 21
0.2072353138783208
 72
     1
 10
1.412320259089362
 20
0.2072353138783208
 11
1.417264312845122
 21
0.2072353138783208
 72
     1
 10
1.417264312845123
 20
0.2072353138783208
 11
1.421368810302735
 21
0.2072353138783208
 72
     1
 10
1.421368810302734
 20
0.2072353138783208
 11
1.424540467429071
 21
0.2072353138783208
 72
     1
 10
1.424540467429072
 20
0.2072353138783208
 11
1.426592716157878
 21
0.2072353138783208
 72
     1
 10
1.426592716157878
 20
0.2072353138783208
 11
1.427338988422898
 21
0.2072353138783208
 72
     1
 10
1.427338988422898
 20
0.2072353138783208
 11
1.430977065714873
 21
0.207142029845193
 72
     1
 10
1.430977065714872
 20
0.207142029845193
 11
1.434335290907465
 21
0.2068621777458102
 72
     1
 10
1.434335290907465
 20
0.2068621777458102
 11
1.435921119470633
 21
0.2066756096795552
 72
     1
 10
1.435921119470633
 20
0.206675609679555
 11
1.437413664000673
 21
0.2063957575801723
 72
     1
 10
1.437413664000674
 20
0.2063957575801723
 11
1.438906208530714
 21
0.2061159054807895
 72
     1
 10
1.438906208530714
 20
0.2061159054807898
 11
1.440398753060756
 21
0.2056494853151523
 72
     1
 10
1.440398753060756
 20
0.2056494853151521
 11
1.441704729524542
 21
0.2050897811163865
 72
     1
 10
1.441704729524542
 20
0.2050897811163866
 11
1.443010705988328
 21
0.204530076917621
 72
     1
 10
1.443010705988329
 20
0.204530076917621
 11
1.444223398418986
 21
0.2036905206194736
 72
     1
 10
1.444223398418985
 20
0.2036905206194736
 11
1.445436090849643
 21
0.2028509643213252
 72
     1
 10
1.445436090849643
 20
0.2028509643213252
 11
1.446555499247174
 21
0.2018248399569224
 72
     1
 10
1.446555499247173
 20
0.2018248399569223
 11
1.447581623611576
 21
0.2007054315593917
 72
     1
 10
1.447581623611578
 20
0.2007054315593915
 11
1.448607747975981
 21
0.1993061710624781
 72
     1
 10
1.448607747975981
 20
0.1993061710624781
 11
1.449540588307258
 21
0.1978136265324374
 72
     1
 10
1.449540588307256
 20
0.1978136265324373
 11
1.450380144605403
 21
0.1961345139361415
 72
     1
 10
1.450380144605404
 20
0.1961345139361415
 11
1.451126416870426
 21
0.1944554013398453
 72
     1
 10
1.451126416870426
 20
0.1944554013398454
 11
1.451592837036063
 21
0.1929628568098046
 72
     1
 10
1.451592837036062
 20
0.1929628568098046
 11
1.451965973168573
 21
0.1913770282466361
 72
     1
 10
1.451965973168574
 20
0.1913770282466361
 11
1.452245825267955
 21
0.1899777677497231
 72
     1
 10
1.452245825267954
 20
0.1899777677497231
 11
1.452432393334211
 21
0.188671791285937
 72
     1
 10
1.452432393334211
 20
0.1886717912859369
 11
1.452432393334211
 21
0.1874590988552789
 72
     1
 10
1.452432393334211
 20
0.1874590988552789
 11
1.452525677367338
 21
0.1863396904577482
 72
     1
 10
1.452525677367337
 20
0.1863396904577481
 11
1.452432393334211
 21
0.1844740097951972
 72
     1
 10
1.452432393334211
 20
0.1844740097951974
 11
1.452245825267955
 21
0.1827948971989012
 72
     1
 10
1.452245825267954
 20
0.1827948971989009
 11
1.451872689135445
 21
0.1810225005694773
 72
     1
 10
1.451872689135446
 20
0.1810225005694774
 11
1.451406268969809
 21
0.1794366720063093
 72
     1
 10
1.451406268969809
 20
0.1794366720063094
 11
1.450846564771043
 21
0.1779441274762682
 72
     1
 10
1.450846564771041
 20
0.1779441274762681
 11
1.450100292506021
 21
0.1764515829462274
 72
     1
 10
1.450100292506023
 20
0.1764515829462275
 11
1.449260736207875
 21
0.1750523224493141
 72
     1
 10
1.449260736207873
 20
0.1750523224493139
 11
1.448327895876597
 21
0.1737463459855283
 72
     1
 10
1.448327895876596
 20
0.1737463459855281
 11
1.44702191941281
 21
0.1723470854886151
 72
     1
 10
1.447021919412811
 20
0.1723470854886151
 11
1.445715942949025
 21
0.1711343930579568
 72
     1
 10
1.445715942949026
 20
0.1711343930579568
 11
1.444316682452114
 21
0.1700149846604262
 72
     1
 10
1.444316682452114
 20
0.1700149846604259
 11
1.442824137922072
 21
0.168988860296023
 72
     1
 10
1.442824137922072
 20
0.168988860296023
 11
1.441238309358904
 21
0.1682425880310024
 72
     1
 10
1.441238309358902
 20
0.1682425880310024
 11
1.439559196762608
 21
0.1674963157659821
 72
     1
 10
1.439559196762608
 20
0.1674963157659822
 11
1.437880084166311
 21
0.1669366115672166
 72
     1
 10
1.437880084166311
 20
0.1669366115672167
 11
1.436107687536888
 21
0.1664701914015788
 72
     1
 10
1.436107687536888
 20
0.1664701914015789
 11
1.434242006874337
 21
0.166003771235941
 72
     1
 10
1.434242006874337
 20
0.1660037712359412
 11
1.432376326211786
 21
0.1657239191365588
 72
     1
 10
1.432376326211785
 20
0.1657239191365585
 11
1.430417361516107
 21
0.1655373510703035
 72
     1
 10
1.430417361516108
 20
0.1655373510703037
 11
1.428458396820429
 21
0.1653507830040482
 72
     1
 10
1.428458396820428
 20
0.1653507830040482
 11
1.424353899362817
 21
0.1651642149377932
 72
     1
 10
1.424353899362817
 20
0.1651642149377932
 11
1.420156117872077
 21
0.1650709309046658
 72
     1
 10
1.420156117872076
 20
0.1650709309046659
 11
1.41773073301076
 21
0.1650709309046659
 72
     1
 10
1.417730733010761
 20
0.1650709309046659
 11
1.411107566658704
 21
0.1650709309046659
 72
     1
 10
1.411107566658702
 20
0.1650709309046659
 11
1.401779163345947
 21
0.1650709309046659
 72
     1
 10
1.401779163345949
 20
0.1650709309046659
 11
1.390958215503152
 21
0.1650709309046659
 72
     1
 10
1.390958215503152
 20
0.1650709309046659
 11
1.379950699594101
 21
0.1650709309046659
 72
     1
 10
1.379950699594099
 20
0.1650709309046659
 11
1.369969308049451
 21
0.1650709309046659
 72
     1
 10
1.369969308049451
 20
0.1650709309046659
 11
1.362320017332992
 21
0.1650709309046659
 72
     1
 10
1.362320017332992
 20
0.1650709309046659
 11
1.358402087941635
 21
0.1650709309046659
 97
        0
 92
        1
 93
      107
 72
     1
 10
1.443756978253348
 20
0.1485596570410883
 11
1.446928635379685
 21
0.1492126452729816
 72
     1
 10
1.446928635379685
 20
0.1492126452729817
 11
1.449540588307256
 21
0.1498656335048746
 72
     1
 10
1.449540588307256
 20
0.1498656335048745
 11
1.451872689135445
 21
0.1506119057698948
 72
     1
 10
1.451872689135446
 20
0.1506119057698946
 11
1.45401822189738
 21
0.1514514620680426
 72
     1
 10
1.45401822189738
 20
0.1514514620680425
 11
1.455883902559929
 21
0.1521977343330632
 72
     1
 10
1.455883902559929
 20
0.1521977343330631
 11
1.457563015156225
 21
0.1530372906312111
 72
     1
 10
1.457563015156225
 20
0.1530372906312111
 11
1.459148843719394
 21
0.1539701309624869
 72
     1
 10
1.459148843719394
 20
0.1539701309624866
 11
1.460641388249434
 21
0.1549029712937624
 72
     1
 10
1.460641388249434
 20
0.1549029712937622
 11
1.462133932779476
 21
0.155835811625038
 72
     1
 10
1.462133932779476
 20
0.155835811625038
 11
1.463439909243262
 21
0.1568619359894408
 72
     1
 10
1.463439909243262
 20
0.1568619359894408
 11
1.464745885707048
 21
0.1579813443869714
 72
     1
 10
1.464745885707047
 20
0.1579813443869716
 11
1.465865294104579
 21
0.1591007527845022
 72
     1
 10
1.465865294104579
 20
0.1591007527845025
 11
1.466984702502109
 21
0.1602201611820331
 72
     1
 10
1.466984702502108
 20
0.1602201611820328
 11
1.468010826866511
 21
0.1613395695795634
 72
     1
 10
1.468010826866511
 20
0.1613395695795637
 11
1.468943667197788
 21
0.1625522620102216
 72
     1
 10
1.468943667197788
 20
0.1625522620102216
 11
1.469876507529063
 21
0.1636716704077522
 72
     1
 10
1.469876507529063
 20
0.1636716704077524
 11
1.470622779794084
 21
0.1648843628384107
 72
     1
 10
1.470622779794084
 20
0.1648843628384107
 11
1.471462336092232
 21
0.1661903393021964
 72
     1
 10
1.471462336092232
 20
0.1661903393021967
 11
1.472115324324125
 21
0.1674030317328546
 72
     1
 10
1.472115324324124
 20
0.1674030317328546
 11
1.472768312556016
 21
0.1686157241635125
 72
     1
 10
1.472768312556017
 20
0.1686157241635125
 11
1.473328016754783
 21
0.1699217006272986
 72
     1
 10
1.473328016754782
 20
0.1699217006272989
 11
1.47379443692042
 21
0.1711343930579568
 72
     1
 10
1.47379443692042
 20
0.1711343930579568
 11
1.474260857086057
 21
0.1724403695217425
 72
     1
 10
1.474260857086058
 20
0.1724403695217424
 11
1.474727277251697
 21
0.1736530619524008
 72
     1
 10
1.474727277251697
 20
0.173653061952401
 11
1.475380265483589
 21
0.1760784468137175
 72
     1
 10
1.475380265483588
 20
0.1760784468137173
 11
1.475846685649225
 21
0.1785038316750338
 72
     1
 10
1.475846685649226
 20
0.1785038316750335
 11
1.476219821781737
 21
0.1808359325032223
 72
     1
 10
1.476219821781738
 20
0.1808359325032223
 11
1.47649967388112
 21
0.1830747492982838
 72
     1
 10
1.47649967388112
 20
0.1830747492982838
 11
1.476592957914248
 21
0.1851269980270901
 72
     1
 10
1.476592957914248
 20
0.1851269980270902
 11
1.476686241947374
 21
0.1870859627227688
 72
     1
 10
1.476686241947375
 20
0.1870859627227687
 11
1.476592957914249
 21
0.1888583593521923
 72
     1
 10
1.476592957914248
 20
0.1888583593521922
 11
1.476499673881119
 21
0.1906307559816158
 72
     1
 10
1.47649967388112
 20
0.1906307559816159
 11
1.476406389847991
 21
0.1924031526110394
 72
     1
 10
1.476406389847991
 20
0.1924031526110394
 11
1.476126537748608
 21
0.1940822652073352
 72
     1
 10
1.476126537748608
 20
0.1940822652073352
 11
1.475846685649226
 21
0.195761377803631
 72
     1
 10
1.475846685649226
 20
0.1957613778036309
 11
1.475566833549843
 21
0.1974404903999272
 72
     1
 10
1.475566833549843
 20
0.1974404903999272
 11
1.475100413384206
 21
0.1990263189630953
 72
     1
 10
1.475100413384205
 20
0.1990263189630952
 11
1.474633993218568
 21
0.2006121475262637
 72
     1
 10
1.474633993218568
 20
0.2006121475262639
 11
1.47416757305293
 21
0.2021046920563051
 72
     1
 10
1.474167573052932
 20
0.2021046920563049
 11
1.473514584821038
 21
0.2035972365863457
 72
     1
 10
1.473514584821037
 20
0.2035972365863459
 11
1.472954880622271
 21
0.2050897811163867
 72
     1
 10
1.472954880622272
 20
0.2050897811163866
 11
1.472208608357252
 21
0.2064890416133
 72
     1
 10
1.472208608357252
 20
0.2064890416133001
 11
1.471462336092232
 21
0.2078883021102135
 72
     1
 10
1.471462336092232
 20
0.2078883021102136
 11
1.470622779794083
 21
0.2091942785739993
 72
     1
 10
1.470622779794084
 20
0.2091942785739991
 11
1.469783223495935
 21
0.2105002550377848
 72
     1
 10
1.469783223495934
 20
0.2105002550377851
 11
1.468850383164659
 21
0.2118062315015707
 72
     1
 10
1.468850383164661
 20
0.2118062315015709
 11
1.467917542833386
 21
0.2130189239322288
 72
     1
 10
1.467917542833385
 20
0.2130189239322289
 11
1.466891418468982
 21
0.2141383323297595
 72
     1
 10
1.466891418468982
 20
0.2141383323297595
 11
1.465772010071451
 21
0.2153510247604178
 72
     1
 10
1.46577201007145
 20
0.215351024760418
 11
1.464652601673919
 21
0.2163771491248209
 72
     1
 10
1.46465260167392
 20
0.2163771491248209
 11
1.463533193276389
 21
0.2174032734892238
 72
     1
 10
1.463533193276389
 20
0.2174032734892238
 11
1.462227216812603
 21
0.2184293978536266
 72
     1
 10
1.462227216812602
 20
0.2184293978536266
 11
1.461014524381945
 21
0.2193622381849024
 72
     1
 10
1.461014524381946
 20
0.2193622381849023
 11
1.459615263885032
 21
0.2202950785161781
 72
     1
 10
1.459615263885031
 20
0.2202950785161782
 11
1.458309287421245
 21
0.2211346348143262
 72
     1
 10
1.458309287421246
 20
0.221134634814326
 11
1.456816742891206
 21
0.221974191112474
 72
     1
 10
1.456816742891206
 20
0.2219741911124738
 11
1.455417482394292
 21
0.2227204633774945
 72
     1
 10
1.455417482394291
 20
0.2227204633774944
 11
1.453831653831122
 21
0.2233734516093874
 72
     1
 10
1.453831653831123
 20
0.2233734516093873
 11
1.452339109301082
 21
0.2240264398412803
 72
     1
 10
1.452339109301082
 20
0.2240264398412803
 11
1.450659996704785
 21
0.2245861440400459
 72
     1
 10
1.450659996704787
 20
0.2245861440400457
 11
1.44907416814162
 21
0.2251458482388108
 72
     1
 10
1.449074168141619
 20
0.2251458482388109
 11
1.447301771512194
 21
0.2256122684044489
 72
     1
 10
1.447301771512194
 20
0.2256122684044488
 11
1.445249522783388
 21
0.2261719726032139
 72
     1
 10
1.445249522783388
 20
0.226171972603214
 11
1.44329055808771
 21
0.2265451087357246
 72
     1
 10
1.443290558087712
 20
0.2265451087357244
 11
1.441145025325778
 21
0.2269182448682345
 72
     1
 10
1.441145025325776
 20
0.2269182448682345
 11
1.438906208530714
 21
0.2271980969676173
 72
     1
 10
1.438906208530714
 20
0.2271980969676173
 11
1.436387539636271
 21
0.2273846650338724
 72
     1
 10
1.436387539636271
 20
0.2273846650338724
 11
1.433495734609316
 21
0.2275712331001274
 72
     1
 10
1.433495734609317
 20
0.2275712331001274
 11
1.430044225383597
 21
0.2276645171332552
 72
     1
 10
1.430044225383597
 20
0.2276645171332549
 11
1.42612629599224
 21
0.2277578011663822
 72
     1
 10
1.42612629599224
 20
0.2277578011663825
 11
1.426033011959112
 21
0.2277578011663825
 72
     1
 10
1.426033011959111
 20
0.2277578011663825
 11
1.33489451159349
 21
0.2277578011663825
 72
     1
 10
1.334894511593491
 20
0.2277578011663825
 11
1.334894511593491
 21
0.0926825211976832
 72
     1
 10
1.334894511593491
 20
0.0926825211976832
 11
1.358588656007891
 21
0.0926825211976832
 72
     1
 10
1.358588656007891
 20
0.0926825211976832
 11
1.358588656007891
 21
0.0947347699264896
 72
     1
 10
1.358588656007891
 20
0.0947347699264896
 11
1.358588656007891
 21
0.1001452438478876
 72
     1
 10
1.358588656007891
 20
0.1001452438478875
 11
1.358588656007891
 21
0.1079811026306024
 72
     1
 10
1.358588656007891
 20
0.1079811026306024
 11
1.358588656007891
 21
0.1170296538439752
 72
     1
 10
1.358588656007891
 20
0.1170296538439753
 11
1.358588656007891
 21
0.1262647731236032
 72
     1
 10
1.358588656007891
 20
0.1262647731236031
 11
1.358588656007891
 21
0.1347536201382103
 72
     1
 10
1.358588656007891
 20
0.1347536201382104
 11
1.358588656007891
 21
0.1412835024571394
 72
     1
 10
1.358588656007891
 20
0.1412835024571393
 11
1.358588656007891
 21
0.1448282957159864
 72
     1
 10
1.358588656007891
 20
0.1448282957159865
 11
1.362320017332992
 21
0.1448282957159865
 72
     1
 10
1.362320017332992
 20
0.1448282957159865
 11
1.369409603850688
 21
0.1448282957159865
 72
     1
 10
1.369409603850688
 20
0.1448282957159865
 11
1.378738007163443
 21
0.1448282957159865
 72
     1
 10
1.378738007163443
 20
0.1448282957159865
 11
1.388999250807475
 21
0.1448282957159865
 72
     1
 10
1.388999250807473
 20
0.1448282957159865
 11
1.399260494451505
 21
0.1448282957159865
 72
     1
 10
1.399260494451506
 20
0.1448282957159865
 11
1.408215761631749
 21
0.1448282957159865
 72
     1
 10
1.408215761631748
 20
0.1448282957159865
 11
1.414745643950677
 21
0.1448282957159865
 72
     1
 10
1.414745643950678
 20
0.1448282957159865
 11
1.41773073301076
 21
0.1448282957159865
 72
     1
 10
1.417730733010761
 20
0.1448282957159865
 11
1.420062833838949
 21
0.1420297747221594
 72
     1
 10
1.420062833838949
 20
0.1420297747221597
 11
1.425193455660966
 21
0.1359663125688683
 72
     1
 10
1.425193455660965
 20
0.1359663125688683
 11
1.432283042178659
 21
0.1275707495873888
 72
     1
 10
1.432283042178659
 20
0.1275707495873886
 11
1.440305469027628
 21
0.1180557782083779
 72
     1
 10
1.440305469027629
 20
0.1180557782083781
 11
1.448234611843471
 21
0.1087273748956225
 72
     1
 10
1.448234611843471
 20
0.1087273748956225
 11
1.455044346261782
 21
0.1006116640135252
 72
     1
 10
1.455044346261782
 20
0.1006116640135252
 11
1.459895115984414
 21
0.0948280539596167
 72
     1
 10
1.459895115984414
 20
0.0948280539596169
 11
1.461760796646965
 21
0.0926825211976832
 72
     1
 10
1.461760796646967
 20
0.0926825211976832
 11
1.49254452757906
 21
0.0926825211976832
 72
     1
 10
1.492544527579059
 20
0.0926825211976832
 11
1.490678846916508
 21
0.0948280539596169
 72
     1
 10
1.490678846916508
 20
0.0948280539596169
 11
1.48564150912762
 21
0.100518379980398
 72
     1
 10
1.48564150912762
 20
0.1005183799803981
 11
1.478458638576797
 21
0.1088206589287502
 72
     1
 10
1.478458638576798
 20
0.1088206589287502
 11
1.470063075595318
 21
0.1183356303077609
 72
     1
 10
1.470063075595317
 20
0.118335630307761
 11
1.461480944547582
 21
0.1282237378192818
 72
     1
 10
1.461480944547582
 20
0.1282237378192818
 11
1.453551801731739
 21
0.1372722890326546
 72
     1
 10
1.45355180173174
 20
0.1372722890326546
 11
1.447395055545323
 21
0.1444551595834761
 72
     1
 10
1.447395055545323
 20
0.1444551595834759
 11
1.443756978253349
 21
0.1485596570410882
 97
        0
 75
     0
 76
     1
 98
        1
 10
-0.3743130907707726
 20
-0.2500502867693841
1001
ACAD
1010
0.0
1020
0.0
1030
0.0
  0
HATCH
  5
87B0
330
87AB
100
AcDbEntity
  8
Kawneer Logo-English
100
AcDbHatch
 10
0.0
 20
0.0
 30
0.0
210
0.0
220
0.0
230
1.0
  2
SOLID
 70
     1
 71
     0
 91
        1
 92
        1
 93
       87
 72
     1
 10
1.205602841678699
 20
0.1525708704655737
 11
1.207468522341251
 21
0.1525708704655737
 72
     1
 10
1.207468522341252
 20
0.1525708704655737
 11
1.211199883666355
 21
0.1525708704655737
 72
     1
 10
1.211199883666355
 20
0.1525708704655737
 11
1.216517073554626
 21
0.1525708704655737
 72
     1
 10
1.216517073554626
 20
0.1525708704655737
 11
1.223046955873555
 21
0.1525708704655737
 72
     1
 10
1.223046955873553
 20
0.1525708704655737
 11
1.230602962556885
 21
0.1525708704655737
 72
     1
 10
1.230602962556885
 20
0.1525708704655737
 11
1.238998525538365
 21
0.1525708704655737
 72
     1
 10
1.238998525538365
 20
0.1525708704655737
 11
1.247767224652354
 21
0.1525708704655737
 72
     1
 10
1.247767224652355
 20
0.1525708704655737
 11
1.256815775865728
 21
0.1525708704655737
 72
     1
 10
1.256815775865729
 20
0.1525708704655737
 11
1.265771043045974
 21
0.1525708704655737
 72
     1
 10
1.265771043045973
 20
0.1525708704655737
 11
1.274446458126836
 21
0.1525708704655737
 72
     1
 10
1.274446458126837
 20
0.1525708704655737
 11
1.282562169008935
 21
0.1525708704655737
 72
     1
 10
1.282562169008935
 20
0.1525708704655737
 11
1.289745039559756
 21
0.1525708704655737
 72
     1
 10
1.289745039559755
 20
0.1525708704655737
 11
1.295808501713046
 21
0.1525708704655737
 72
     1
 10
1.295808501713046
 20
0.1525708704655737
 11
1.300472703369423
 21
0.1525708704655737
 72
     1
 10
1.300472703369423
 20
0.1525708704655737
 11
1.303457792429505
 21
0.1525708704655737
 72
     1
 10
1.303457792429505
 20
0.1525708704655737
 11
1.304483916793908
 21
0.1525708704655737
 72
     1
 10
1.304483916793908
 20
0.1525708704655737
 11
1.304483916793908
 21
0.1730000737205081
 72
     1
 10
1.304483916793908
 20
0.1730000737205078
 11
1.303457792429505
 21
0.1730000737205078
 72
     1
 10
1.303457792429505
 20
0.1730000737205078
 11
1.300472703369423
 21
0.1730000737205078
 72
     1
 10
1.300472703369423
 20
0.1730000737205078
 11
1.295808501713045
 21
0.1730000737205078
 72
     1
 10
1.295808501713046
 20
0.1730000737205078
 11
1.289745039559754
 21
0.1730000737205078
 72
     1
 10
1.289745039559755
 20
0.1730000737205078
 11
1.282562169008934
 21
0.1730000737205078
 72
     1
 10
1.282562169008935
 20
0.1730000737205078
 11
1.274446458126837
 21
0.1730000737205078
 72
     1
 10
1.274446458126837
 20
0.1730000737205078
 11
1.265771043045975
 21
0.1730000737205078
 72
     1
 10
1.265771043045973
 20
0.1730000737205078
 11
1.256815775865728
 21
0.1730000737205078
 72
     1
 10
1.256815775865729
 20
0.1730000737205078
 11
1.247767224652355
 21
0.1730000737205078
 72
     1
 10
1.247767224652355
 20
0.1730000737205078
 11
1.238998525538365
 21
0.1730000737205078
 72
     1
 10
1.238998525538365
 20
0.1730000737205078
 11
1.230602962556885
 21
0.1730000737205078
 72
     1
 10
1.230602962556885
 20
0.1730000737205078
 11
1.223046955873553
 21
0.1730000737205078
 72
     1
 10
1.223046955873553
 20
0.1730000737205078
 11
1.216517073554625
 21
0.1730000737205078
 72
     1
 10
1.216517073554626
 20
0.1730000737205078
 11
1.211199883666355
 21
0.1730000737205078
 72
     1
 10
1.211199883666355
 20
0.1730000737205078
 11
1.207468522341252
 21
0.1730000737205078
 72
     1
 10
1.207468522341252
 20
0.1730000737205078
 11
1.205602841678701
 21
0.1730000737205078
 72
     1
 10
1.205602841678699
 20
0.1730000737205078
 11
1.205602841678699
 21
0.1754254585818243
 72
     1
 10
1.205602841678699
 20
0.1754254585818245
 11
1.205602841678699
 21
0.1794366720063095
 72
     1
 10
1.205602841678699
 20
0.1794366720063094
 11
1.205602841678699
 21
0.1843807257620694
 72
     1
 10
1.205602841678699
 20
0.1843807257620694
 11
1.205602841678699
 21
0.1898844837165951
 72
     1
 10
1.205602841678699
 20
0.1898844837165951
 11
1.205602841678699
 21
0.1952949576379935
 72
     1
 10
1.205602841678699
 20
0.1952949576379937
 11
1.205602841678699
 21
0.2003322954268815
 72
     1
 10
1.205602841678699
 20
0.2003322954268814
 11
1.205602841678699
 21
0.2042502248182386
 72
     1
 10
1.205602841678699
 20
0.2042502248182386
 11
1.205602841678699
 21
0.206675609679555
 72
     1
 10
1.205602841678699
 20
0.206675609679555
 11
1.207468522341251
 21
0.206675609679555
 72
     1
 10
1.207468522341252
 20
0.206675609679555
 11
1.211293167699483
 21
0.206675609679555
 72
     1
 10
1.211293167699483
 20
0.206675609679555
 11
1.21670364162088
 21
0.206675609679555
 72
     1
 10
1.216703641620879
 20
0.206675609679555
 11
1.223420092006063
 21
0.206675609679555
 72
     1
 10
1.223420092006064
 20
0.206675609679555
 11
1.231255950788778
 21
0.206675609679555
 72
     1
 10
1.231255950788778
 20
0.206675609679555
 11
1.239744797803386
 21
0.206675609679555
 72
     1
 10
1.239744797803385
 20
0.206675609679555
 11
1.248886633049885
 21
0.206675609679555
 72
     1
 10
1.248886633049885
 20
0.206675609679555
 11
1.258121752329513
 21
0.206675609679555
 72
     1
 10
1.258121752329514
 20
0.206675609679555
 11
1.267356871609143
 21
0.206675609679555
 72
     1
 10
1.267356871609142
 20
0.206675609679555
 11
1.276218854756259
 21
0.206675609679555
 72
     1
 10
1.276218854756259
 20
0.206675609679555
 11
1.284521133704611
 21
0.206675609679555
 72
     1
 10
1.284521133704611
 20
0.206675609679555
 11
1.291890572321688
 21
0.206675609679555
 72
     1
 10
1.291890572321688
 20
0.206675609679555
 11
1.298140602541234
 21
0.206675609679555
 72
     1
 10
1.298140602541234
 20
0.206675609679555
 11
1.30289808823074
 21
0.206675609679555
 72
     1
 10
1.30289808823074
 20
0.206675609679555
 11
1.305976461323949
 21
0.206675609679555
 72
     1
 10
1.305976461323949
 20
0.206675609679555
 11
1.30709586972148
 21
0.206675609679555
 72
     1
 10
1.307095869721479
 20
0.206675609679555
 11
1.307095869721479
 21
0.2277578011663822
 72
     1
 10
1.307095869721479
 20
0.2277578011663825
 11
1.304577200827036
 21
0.2277578011663825
 72
     1
 10
1.304577200827037
 20
0.2277578011663825
 11
1.182188549363684
 21
0.2277578011663825
 72
     1
 10
1.182188549363684
 20
0.2277578011663825
 11
1.182188549363684
 21
0.0926825211976832
 72
     1
 10
1.182188549363684
 20
0.0926825211976832
 11
1.311853355410986
 21
0.0926825211976832
 72
     1
 10
1.311853355410985
 20
0.0926825211976832
 11
1.311853355410985
 21
0.113671428651383
 72
     1
 10
1.311853355410985
 20
0.1136714286513832
 11
1.310733947013454
 21
0.1136714286513832
 72
     1
 10
1.310733947013455
 20
0.1136714286513832
 11
1.307469005853991
 21
0.1136714286513832
 72
     1
 10
1.307469005853991
 20
0.1136714286513832
 11
1.302431668065102
 21
0.1136714286513832
 72
     1
 10
1.302431668065103
 20
0.1136714286513832
 11
1.295901785746174
 21
0.1136714286513832
 72
     1
 10
1.295901785746174
 20
0.1136714286513832
 11
1.288159210996586
 21
0.1136714286513832
 72
     1
 10
1.288159210996587
 20
0.1136714286513832
 11
1.279483795915724
 21
0.1136714286513832
 72
     1
 10
1.279483795915723
 20
0.1136714286513832
 11
1.270155392602968
 21
0.1136714286513832
 72
     1
 10
1.270155392602969
 20
0.1136714286513832
 11
1.260547137190832
 21
0.1136714286513832
 72
     1
 10
1.260547137190831
 20
0.1136714286513832
 11
1.250752313712437
 21
0.1136714286513832
 72
     1
 10
1.250752313712437
 20
0.1136714286513832
 11
1.241330626366554
 21
0.1136714286513832
 72
     1
 10
1.241330626366555
 20
0.1136714286513832
 11
1.23237535918631
 21
0.1136714286513832
 72
     1
 10
1.232375359186308
 20
0.1136714286513832
 11
1.224166364271082
 21
0.1136714286513832
 72
     1
 10
1.224166364271083
 20
0.1136714286513832
 11
1.217170061786517
 21
0.1136714286513832
 72
     1
 10
1.217170061786517
 20
0.1136714286513832
 11
1.211479735765737
 21
0.1136714286513832
 72
     1
 10
1.211479735765737
 20
0.1136714286513832
 11
1.20756180637438
 21
0.1136714286513832
 72
     1
 10
1.207561806374379
 20
0.1136714286513832
 11
1.2056028416787
 21
0.1136714286513832
 72
     1
 10
1.205602841678699
 20
0.1136714286513832
 11
1.205602841678699
 21
0.1163766656120825
 72
     1
 10
1.205602841678699
 20
0.1163766656120823
 11
1.205602841678699
 21
0.1209475832353323
 72
     1
 10
1.205602841678699
 20
0.1209475832353325
 11
1.205602841678699
 21
0.1267311932892411
 72
     1
 10
1.205602841678699
 20
0.1267311932892408
 11
1.205602841678699
 21
0.1330745075419143
 72
     1
 10
1.205602841678699
 20
0.1330745075419144
 11
1.205602841678699
 21
0.1395111058277156
 72
     1
 10
1.205602841678699
 20
0.1395111058277158
 11
1.205602841678699
 21
0.1452947158816239
 72
     1
 10
1.205602841678699
 20
0.145294715881624
 11
1.205602841678699
 21
0.1498656335048746
 72
     1
 10
1.205602841678699
 20
0.1498656335048745
 11
1.205602841678699
 21
0.1525708704655738
 97
        0
 75
     0
 76
     1
 98
        1
 10
-0.3743130907707726
 20
-0.2500502867693841
1001
ACAD
1010
0.0
1020
0.0
1030
0.0
  0
HATCH
  5
87B1
330
87AB
100
AcDbEntity
  8
Kawneer Logo-English
100
AcDbHatch
 10
0.0
 20
0.0
 30
0.0
210
0.0
220
0.0
230
1.0
  2
SOLID
 70
     1
 71
     0
 91
        1
 92
        1
 93
       87
 72
     1
 10
1.049352086190046
 20
0.1525708704655737
 11
1.051217766852597
 21
0.1525708704655737
 72
     1
 10
1.051217766852596
 20
0.1525708704655737
 11
1.054949128177699
 21
0.1525708704655737
 72
     1
 10
1.0549491281777
 20
0.1525708704655737
 11
1.060173034032843
 21
0.1525708704655737
 72
     1
 10
1.060173034032843
 20
0.1525708704655737
 11
1.0667962003849
 21
0.1525708704655737
 72
     1
 10
1.0667962003849
 20
0.1525708704655737
 11
1.074352207068231
 21
0.1525708704655737
 72
     1
 10
1.074352207068232
 20
0.1525708704655737
 11
1.082747770049711
 21
0.1525708704655737
 72
     1
 10
1.082747770049711
 20
0.1525708704655737
 11
1.0915164691637
 21
0.1525708704655737
 72
     1
 10
1.091516469163701
 20
0.1525708704655737
 11
1.100565020377075
 21
0.1525708704655737
 72
     1
 10
1.100565020377073
 20
0.1525708704655737
 11
1.109520287557319
 21
0.1525708704655737
 72
     1
 10
1.10952028755732
 20
0.1525708704655737
 11
1.118195702638183
 21
0.1525708704655737
 72
     1
 10
1.118195702638182
 20
0.1525708704655737
 11
1.126218129487151
 21
0.1525708704655737
 72
     1
 10
1.126218129487152
 20
0.1525708704655737
 11
1.133401000037974
 21
0.1525708704655737
 72
     1
 10
1.133401000037974
 20
0.1525708704655737
 11
1.139557746224391
 21
0.1525708704655737
 72
     1
 10
1.139557746224392
 20
0.1525708704655737
 11
1.14422194788077
 21
0.1525708704655737
 72
     1
 10
1.144221947880769
 20
0.1525708704655737
 11
1.147207036940851
 21
0.1525708704655737
 72
     1
 10
1.147207036940852
 20
0.1525708704655737
 11
1.148233161305255
 21
0.1525708704655737
 72
     1
 10
1.148233161305255
 20
0.1525708704655737
 11
1.148233161305255
 21
0.1730000737205081
 72
     1
 10
1.148233161305255
 20
0.1730000737205078
 11
1.147207036940852
 21
0.1730000737205078
 72
     1
 10
1.147207036940852
 20
0.1730000737205078
 11
1.14422194788077
 21
0.1730000737205078
 72
     1
 10
1.144221947880769
 20
0.1730000737205078
 11
1.139557746224391
 21
0.1730000737205078
 72
     1
 10
1.139557746224392
 20
0.1730000737205078
 11
1.133494284071101
 21
0.1730000737205078
 72
     1
 10
1.133494284071101
 20
0.1730000737205078
 11
1.126218129487152
 21
0.1730000737205078
 72
     1
 10
1.126218129487152
 20
0.1730000737205078
 11
1.118195702638183
 21
0.1730000737205078
 72
     1
 10
1.118195702638182
 20
0.1730000737205078
 11
1.10952028755732
 21
0.1730000737205078
 72
     1
 10
1.10952028755732
 20
0.1730000737205078
 11
1.100565020377074
 21
0.1730000737205078
 72
     1
 10
1.100565020377073
 20
0.1730000737205078
 11
1.0915164691637
 21
0.1730000737205078
 72
     1
 10
1.091516469163701
 20
0.1730000737205078
 11
1.082747770049712
 21
0.1730000737205078
 72
     1
 10
1.082747770049711
 20
0.1730000737205078
 11
1.074352207068231
 21
0.1730000737205078
 72
     1
 10
1.074352207068232
 20
0.1730000737205078
 11
1.0667962003849
 21
0.1730000737205078
 72
     1
 10
1.0667962003849
 20
0.1730000737205078
 11
1.060173034032843
 21
0.1730000737205078
 72
     1
 10
1.060173034032843
 20
0.1730000737205078
 11
1.054949128177701
 21
0.1730000737205078
 72
     1
 10
1.0549491281777
 20
0.1730000737205078
 11
1.051217766852597
 21
0.1730000737205078
 72
     1
 10
1.051217766852596
 20
0.1730000737205078
 11
1.049352086190045
 21
0.1730000737205078
 72
     1
 10
1.049352086190046
 20
0.1730000737205078
 11
1.049352086190046
 21
0.1754254585818243
 72
     1
 10
1.049352086190046
 20
0.1754254585818245
 11
1.049352086190046
 21
0.1794366720063095
 72
     1
 10
1.049352086190046
 20
0.1794366720063094
 11
1.049352086190046
 21
0.1843807257620694
 72
     1
 10
1.049352086190046
 20
0.1843807257620694
 11
1.049352086190046
 21
0.1898844837165951
 72
     1
 10
1.049352086190046
 20
0.1898844837165951
 11
1.049352086190046
 21
0.1952949576379935
 72
     1
 10
1.049352086190046
 20
0.1952949576379937
 11
1.049352086190046
 21
0.2003322954268815
 72
     1
 10
1.049352086190046
 20
0.2003322954268814
 11
1.049352086190046
 21
0.2042502248182386
 72
     1
 10
1.049352086190046
 20
0.2042502248182386
 11
1.049352086190046
 21
0.206675609679555
 72
     1
 10
1.049352086190046
 20
0.206675609679555
 11
1.051217766852597
 21
0.206675609679555
 72
     1
 10
1.051217766852596
 20
0.206675609679555
 11
1.055042412210825
 21
0.206675609679555
 72
     1
 10
1.055042412210827
 20
0.206675609679555
 11
1.060452886132226
 21
0.206675609679555
 72
     1
 10
1.060452886132225
 20
0.206675609679555
 11
1.067169336517409
 21
0.206675609679555
 72
     1
 10
1.06716933651741
 20
0.206675609679555
 11
1.075005195300124
 21
0.206675609679555
 72
     1
 10
1.075005195300123
 20
0.206675609679555
 11
1.083494042314731
 21
0.206675609679555
 72
     1
 10
1.083494042314732
 20
0.206675609679555
 11
1.092542593528105
 21
0.206675609679555
 72
     1
 10
1.092542593528106
 20
0.206675609679555
 11
1.10187099684086
 21
0.206675609679555
 72
     1
 10
1.101870996840861
 20
0.206675609679555
 11
1.111106116120489
 21
0.206675609679555
 72
     1
 10
1.111106116120488
 20
0.206675609679555
 11
1.119968099267605
 21
0.206675609679555
 72
     1
 10
1.119968099267605
 20
0.206675609679555
 11
1.128270378215957
 21
0.206675609679555
 72
     1
 10
1.128270378215957
 20
0.206675609679555
 11
1.135639816833034
 21
0.206675609679555
 72
     1
 10
1.135639816833034
 20
0.206675609679555
 11
1.14188984705258
 21
0.206675609679555
 72
     1
 10
1.141889847052581
 20
0.206675609679555
 11
1.146647332742086
 21
0.206675609679555
 72
     1
 10
1.146647332742086
 20
0.206675609679555
 11
1.149725705835295
 21
0.206675609679555
 72
     1
 10
1.149725705835296
 20
0.206675609679555
 11
1.150845114232827
 21
0.206675609679555
 72
     1
 10
1.150845114232826
 20
0.206675609679555
 11
1.150845114232826
 21
0.2277578011663822
 72
     1
 10
1.150845114232826
 20
0.2277578011663825
 11
1.148326445338383
 21
0.2277578011663825
 72
     1
 10
1.148326445338383
 20
0.2277578011663825
 11
1.025937793875031
 21
0.2277578011663825
 72
     1
 10
1.025937793875032
 20
0.2277578011663825
 11
1.025937793875032
 21
0.0926825211976832
 72
     1
 10
1.025937793875032
 20
0.0926825211976832
 11
1.155602599922332
 21
0.0926825211976832
 72
     1
 10
1.155602599922332
 20
0.0926825211976832
 11
1.155602599922332
 21
0.113671428651383
 72
     1
 10
1.155602599922332
 20
0.1136714286513832
 11
1.154483191524801
 21
0.1136714286513832
 72
     1
 10
1.154483191524799
 20
0.1136714286513832
 11
1.151218250365336
 21
0.1136714286513832
 72
     1
 10
1.151218250365338
 20
0.1136714286513832
 11
1.146180912576449
 21
0.1136714286513832
 72
     1
 10
1.146180912576449
 20
0.1136714286513832
 11
1.13965103025752
 21
0.1136714286513832
 72
     1
 10
1.13965103025752
 20
0.1136714286513832
 11
1.131908455507932
 21
0.1136714286513832
 72
     1
 10
1.131908455507931
 20
0.1136714286513832
 11
1.12323304042707
 21
0.1136714286513832
 72
     1
 10
1.123233040427071
 20
0.1136714286513832
 11
1.113904637114314
 21
0.1136714286513832
 72
     1
 10
1.113904637114314
 20
0.1136714286513832
 11
1.104296381702177
 21
0.1136714286513832
 72
     1
 10
1.104296381702177
 20
0.1136714286513832
 11
1.094501558223783
 21
0.1136714286513832
 72
     1
 10
1.094501558223784
 20
0.1136714286513832
 11
1.085079870877901
 21
0.1136714286513832
 72
     1
 10
1.085079870877899
 20
0.1136714286513832
 11
1.076124603697654
 21
0.1136714286513832
 72
     1
 10
1.076124603697655
 20
0.1136714286513832
 11
1.067915608782429
 21
0.1136714286513832
 72
     1
 10
1.067915608782429
 20
0.1136714286513832
 11
1.060919306297863
 21
0.1136714286513832
 72
     1
 10
1.060919306297863
 20
0.1136714286513832
 11
1.055228980277083
 21
0.1136714286513832
 72
     1
 10
1.055228980277082
 20
0.1136714286513832
 11
1.051311050885725
 21
0.1136714286513832
 72
     1
 10
1.051311050885726
 20
0.1136714286513832
 11
1.049352086190046
 21
0.1136714286513832
 72
     1
 10
1.049352086190046
 20
0.1136714286513832
 11
1.049352086190046
 21
0.1163766656120825
 72
     1
 10
1.049352086190046
 20
0.1163766656120823
 11
1.049352086190046
 21
0.1209475832353323
 72
     1
 10
1.049352086190046
 20
0.1209475832353325
 11
1.049352086190046
 21
0.1267311932892411
 72
     1
 10
1.049352086190046
 20
0.1267311932892408
 11
1.049352086190046
 21
0.1330745075419143
 72
     1
 10
1.049352086190046
 20
0.1330745075419144
 11
1.049352086190046
 21
0.1395111058277156
 72
     1
 10
1.049352086190046
 20
0.1395111058277158
 11
1.049352086190046
 21
0.1452947158816239
 72
     1
 10
1.049352086190046
 20
0.145294715881624
 11
1.049352086190046
 21
0.1498656335048746
 72
     1
 10
1.049352086190046
 20
0.1498656335048745
 11
1.049352086190046
 21
0.1525708704655738
 97
        0
 75
     0
 76
     1
 98
        1
 10
-0.3743130907707726
 20
-0.2500502867693841
1001
ACAD
1010
0.0
1020
0.0
1030
0.0
  0
HATCH
  5
87B2
330
87AB
100
AcDbEntity
  8
Kawneer Logo-English
100
AcDbHatch
 10
0.0
 20
0.0
 30
0.0
210
0.0
220
0.0
230
1.0
  2
SOLID
 70
     1
 71
     0
 91
        1
 92
        1
 93
       42
 72
     1
 10
0.9725793269260698
 20
0.2277578011663825
 11
0.9725793269260698
 21
0.1354998924032311
 72
     1
 10
0.9725793269260698
 20
0.1354998924032311
 11
0.9729524630585808
 21
0.1264513411898582
 72
     1
 10
0.9729524630585796
 20
0.1264513411898583
 11
0.9729524630585796
 21
0.1255185008585825
 72
     1
 10
0.9729524630585796
 20
0.1255185008585824
 11
0.9731390311248343
 21
0.1238393882622866
 72
     1
 10
0.9731390311248349
 20
0.1238393882622866
 11
0.9717397706279211
 21
0.1254252168254551
 72
     1
 10
0.97173977062792
 20
0.1254252168254551
 11
0.9710867823960281
 21
0.1262647731236031
 72
     1
 10
0.9710867823960294
 20
0.1262647731236031
 11
0.9641837639445897
 21
0.1339140638400625
 72
     1
 10
0.9641837639445899
 20
0.1339140638400624
 11
0.8755639324734129
 21
0.2277578011663823
 72
     1
 10
0.8755639324734115
 20
0.2277578011663825
 11
0.8529891964565429
 21
0.2277578011663825
 72
     1
 10
0.8529891964565434
 20
0.2277578011663825
 11
0.8529891964565434
 21
0.0926825211976832
 72
     1
 10
0.8529891964565434
 20
0.0926825211976832
 11
0.8756572165065401
 21
0.0926825211976832
 72
     1
 10
0.875657216506541
 20
0.0926825211976832
 11
0.875657216506541
 21
0.1927762887435495
 72
     1
 10
0.875657216506541
 20
0.1927762887435495
 11
0.875657216506541
 21
0.1931494248760597
 72
     1
 10
0.875657216506541
 20
0.1931494248760596
 11
0.8755639324734129
 21
0.193988981174208
 72
     1
 10
0.8755639324734115
 20
0.1939889811742079
 11
0.8754706484402849
 21
0.1952949576379935
 72
     1
 10
0.8754706484402859
 20
0.1952949576379937
 11
0.8753773644071577
 21
0.1967875021680344
 72
     1
 10
0.875377364407158
 20
0.1967875021680343
 11
0.8755639324734126
 21
0.1965076500686515
 72
     1
 10
0.8755639324734115
 20
0.1965076500686517
 11
0.8756572165065396
 21
0.1963210820023967
 72
     1
 10
0.875657216506541
 20
0.1963210820023967
 11
0.8764967728046894
 21
0.1954815257042487
 72
     1
 10
0.8764967728046887
 20
0.1954815257042488
 11
0.8781758854009835
 21
0.1936158450416976
 72
     1
 10
0.8781758854009842
 20
0.1936158450416973
 11
0.8797617139641527
 21
0.1917501643791464
 72
     1
 10
0.879761713964152
 20
0.1917501643791466
 11
0.8805079862291723
 21
0.1909106080809982
 72
     1
 10
0.8805079862291727
 20
0.190910608080998
 11
0.8816273946267036
 21
0.1897911996834678
 72
     1
 10
0.8816273946267028
 20
0.1897911996834681
 11
0.884519199653657
 21
0.1867128265902584
 72
     1
 10
0.8845191996536581
 20
0.1867128265902582
 11
0.8891834013100353
 21
0.1818620568676254
 72
     1
 10
0.889183401310035
 20
0.1818620568676252
 11
0.8951535794301982
 21
0.1756120266480794
 72
     1
 10
0.8951535794301985
 20
0.1756120266480794
 11
0.9021498819147662
 21
0.1681493039978751
 72
     1
 10
0.9021498819147669
 20
0.1681493039978752
 11
0.9099857406974814
 21
0.1598470250495227
 72
     1
 10
0.9099857406974813
 20
0.1598470250495225
 11
0.9183813036789613
 21
0.1509850419024051
 72
     1
 10
0.9183813036789612
 20
0.1509850419024052
 11
0.9271500027929521
 21
0.1418432066559046
 72
     1
 10
0.9271500027929509
 20
0.1418432066559046
 11
0.9358254178738118
 21
0.1326080873762767
 72
     1
 10
0.9358254178738132
 20
0.1326080873762767
 11
0.9442209808552931
 21
0.1237461042291589
 72
     1
 10
0.9442209808552931
 20
0.1237461042291589
 11
0.9520568396380092
 21
0.1154438252808068
 72
     1
 10
0.9520568396380092
 20
0.1154438252808068
 11
0.9590531421225751
 21
0.1079811026306025
 72
     1
 10
0.959053142122574
 20
0.1079811026306024
 11
0.9650233202427372
 21
0.101731072411056
 72
     1
 10
0.9650233202427376
 20
0.101731072411056
 11
0.9695942378659868
 21
0.0968803026884232
 72
     1
 10
0.9695942378659871
 20
0.096880302688423
 11
0.9725793269260696
 21
0.0938019295952138
 72
     1
 10
0.9725793269260698
 20
0.093801929595214
 11
0.9736054512904727
 21
0.0926825211976834
 72
     1
 10
0.9736054512904726
 20
0.0926825211976832
 11
0.9952473469760661
 21
0.0926825211976832
 72
     1
 10
0.9952473469760651
 20
0.0926825211976832
 11
0.9952473469760651
 21
0.2277578011663825
 72
     1
 10
0.9952473469760651
 20
0.2277578011663825
 11
0.9927286780816201
 21
0.2277578011663825
 72
     1
 10
0.9927286780816203
 20
0.2277578011663825
 11
0.9725793269260686
 21
0.2277578011663825
 97
        0
 75
     0
 76
     1
 98
        1
 10
-0.3743130907707726
 20
-0.2500502867693841
1001
ACAD
1010
0.0
1020
0.0
1030
0.0
  0
HATCH
  5
87B3
330
87AB
100
AcDbEntity
  8
Kawneer Logo-English
100
AcDbHatch
 10
0.0
 20
0.0
 30
0.0
210
0.0
220
0.0
230
1.0
  2
SOLID
 70
     1
 71
     0
 91
        2
 92
       16
 93
       32
 72
     1
 10
0.5269615006757409
 20
0.144641727649731
 11
0.5290137494045469
 21
0.148652941074216
 72
     1
 10
0.5290137494045464
 20
0.1486529410742159
 11
0.5322786905640116
 21
0.1551828233931449
 72
     1
 10
0.532278690564012
 20
0.1551828233931452
 11
0.5364764720547521
 21
0.1633918183083696
 72
     1
 10
0.5364764720547526
 20
0.1633918183083696
 11
0.5409541056448736
 21
0.1722538014554874
 72
     1
 10
0.5409541056448726
 20
0.1722538014554873
 11
0.545338455201869
 21
0.1808359325032223
 72
     1
 10
0.5453384552018701
 20
0.1808359325032223
 11
0.5490698165269726
 21
0.1882053711202994
 72
     1
 10
0.549069816526973
 20
0.1882053711202996
 11
0.5515884854214162
 21
0.1932427089091875
 72
     1
 10
0.5515884854214148
 20
0.1932427089091872
 11
0.5526146097858177
 21
0.1952016736048658
 72
     1
 10
0.5526146097858194
 20
0.1952016736048658
 11
0.552801177852074
 21
0.195761377803631
 72
     1
 10
0.5528011778520723
 20
0.1957613778036309
 11
0.5533608820508379
 21
0.1970673542674166
 72
     1
 10
0.5533608820508378
 20
0.1970673542674169
 11
0.5542004383489863
 21
0.1990263189630955
 72
     1
 10
0.5542004383489872
 20
0.1990263189630952
 11
0.5550399946471356
 21
0.2012651357581567
 72
     1
 10
0.5550399946471352
 20
0.2012651357581567
 11
0.5555064148127727
 21
0.2001457273606265
 72
     1
 10
0.5555064148127729
 20
0.2001457273606264
 11
0.5560661190115385
 21
0.198933034929968
 72
     1
 10
0.5560661190115379
 20
0.198933034929968
 11
0.5567191072434298
 21
0.197533774433055
 72
     1
 10
0.5567191072434304
 20
0.197533774433055
 11
0.5574653795084506
 21
0.1959479458698865
 72
     1
 10
0.557465379508451
 20
0.1959479458698865
 11
0.5583049358065995
 21
0.1942688332735902
 72
     1
 10
0.5583049358065986
 20
0.1942688332735903
 11
0.5606370366347874
 21
0.1896046316172126
 72
     1
 10
0.5606370366347871
 20
0.1896046316172126
 11
0.5639952618273804
 21
0.1828881812320289
 72
     1
 10
0.5639952618273814
 20
0.1828881812320287
 11
0.5680064752518651
 21
0.1748657543830587
 72
     1
 10
0.5680064752518637
 20
0.1748657543830589
 11
0.57239082480886
 21
0.1661903393021966
 72
     1
 10
0.5723908248088612
 20
0.1661903393021967
 11
0.5765886062996012
 21
0.1577947763207168
 72
     1
 10
0.5765886062996
 20
0.1577947763207165
 11
0.5803199676247008
 21
0.1503320536705122
 72
     1
 10
0.5803199676247015
 20
0.1503320536705122
 11
0.5831184886185295
 21
0.144641727649731
 72
     1
 10
0.5831184886185295
 20
0.144641727649731
 11
0.5791072751940441
 21
0.144641727649731
 72
     1
 10
0.5791072751940436
 20
0.144641727649731
 11
0.5724841088419869
 21
0.144641727649731
 72
     1
 10
0.5724841088419872
 20
0.144641727649731
 11
0.5641818298936356
 21
0.144641727649731
 72
     1
 10
0.5641818298936352
 20
0.144641727649731
 11
0.5550399946471351
 21
0.144641727649731
 72
     1
 10
0.5550399946471352
 20
0.144641727649731
 11
0.5458981594006351
 21
0.144641727649731
 72
     1
 10
0.5458981594006352
 20
0.144641727649731
 11
0.5375958804522815
 21
0.144641727649731
 72
     1
 10
0.5375958804522814
 20
0.144641727649731
 11
0.5310659981333528
 21
0.144641727649731
 72
     1
 10
0.5310659981333524
 20
0.144641727649731
 11
0.5269615006757405
 21
0.144641727649731
 97
        0
 92
        1
 93
      141
 72
     1
 10
0.5656743744236757
 20
0.2277578011663825
 11
0.544405614870593
 21
0.2277578011663825
 72
     1
 10
0.544405614870593
 20
0.2277578011663825
 11
0.4748157261574382
 21
0.0934287934627039
 72
     1
 10
0.4748157261574378
 20
0.0934287934627039
 11
0.4729500454948865
 21
0.0955743262246376
 72
     1
 10
0.4729500454948874
 20
0.0955743262246376
 11
0.4699649564348049
 21
0.0991191194834847
 72
     1
 10
0.4699649564348043
 20
0.0991191194834847
 11
0.4661403110765752
 21
0.1036900371067346
 72
     1
 10
0.4661403110765754
 20
0.1036900371067347
 11
0.4615693934533244
 21
0.1091005110281331
 72
     1
 10
0.461569393453325
 20
0.109100511028133
 11
0.456345487598182
 21
0.1152572572145517
 72
     1
 10
0.4563454875981812
 20
0.1152572572145516
 11
0.4506551615774008
 21
0.1219737075997353
 72
     1
 10
0.4506551615774015
 20
0.1219737075997354
 11
0.4447782674903648
 21
0.1290632941174296
 72
     1
 10
0.4447782674903636
 20
0.1290632941174296
 11
0.4387148053370722
 21
0.1362461646682511
 72
     1
 10
0.4387148053370727
 20
0.1362461646682512
 11
0.4326513431837832
 21
0.1433357511859454
 72
     1
 10
0.4326513431837844
 20
0.1433357511859453
 11
0.4268677331298759
 21
0.1502387696373844
 72
     1
 10
0.4268677331298756
 20
0.1502387696373844
 11
0.4214572592084763
 21
0.1566753679231857
 72
     1
 10
0.4214572592084754
 20
0.1566753679231858
 11
0.4165132054527153
 21
0.1625522620102216
 72
     1
 10
0.4165132054527163
 20
0.1625522620102216
 11
0.4123154239619763
 21
0.1674963157659821
 72
     1
 10
0.4123154239619753
 20
0.1674963157659822
 11
0.4088639147362555
 21
0.1715075291904667
 72
     1
 10
0.4088639147362568
 20
0.1715075291904669
 11
0.4065318139080681
 21
0.1743993342174211
 72
     1
 10
0.4065318139080665
 20
0.1743993342174211
 11
0.405319121477409
 21
0.1757985947143345
 72
     1
 10
0.4053191214774104
 20
0.1757985947143345
 11
0.4067183819743243
 21
0.1769180031118651
 72
     1
 10
0.4067183819743235
 20
0.1769180031118651
 11
0.4094236189350213
 21
0.1788769678075437
 72
     1
 10
0.4094236189350218
 20
0.1788769678075437
 11
0.4132482642932526
 21
0.1816754888013702
 72
     1
 10
0.4132482642932525
 20
0.1816754888013703
 11
0.4179124659496298
 21
0.1852202820602174
 72
     1
 10
0.417912465949629
 20
0.1852202820602174
 11
0.4232296558379
 21
0.189138211451575
 72
     1
 10
0.4232296558379001
 20
0.1891382114515751
 11
0.4291065499249351
 21
0.1935225610085696
 72
     1
 10
0.4291065499249367
 20
0.1935225610085698
 11
0.4352632961113562
 21
0.1981867626649482
 72
     1
 10
0.4352632961113554
 20
0.1981867626649479
 11
0.4416066103640296
 21
0.2028509643213252
 72
     1
 10
0.4416066103640293
 20
0.2028509643213252
 11
0.4479499246167016
 21
0.2076084500108307
 72
     1
 10
0.4479499246167018
 20
0.2076084500108307
 11
0.4540133867699932
 21
0.2120860836009535
 72
     1
 10
0.4540133867699927
 20
0.2120860836009535
 11
0.4596104287576467
 21
0.2162838650916932
 72
     1
 10
0.4596104287576468
 20
0.216283865091693
 11
0.4646477665465351
 21
0.2200152264167952
 72
     1
 10
0.464647766546535
 20
0.2200152264167951
 11
0.4689388320704013
 21
0.223186883543132
 72
     1
 10
0.4689388320704016
 20
0.2231868835431323
 11
0.4721104891967386
 21
0.2256122684044488
 72
     1
 10
0.4721104891967376
 20
0.2256122684044488
 11
0.4742560219586717
 21
0.2271980969676172
 72
     1
 10
0.4742560219586727
 20
0.2271980969676173
 11
0.475002294223693
 21
0.2277578011663825
 72
     1
 10
0.4750022942236929
 20
0.2277578011663825
 11
0.4674462875403612
 21
0.2277578011663825
 72
     1
 10
0.4674462875403611
 20
0.2277578011663825
 11
0.4395543616352215
 21
0.2277578011663825
 72
     1
 10
0.439554361635222
 20
0.2277578011663825
 11
0.4386215213039473
 21
0.2270115289013622
 72
     1
 10
0.4386215213039466
 20
0.2270115289013622
 11
0.4359162843432469
 21
0.2250525642056836
 72
     1
 10
0.4359162843432465
 20
0.2250525642056836
 11
0.4318117868856346
 21
0.2220674751456017
 72
     1
 10
0.4318117868856351
 20
0.2220674751456017
 11
0.4264013129642376
 21
0.2180562617211167
 72
     1
 10
0.4264013129642379
 20
0.2180562617211168
 11
0.4200579987115638
 21
0.2132987760316117
 72
     1
 10
0.4200579987115641
 20
0.2132987760316114
 11
0.4128751281607416
 21
0.2079815861433408
 72
     1
 10
0.4128751281607408
 20
0.2079815861433408
 11
0.4051325534111546
 21
0.20229126012256
 72
     1
 10
0.4051325534111552
 20
0.20229126012256
 11
0.397016842529058
 21
0.1963210820023964
 72
     1
 10
0.3970168425290583
 20
0.1963210820023967
 11
0.3889011316469611
 21
0.1903509038822331
 72
     1
 10
0.3889011316469611
 20
0.190350903882233
 11
0.3808787047979902
 21
0.1844740097951972
 72
     1
 10
0.3808787047979898
 20
0.1844740097951974
 11
0.3733226981146581
 21
0.1787836837744166
 72
     1
 10
0.373322698114658
 20
0.1787836837744166
 11
0.3663263956300919
 21
0.173653061952401
 72
     1
 10
0.3663263956300931
 20
0.173653061952401
 11
0.3601696494436735
 21
0.169082144329151
 72
     1
 10
0.3601696494436726
 20
0.1690821443291508
 11
0.3550390276216579
 21
0.1653507830040483
 72
     1
 10
0.3550390276216584
 20
0.1653507830040482
 11
0.3513076662965558
 21
0.1625522620102218
 72
     1
 10
0.3513076662965551
 20
0.1625522620102216
 11
0.3490688495014928
 21
0.1609664334470531
 72
     1
 10
0.3490688495014926
 20
0.1609664334470531
 11
0.3490688495014926
 21
0.1631119662089868
 72
     1
 10
0.3490688495014926
 20
0.1631119662089868
 11
0.3490688495014926
 21
0.1662836233353237
 72
     1
 10
0.3490688495014926
 20
0.1662836233353238
 11
0.3490688495014926
 21
0.1702948367598088
 72
     1
 10
0.3490688495014926
 20
0.1702948367598088
 11
0.3490688495014926
 21
0.1749590384161865
 72
     1
 10
0.3490688495014926
 20
0.1749590384161865
 11
0.3490688495014926
 21
0.1801829442713294
 72
     1
 10
0.3490688495014926
 20
0.1801829442713296
 11
0.3490688495014926
 21
0.185779986258983
 72
     1
 10
0.3490688495014926
 20
0.1857799862589829
 11
0.3490688495014926
 21
0.1916568803460187
 72
     1
 10
0.3490688495014926
 20
0.1916568803460186
 11
0.3490688495014926
 21
0.1975337744330549
 72
     1
 10
0.3490688495014926
 20
0.197533774433055
 11
0.3490688495014926
 21
0.2033173844869632
 72
     1
 10
0.3490688495014926
 20
0.2033173844869631
 11
0.3490688495014926
 21
0.2088211424414888
 72
     1
 10
0.3490688495014926
 20
0.2088211424414888
 11
0.3490688495014926
 21
0.2139517642635044
 72
     1
 10
0.3490688495014926
 20
0.2139517642635044
 11
0.3490688495014926
 21
0.2185226818867544
 72
     1
 10
0.3490688495014926
 20
0.2185226818867545
 11
0.3490688495014926
 21
0.2222540432118567
 72
     1
 10
0.3490688495014926
 20
0.2222540432118567
 11
0.3490688495014926
 21
0.2252391322719387
 72
     1
 10
0.3490688495014926
 20
0.2252391322719387
 11
0.3490688495014926
 21
0.2271048129344895
 72
     1
 10
0.3490688495014926
 20
0.2271048129344895
 11
0.3490688495014926
 21
0.2277578011663825
 72
     1
 10
0.3490688495014926
 20
0.2277578011663825
 11
0.3258411252527322
 21
0.2277578011663825
 72
     1
 10
0.3258411252527336
 20
0.2277578011663825
 11
0.3258411252527336
 21
0.0926825211976832
 72
     1
 10
0.3258411252527336
 20
0.0926825211976832
 11
0.3486957133689848
 21
0.0926825211976832
 72
     1
 10
0.3486957133689845
 20
0.0926825211976832
 11
0.3486957133689845
 21
0.0943616337939795
 72
     1
 10
0.3486957133689845
 20
0.0943616337939795
 11
0.3486957133689845
 21
0.0988392673841017
 72
     1
 10
0.3486957133689845
 20
0.0988392673841017
 11
0.3486957133689845
 21
0.1051825816367752
 72
     1
 10
0.3486957133689845
 20
0.1051825816367753
 11
0.3486957133689845
 21
0.1125520202538523
 72
     1
 10
0.3486957133689845
 20
0.1125520202538524
 11
0.3486957133689845
 21
0.1200147429040567
 72
     1
 10
0.3486957133689845
 20
0.1200147429040567
 11
0.3486957133689845
 21
0.1267311932892408
 72
     1
 10
0.3486957133689845
 20
0.1267311932892408
 11
0.3486957133689845
 21
0.1317685310781287
 72
     1
 10
0.3486957133689845
 20
0.1317685310781289
 11
0.3486957133689845
 21
0.1342871999725727
 72
     1
 10
0.3486957133689845
 20
0.1342871999725725
 11
0.3507479620977905
 21
0.1356864604694859
 72
     1
 10
0.35074796209779
 20
0.1356864604694859
 11
0.3548524595554018
 21
0.1387648335626952
 72
     1
 10
0.3548524595554015
 20
0.1387648335626952
 11
0.3605427855761835
 21
0.1428693310203079
 72
     1
 10
0.3605427855761842
 20
0.1428693310203079
 11
0.3668860998288565
 21
0.1476268167098129
 72
     1
 10
0.3668860998288568
 20
0.1476268167098129
 11
0.373322698114659
 21
0.1522910183661906
 72
     1
 10
0.373322698114658
 20
0.1522910183661908
 11
0.3791995922016947
 21
0.1565820838900582
 72
     1
 10
0.3791995922016946
 20
0.1565820838900582
 11
0.3836772257918156
 21
0.1599403090826502
 72
     1
 10
0.3836772257918159
 20
0.1599403090826503
 11
0.386195894686261
 21
0.1618059897452011
 72
     1
 10
0.3861958946862609
 20
0.1618059897452011
 11
0.3873153030837921
 21
0.1604067292482882
 72
     1
 10
0.3873153030837915
 20
0.1604067292482878
 11
0.3894608358457238
 21
0.1577947763207163
 72
     1
 10
0.3894608358457248
 20
0.1577947763207165
 11
0.3925392089389353
 21
0.1541566990287417
 72
     1
 10
0.3925392089389348
 20
0.1541566990287417
 11
0.396457138330292
 21
0.149492497372364
 72
     1
 10
0.3964571383302933
 20
0.149492497372364
 11
0.4009347719204161
 21
0.1442685915172211
 72
     1
 10
0.4009347719204146
 20
0.1442685915172209
 11
0.4057855416430466
 21
0.138391697430185
 72
     1
 10
0.4057855416430463
 20
0.1383916974301853
 11
0.4109161634650628
 21
0.1322349512437666
 72
     1
 10
0.410916163465064
 20
0.1322349512437666
 11
0.4162333533533335
 21
0.1259849210242201
 72
     1
 10
0.4162333533533334
 20
0.1259849210242201
 11
0.4215505432416044
 21
0.1196416067715466
 72
     1
 10
0.4215505432416045
 20
0.1196416067715466
 11
0.4265878810304927
 21
0.113671428651383
 72
     1
 10
0.4265878810304931
 20
0.1136714286513832
 11
0.4312520826868704
 21
0.1079811026306024
 72
     1
 10
0.4312520826868696
 20
0.1079811026306024
 11
0.4355431482107378
 21
0.1029437648417141
 72
     1
 10
0.435543148210738
 20
0.1029437648417139
 11
0.4390879414695842
 21
0.0987459833509739
 72
     1
 10
0.4390879414695843
 20
0.0987459833509741
 11
0.4417931784302841
 21
0.0954810421915098
 72
     1
 10
0.4417931784302845
 20
0.0954810421915096
 11
0.4435655750597076
 21
0.0934287934627037
 72
     1
 10
0.4435655750597074
 20
0.0934287934627039
 11
0.4442185632915993
 21
0.0926825211976832
 72
     1
 10
0.4442185632915985
 20
0.0926825211976832
 11
0.4743493059918004
 21
0.0926825211976832
 72
     1
 10
0.4743493059918001
 20
0.0926825211976832
 11
0.4753754303562029
 21
0.0926825211976832
 72
     1
 10
0.4753754303562033
 20
0.0926825211976832
 11
0.5008419714000258
 21
0.0926825211976832
 72
     1
 10
0.5008419714000265
 20
0.0926825211976832
 11
0.5014949596319184
 21
0.0939884976614689
 72
     1
 10
0.501494959631919
 20
0.0939884976614688
 11
0.5031740722282155
 21
0.0973467228540609
 72
     1
 10
0.503174072228215
 20
0.0973467228540612
 11
0.5055061730564038
 21
0.1021042085435666
 72
     1
 10
0.505506173056403
 20
0.1021042085435665
 11
0.5083046940502291
 21
0.1077012505312196
 72
     1
 10
0.5083046940502292
 20
0.1077012505312194
 11
0.5111032150440553
 21
0.1134848605851279
 72
     1
 10
0.5111032150440549
 20
0.1134848605851281
 11
0.5137151679716264
 21
0.1186154824071433
 72
     1
 10
0.5137151679716277
 20
0.1186154824071433
 11
0.5156741326673071
 21
0.1226266958316283
 72
     1
 10
0.5156741326673076
 20
0.122626695831628
 11
0.5167002570317104
 21
0.1247722285935621
 72
     1
 10
0.5167002570317103
 20
0.1247722285935622
 11
0.5180062334954961
 21
0.1247722285935622
 72
     1
 10
0.5180062334954961
 20
0.1247722285935622
 11
0.5207114704561957
 21
0.1247722285935622
 72
     1
 10
0.5207114704561944
 20
0.1247722285935622
 11
0.5246293998475517
 21
0.1247722285935622
 72
     1
 10
0.5246293998475525
 20
0.1247722285935622
 11
0.5295734536033125
 21
0.1247722285935622
 72
     1
 10
0.5295734536033115
 20
0.1247722285935622
 11
0.5352637796240919
 21
0.1247722285935622
 72
     1
 10
0.5352637796240929
 20
0.1247722285935622
 11
0.5415138098436386
 21
0.1247722285935622
 72
     1
 10
0.5415138098436394
 20
0.1247722285935622
 11
0.5482302602288245
 21
0.1247722285935622
 72
     1
 10
0.5482302602288236
 20
0.1247722285935622
 11
0.5551332786802616
 21
0.1247722285935622
 72
     1
 10
0.5551332786802608
 20
0.1247722285935622
 11
0.5620362971317004
 21
0.1247722285935622
 72
     1
 10
0.5620362971317015
 20
0.1247722285935622
 11
0.5687527475168847
 21
0.1247722285935622
 72
     1
 10
0.5687527475168839
 20
0.1247722285935622
 11
0.5750027777364317
 21
0.1247722285935622
 72
     1
 10
0.5750027777364322
 20
0.1247722285935622
 11
0.5806931037572126
 21
0.1247722285935622
 72
     1
 10
0.5806931037572119
 20
0.1247722285935622
 11
0.585637157512972
 21
0.1247722285935622
 72
     1
 10
0.5856371575129727
 20
0.1247722285935622
 11
0.5895550869043299
 21
0.1247722285935622
 72
     1
 10
0.5895550869043289
 20
0.1247722285935622
 11
0.5922603238650286
 21
0.1247722285935622
 72
     1
 10
0.5922603238650291
 20
0.1247722285935622
 11
0.5935663003288148
 21
0.1247722285935622
 72
     1
 10
0.5935663003288148
 20
0.1247722285935622
 11
0.5945924246932176
 21
0.1226266958316281
 72
     1
 10
0.5945924246932175
 20
0.122626695831628
 11
0.5965513893888953
 21
0.1186154824071431
 72
     1
 10
0.5965513893888957
 20
0.1186154824071433
 11
0.5991633423164672
 21
0.1134848605851281
 72
     1
 10
0.5991633423164667
 20
0.1134848605851281
 11
0.6019618633102946
 21
0.1077012505312196
 72
     1
 10
0.6019618633102959
 20
0.1077012505312194
 11
0.604760384304122
 21
0.1021042085435664
 72
     1
 10
0.6047603843041221
 20
0.1021042085435665
 11
0.6070924851323109
 21
0.0973467228540611
 72
     1
 10
0.6070924851323101
 20
0.0973467228540612
 11
0.6087715977286067
 21
0.0939884976614691
 72
     1
 10
0.6087715977286062
 20
0.0939884976614688
 11
0.609424585960498
 21
0.0926825211976832
 72
     1
 10
0.6094245859604986
 20
0.0926825211976832
 11
0.6363836715343633
 21
0.0926825211976832
 72
     1
 10
0.6363836715343641
 20
0.0926825211976832
 11
0.5671669189537184
 21
0.2277578011663825
 72
     1
 10
0.5671669189537179
 20
0.2277578011663825
 11
0.5656743744236758
 21
0.2277578011663825
 97
        0
 75
     0
 76
     1
 98
        1
 10
-0.3743130907707726
 20
-0.2500502867693841
1001
ACAD
1010
0.0
1020
0.0
1030
0.0
  0
HATCH
  5
87B4
330
87AB
100
AcDbEntity
  8
Kawneer Logo-English
100
AcDbHatch
 10
0.0
 20
0.0
 30
0.0
210
0.0
220
0.0
230
1.0
  2
SOLID
 70
     1
 71
     0
 91
        1
 92
        1
 93
       69
 72
     1
 10
0.8092389849197205
 20
0.2277578011663825
 11
0.778921674153266
 21
0.1309289747799811
 72
     1
 10
0.778921674153267
 20
0.1309289747799809
 11
0.7781754018882468
 21
0.1287834420180468
 72
     1
 10
0.7781754018882468
 20
0.1287834420180467
 11
0.7776156976894812
 21
0.1270110453886236
 72
     1
 10
0.7776156976894813
 20
0.1270110453886237
 11
0.7771492775238438
 21
0.1253319327923275
 72
     1
 10
0.7771492775238436
 20
0.1253319327923274
 11
0.7766828573582045
 21
0.1238393882622867
 72
     1
 10
0.7766828573582046
 20
0.1238393882622866
 11
0.7764030052588217
 21
0.1248655126266895
 72
     1
 10
0.776403005258822
 20
0.1248655126266896
 11
0.7761231531594392
 21
0.1259849210242202
 72
     1
 10
0.7761231531594391
 20
0.1259849210242201
 11
0.7759365850931844
 21
0.1268244773223681
 72
     1
 10
0.7759365850931843
 20
0.1268244773223682
 11
0.7758433010600562
 21
0.1271976134548783
 72
     1
 10
0.7758433010600552
 20
0.1271976134548783
 11
0.7755634489606744
 21
0.1280371697530267
 72
     1
 10
0.775563448960674
 20
0.1280371697530267
 11
0.7750970287950349
 21
0.1291565781505569
 72
     1
 10
0.7750970287950363
 20
0.1291565781505568
 11
0.773977620397507
 21
0.1323282352768938
 72
     1
 10
0.7739776203975062
 20
0.1323282352768939
 11
0.7721119397349549
 21
0.1372722890326544
 72
     1
 10
0.7721119397349554
 20
0.1372722890326546
 11
0.7697798389067666
 21
0.1436156032853281
 72
     1
 10
0.769779838906767
 20
0.1436156032853281
 11
0.7670746019460673
 21
0.1511716099686602
 72
     1
 10
0.7670746019460668
 20
0.15117160996866
 11
0.7639962288528581
 21
0.1595671729501399
 72
     1
 10
0.7639962288528582
 20
0.15956717295014
 11
0.7606380036602665
 21
0.1686157241635125
 72
     1
 10
0.7606380036602652
 20
0.1686157241635125
 11
0.7572797784676718
 21
0.1778508434431408
 72
     1
 10
0.7572797784676726
 20
0.1778508434431408
 11
0.753921553275081
 21
0.187179246755896
 72
     1
 10
0.7539215532750814
 20
0.1871792467558961
 11
0.7505633280824898
 21
0.1962277979692689
 72
     1
 10
0.7505633280824902
 20
0.1962277979692689
 11
0.7474849549892814
 21
0.2046233609507488
 72
     1
 10
0.7474849549892797
 20
0.2046233609507488
 11
0.74477971802858
 21
0.2121793676340809
 72
     1
 10
0.7447797180285814
 20
0.2121793676340809
 11
0.7424476172003926
 21
0.2185226818867544
 72
     1
 10
0.7424476172003929
 20
0.2185226818867545
 11
0.7405819365378416
 21
0.2234667356425151
 72
     1
 10
0.7405819365378408
 20
0.2234667356425151
 11
0.7394625281403098
 21
0.2266383927688516
 72
     1
 10
0.7394625281403103
 20
0.2266383927688516
 11
0.7390893920078009
 21
0.2277578011663822
 72
     1
 10
0.7390893920078004
 20
0.2277578011663825
 11
0.7191266089185034
 21
0.2277578011663825
 72
     1
 10
0.7191266089185029
 20
0.2277578011663825
 11
0.6843316645619254
 21
0.1336342117406798
 72
     1
 10
0.6843316645619267
 20
0.1336342117406795
 11
0.6832122561643957
 21
0.130649122680598
 72
     1
 10
0.6832122561643961
 20
0.1306491226805981
 11
0.6823726998662476
 21
0.1282237378192816
 72
     1
 10
0.6823726998662468
 20
0.1282237378192818
 11
0.6817197116343549
 21
0.1260782050573481
 72
     1
 10
0.6817197116343552
 20
0.1260782050573481
 11
0.6811600074355896
 21
0.1241192403616695
 72
     1
 10
0.6811600074355884
 20
0.1241192403616695
 11
0.6808801553362055
 21
0.1250520806929446
 72
     1
 10
0.6808801553362059
 20
0.1250520806929445
 11
0.6805070192036949
 21
0.1261714890904751
 72
     1
 10
0.680507019203696
 20
0.1261714890904752
 11
0.6802271671043131
 21
0.1272908974880058
 72
     1
 10
0.680227167104313
 20
0.1272908974880061
 11
0.6798540309718037
 21
0.1286901579849195
 72
     1
 10
0.6798540309718031
 20
0.1286901579849194
 11
0.6794808948392922
 21
0.12980956638245
 72
     1
 10
0.6794808948392932
 20
0.1298095663824503
 11
0.6784547704748904
 21
0.1328879394756595
 72
     1
 10
0.67845477047489
 20
0.1328879394756595
 11
0.6769622259448497
 21
0.1378319932314196
 72
     1
 10
0.6769622259448496
 20
0.1378319932314196
 11
0.6750032612491701
 21
0.1441753074840938
 72
     1
 10
0.6750032612491697
 20
0.1441753074840937
 11
0.6725778763878547
 21
0.1516380301342981
 72
     1
 10
0.6725778763878556
 20
0.1516380301342981
 11
0.6699659234602841
 21
0.160033593115778
 72
     1
 10
0.6699659234602829
 20
0.160033593115778
 11
0.6671674024664549
 21
0.168988860296023
 72
     1
 10
0.6671674024664554
 20
0.168988860296023
 11
0.6642755974395012
 21
0.1782239795756509
 72
     1
 10
0.6642755974395019
 20
0.178223979575651
 11
0.6613837924125477
 21
0.1874590988552789
 72
     1
 10
0.6613837924125466
 20
0.1874590988552789
 11
0.6585852714187205
 21
0.1964143660355239
 72
     1
 10
0.6585852714187204
 20
0.1964143660355237
 11
0.6559733184911489
 21
0.2047166449838762
 72
     1
 10
0.6559733184911494
 20
0.2047166449838765
 11
0.6536412176629606
 21
0.2122726516672082
 72
     1
 10
0.6536412176629614
 20
0.2122726516672082
 11
0.6515889689341538
 21
0.2186159659198823
 72
     1
 10
0.6515889689341537
 20
0.2186159659198821
 11
0.6500964244041133
 21
0.2234667356425149
 72
     1
 10
0.6500964244041132
 20
0.2234667356425151
 11
0.6490703000397104
 21
0.2266383927688516
 72
     1
 10
0.6490703000397105
 20
0.2266383927688516
 11
0.6487904479403276
 21
0.2277578011663822
 72
     1
 10
0.648790447940328
 20
0.2277578011663825
 11
0.6237903270621445
 21
0.2277578011663825
 72
     1
 10
0.6237903270621437
 20
0.2277578011663825
 11
0.6676338226320932
 21
0.0926825211976832
 72
     1
 10
0.6676338226320926
 20
0.0926825211976832
 11
0.6922608073777669
 21
0.0926825211976832
 72
     1
 10
0.6922608073777666
 20
0.0926825211976832
 11
0.726029627369941
 21
0.1855001341596003
 72
     1
 10
0.7260296273699423
 20
0.1855001341596003
 11
0.7269624677012189
 21
0.1882986551534267
 72
     1
 10
0.7269624677012177
 20
0.1882986551534266
 11
0.7278020239993661
 21
0.1906307559816158
 72
     1
 10
0.727802023999367
 20
0.1906307559816159
 11
0.7284550122312589
 21
0.1927762887435496
 72
     1
 10
0.7284550122312581
 20
0.1927762887435495
 11
0.7290147164300237
 21
0.1947352534392281
 72
     1
 10
0.7290147164300232
 20
0.1947352534392282
 11
0.7298542727281716
 21
0.192216584544784
 72
     1
 10
0.729854272728173
 20
0.1922165845447839
 11
0.7306938290263214
 21
0.1894180635509575
 72
     1
 10
0.7306938290263206
 20
0.1894180635509575
 11
0.7318132374238499
 21
0.1863396904577483
 72
     1
 10
0.7318132374238511
 20
0.1863396904577481
 11
0.7331192138876387
 21
0.1827016131657736
 72
     1
 10
0.7331192138876382
 20
0.1827016131657737
 11
0.7654887733828987
 21
0.0926825211976834
 72
     1
 10
0.7654887733828986
 20
0.0926825211976832
 11
0.7895560539298075
 21
0.0926825211976832
 72
     1
 10
0.7895560539298075
 20
0.0926825211976832
 11
0.8341458217647785
 21
0.2277578011663825
 72
     1
 10
0.8341458217647783
 20
0.2277578011663825
 11
0.830601028505932
 21
0.2277578011663825
 72
     1
 10
0.8306010285059324
 20
0.2277578011663825
 11
0.8092389849197216
 21
0.2277578011663825
 97
        0
 75
     0
 76
     1
 98
        1
 10
-0.3743130907707726
 20
-0.2500502867693841
1001
ACAD
1010
0.0
1020
0.0
1030
0.0
  0
ENDBLK
  5
87B8
330
87AB
100
AcDbEntity
  8
0
100
AcDbBlockEnd
  0
ENDSEC
  0
SECTION
  2
ENTITIES
  0
TEXT
  5
206E
330
17
100
AcDbEntity
  8
0
  6
Continuous
 62
     7
100
AcDbText
 10
47.01493408066474
 20
5.010874714638497
 30
0.0
 40
0.375
  1
VERTICAL MULLION
 72
     1
 11
49.53301047902764
 21
5.010874714638497
 31
0.0
100
AcDbText
  0
MTEXT
  5
207A
330
17
100
AcDbEntity
  8
0
100
AcDbMText
 10
46.45461269695144
 20
18.42810404255896
 30
0.0
 40
0.375
 41
15.25
 71
     2
 72
     5
  1
ELEVATION SCALE: 1/8" = 1'-0"
 73
     1
 44
1.0
1001
ACAD
1000
MTEXTBEGIN
1070
    73
1070
     1
1070
    44
1040
1.0
1070
    74
1070
     0
1000
MTEXTEND
  0
TEXT
  5
207B
330
17
100
AcDbEntity
  8
0
  6
Continuous
100
AcDbText
 10
42.77411289253363
 20
18.8578867856469
 30
0.0
 40
0.5
  1
TYPICAL ELEVATION
 72
     1
 11
46.2870733290957
 21
18.8578867856469
 31
0.0
100
AcDbText
  0
MTEXT
  5
2082
330
17
100
AcDbEntity
  8
0
 62
     2
100
AcDbMText
 10
19.60790140209769
 20
6.884496034123785
 30
0.0
 40
0.375
 41
11.91800541288839
 71
     2
 72
     5
  1
DETAIL SCALE: 1" = 1"
 73
     1
 44
1.0
1001
ACAD
1000
MTEXTBEGIN
1070
    73
1070
     1
1070
    44
1040
1.0
1070
    74
1070
     0
1000
MTEXTEND
  0
LINE
  5
2085
330
17
100
AcDbEntity
  8
0
100
AcDbLine
 10
0.0
 20
0.0
 30
0.0
 11
0.0
 21
42.16016963571056
 31
0.0
  0
LINE
  5
2088
330
17
100
AcDbEntity
  8
0
100
AcDbLine
 10
0.0
 20
0.0
 30
0.0
 11
67.85899319401801
 21
0.0
 31
0.0
  0
MTEXT
  5
2099
330
17
100
AcDbEntity
  8
0
 62
     2
100
AcDbMText
 10
19.60790140209769
 20
10.86070015546551
 30
0.0
 40
0.5
 41
21.76609854099473
 71
     2
 72
     5
  1
TRIFAB™ VG 450 FRAMING SYSTEM 2" SIGHTLINE \PFRONT SET - STICK ASSEMBLY INSIDE GLAZED\P(1/4" INFILL)
 73
     1
 44
1.0
1001
ACAD
1000
MTEXTBEGIN
1070
    73
1070
     1
1070
    44
1040
1.0
1070
    74
1070
     0
1000
MTEXTEND
  0
MTEXT
  5
2FFF
330
17
100
AcDbEntity
  8
0
 62
     7
100
AcDbMText
 10
5.146880908301227
 20
25.68058231623008
 30
0.0
 40
0.375
 41
7.34375
 71
     2
 72
     5
  1
HORIZONTAL
 73
     1
 44
1.0
1001
ACAD
1000
MTEXTBEGIN
1070
    73
1070
     1
1070
    44
1040
1.0
1070
    74
1070
     0
1000
MTEXTEND
  0
TEXT
  5
4558
330
17
100
AcDbEntity
  8
0
  6
Continuous
 62
     2
100
AcDbText
 10
3.888453724269251
 20
26.16304839564416
 30
0.0
 40
0.375
  1
DETAIL 2
 72
     1
 11
5.023941445960929
 21
26.16304839564416
 31
0.0
100
AcDbText
  0
TEXT
  5
455C
330
17
100
AcDbEntity
  8
0
  6
Continuous
 62
     2
100
AcDbText
 10
3.888453724269251
 20
35.94837481697757
 30
0.0
 40
0.375
  1
DETAIL 1
 72
     1
 11
5.023941445960929
 21
35.94837481697757
 31
0.0
100
AcDbText
  0
LINE
  5
4562
330
17
100
AcDbEntity
  8
0
 62
     2
100
AcDbLine
 10
43.25057492896038
 20
22.86486771112079
 30
0.0
 11
43.25057492896038
 21
21.2024371020867
 31
0.0
  0
TEXT
  5
4565
330
17
100
AcDbEntity
  8
0
  6
Continuous
 62
     2
100
AcDbText
 10
29.5448957239636
 20
32.3019991782549
 30
0.0
 40
0.375
  1
DETAIL 4
 72
     1
 11
30.68038344565528
 21
32.3019991782549
 31
0.0
100
AcDbText
  0
TEXT
  5
4567
330
17
100
AcDbEntity
  8
0
  6
Continuous
 62
     2
100
AcDbText
 10
41.95505914596938
 20
32.3019991782549
 30
0.0
 40
0.375
  1
DETAIL 5
 72
     1
 11
43.09054686766105
 21
32.3019991782549
 31
0.0
100
AcDbText
  0
LINE
  5
4569
330
17
100
AcDbEntity
  8
0
 62
     2
100
AcDbLine
 10
34.92640534673061
 20
32.57550013853423
 30
0.0
 11
33.09662683951061
 21
32.57550013853423
 31
0.0
  0
LINE
  5
456B
330
17
100
AcDbEntity
  8
0
 62
     2
100
AcDbLine
 10
47.36268232945903
 20
32.57550013853423
 30
0.0
 11
45.53290382223903
 21
32.57550013853423
 31
0.0
  0
TEXT
  5
456F
330
17
100
AcDbEntity
  8
0
  6
Continuous
 62
     2
100
AcDbText
 10
42.13197603563722
 20
27.87361239128761
 30
0.0
 40
0.375
  1
DETAIL 2
 72
     1
 11
43.2674637573289
 21
27.87361239128761
 31
0.0
100
AcDbText
  0
LINE
  5
4570
330
17
100
AcDbEntity
  8
0
 62
     2
100
AcDbLine
 10
43.25057492896033
 20
27.57966008881208
 30
0.0
 11
43.25057492896033
 21
25.91722947977799
 31
0.0
  0
TEXT
  5
4571
330
17
100
AcDbEntity
  8
0
  6
Continuous
 62
     2
100
AcDbText
 10
42.15507373357801
 20
38.21345805181504
 30
0.0
 40
0.375
  1
DETAIL 1
 72
     1
 11
43.29056145526968
 21
38.21345805181504
 31
0.0
100
AcDbText
  0
LINE
  5
4572
330
17
100
AcDbEntity
  8
0
 62
     2
100
AcDbLine
 10
43.25057492896033
 20
37.83161635235375
 30
0.0
 11
43.25057492896033
 21
36.16918574331966
 31
0.0
  0
TEXT
  5
457D
330
17
100
AcDbEntity
  8
0
  6
Continuous
 62
     2
100
AcDbText
 10
48.41266545218528
 20
5.810610442187048
 30
0.0
 40
0.375
  1
DETAIL 5
 72
     1
 11
49.54815317387695
 21
5.810610442187048
 31
0.0
100
AcDbText
  0
TEXT
  5
4582
330
17
100
AcDbEntity
  8
0
  6
Continuous
 62
     2
100
AcDbText
 10
3.888453724269251
 20
18.72474008254273
 30
0.0
 40
0.375
  1
DETAIL 3
 72
     1
 11
5.023941445960929
 21
18.72474008254273
 31
0.0
100
AcDbText
  0
TEXT
  5
47E4
330
17
100
AcDbEntity
  8
0
  6
Continuous
 62
     2
100
AcDbText
 10
42.15507403658981
 20
20.38988575338219
 30
0.0
 40
0.375
  1
DETAIL 3
 72
     1
 11
43.29056175828148
 21
20.38988575338219
 31
0.0
100
AcDbText
  0
LINE
  5
4AC6
330
17
100
AcDbEntity
  8
0
100
AcDbLine
 10
33.87382872072834
 20
37.06192812137428
 30
0.0
 11
58.70582872072833
 21
37.06192812137427
 31
0.0
  0
LINE
  5
4AC7
330
17
100
AcDbEntity
  8
0
100
AcDbLine
 10
58.70582872072833
 20
22.21392812137427
 30
0.0
 11
33.87382872072834
 21
22.21392812137428
 31
0.0
  0
LINE
  5
4AC8
330
17
100
AcDbEntity
  8
0
100
AcDbLine
 10
40.01782872072834
 20
26.82192812137428
 30
0.0
 11
34.12982872072834
 21
26.82192812137428
 31
0.0
  0
LINE
  5
4AC9
330
17
100
AcDbEntity
  8
0
100
AcDbLine
 10
40.01782872072834
 20
26.56592812137429
 30
0.0
 11
34.12982872072834
 21
26.56592812137429
 31
0.0
  0
LINE
  5
4ACA
330
17
100
AcDbEntity
  8
0
100
AcDbLine
 10
33.87382872072834
 20
37.31792812137428
 30
0.0
 11
58.70582872072834
 21
37.31792812137428
 31
0.0
  0
LINE
  5
4ACB
330
17
100
AcDbEntity
  8
0
100
AcDbLine
 10
58.70582872072834
 20
21.95792812137428
 30
0.0
 11
33.87382872072834
 21
21.95792812137428
 31
0.0
  0
LINE
  5
4ACC
330
17
100
AcDbEntity
  8
0
100
AcDbLine
 10
33.87382872072834
 20
21.95792812137428
 30
0.0
 11
33.87382872072834
 21
37.31792812137428
 31
0.0
  0
LINE
  5
4ACD
330
17
100
AcDbEntity
  8
0
100
AcDbLine
 10
34.12982872072834
 20
22.21392812137428
 30
0.0
 11
34.12982872072834
 21
37.06192812137428
 31
0.0
  0
LINE
  5
4ACE
330
17
100
AcDbEntity
  8
0
100
AcDbLine
 10
46.41782872072833
 20
22.21392812137428
 30
0.0
 11
46.41782872072833
 21
37.06192812137427
 31
0.0
  0
LINE
  5
4ACF
330
17
100
AcDbEntity
  8
0
100
AcDbLine
 10
52.56182872072834
 20
22.21392812137427
 30
0.0
 11
52.56182872072834
 21
37.06192812137428
 31
0.0
  0
LINE
  5
4AD0
330
17
100
AcDbEntity
  8
0
100
AcDbLine
 10
52.30582872072833
 20
22.21392812137427
 30
0.0
 11
52.30582872072834
 21
37.06192812137428
 31
0.0
  0
LINE
  5
4AD1
330
17
100
AcDbEntity
  8
0
100
AcDbLine
 10
58.44982872072833
 20
22.21392812137427
 30
0.0
 11
58.44982872072833
 21
37.06192812137428
 31
0.0
  0
LINE
  5
4AD2
330
17
100
AcDbEntity
  8
0
100
AcDbLine
 10
58.70582872072834
 20
21.95792812137428
 30
0.0
 11
58.70582872072834
 21
37.31792812137428
 31
0.0
  0
LINE
  5
4AD3
330
17
100
AcDbEntity
  8
0
100
AcDbLine
 10
46.16182872072834
 20
22.21392812137428
 30
0.0
 11
46.16182872072833
 21
37.06192812137427
 31
0.0
  0
LINE
  5
4AD4
330
17
100
AcDbEntity
  8
0
100
AcDbLine
 10
40.27382872072834
 20
22.21392812137428
 30
0.0
 11
40.27382872072834
 21
37.06192812137428
 31
0.0
  0
LINE
  5
4AD5
330
17
100
AcDbEntity
  8
0
100
AcDbLine
 10
40.01782872072833
 20
22.21392812137428
 30
0.0
 11
40.01782872072834
 21
37.06192812137428
 31
0.0
  0
LINE
  5
4ADA
330
17
100
AcDbEntity
  8
0
100
AcDbLine
 10
58.44982872072833
 20
26.82192812137428
 30
0.0
 11
52.56182872072833
 21
26.82192812137428
 31
0.0
  0
LINE
  5
4ADB
330
17
100
AcDbEntity
  8
0
100
AcDbLine
 10
58.44982872072833
 20
26.56592812137429
 30
0.0
 11
52.56182872072833
 21
26.56592812137429
 31
0.0
  0
LINE
  5
4ADC
330
17
100
AcDbEntity
  8
0
100
AcDbLine
 10
52.30582872072833
 20
26.82192812137428
 30
0.0
 11
46.41782872072835
 21
26.82192812137428
 31
0.0
  0
LINE
  5
4ADD
330
17
100
AcDbEntity
  8
0
100
AcDbLine
 10
52.30582872072833
 20
26.56592812137429
 30
0.0
 11
46.41782872072835
 21
26.56592812137429
 31
0.0
  0
LINE
  5
4ADE
330
17
100
AcDbEntity
  8
0
100
AcDbLine
 10
46.16182872072833
 20
26.82192812137428
 30
0.0
 11
40.27382872072834
 21
26.82192812137428
 31
0.0
  0
LINE
  5
4ADF
330
17
100
AcDbEntity
  8
0
100
AcDbLine
 10
46.16182872072833
 20
26.56592812137429
 30
0.0
 11
40.27382872072834
 21
26.56592812137429
 31
0.0
  0
TEXT
  5
4AEA
330
17
100
AcDbEntity
  8
0
  6
Continuous
 62
     2
100
AcDbText
 10
61.13065077829052
 20
32.3019991782549
 30
0.0
 40
0.375
  1
DETAIL 4 OPP.
 72
     1
 11
62.96485098292899
 21
32.3019991782549
 31
0.0
100
AcDbText
  0
LINE
  5
4AEB
330
17
100
AcDbEntity
  8
0
 62
     2
100
AcDbLine
 10
59.59106230949257
 20
32.57550013853423
 30
0.0
 11
57.76128380227257
 21
32.57550013853423
 31
0.0
  0
TEXT
  5
4E5C
330
17
100
AcDbEntity
  8
0
  6
Continuous
 62
     2
100
AcDbText
 10
40.43320803379339
 20
5.804567590763774
 30
0.0
 40
0.375
  1
DETAIL 4
 72
     1
 11
41.56869575548507
 21
5.804567590763774
 31
0.0
100
AcDbText
  0
TEXT
  5
4E5D
330
17
100
AcDbEntity
  8
0
  6
Continuous
 62
     7
100
AcDbText
 10
40.85496847673397
 20
5.015190477163137
 30
0.0
 40
0.375
  1
JAMB
 72
     1
 11
41.55355306063575
 21
5.015190477163137
 31
0.0
100
AcDbText
  0
MTEXT
  5
51E8
330
17
100
AcDbEntity
  8
0
 62
     7
100
AcDbMText
 10
5.146880908301227
 20
18.34319222330423
 30
0.0
 40
0.375
 41
7.34375
 71
     2
 72
     5
  1
SILL
 73
     1
 44
1.0
1001
ACAD
1000
MTEXTBEGIN
1070
    73
1070
     1
1070
    44
1040
1.0
1070
    74
1070
     0
1000
MTEXTEND
  0
MTEXT
  5
51EC
330
17
100
AcDbEntity
  8
0
 62
     7
100
AcDbMText
 10
5.146880908301227
 20
35.57281025079598
 30
0.0
 40
0.375
 41
7.34375
 71
     2
 72
     5
  1
HEAD
 73
     1
 44
1.0
1001
ACAD
1000
MTEXTBEGIN
1070
    73
1070
     1
1070
    44
1040
1.0
1070
    74
1070
     0
1000
MTEXTEND
  0
TEXT
  5
66C5
330
17
100
AcDbEntity
  8
PART_NUMBERS
100
AcDbText
 10
16.93386514323079
 20
18.66575188406497
 30
0.0
 40
0.25
  1
450VG007 INSERT
100
AcDbText
  0
TEXT
  5
6703
330
17
100
AcDbEntity
  8
PART_NUMBERS
100
AcDbText
 10
17.00857644523164
 20
36.32679376698104
 30
0.0
 40
0.25
  1
450VG108 INSERT
100
AcDbText
  0
TEXT
  5
6704
330
17
100
AcDbEntity
  8
PART_NUMBERS
100
AcDbText
 10
17.00857644523164
 20
36.82679376698104
 30
0.0
 40
0.25
  1
450VG006 UNEQUAL LEG RECEPTOR
100
AcDbText
  0
TEXT
  5
674C
330
17
100
AcDbEntity
  8
PART_NUMBERS
100
AcDbText
 10
16.72589940133596
 20
26.53654574781387
 30
0.0
 40
0.25
  1
134WC111 HORIZONTAL
100
AcDbText
  0
TEXT
  5
674E
330
17
100
AcDbEntity
  8
PART_NUMBERS
100
AcDbText
 10
16.72589940133596
 20
25.53126711038347
 30
0.0
 40
0.25
  1
450VG525 SHEAR BLOCK PKG
100
AcDbText
  0
TEXT
  5
674F
330
17
100
AcDbEntity
  8
PART_NUMBERS
100
AcDbText
 10
16.72589940133596
 20
26.03126711038346
 30
0.0
 40
0.25
  1
450VG104 GLASS STOP
100
AcDbText
  0
TEXT
  5
68E3
330
17
100
AcDbEntity
  8
PART_NUMBERS
100
AcDbText
 10
39.52664329270437
 20
15.53716293024602
 30
0.0
 40
0.25
  1
450126 SHIM SUPPORT
100
AcDbText
  0
TEXT
  5
68E4
330
17
100
AcDbEntity
  8
PART_NUMBERS
100
AcDbText
 10
39.52664329270437
 20
15.04403007975735
 30
0.0
 40
0.25
  1
134WC001 JAMB
100
AcDbText
  0
TEXT
  5
709E
330
17
100
AcDbEntity
  8
PART_NUMBERS
100
AcDbText
 10
47.26017175386235
 20
15.10204874547042
 30
0.0
 40
0.25
  1
134WC005 MULLION
100
AcDbText
  0
TEXT
  5
7491
330
17
100
AcDbEntity
  8
PART_NUMBERS
100
AcDbText
 10
16.93386514323079
 20
18.12976161028297
 30
0.0
 40
0.25
  1
450VG106 EQUAL LEG RECEPTOR
100
AcDbText
  0
LINE
  5
77D9
330
17
100
AcDbEntity
  8
R-SWTS-DET1
100
AcDbLine
 10
16.22141717627561
 20
37.66111793385996
 30
0.0
 11
12.72583534007461
 21
37.66111793385997
 31
0.0
  0
LWPOLYLINE
  5
77DD
330
17
100
AcDbEntity
  8
R-SWTS-DET1
100
AcDbPolyline
 90
        6
 70
     0
 43
0.0
 10
16.46401257223181
 20
34.0847814351489
 10
14.06402257223182
 20
34.0847814351489
 10
14.01400257223182
 20
33.8848014351489
 10
13.91402257223181
 20
34.2847814351489
 10
13.86402257223181
 20
34.0847814351489
 10
11.46401257223181
 20
34.0847814351489
  0
LINE
  5
77DE
330
17
100
AcDbEntity
  8
R-SWTS-DET3
100
AcDbLine
 10
16.59769717627559
 20
38.34861793385996
 30
0.0
 11
11.19039722158058
 21
38.34861793385996
 31
0.0
  0
LINE
  5
77E2
330
17
100
AcDbEntity
  8
R-SWTS-DET3
100
AcDbLine
 10
15.96846622187232
 20
38.09861793385996
 30
0.0
 11
11.97661331774252
 21
38.34861793385996
 31
0.0
  0
LINE
  5
77E3
330
17
100
AcDbEntity
  8
R-SWTS-DET3
100
AcDbLine
 10
11.97661331774252
 20
38.09861793385996
 30
0.0
 11
15.96846622187232
 21
38.34861793385996
 31
0.0
  0
LINE
  5
77E4
330
17
100
AcDbEntity
  8
R-SWTS-DET3
100
AcDbLine
 10
11.97661331774252
 20
38.34861793385996
 30
0.0
 11
15.96846622187232
 21
38.34861793385996
 31
0.0
  0
LINE
  5
77E5
330
17
100
AcDbEntity
  8
R-SWTS-DET3
100
AcDbLine
 10
11.97661331774252
 20
38.09861793385996
 30
0.0
 11
15.96846622187232
 21
38.09861793385996
 31
0.0
  0
DIMENSION
  5
77E7
330
17
100
AcDbEntity
  8
R-ANNO-DIMS
100
AcDbDimension
  2
*D0
 10
11.71616719892915
 20
32.33756593385992
 30
0.0
 11
13.96116719892861
 21
32.52456593385992
 31
0.0
 70
    32
 71
     5
 42
-1.0
  3
NSD2$0
100
AcDbAlignedDimension
 13
16.20616719892806
 23
34.08478143514891
 33
0.0
 14
11.71616719892915
 24
34.0847814351489
 34
0.0
100
AcDbRotatedDimension
1001
ACAD
1000
DSTYLE
1002
{
1002
}
  0
LINE
  5
77E8
330
17
100
AcDbEntity
  8
R-SWTS-DET1
100
AcDbLine
 10
11.72141717627555
 20
34.08478143514891
 30
0.0
 11
11.72141717627555
 21
36.10961793386378
 31
0.0
  0
DIMENSION
  5
77EA
330
17
100
AcDbEntity
  8
R-ANNO-DIMS
100
AcDbDimension
  2
*D1
 10
9.96899717627555
 20
34.0847814351489
 30
0.0
 11
9.781997176275545
 21
35.09219968450633
 31
0.0
 70
    32
  1
DLO
 71
     5
 42
-1.0
  3
NSD1$0
100
AcDbAlignedDimension
 13
11.60641717627558
 23
36.09961793386376
 33
0.0
 14
11.46401257223181
 24
34.0847814351489
 34
0.0
 50
90.0
100
AcDbRotatedDimension
1001
ACAD
1000
DSTYLE
1002
{
1002
}
  0
DIMENSION
  5
77EB
330
17
100
AcDbEntity
  8
R-ANNO-DIMS
100
AcDbDimension
  2
*D2
 10
8.71899717627555
 20
34.0847814351489
 30
0.0
 11
8.531997176275545
 21
36.09169968450443
 31
0.0
 70
    32
  1
FH
 71
     5
 42
-1.0
  3
NSD1$0
100
AcDbAlignedDimension
 13
11.59641717627559
 23
38.09861793385996
 33
0.0
 14
11.46401257223181
 24
34.0847814351489
 34
0.0
 50
90.0
100
AcDbRotatedDimension
1001
ACAD
1000
DSTYLE
1002
{
1002
}
  0
DIMENSION
  5
77EC
330
17
100
AcDbEntity
  8
R-ANNO-DIMS
100
AcDbDimension
  2
*D3
 10
8.09399717627555
 20
34.0847814351489
 30
0.0
 11
7.906997176275544
 21
36.21669968450443
 31
0.0
 70
    32
  1
OD
 71
     5
 42
-1.0
  3
NSD1$0
100
AcDbAlignedDimension
 13
9.171216175302589
 23
38.34861793385996
 33
0.0
 14
11.46401257223181
 24
34.0847814351489
 34
0.0
 50
90.0
100
AcDbRotatedDimension
1001
ACAD
1000
DSTYLE
1002
{
1002
}
  0
DIMENSION
  5
77ED
330
17
100
AcDbEntity
  8
R-ANNO-DIMS
100
AcDbDimension
  2
*D4
 10
9.34399717627555
 20
34.0847814351489
 30
0.0
 11
9.156997176275545
 21
35.87294968450443
 31
0.0
 70
    32
  1
MH
 71
     5
 42
-1.0
  3
NSD1$0
100
AcDbAlignedDimension
 13
9.816189955440933
 23
37.66111793385996
 33
0.0
 14
11.46401257223181
 24
34.0847814351489
 34
0.0
 50
90.0
100
AcDbRotatedDimension
1001
ACAD
1000
DSTYLE
1002
{
1002
}
  0
DIMENSION
  5
77F1
330
17
100
AcDbEntity
  8
R-ANNO-DIMS
100
AcDbDimension
  2
*D5
 10
8.718997176275557
 20
38.34861793385996
 30
0.0
 11
8.71899717627555
 21
40.01895126719328
 31
0.0
 70
   160
  1
SHIM SPACE
 71
     5
 42
-1.0
  3
NSD1$0
100
AcDbAlignedDimension
 13
11.59641717627559
 23
38.09861793385996
 33
0.0
 14
11.19039722158058
 24
38.34861793385996
 34
0.0
 50
90.0
100
AcDbRotatedDimension
1001
ACAD
1000
DSTYLE
1002
{
1002
}
  0
DIMENSION
  5
77F2
330
17
100
AcDbEntity
  8
R-ANNO-DIMS
100
AcDbDimension
  2
*D6
 10
9.343997176275557
 20
38.09861793385996
 30
0.0
 11
9.34399717627555
 21
39.10228460052663
 31
0.0
 70
   160
 71
     5
 42
-1.0
  3
NSD1$0
100
AcDbAlignedDimension
 13
9.816189955440933
 23
37.66111793385996
 33
0.0
 14
11.59641717627559
 24
38.09861793385996
 34
0.0
 50
90.0
100
AcDbRotatedDimension
1001
ACAD
1000
DSTYLE
1002
{
1002
}
  0
LINE
  5
77F6
330
17
100
AcDbEntity
  8
R-SWTS-DET1
  6
Continuous
100
AcDbLine
 10
11.72141717627561
 20
37.66111793385995
 30
0.0
 11
12.64583534007469
 21
37.66111793385994
 31
0.0
  0
LINE
  5
77F7
330
17
100
AcDbEntity
  8
R-SWTS-DET1
  6
Continuous
100
AcDbLine
 10
11.72141717627561
 20
36.29513754910611
 30
0.0
 11
11.72141717627561
 21
37.66111793385995
 31
0.0
  0
CIRCLE
  5
77F9
330
17
100
AcDbEntity
  8
R-SWTS-DET3
  6
Continuous
100
AcDbCircle
 10
11.92489893931704
 20
38.20111793385995
 30
0.0
 40
0.1475000000000115
  0
ARC
  5
77FA
330
17
100
AcDbEntity
  8
R-SWTS-DET3
100
AcDbCircle
 10
11.34757811568276
 20
38.12677220177751
 30
0.0
 40
0.2504267175816111
100
AcDbArc
 50
353.5448646659803
 51
62.35888106505984
  0
LINE
  5
77FB
330
17
100
AcDbEntity
  8
R-SWTS-DET3
100
AcDbLine
 10
11.97661331774252
 20
38.34861793385996
 30
0.0
 11
11.97661331774252
 21
38.09861793385996
 31
0.0
  0
LINE
  5
77FC
330
17
100
AcDbEntity
  8
R-SWTS-DET1
100
AcDbLine
 10
16.2214171762756
 20
37.17256993386376
 30
0.0
 11
16.22141717627554
 21
34.09053343514889
 31
0.0
  0
LINE
  5
7801
330
17
100
AcDbEntity
  8
R-SWTS-DET3
  6
CENTER
100
AcDbLine
 10
13.97253976980742
 20
38.94527859706345
 30
0.0
 11
13.97253976980744
 21
37.18952659706356
 31
0.0
  0
LINE
  5
7802
330
17
100
AcDbEntity
  8
R-SWTS-DET1
100
AcDbLine
 10
16.22141717627561
 20
37.66111793385996
 30
0.0
 11
16.22141717627561
 21
37.34756993386375
 31
0.0
  0
LINE
  5
7804
330
17
100
AcDbEntity
  8
R-SWTS-DET3
100
AcDbLine
 10
15.96846622187232
 20
38.34861793385996
 30
0.0
 11
15.96846622187232
 21
38.09861793385996
 31
0.0
  0
LINE
  5
7807
330
17
100
AcDbEntity
  8
R-SWTS-DET1
100
AcDbLine
 10
11.72141717627554
 20
29.04899079389985
 30
0.0
 11
11.72141717627554
 21
23.04899079389985
 31
0.0
  0
LINE
  5
7808
330
17
100
AcDbEntity
  8
R-SWTS-DET1
100
AcDbLine
 10
16.22141717627554
 20
29.04899079389985
 30
0.0
 11
16.22141717627554
 21
23.04899079389985
 31
0.0
  0
DIMENSION
  5
780A
330
17
100
AcDbEntity
  8
R-ANNO-DIMS
100
AcDbDimension
  2
*D7
 10
10.00941717627555
 20
29.04931099148952
 30
0.0
 11
9.82241717627555
 21
28.04915089269469
 31
0.0
 70
    32
  1
DLO
 71
     5
 42
-1.0
  3
SHOP_DETAILS_NORCROSS
100
AcDbAlignedDimension
 13
11.77925568340027
 23
27.04899079389985
 33
0.0
 14
11.50525568340027
 24
29.04931099148952
 34
0.0
 50
270.0
100
AcDbRotatedDimension
1001
ACAD
1000
DSTYLE
1002
{
1070
    78
1070
     1
1070
   270
1070
     7
1070
   284
1070
     1
1070
   140
1040
0.25
1070
    74
1070
     0
1070
    73
1070
     0
1070
    77
1070
     1
1070
    76
1070
     1
1070
     3
1000
"
1070
   147
1040
0.062
1070
    42
1040
0.125
1070
    44
1040
0.125
1070
    43
1040
0.375
1070
   178
1070
   256
1070
   177
1070
   256
1070
   176
1070
   256
1070
   141
1040
0.0
1070
    41
1040
0.2
1002
}
  0
LWPOLYLINE
  5
780F
330
17
100
AcDbEntity
  8
R-SWTS-DET1
100
AcDbPolyline
 90
        6
 70
     0
 43
0.0
 10
16.47141717627554
 20
23.04899079389985
 10
14.07821717627555
 20
23.04899079389985
 10
14.02529676161311
 20
22.83673860377697
 10
13.91937609806272
 20
23.26156318161239
 10
13.8664556834003
 20
23.04931099148952
 10
11.47325568340029
 20
23.04931099148952
  0
DIMENSION
  5
7812
330
17
100
AcDbEntity
  8
R-ANNO-DIMS
100
AcDbDimension
  2
*D8
 10
10.00941717627555
 20
23.04931099148952
 30
0.0
 11
9.822417176275552
 21
24.04915089269469
 31
0.0
 70
    32
  1
DLO
 71
     5
 42
-1.0
  3
SHOP_DETAILS_NORCROSS
100
AcDbAlignedDimension
 13
11.74541717627556
 23
25.04899079389985
 33
0.0
 14
11.50525568340027
 24
23.04931099148952
 34
0.0
 50
270.0
100
AcDbRotatedDimension
1001
ACAD
1000
DSTYLE
1002
{
1070
    78
1070
     1
1070
   270
1070
     7
1070
   284
1070
     1
1070
   140
1040
0.25
1070
    74
1070
     0
1070
    73
1070
     0
1070
    77
1070
     1
1070
    76
1070
     1
1070
     3
1000
"
1070
   147
1040
0.062
1070
    42
1040
0.125
1070
    44
1040
0.125
1070
    43
1040
0.375
1070
   178
1070
   256
1070
   177
1070
   256
1070
   176
1070
   256
1070
   141
1040
0.0
1070
    41
1040
0.2
1002
}
  0
DIMENSION
  5
7814
330
17
100
AcDbEntity
  8
R-ANNO-DIMS
100
AcDbDimension
  2
*D9
 10
10.00941717627555
 20
25.04899079389985
 30
0.0
 11
9.822417176275552
 21
26.04899079389985
 31
0.0
 70
    32
 71
     5
 42
-1.0
  3
SHOP_DETAILS_NORCROSS
100
AcDbAlignedDimension
 13
11.77925568340027
 23
27.04899079389985
 33
0.0
 14
11.74541717627556
 24
25.04899079389985
 34
0.0
 50
270.0
100
AcDbRotatedDimension
1001
ACAD
1000
DSTYLE
1002
{
1070
    78
1070
     1
1070
   270
1070
     7
1070
   284
1070
     1
1070
   140
1040
0.25
1070
    74
1070
     0
1070
    73
1070
     0
1070
    77
1070
     1
1070
    76
1070
     1
1070
     3
1000
"
1070
   147
1040
0.062
1070
    42
1040
0.125
1070
    44
1040
0.125
1070
    43
1040
0.375
1070
   178
1070
   256
1070
   177
1070
   256
1070
   176
1070
   256
1070
   141
1040
0.0
1070
    41
1040
0.2
1002
}
  0
LWPOLYLINE
  5
781A
330
17
100
AcDbEntity
  8
R-SWTS-DET1
100
AcDbPolyline
 90
        6
 70
     0
 43
0.0
 10
16.47141717627554
 20
29.04899079389985
 10
14.07821717627555
 20
29.04899079389985
 10
14.02529676161311
 20
28.83673860377697
 10
13.91937609806272
 20
29.26156318161239
 10
13.8664556834003
 20
29.04931099148952
 10
11.47325568340029
 20
29.04931099148952
  0
LWPOLYLINE
  5
7822
330
17
100
AcDbEntity
  8
R-SWTS-DET1
100
AcDbPolyline
 90
        6
 70
     0
 43
0.0
 10
16.46822045005773
 20
20.7778194773174
 10
14.06823045005773
 20
20.7778194773174
 10
14.01821045005774
 20
20.9777994773174
 10
13.91823045005773
 20
20.5778194773174
 10
13.86823045005774
 20
20.7778194773174
 10
11.46822045005773
 20
20.7778194773174
  0
LINE
  5
7824
330
17
100
AcDbEntity
  8
R-SWTS-DET1
100
AcDbLine
 10
16.21037507675485
 20
16.89473497860631
 30
0.0
 11
11.71917765758605
 21
16.89473497860631
 31
0.0
  0
LINE
  5
7825
330
17
100
AcDbEntity
  8
R-SWTS-DET3
100
AcDbLine
 10
16.59545765758599
 20
16.51973497860631
 30
0.0
 11
11.18815770289098
 21
16.51973497860631
 31
0.0
  0
LINE
  5
7826
330
17
100
AcDbEntity
  8
R-SWTS-DET3
100
AcDbLine
 10
11.95934836505969
 20
16.51973497860631
 30
0.0
 11
15.95120126918949
 21
16.76973497860631
 31
0.0
  0
LINE
  5
7827
330
17
100
AcDbEntity
  8
R-SWTS-DET3
100
AcDbLine
 10
15.95120126918949
 20
16.51973497860631
 30
0.0
 11
11.95934836505969
 21
16.76973497860631
 31
0.0
  0
LINE
  5
7828
330
17
100
AcDbEntity
  8
R-SWTS-DET3
100
AcDbLine
 10
11.96665409128852
 20
16.76973497860631
 30
0.0
 11
15.95120126918949
 21
16.76973497860631
 31
0.0
  0
LINE
  5
782B
330
17
100
AcDbEntity
  8
R-SWTS-DET1
100
AcDbLine
 10
11.71917765758604
 20
18.75873497860252
 30
0.0
 11
11.71917765758597
 21
20.7778194773174
 31
0.0
  0
DIMENSION
  5
782C
330
17
100
AcDbEntity
  8
R-ANNO-DIMS
100
AcDbDimension
  2
*D10
 10
9.973205054101462
 20
20.7778194773174
 30
0.0
 11
9.78620505410146
 21
19.77327722795996
 31
0.0
 70
    32
  1
DLO
 71
     5
 42
-1.0
  3
NSD1$0
100
AcDbAlignedDimension
 13
11.604177657586
 23
18.76873497860251
 33
0.0
 14
11.46822045005773
 24
20.7778194773174
 34
0.0
 50
90.0
100
AcDbRotatedDimension
1001
ACAD
1000
DSTYLE
1002
{
1002
}
  0
DIMENSION
  5
782E
330
17
100
AcDbEntity
  8
R-ANNO-DIMS
100
AcDbDimension
  2
*D11
 10
8.098205054101462
 20
20.7778194773174
 30
0.0
 11
7.911205054101458
 21
18.64877722796182
 31
0.0
 70
    32
  1
OD
 71
     5
 42
-1.0
  3
NSD1$0
100
AcDbAlignedDimension
 13
9.172908914590323
 23
16.51973497860623
 33
0.0
 14
11.46822045005773
 24
20.7778194773174
 34
0.0
 50
90.0
100
AcDbRotatedDimension
1001
ACAD
1000
DSTYLE
1002
{
1002
}
  0
DIMENSION
  5
782F
330
17
100
AcDbEntity
  8
R-ANNO-DIMS
100
AcDbDimension
  2
*D12
 10
8.723205054101462
 20
20.7778194773174
 30
0.0
 11
8.53620505410146
 21
18.77377722796186
 31
0.0
 70
    32
  1
FH
 71
     5
 42
-1.0
  3
NSD1$0
100
AcDbAlignedDimension
 13
11.59417765758601
 23
16.76973497860631
 33
0.0
 14
11.46822045005773
 24
20.7778194773174
 34
0.0
 50
90.0
100
AcDbRotatedDimension
1001
ACAD
1000
DSTYLE
1002
{
1002
}
  0
DIMENSION
  5
7830
330
17
100
AcDbEntity
  8
R-ANNO-DIMS
100
AcDbDimension
  2
*D13
 10
9.348205054101462
 20
20.7778194773174
 30
0.0
 11
9.16120505410146
 21
18.83627722796186
 31
0.0
 70
    32
  1
MH
 71
     5
 42
-1.0
  3
NSD1$0
100
AcDbAlignedDimension
 13
9.794747248484895
 23
16.89473497860631
 33
0.0
 14
11.46822045005773
 24
20.7778194773174
 34
0.0
 50
90.0
100
AcDbRotatedDimension
1001
ACAD
1000
DSTYLE
1002
{
1002
}
  0
DIMENSION
  5
7832
330
17
100
AcDbEntity
  8
R-ANNO-DIMS
100
AcDbDimension
  2
*D14
 10
8.723205054101464
 20
16.51973497860623
 30
0.0
 11
8.723205054101462
 21
14.8494016452729
 31
0.0
 70
   160
  1
SHIM SPACE
 71
     5
 42
-1.0
  3
NSD1$0
100
AcDbAlignedDimension
 13
11.59417765758601
 23
16.76973497860631
 33
0.0
 14
11.19460509940651
 24
16.51973497860623
 34
0.0
 50
90.0
100
AcDbRotatedDimension
1001
ACAD
1000
DSTYLE
1002
{
1002
}
  0
HATCH
  5
7833
330
17
100
AcDbEntity
  8
0
  6
Continuous
100
AcDbHatch
 10
0.0
 20
0.0
 30
0.0
210
0.0
220
0.0
230
1.0
  2
SOLID
 70
     1
 71
     1
 91
        1
 92
        1
 93
        4
 72
     1
 10
11.59417765758602
 20
17.20723497860634
 11
11.71917765758605
 21
17.20723497860634
 72
     1
 10
11.71917765758605
 20
17.20723497860634
 11
11.71917765758605
 21
16.89573497861198
 72
     1
 10
11.71917765758605
 20
16.89573497861198
 11
11.59417765758602
 21
16.89573497861198
 72
     1
 10
11.59417765758602
 20
16.89573497861198
 11
11.59417765758602
 21
17.20723497860634
 97
        1
330
7834
 75
     0
 76
     1
 98
        1
 10
12.25257765758598
 20
17.76873497860249
  0
LWPOLYLINE
  5
7834
102
{ACAD_REACTORS
330
7833
102
}
330
17
100
AcDbEntity
  8
0
  6
Continuous
100
AcDbPolyline
 90
        4
 70
     1
 43
0.0
 10
11.59417765758602
 20
17.20723497860634
 10
11.71917765758605
 20
17.20723497860634
 10
11.71917765758605
 20
16.89573497861198
 10
11.59417765758602
 20
16.89573497861198
  0
DIMENSION
  5
7837
330
17
100
AcDbEntity
  8
R-ANNO-DIMS
100
AcDbDimension
  2
*D15
 10
9.348205054101464
 20
16.76973497860631
 30
0.0
 11
9.348205054101462
 21
15.82959231651795
 31
0.0
 70
   160
 71
     5
 42
-1.0
  3
NSD1$0
100
AcDbAlignedDimension
 13
9.794747248484895
 23
16.89473497860631
 33
0.0
 14
11.59417765758601
 24
16.76973497860631
 34
0.0
 50
90.0
100
AcDbRotatedDimension
1001
ACAD
1000
DSTYLE
1002
{
1002
}
  0
LINE
  5
7838
330
17
100
AcDbEntity
  8
R-SWTS-DET1
100
AcDbLine
 10
11.71917765758605
 20
16.89573497861198
 30
0.0
 11
11.71917765758604
 21
18.57373497860252
 31
0.0
  0
DIMENSION
  5
7839
330
17
100
AcDbEntity
  8
R-ANNO-DIMS
100
AcDbDimension
  2
*D16
 10
9.973205054101464
 20
18.77568776137666
 30
0.0
 11
9.973205054101462
 21
17.86502594357107
 31
0.0
 70
   160
 71
     5
 42
-1.0
  3
NSD1$0
100
AcDbAlignedDimension
 13
11.59417765758601
 23
16.76973497860631
 33
0.0
 14
11.74347765758605
 24
18.77568776137666
 34
0.0
 50
90.0
100
AcDbRotatedDimension
1001
ACAD
1000
DSTYLE
1002
{
1002
}
  0
CIRCLE
  5
783A
330
17
100
AcDbEntity
  8
R-SWTS-DET3
100
AcDbCircle
 10
11.90033740303642
 20
16.65182410857048
 30
0.0
 40
0.1327500000000008
  0
ARC
  5
783B
330
17
100
AcDbEntity
  8
R-SWTS-DET3
100
AcDbCircle
 10
11.34533859699316
 20
16.74158071068875
 30
0.0
 40
0.2504267175816111
100
AcDbArc
 50
297.6411189349402
 51
6.455135334019569
  0
LINE
  5
783C
330
17
100
AcDbEntity
  8
R-SWTS-DET3
100
AcDbLine
 10
11.96665409128852
 20
16.76973497860631
 30
0.0
 11
11.96665409128852
 21
16.51973497860631
 31
0.0
  0
LINE
  5
783F
330
17
100
AcDbEntity
  8
R-SWTS-DET1
100
AcDbLine
 10
16.21917765758598
 20
18.75873497860252
 30
0.0
 11
16.21917765758598
 21
20.7778194773174
 31
0.0
  0
LINE
  5
7842
330
17
100
AcDbEntity
  8
R-SWTS-DET3
  6
CENTER
100
AcDbLine
 10
13.97090850091401
 20
15.6508076315081
 30
0.0
 11
13.97090850091403
 21
17.6508076315081
 31
0.0
  0
LINE
  5
7843
330
17
100
AcDbEntity
  8
R-SWTS-DET1
100
AcDbLine
 10
16.21917765758598
 20
16.89573497861198
 30
0.0
 11
16.21917765758598
 21
18.58373497860251
 31
0.0
  0
LINE
  5
7845
330
17
100
AcDbEntity
  8
R-SWTS-DET3
100
AcDbLine
 10
15.95120126918949
 20
16.76973497860631
 30
0.0
 11
15.95120126918949
 21
16.51973497860631
 31
0.0
  0
LWPOLYLINE
  5
784C
330
17
100
AcDbEntity
  8
R-SWTS-DET1
100
AcDbPolyline
 90
        6
 70
     0
 43
0.0
 10
52.57686151207935
 20
14.6484852382336
 10
52.57686151207935
 20
12.13028523823361
 10
52.78911370220224
 20
12.07736482357117
 10
52.36428912436681
 20
11.97144416002078
 10
52.57654131448968
 20
11.91852374535834
 10
52.57654131448968
 20
9.400323745358349
  0
LWPOLYLINE
  5
784D
330
17
100
AcDbEntity
  8
R-SWTS-DET1
100
AcDbPolyline
 90
        6
 70
     0
 43
0.0
 10
46.57686151207935
 20
14.6484852382336
 10
46.57686151207935
 20
12.13028523823361
 10
46.78911370220223
 20
12.07736482357117
 10
46.36428912436681
 20
11.97144416002078
 10
46.57654131448968
 20
11.91852374535834
 10
46.57654131448968
 20
9.400323745358349
  0
LINE
  5
784F
330
17
100
AcDbEntity
  8
R-SWTS-DET1
  6
Continuous
100
AcDbLine
 10
48.57686151207936
 20
9.773485238233604
 30
0.0
 11
46.57718170966902
 21
9.773485238233604
 31
0.0
  0
DIMENSION
  5
7851
330
17
100
AcDbEntity
  8
R-ANNO-DIMS
100
AcDbDimension
  2
*D17
 10
46.57654131448968
 20
8.061485238233615
 30
0.0
 11
47.57670141328452
 21
8.248485238233614
 31
0.0
 70
    32
  1
DLO
 71
     5
 42
-1.0
  3
SHOP_DETAILS_NORCROSS
100
AcDbAlignedDimension
 13
48.57686151207936
 23
9.773485238233604
 33
0.0
 14
46.57654131448968
 24
9.432323745358331
 34
0.0
100
AcDbRotatedDimension
1001
ACAD
1000
DSTYLE
1002
{
1070
    78
1070
     1
1070
   270
1070
     7
1070
   284
1070
     1
1070
   140
1040
0.25
1070
    74
1070
     0
1070
    73
1070
     0
1070
    77
1070
     1
1070
    76
1070
     1
1070
     3
1000
"
1070
   147
1040
0.062
1070
    42
1040
0.125
1070
    44
1040
0.125
1070
    43
1040
0.375
1070
   178
1070
   256
1070
   177
1070
   256
1070
   176
1070
   256
1070
   141
1040
0.0
1070
    41
1040
0.2
1002
}
  0
LINE
  5
7852
330
17
100
AcDbEntity
  8
R-SWTS-DET1
  6
Continuous
100
AcDbLine
 10
52.57654131448968
 20
9.648485238233618
 30
0.0
 11
46.57718170966902
 21
9.648485238233604
 31
0.0
  0
DIMENSION
  5
7853
330
17
100
AcDbEntity
  8
R-ANNO-DIMS
100
AcDbDimension
  2
*D18
 10
52.57654131448968
 20
8.061485238233615
 30
0.0
 11
51.57670141328452
 21
8.248485238233614
 31
0.0
 70
    32
  1
DLO
 71
     5
 42
-1.0
  3
SHOP_DETAILS_NORCROSS
100
AcDbAlignedDimension
 13
50.57686151207935
 23
9.773485238233604
 33
0.0
 14
52.57654131448968
 24
9.432323745358331
 34
0.0
100
AcDbRotatedDimension
1001
ACAD
1000
DSTYLE
1002
{
1070
    78
1070
     1
1070
   270
1070
     7
1070
   284
1070
     1
1070
   140
1040
0.25
1070
    74
1070
     0
1070
    73
1070
     0
1070
    77
1070
     1
1070
    76
1070
     1
1070
     3
1000
"
1070
   147
1040
0.062
1070
    42
1040
0.125
1070
    44
1040
0.125
1070
    43
1040
0.375
1070
   178
1070
   256
1070
   177
1070
   256
1070
   176
1070
   256
1070
   141
1040
0.0
1070
    41
1040
0.2
1002
}
  0
DIMENSION
  5
7854
330
17
100
AcDbEntity
  8
R-ANNO-DIMS
100
AcDbDimension
  2
*D19
 10
50.57686151207935
 20
8.061485238233615
 30
0.0
 11
49.57686151207935
 21
8.248485238233614
 31
0.0
 70
    32
 71
     5
 42
-1.0
  3
SHOP_DETAILS_NORCROSS
100
AcDbAlignedDimension
 13
48.57686151207936
 23
9.773485238233604
 33
0.0
 14
50.57686151207935
 24
9.773485238233604
 34
0.0
100
AcDbRotatedDimension
1001
ACAD
1000
DSTYLE
1002
{
1070
    78
1070
     1
1070
   270
1070
     7
1070
   284
1070
     1
1070
   140
1040
0.25
1070
    74
1070
     0
1070
    73
1070
     0
1070
    77
1070
     1
1070
    76
1070
     1
1070
     3
1000
"
1070
   147
1040
0.062
1070
    42
1040
0.125
1070
    44
1040
0.125
1070
    43
1040
0.375
1070
   178
1070
   256
1070
   177
1070
   256
1070
   176
1070
   256
1070
   141
1040
0.0
1070
    41
1040
0.2
1002
}
  0
LINE
  5
7855
330
17
100
AcDbEntity
  8
R-SWTS-DET1
  6
Continuous
100
AcDbLine
 10
50.57686151207935
 20
9.773485238233604
 30
0.0
 11
52.57654131448968
 21
9.773485238233604
 31
0.0
  0
LINE
  5
7858
330
17
100
AcDbEntity
  8
R-SWTS-DET1
  6
Continuous
100
AcDbLine
 10
48.57686151207932
 20
14.2734852382336
 30
0.0
 11
46.577181709669
 21
14.2734852382336
 31
0.0
  0
LINE
  5
7859
330
17
100
AcDbEntity
  8
R-SWTS-DET1
  6
Continuous
100
AcDbLine
 10
52.57686151207935
 20
14.39848523823362
 30
0.0
 11
46.577181709669
 21
14.3984852382336
 31
0.0
  0
LINE
  5
785A
330
17
100
AcDbEntity
  8
R-SWTS-DET1
  6
Continuous
100
AcDbLine
 10
50.57686151207937
 20
14.2734852382336
 30
0.0
 11
52.57654131448969
 21
14.2734852382336
 31
0.0
  0
LWPOLYLINE
  5
785D
330
17
100
AcDbEntity
  8
R-SWTS-DET1
100
AcDbPolyline
 90
        6
 70
     0
 43
0.0
 10
43.61415037011363
 20
14.93157424037672
 10
43.61415037011363
 20
12.53158424037673
 10
43.40189817999075
 20
12.48156424037673
 10
43.82672275782617
 20
12.38158424037672
 10
43.6144705677033
 20
12.33158424037673
 10
43.6144705677033
 20
9.931574240376718
  0
LINE
  5
785E
330
17
100
AcDbEntity
  8
R-SWTS-DET3
100
AcDbLine
 10
39.36383017252395
 20
15.06096173525583
 30
0.0
 11
39.36383017252395
 21
9.810961735255844
 31
0.0
  0
LINE
  5
785F
330
17
100
AcDbEntity
  8
0
100
AcDbLine
 10
39.61383017252395
 20
14.27161022141557
 30
0.0
 11
39.61383017252395
 21
10.44028041591634
 31
0.0
  0
LINE
  5
7860
330
17
100
AcDbEntity
  8
R-SWTS-DET3
100
AcDbLine
 10
39.61383017252395
 20
10.39993649773173
 30
0.0
 11
39.36383017252395
 21
14.47795085885482
 31
0.0
  0
LINE
  5
7861
330
17
100
AcDbEntity
  8
R-SWTS-DET3
100
AcDbLine
 10
39.36383017252395
 20
10.39993649773173
 30
0.0
 11
39.61333017252396
 21
14.47795085885482
 31
0.0
  0
LINE
  5
7862
330
17
100
AcDbEntity
  8
R-SWTS-DET3
100
AcDbLine
 10
39.61383017252395
 20
10.39993649773173
 30
0.0
 11
39.61383017252395
 21
14.47795085885482
 31
0.0
  0
DIMENSION
  5
7866
330
17
100
AcDbEntity
  8
R-ANNO-DIMS
100
AcDbDimension
  2
*D20
 10
39.36383017252395
 20
7.877026065103592
 30
0.0
 11
37.69349683919062
 21
8.064026065103591
 31
0.0
 70
    32
  1
SHIM SPACE
 71
     5
 42
-1.0
  3
SHOP_DETAILS_NORCROSS
100
AcDbAlignedDimension
 13
39.61383017252395
 23
10.05657424037674
 33
0.0
 14
39.36383017252395
 24
9.81096173525583
 34
0.0
100
AcDbRotatedDimension
1001
ACAD
1000
DSTYLE
1002
{
1070
    78
1070
     1
1070
   270
1070
     7
1070
   284
1070
     1
1070
   140
1040
0.25
1070
    74
1070
     0
1070
    73
1070
     0
1070
    77
1070
     1
1070
    76
1070
     1
1070
     3
1000
"
1070
   147
1040
0.062
1070
   287
1070
     3
1070
    42
1040
0.125
1070
    44
1040
0.125
1070
    43
1040
0.375
1070
   271
1070
     4
1070
   178
1070
   256
1070
   177
1070
   256
1070
   176
1070
   256
1070
   141
1040
0.0
1070
    41
1040
0.2
1002
}
  0
LINE
  5
7867
330
17
100
AcDbEntity
  8
R-SWTS-DET1
100
AcDbLine
 10
41.61383017252396
 20
10.18157424037673
 30
0.0
 11
43.61383017252395
 21
10.18157424037673
 31
0.0
  0
LINE
  5
7869
330
17
100
AcDbEntity
  8
R-SWTS-DET1
100
AcDbLine
 10
39.61383017252395
 20
10.05657424037676
 30
0.0
 11
43.61383017252395
 21
10.05657424037673
 31
0.0
  0
DIMENSION
  5
786A
330
17
100
AcDbEntity
  8
R-ANNO-DIMS
100
AcDbDimension
  2
*D21
 10
43.6144705677033
 20
7.314526065103592
 30
0.0
 11
41.48915037011362
 21
7.501526065103592
 31
0.0
 70
    32
  1
OD  
 71
     5
 42
-1.0
  3
SHOP_DETAILS_NORCROSS
100
AcDbAlignedDimension
 13
39.36383017252395
 23
9.81096173525583
 33
0.0
 14
43.6144705677033
 24
9.931574240376718
 34
0.0
100
AcDbRotatedDimension
1001
ACAD
1000
DSTYLE
1002
{
1070
    78
1070
     1
1070
   270
1070
     7
1070
   284
1070
     1
1070
   140
1040
0.25
1070
    74
1070
     0
1070
    73
1070
     0
1070
    77
1070
     1
1070
    76
1070
     1
1070
     3
1000
"
1070
   147
1040
0.062
1070
   287
1070
     3
1070
    42
1040
0.125
1070
    44
1040
0.125
1070
    43
1040
0.375
1070
   271
1070
     4
1070
   178
1070
   256
1070
   177
1070
   256
1070
   176
1070
   256
1070
   141
1040
0.0
1070
    41
1040
0.2
1002
}
  0
DIMENSION
  5
786B
330
17
100
AcDbEntity
  8
R-ANNO-DIMS
100
AcDbDimension
  2
*D22
 10
43.6144705677033
 20
7.877026065103592
 30
0.0
 11
41.61415037011362
 21
8.064026065103591
 31
0.0
 70
    32
  1
FW  
 71
     5
 42
-1.0
  3
SHOP_DETAILS_NORCROSS
100
AcDbAlignedDimension
 13
39.61383017252395
 23
10.05657424037674
 33
0.0
 14
43.6144705677033
 24
9.931574240376718
 34
0.0
100
AcDbRotatedDimension
1001
ACAD
1000
DSTYLE
1002
{
1070
    78
1070
     1
1070
   270
1070
     7
1070
   284
1070
     1
1070
   140
1040
0.25
1070
    74
1070
     0
1070
    73
1070
     0
1070
    77
1070
     1
1070
    76
1070
     1
1070
     3
1000
"
1070
   147
1040
0.062
1070
   287
1070
     3
1070
    42
1040
0.125
1070
    44
1040
0.125
1070
    43
1040
0.375
1070
   271
1070
     4
1070
   178
1070
   256
1070
   177
1070
   256
1070
   176
1070
   256
1070
   141
1040
0.0
1070
    41
1040
0.2
1002
}
  0
DIMENSION
  5
786C
330
17
100
AcDbEntity
  8
R-ANNO-DIMS
100
AcDbDimension
  2
*D23
 10
43.6144705677033
 20
8.439526065103592
 30
0.0
 11
42.61415037011363
 21
8.626526065103591
 31
0.0
 70
    32
  1
DLO
 71
     5
 42
-1.0
  3
SHOP_DETAILS_NORCROSS
100
AcDbAlignedDimension
 13
41.61383017252396
 23
10.05657424037674
 33
0.0
 14
43.6144705677033
 24
9.931574240376718
 34
0.0
100
AcDbRotatedDimension
1001
ACAD
1000
DSTYLE
1002
{
1070
    78
1070
     1
1070
   270
1070
     7
1070
   284
1070
     1
1070
   140
1040
0.25
1070
    74
1070
     0
1070
    73
1070
     0
1070
    77
1070
     1
1070
    76
1070
     1
1070
     3
1000
"
1070
   147
1040
0.062
1070
   287
1070
     3
1070
    42
1040
0.125
1070
    44
1040
0.125
1070
    43
1040
0.375
1070
   271
1070
     4
1070
   178
1070
   256
1070
   177
1070
   256
1070
   176
1070
   256
1070
   141
1040
0.0
1070
    41
1040
0.2
1002
}
  0
DIMENSION
  5
786D
330
17
100
AcDbEntity
  8
R-ANNO-DIMS
100
AcDbDimension
  2
*D24
 10
41.61383017252396
 20
8.439526065103592
 30
0.0
 11
40.61383017252395
 21
8.626526065103591
 31
0.0
 70
    32
 71
     5
 42
-1.0
  3
SHOP_DETAILS_NORCROSS
100
AcDbAlignedDimension
 13
39.61383017252395
 23
10.05657424037674
 33
0.0
 14
41.61383017252396
 24
10.05657424037674
 34
0.0
100
AcDbRotatedDimension
1001
ACAD
1000
DSTYLE
1002
{
1070
    78
1070
     1
1070
   270
1070
     7
1070
   284
1070
     1
1070
   140
1040
0.25
1070
    74
1070
     0
1070
    73
1070
     0
1070
    77
1070
     1
1070
    76
1070
     1
1070
     3
1000
"
1070
   147
1040
0.062
1070
   287
1070
     3
1070
    42
1040
0.125
1070
    44
1040
0.125
1070
    43
1040
0.375
1070
   271
1070
     4
1070
   178
1070
   256
1070
   177
1070
   256
1070
   176
1070
   256
1070
   141
1040
0.0
1070
    41
1040
0.2
1002
}
  0
CIRCLE
  5
786E
330
17
100
AcDbEntity
  8
R-SWTS-DET3
100
AcDbCircle
 10
39.48908017252396
 20
10.2749365097895
 30
0.0
 40
0.125
  0
ARC
  5
786F
330
17
100
AcDbEntity
  8
R-SWTS-DET3
100
AcDbCircle
 10
39.63699018284686
 20
9.73412549528021
 30
0.0
 40
0.3277259795604861
100
AcDbArc
 50
94.0524032814784
 51
146.4600980743395
  0
LINE
  5
7870
330
17
100
AcDbEntity
  8
R-SWTS-DET3
100
AcDbLine
 10
39.36383017252395
 20
10.39993649773173
 30
0.0
 11
39.61333017252396
 21
10.39993649773173
 31
0.0
  0
LINE
  5
7872
330
17
100
AcDbEntity
  8
R-SWTS-DET1
  6
Continuous
100
AcDbLine
 10
39.61383017252396
 20
10.18157424037672
 30
0.0
 11
39.61383017252395
 21
10.05657424037676
 31
0.0
  0
LINE
  5
7874
330
17
100
AcDbEntity
  8
R-SWTS-DET1
100
AcDbLine
 10
41.61383017252396
 20
14.68157424037672
 30
0.0
 11
43.61415037011363
 21
14.68157424037672
 31
0.0
  0
LINE
  5
7876
330
17
100
AcDbEntity
  8
R-SWTS-DET1
100
AcDbLine
 10
39.61383017252396
 20
14.80657424037673
 30
0.0
 11
43.61415037011363
 21
14.80657424037672
 31
0.0
  0
LINE
  5
7879
330
17
100
AcDbEntity
  8
R-SWTS-DET3
100
AcDbLine
 10
39.36383017252395
 20
14.47795085885482
 30
0.0
 11
39.61333017252396
 21
14.47795085885482
 31
0.0
  0
LINE
  5
787B
330
17
100
AcDbEntity
  8
R-SWTS-DET1
  6
Continuous
100
AcDbLine
 10
39.61383017252396
 20
14.68157424037672
 30
0.0
 11
39.61383017252396
 21
14.80657424037673
 31
0.0
  0
TEXT
  5
7F14
330
17
100
AcDbEntity
  8
PART_NUMBERS
100
AcDbText
 10
17.00857644523164
 20
35.83240589745067
 30
0.0
 40
0.25
  1
450VG104 GLASS STOP
100
AcDbText
  0
LWPOLYLINE
  5
7F15
330
17
100
AcDbEntity
  8
R-SWTS-DET1
100
AcDbPolyline
 90
       51
 70
     1
 43
0.0
 10
12.73624847316414
 20
36.43011793386364
 10
12.73624847316414
 20
36.40811793386364
 10
12.77824847316414
 20
36.40811793386364
 42
0.4142135623730822
 10
12.79824847316414
 20
36.42811793386365
 10
12.79824847316414
 20
36.99527216655438
 42
0.0874886635259241
 10
12.79704232557986
 20
37.0021125694209
 10
12.74668858424256
 20
37.14045833673019
 42
0.3152987888790076
 10
12.72789473182684
 20
37.15361793386368
 10
12.65275442190649
 20
37.15361793386368
 42
-0.9999999999999998
 10
12.65275442190649
 20
37.21561793386368
 10
12.72842682071307
 20
37.21561793386368
 42
-0.3152987888789964
 10
12.80548161561752
 20
37.16166358561638
 10
12.85530326806859
 20
37.02477972050716
 42
-0.0874886635259218
 10
12.86024847316414
 20
36.99673406875446
 10
12.86024847316414
 20
36.4273375304995
 42
0.1990202627215664
 10
12.86611220981996
 20
36.41318952503358
 10
12.93540885572108
 20
36.34395039180837
 42
-0.1990202627215713
 10
12.96619347316414
 20
36.26967336311223
 10
12.96619347316414
 20
36.23961793386364
 42
0.4142135623730841
 10
13.03619347316414
 20
36.16961793386364
 10
16.10821687137481
 20
36.16961793386364
 42
0.4142046323371618
 10
16.12821687136551
 20
36.18961732408071
 10
16.12824377803699
 20
36.88461732408072
 42
0.4142224924654693
 10
16.10824377804629
 20
36.90461793386365
 10
15.91975442190649
 20
36.90461793386365
 42
-0.4142135623730431
 10
15.89975442190649
 20
36.92461793386364
 10
15.89975442190649
 20
37.17067055831111
 42
-0.8391187447064769
 10
15.96506437132022
 20
37.18218495390161
 10
16.00275442190649
 20
37.07861793386365
 10
15.96475442190649
 20
37.07861793386365
 42
0.4142135623731991
 10
15.95975442190648
 20
37.07361793386365
 10
15.95975442190649
 20
36.97961793386364
 42
0.414213562372887
 10
15.96475442190649
 20
36.97461793386365
 10
16.19824347316412
 20
36.97461793386365
 10
16.19821717627557
 20
36.09961793386363
 10
12.90322377619444
 20
36.09961793386364
 10
12.86719347316414
 20
36.20211793386364
 10
12.89619347316414
 20
36.20211793386364
 10
12.89619347316414
 20
36.27381793386364
 42
0.1989123673796526
 10
12.8888711426938
 20
36.29149560339331
 10
12.82219347316414
 20
36.35811793386364
 10
12.78024347316414
 20
36.35811793386364
 42
0.3541185725306917
 10
12.76068052114946
 20
36.34227616768
 10
12.73824347316414
 20
36.24011793386364
 10
12.73824347316414
 20
36.20211793386364
 10
12.76724347316414
 20
36.20211793386364
 10
12.76724347316414
 20
36.19011793386364
 42
-0.4142135623730951
 10
12.74724347316414
 20
36.17011793386364
 10
12.71824347316414
 20
36.17011793386364
 42
-0.4142135623730951
 10
12.69824347316414
 20
36.19011793386364
 10
12.69824347316414
 20
36.39211293386364
 42
-0.4142135623730951
  0
LWPOLYLINE
  5
7F16
330
17
100
AcDbEntity
  8
R-SWTS-DET1
100
AcDbPolyline
 90
       67
 70
     1
 43
0.0
 10
12.06671217627563
 20
37.0996179338638
 42
0.4142135623731159
 10
11.96671217627562
 20
36.99961793386377
 10
11.96671217627565
 20
36.43311793386376
 42
0.4142135623730951
 10
11.99171217627565
 20
36.40811793386375
 10
12.02871217627566
 20
36.40811793386376
 10
12.02871217627566
 20
36.43011793386377
 42
-0.4142135623730951
 10
12.06671717627566
 20
36.39211293386377
 10
12.06671717627566
 20
36.19011793386376
 42
-0.4142135623730951
 10
12.04671717627565
 20
36.17011793386374
 10
12.01771717627566
 20
36.17011793386375
 42
-0.4142135623730951
 10
11.99771717627564
 20
36.19011793386375
 10
11.99771717627564
 20
36.20211793386375
 10
12.02671717627564
 20
36.20211793386375
 10
12.02671717627564
 20
36.24011793386375
 10
12.00428012829035
 20
36.34227616768011
 42
0.3541185725306097
 10
11.98471717627564
 20
36.35811793386374
 10
11.94276717627565
 20
36.35811793386374
 10
11.87608950674599
 20
36.29149560339341
 42
0.1989123673796388
 10
11.86876717627564
 20
36.27381793386375
 10
11.86876717627564
 20
36.20211793386375
 10
11.89776717627563
 20
36.20211793386375
 10
11.86173687324533
 20
36.09961793386374
 10
11.73141717627566
 20
36.09961793386374
 42
-0.4142135623733032
 10
11.72141717627563
 20
36.10961793386376
 10
11.72141717627566
 20
36.19461793386374
 42
0.4142135623733032
 10
11.71141717627565
 20
36.20461793386373
 10
11.68647616012427
 20
36.20461793386373
 42
-0.5773502691906425
 10
11.67781590608642
 20
36.21961793386375
 10
11.77536846496969
 20
36.38858392225789
 42
-0.2679491924311022
 10
11.78408762883689
 20
36.39361793386373
 10
11.82671217627564
 20
36.39361793386373
 42
0.4142135623731166
 10
11.88671217627565
 20
36.45361793386373
 10
11.88671217627562
 20
36.99961793386377
 42
-0.4142135623731166
 10
12.06671217627564
 20
37.17961793386379
 10
12.48291917541639
 20
37.17961793386377
 42
0.3339762451533388
 10
12.54055789696903
 20
37.2229512671971
 42
-0.2262172683606257
 10
12.6091686734079
 20
37.30017209354239
 42
0.3015113445784163
 10
12.6458353400747
 20
37.3554491733817
 10
12.64583534007468
 20
37.90961793386375
 42
-0.9999999999999998
 10
12.72583534007468
 20
37.90961793386376
 10
12.7258353400747
 20
37.36961793386377
 42
0.4142135623730905
 10
12.7858353400747
 20
37.30961793386376
 10
16.11721717627565
 20
37.30961793386374
 10
16.11721717627565
 20
37.32756993386374
 42
-0.4142135623731991
 10
16.13721717627565
 20
37.34756993386375
 10
16.24321717627561
 20
37.34756993386375
 42
-0.414213562373017
 10
16.2832171762756
 20
37.30756993386377
 10
16.28321717627562
 20
37.26756993386376
 10
16.22121717627561
 20
37.26756993386376
 10
16.22121717627564
 20
37.17756993386376
 42
-0.4142135623732337
 10
16.20621717627564
 20
37.16256993386375
 10
16.19721717627565
 20
37.16256993386375
 10
16.19721717627564
 20
36.98961793386363
 42
-0.4142135623731298
 10
16.18221717627564
 20
36.97461793386363
 10
15.99144496121991
 20
36.97461793386363
 42
-0.2679491924312148
 10
15.97845458016314
 20
36.98211793386363
 10
15.9461229650885
 20
37.03811793386372
 42
-0.5773502691894814
 10
15.96344347316418
 20
37.06811793386372
 10
16.01251824604529
 20
37.06811793386372
 42
-0.267949192431235
 10
16.02550862710207
 20
37.06061793386371
 10
16.02897272871725
 20
37.05461793386362
 10
16.11721717627564
 20
37.05461793386362
 10
16.11721717627565
 20
37.22961793386374
 10
12.6558353400743
 20
37.22961793386377
 42
0.9999999999999998
 10
12.6558353400743
 20
37.14961793386375
 10
12.68083534007431
 20
37.14961793386375
 42
-0.9999999999999998
 10
12.68083534007431
 20
37.09961793386375
1001
MCAD_NO_VIS
1070
     1
  0
LWPOLYLINE
  5
7F17
330
17
100
AcDbEntity
  8
R-SWTS-DET1
100
AcDbPolyline
 90
       62
 70
     1
 43
0.0
 10
13.53441717627559
 20
38.05361793385995
 10
13.53441717627559
 20
38.09861793385996
 10
13.5964171762756
 20
38.09861793385996
 10
13.5964171762756
 20
38.05361793385995
 10
14.3464171762756
 20
38.05361793385995
 10
14.3464171762756
 20
38.09861793385996
 10
14.40841717627559
 20
38.09861793385996
 10
14.40841717627561
 20
38.05361793385998
 10
15.41874016871328
 20
38.05361793385996
 10
15.41874016871328
 20
38.09861793385996
 10
15.48074016871329
 20
38.09861793385996
 10
15.48074016871329
 20
38.05361793385996
 10
16.22141717627557
 20
38.05361793385995
 10
16.22141717627557
 20
38.09861793385996
 10
16.34641717627563
 20
38.09861793385996
 10
16.3464171762756
 20
37.17256993386375
 42
-0.4142135623731471
 10
16.3364171762756
 20
37.16256993386374
 10
16.23141717627561
 20
37.16256993386374
 42
-0.4142135623730951
 10
16.2214171762756
 20
37.17256993386377
 10
16.22141717627562
 20
37.25756993386375
 42
-0.4142135623730951
 10
16.23141717627559
 20
37.26756993386376
 10
16.27341717627559
 20
37.26756993386376
 42
0.4142135623730951
 10
16.28341717627559
 20
37.27756993386375
 10
16.28341717627559
 20
37.34756993386378
 42
0.4142135623730951
 10
16.27341717627559
 20
37.35756993386377
 10
16.23141717627559
 20
37.35756993386377
 42
-0.4142135623730951
 10
16.22141717627562
 20
37.36756993386379
 10
16.22141717627551
 20
37.97361793385994
 10
13.98631717627564
 20
37.97361793385996
 10
13.9713171762756
 20
37.98861793385995
 10
13.95631717627561
 20
37.97361793385996
 10
12.6739160471704
 20
37.97361793385994
 42
-0.4142135623731471
 10
12.6639160471704
 20
37.98361793385994
 10
12.6639160471704
 20
38.03254361588255
 42
0.4142135623727309
 10
12.65391604717042
 20
38.04254361588255
 10
12.57453328927563
 20
38.04254361588255
 42
0.3152987888785436
 10
12.56513636306779
 20
38.03596381731582
 10
12.54483916808653
 20
37.98019773242669
 42
-0.3152987888789013
 10
12.53544224187868
 20
37.97361793385994
 10
11.72141717627563
 20
37.97361793385996
 10
11.72141717627563
 20
37.16256993386376
 10
11.67641717627561
 20
37.16256993386376
 10
11.67641717627561
 20
36.37523971212873
 42
0.1316524975872385
 10
11.67775692223778
 20
36.37023971212875
 10
11.72141717627563
 20
36.29461793386376
 10
11.66941717627561
 20
36.29461793386376
 42
0.4142135623730951
 10
11.65941717627562
 20
36.28461793386377
 10
11.65941717627562
 20
36.21461793386374
 42
0.4142135623730951
 10
11.66941717627561
 20
36.20461793386375
 10
11.71141717627563
 20
36.20461793386375
 42
-0.4142135623730951
 10
11.72141717627563
 20
36.19461793386373
 10
11.72141717627563
 20
36.10961793386377
 42
-0.4142135623731471
 10
11.71141717627563
 20
36.09961793386376
 10
11.60641717627558
 20
36.09961793386376
 42
-0.4142135623739276
 10
11.5964171762756
 20
36.10961793386375
 10
11.5964171762756
 20
38.09861793385996
 10
11.72141717627563
 20
38.09861793385996
 10
11.72141717627563
 20
38.05361793385995
 10
12.4939160471704
 20
38.05361793385993
 10
12.49391604717041
 20
38.09861793385999
 10
12.74391604717041
 20
38.09861793385996
 10
12.7439160471704
 20
38.05361793385996
  0
LINE
  5
7F18
330
17
100
AcDbEntity
  8
R-SWTS-DET2
100
AcDbLine
 10
13.02155771783391
 20
36.0986179338598
 30
0.0
 11
13.02155771783391
 21
34.09863806449639
 31
0.0
  0
LINE
  5
7F19
330
17
100
AcDbEntity
  8
R-SWTS-DET3
100
AcDbLine
 10
12.50420400337906
 20
36.4736179338598
 30
0.0
 11
12.25420400337906
 21
36.4736179338598
 31
0.0
  0
LINE
  5
7F1A
330
17
100
AcDbEntity
  8
R-SWTS-DET3
100
AcDbLine
 10
12.50420400337906
 20
36.4736179338598
 30
0.0
 11
12.50420400337906
 21
34.0986179338598
 31
0.0
  0
LINE
  5
7F1B
330
17
100
AcDbEntity
  8
R-SWTS-DET3
100
AcDbLine
 10
12.25420400337906
 20
36.4736179338598
 30
0.0
 11
12.25420400337906
 21
34.0986179338598
 31
0.0
  0
LINE
  5
7F1C
330
17
100
AcDbEntity
  8
R-SWTS-DET2
100
AcDbLine
 10
11.73685028892422
 20
36.0986179338598
 30
0.0
 11
11.73685028892422
 21
34.09863806449639
 31
0.0
  0
LWPOLYLINE
  5
7F1F
330
17
100
AcDbEntity
  8
R-SWTS-DET2
100
AcDbPolyline
 90
       31
 70
     1
 43
0.0
 10
11.88066540752527
 20
36.21261996202424
 10
11.9074819340642
 20
36.20774566142628
 10
11.87335180994307
 20
36.10051106374453
 10
11.812405159283
 20
36.09563676486584
 10
11.73685028892422
 20
36.0986179338598
 10
11.74694083048254
 20
36.06760839123856
 42
0.1257100272134179
 10
11.97893223250459
 20
36.0158660636449
 42
-0.2260837189018228
 10
12.1325177929362
 20
35.96614820500081
 10
12.22807310259589
 20
35.85520758684045
 42
0.6449762263124317
 10
12.25400739461408
 20
35.86694892931411
 10
12.25242765758602
 20
35.99618586494349
 42
0.1518691569180708
 10
12.23607488098969
 20
36.04062101929275
 10
12.19757169269444
 20
36.10054679856123
 42
-0.0293454671788447
 10
12.18017680349154
 20
36.15242944175385
 10
12.16294651390802
 20
36.27422345159089
 42
-0.6538117075652882
 10
12.18318732481088
 20
36.28121018855626
 10
12.2272790720332
 20
36.11596127106633
 42
0.8886355728344963
 10
12.25242765758602
 20
36.11802270196572
 10
12.25242765758602
 20
36.25226832235838
 42
0.0642046489364144
 10
12.2099951956766
 20
36.44088457906567
 42
0.6896355001773956
 10
12.10738646528849
 20
36.44088457906567
 42
0.0703560868358924
 10
12.06615400337907
 20
36.25226832235838
 10
12.06615400337907
 20
36.15656551202475
 10
11.99280724540248
 20
36.15656551202475
 10
11.97086645058501
 20
36.21018281172526
 10
12.00987230849848
 20
36.21505711060395
 10
11.97574218230647
 20
36.25161435993086
 10
12.00743444263775
 20
36.27354870918316
 10
11.9464877899068
 20
36.32716600716439
 10
11.8904168709682
 20
36.26136295940752
 10
11.9147955316464
 20
36.25161435993086
  0
LWPOLYLINE
  5
7F20
330
17
100
AcDbEntity
  8
R-SWTS-DET2
100
AcDbPolyline
 90
       31
 70
     1
 43
0.0
 10
12.87774259923286
 20
36.21261996202424
 10
12.85092607269392
 20
36.20774566142628
 10
12.88505619681506
 20
36.10051106374453
 10
12.94600284747512
 20
36.09563676486584
 10
13.02155771783391
 20
36.0986179338598
 10
13.01146717627559
 20
36.06760839123856
 42
-0.1257100272134179
 10
12.77947577425353
 20
36.0158660636449
 42
0.2260837189018228
 10
12.62589021382193
 20
35.96614820500081
 10
12.53033490416223
 20
35.85520758684045
 42
-0.6449762263124317
 10
12.50440061214405
 20
35.86694892931411
 10
12.5059803491721
 20
35.99618586494349
 42
-0.1518691569180708
 10
12.52233312576843
 20
36.04062101929275
 10
12.56083631406368
 20
36.10054679856123
 42
0.0293454671788447
 10
12.57823120326658
 20
36.15242944175385
 10
12.59546149285011
 20
36.27422345159089
 42
0.6538117075652882
 10
12.57522068194725
 20
36.28121018855626
 10
12.53112893472492
 20
36.11596127106633
 42
-0.8886355728344963
 10
12.5059803491721
 20
36.11802270196572
 10
12.5059803491721
 20
36.25226832235838
 42
-0.0642046489364144
 10
12.54841281108153
 20
36.44088457906567
 42
-0.6896355001773956
 10
12.65102154146964
 20
36.44088457906567
 42
-0.0703560868358924
 10
12.69225400337906
 20
36.25226832235838
 10
12.69225400337906
 20
36.15656551202475
 10
12.76560076135565
 20
36.15656551202475
 10
12.78754155617312
 20
36.21018281172526
 10
12.74853569825964
 20
36.21505711060395
 10
12.78266582445166
 20
36.25161435993086
 10
12.75097356412038
 20
36.27354870918316
 10
12.81192021685132
 20
36.32716600716439
 10
12.86799113578993
 20
36.26136295940752
 10
12.84361247511172
 20
36.25161435993086
  0
LWPOLYLINE
  5
7F6D
330
17
100
AcDbEntity
  8
R-SWTS-DET1
100
AcDbPolyline
 90
      132
 70
     1
 43
0.0
 10
16.19741717627553
 20
25.92399079389984
 10
15.98704708542798
 20
25.92399079389984
 10
15.95009666819984
 20
25.98799079389984
 42
-0.5773502691896848
 10
15.96741717627553
 20
26.01799079389984
 10
16.09741717627553
 20
26.01799079389983
 42
0.414213562373069
 10
16.11741717627553
 20
26.03799079389983
 10
16.11741717627555
 20
26.16799079389985
 42
0.414213562373069
 10
16.09741717627554
 20
26.18799079389985
 10
15.95741717627554
 20
26.18799079389985
 42
-0.4142135623730951
 10
15.94741717627553
 20
26.19799079389986
 10
15.94741717627553
 20
26.25799079389985
 42
-0.4142135623730951
 10
15.95741717627554
 20
26.26799079389985
 10
16.09741717627554
 20
26.26799079389984
 42
0.414213562373069
 10
16.11741717627554
 20
26.28799079389984
 10
16.11741717627553
 20
26.94899079389984
 42
0.4142135623730951
 10
16.09741717627553
 20
26.96899079389984
 10
15.42284190661914
 20
26.96899079389984
 10
15.37784190661914
 20
26.92399079389984
 10
15.12784190661914
 20
26.92399079389984
 10
15.08284190661914
 20
26.96899079389984
 10
13.74091717627555
 20
26.96899079389984
 42
0.4142135623730951
 10
13.68091717627555
 20
26.90899079389984
 10
13.68091717627555
 20
26.62283278410923
 10
13.79975916648493
 20
26.50399079389984
 10
14.16524706295097
 20
26.50399079389984
 42
-0.9999999999999998
 10
14.16524706295097
 20
26.42399079389985
 10
13.76662208149509
 20
26.42399079389984
 10
13.60091717627555
 20
26.58969569911938
 10
13.60091717627555
 20
26.90899079389985
 42
0.4142135623730864
 10
13.54091717627555
 20
26.96899079389984
 10
13.03536717627554
 20
26.96899079389984
 42
0.4142135623730864
 10
12.97536717627554
 20
26.90899079389984
 10
12.97536717627554
 20
26.87271851309227
 42
-0.1990202627215633
 10
12.94604849299644
 20
26.80197848576261
 10
12.92728591293137
 20
26.78323147768047
 42
0.1990202627215798
 10
12.92142217627555
 20
26.76908347221453
 10
12.92142217627555
 20
26.48699079389984
 10
12.94838992254714
 20
26.48699079389984
 42
-0.4931454260313008
 10
12.95804918081003
 20
26.47440260344882
 10
12.87742217420412
 20
26.33646348622544
 42
-0.4141691284451078
 10
12.69742217627554
 20
26.15649079389985
 10
12.62056163696275
 20
26.15649079389984
 10
12.62056163696275
 20
26.08499079389987
 10
12.68556163696275
 20
26.08499079389988
 42
-0.9999999999999998
 10
12.68556163696275
 20
26.03499079389987
 10
12.62056163696275
 20
26.03499079389987
 42
-0.4142135623731015
 10
12.54056163696274
 20
26.11499079389987
 10
12.54056163696275
 20
26.13649079389983
 42
0.4142135623731471
 10
12.52056163696275
 20
26.15649079389984
 10
11.88541717627554
 20
26.15649079389984
 42
0.4142135623730864
 10
11.82541717627554
 20
26.09649079389984
 10
11.82541717627554
 20
25.36102444057183
 42
0.6680285247726431
 10
11.85955343961972
 20
25.3468764351059
 10
11.88633803372435
 20
25.37363879936578
 42
-0.1988044764925317
 10
11.90047429706853
 20
25.37949079389985
 10
11.97141217627554
 20
25.37949079389984
 10
11.97141217627554
 20
25.35749079389984
 10
12.03341217627554
 20
25.35749079389984
 10
12.03341217627554
 20
25.37949079389984
 42
-0.4142135623730677
 10
12.07141717627554
 20
25.34148579389984
 10
12.07141717627554
 20
25.13949079389984
 42
-0.4142135623730951
 10
12.05141717627554
 20
25.11949079389984
 10
12.02241717627554
 20
25.11949079389984
 42
-0.4142135623730951
 10
12.00241717627554
 20
25.13949079389984
 10
12.00241717627554
 20
25.15149079389984
 10
12.03141717627554
 20
25.15149079389984
 10
12.03141717627554
 20
25.18949079389984
 10
12.00898012829022
 20
25.2916490277162
 42
0.3541185725307177
 10
11.98941717627554
 20
25.30749079389984
 10
11.94746717627554
 20
25.30749079389984
 10
11.88078950674588
 20
25.24086846342951
 42
0.1989123673796633
 10
11.87346717627554
 20
25.22319079389984
 10
11.87346717627554
 20
25.15149079389984
 10
11.90246717627554
 20
25.15149079389984
 10
11.87346717627554
 20
25.06899079389985
 10
11.82046805124162
 20
25.07899079389984
 10
11.80992259669616
 20
25.04899079389984
 10
11.74541717627554
 20
25.04899079389984
 10
11.74541717627554
 20
27.04899079389984
 10
11.80992259669617
 20
27.04899079389984
 10
11.82046805124162
 20
27.01899079389983
 10
11.87346717627554
 20
27.02899079389984
 10
11.90246717627554
 20
26.94649079389984
 10
11.87346717627554
 20
26.94649079389984
 10
11.87346717627554
 20
26.87479079389984
 42
0.198912367379658
 10
11.88078950674588
 20
26.85711312437018
 10
11.94746717627555
 20
26.79049079389984
 10
11.98941717627554
 20
26.79049079389984
 42
0.3541185725307177
 10
12.00898012829022
 20
26.80633256008349
 10
12.03141717627554
 20
26.90849079389984
 10
12.03141717627554
 20
26.94649079389984
 10
12.00241717627554
 20
26.94649079389984
 10
12.00241717627554
 20
26.95849079389984
 42
-0.4142135623730951
 10
12.02241717627554
 20
26.97849079389984
 10
12.05141717627554
 20
26.97849079389984
 42
-0.4142135623730951
 10
12.07141717627554
 20
26.95849079389984
 10
12.07141717627554
 20
26.75649579389984
 42
-0.4142135623730815
 10
12.03341217627555
 20
26.71849079389984
 10
12.03341217627555
 20
26.74049079389984
 10
11.97141217627554
 20
26.74049079389984
 10
11.97141217627554
 20
26.71849079389984
 10
11.90047429706853
 20
26.71849079389984
 42
-0.1988044764925316
 10
11.88633803372435
 20
26.72434278843391
 10
11.85955343961972
 20
26.75110515269379
 42
0.668028524772666
 10
11.82541717627554
 20
26.73695714722785
 10
11.82541717627554
 20
26.29649079389984
 42
0.4142135623731037
 10
11.88541717627554
 20
26.23649079389984
 10
12.69742217627554
 20
26.23649079389984
 42
0.4142135623730898
 10
12.79742217627553
 20
26.33649079389984
 10
12.79742217627554
 20
26.71549079389983
 42
0.4142135623730951
 10
12.77242217627554
 20
26.74049079389984
 10
12.73542217627554
 20
26.74049079389984
 10
12.73542217627554
 20
26.71849079389983
 42
-0.4142135623730951
 10
12.69741717627554
 20
26.75649579389983
 10
12.69741717627554
 20
26.95849079389983
 42
-0.4142135623730951
 10
12.71741717627554
 20
26.97849079389984
 10
12.74641717627554
 20
26.97849079389984
 42
-0.4142135623730951
 10
12.76641717627554
 20
26.95849079389983
 10
12.76641717627554
 20
26.94649079389983
 10
12.73741717627554
 20
26.94649079389983
 10
12.73741717627554
 20
26.90849079389983
 10
12.75985422426086
 20
26.80633256008348
 42
0.3541185725306897
 10
12.77941717627554
 20
26.79049079389983
 10
12.82136717627554
 20
26.79049079389983
 10
12.8880448458052
 20
26.85711312437017
 42
0.1989123673796472
 10
12.89536717627554
 20
26.87479079389983
 10
12.89536717627554
 20
26.94649079389983
 10
12.86636717627554
 20
26.94649079389983
 10
12.89536717627554
 20
27.02899079389983
 10
12.94836630130946
 20
27.01899079389983
 10
12.95891175585492
 20
27.04899079389984
 10
16.19741717627554
 20
27.04899079389984
  0
LWPOLYLINE
  5
7F72
330
17
100
AcDbEntity
  8
R-SWTS-DET1
100
AcDbPolyline
 90
       51
 70
     1
 43
0.0
 10
12.73542217627554
 20
25.37949079389984
 10
12.73542217627554
 20
25.35749079389983
 10
12.77742217627554
 20
25.35749079389983
 42
0.4142135623730822
 10
12.79742217627554
 20
25.37749079389984
 10
12.79742217627554
 20
25.94464502659057
 42
0.0874886635259241
 10
12.79621602869126
 20
25.95148542945709
 10
12.74586228735396
 20
26.08983119676639
 42
0.3152987888790076
 10
12.72706843493824
 20
26.10299079389987
 10
12.65192812501789
 20
26.10299079389987
 42
-0.9999999999999998
 10
12.65192812501789
 20
26.16499079389987
 10
12.72760052382448
 20
26.16499079389987
 42
-0.3152987888789964
 10
12.80465531872892
 20
26.11103644565258
 10
12.85447697117999
 20
25.97415258054335
 42
-0.0874886635259218
 10
12.85942217627554
 20
25.94610692879065
 10
12.85942217627554
 20
25.3767103905357
 42
0.1990202627215664
 10
12.86528591293137
 20
25.36256238506977
 10
12.93458255883248
 20
25.29332325184456
 42
-0.1990202627215713
 10
12.96536717627554
 20
25.21904622314842
 10
12.96536717627554
 20
25.18899079389983
 42
0.4142135623730841
 10
13.03536717627554
 20
25.11899079389983
 10
16.10739057448622
 20
25.11899079389983
 42
0.4142046323371618
 10
16.12739057447692
 20
25.1389901841169
 10
16.1274174811484
 20
25.83399018411692
 42
0.4142224924654693
 10
16.1074174811577
 20
25.85399079389984
 10
15.9189281250179
 20
25.85399079389984
 42
-0.4142135623730431
 10
15.8989281250179
 20
25.87399079389984
 10
15.89892812501789
 20
26.1200434183473
 42
-0.8391187447064769
 10
15.96423807443162
 20
26.1315578139378
 10
16.00192812501789
 20
26.02799079389984
 10
15.96392812501789
 20
26.02799079389984
 42
0.4142135623731991
 10
15.95892812501789
 20
26.02299079389984
 10
15.95892812501789
 20
25.92899079389984
 42
0.414213562372887
 10
15.96392812501789
 20
25.92399079389984
 10
16.19741717627553
 20
25.92399079389984
 10
16.19739087938697
 20
25.04899079389983
 10
12.90239747930584
 20
25.04899079389983
 10
12.86636717627555
 20
25.15149079389983
 10
12.89536717627554
 20
25.15149079389983
 10
12.89536717627554
 20
25.22319079389984
 42
0.1989123673796526
 10
12.8880448458052
 20
25.2408684634295
 10
12.82136717627554
 20
25.30749079389984
 10
12.77941717627554
 20
25.30749079389984
 42
0.3541185725306917
 10
12.75985422426087
 20
25.29164902771619
 10
12.73741717627554
 20
25.18949079389984
 10
12.73741717627554
 20
25.15149079389983
 10
12.76641717627554
 20
25.15149079389983
 10
12.76641717627554
 20
25.13949079389984
 42
-0.4142135623730951
 10
12.74641717627554
 20
25.11949079389984
 10
12.71741717627554
 20
25.11949079389984
 42
-0.4142135623730951
 10
12.69741717627554
 20
25.13949079389984
 10
12.69741717627554
 20
25.34148579389984
 42
-0.4142135623730951
  0
LINE
  5
7F73
330
17
100
AcDbEntity
  8
R-SWTS-DET2
100
AcDbLine
 10
13.02731036051547
 20
25.04899079389984
 30
0.0
 11
13.02731036051547
 21
23.04901092453643
 31
0.0
  0
LINE
  5
7F74
330
17
100
AcDbEntity
  8
R-SWTS-DET3
100
AcDbLine
 10
12.50995664606063
 20
25.42399079389984
 30
0.0
 11
12.25995664606063
 21
25.42399079389984
 31
0.0
  0
LINE
  5
7F75
330
17
100
AcDbEntity
  8
R-SWTS-DET3
100
AcDbLine
 10
12.50995664606063
 20
25.42399079389984
 30
0.0
 11
12.50995664606063
 21
23.04899079389984
 31
0.0
  0
LINE
  5
7F76
330
17
100
AcDbEntity
  8
R-SWTS-DET3
100
AcDbLine
 10
12.25995664606063
 20
25.42399079389984
 30
0.0
 11
12.25995664606063
 21
23.04899079389984
 31
0.0
  0
LINE
  5
7F77
330
17
100
AcDbEntity
  8
R-SWTS-DET2
100
AcDbLine
 10
11.74260293160579
 20
25.04899079389984
 30
0.0
 11
11.74260293160579
 21
23.04901092453643
 31
0.0
  0
LINE
  5
7F7A
330
17
100
AcDbEntity
  8
R-SWTS-DET2
100
AcDbLine
 10
13.02731036051547
 20
27.04899079389984
 30
0.0
 11
13.02731036051547
 21
29.04897066326326
 31
0.0
  0
LINE
  5
7F7B
330
17
100
AcDbEntity
  8
R-SWTS-DET3
100
AcDbLine
 10
12.50995664606063
 20
26.67399079389984
 30
0.0
 11
12.25995664606063
 21
26.67399079389984
 31
0.0
  0
LINE
  5
7F7C
330
17
100
AcDbEntity
  8
R-SWTS-DET3
100
AcDbLine
 10
12.50995664606063
 20
26.67399079389984
 30
0.0
 11
12.50995664606063
 21
29.04899079389984
 31
0.0
  0
LINE
  5
7F7D
330
17
100
AcDbEntity
  8
R-SWTS-DET3
100
AcDbLine
 10
12.25995664606063
 20
26.67399079389984
 30
0.0
 11
12.25995664606063
 21
29.04899079389984
 31
0.0
  0
LINE
  5
7F7E
330
17
100
AcDbEntity
  8
R-SWTS-DET2
100
AcDbLine
 10
11.74260293160579
 20
27.04899079389984
 30
0.0
 11
11.74260293160579
 21
29.04897066326326
 31
0.0
  0
LWPOLYLINE
  5
7F81
330
17
100
AcDbEntity
  8
R-SWTS-DET2
100
AcDbPolyline
 90
        4
 70
     1
 43
0.0
 10
12.60266717627557
 20
26.23649079389984
 10
12.10266717627557
 20
26.23649079389984
 10
12.10266717627557
 20
26.67399079389984
 10
12.60266717627557
 20
26.67399079389984
  0
LINE
  5
7F82
330
17
100
AcDbEntity
  8
R-SWTS-DET2
100
AcDbLine
 10
14.42583435877285
 20
26.46290786639714
 30
0.0
 11
14.45683431877285
 21
26.46290786639714
 31
0.0
  0
LINE
  5
7F83
330
17
100
AcDbEntity
  8
R-SWTS-DET2
100
AcDbLine
 10
14.42583435877285
 20
26.26390798639714
 30
0.0
 11
14.45683431877285
 21
26.26390798639714
 31
0.0
  0
LINE
  5
7F84
330
17
100
AcDbEntity
  8
R-SWTS-DET2
100
AcDbLine
 10
14.34183436877285
 20
26.37890792639714
 30
0.0
 11
14.34183436877285
 21
26.34790792639714
 31
0.0
  0
LINE
  5
7F85
330
17
100
AcDbEntity
  8
R-SWTS-DET2
100
AcDbLine
 10
14.54083424877285
 20
26.37890792639714
 30
0.0
 11
14.54083424877285
 21
26.34790792639714
 31
0.0
  0
LINE
  5
7F86
330
17
100
AcDbEntity
  8
R-SWTS-DET2
100
AcDbLine
 10
14.42583435877285
 20
26.46290786639714
 30
0.0
 11
14.42583435877285
 21
26.42865790639714
 31
0.0
  0
LINE
  5
7F87
330
17
100
AcDbEntity
  8
R-SWTS-DET2
100
AcDbLine
 10
14.45683431877285
 20
26.46290786639714
 30
0.0
 11
14.45683431877285
 21
26.42865790639714
 31
0.0
  0
LINE
  5
7F88
330
17
100
AcDbEntity
  8
R-SWTS-DET2
100
AcDbLine
 10
14.34183436877285
 20
26.37890792639714
 30
0.0
 11
14.37608438877285
 21
26.37890792639714
 31
0.0
  0
LINE
  5
7F89
330
17
100
AcDbEntity
  8
R-SWTS-DET2
100
AcDbLine
 10
14.34183436877285
 20
26.34790792639714
 30
0.0
 11
14.37608438877285
 21
26.34790792639714
 31
0.0
  0
LINE
  5
7F8A
330
17
100
AcDbEntity
  8
R-SWTS-DET2
100
AcDbLine
 10
14.50658434877285
 20
26.37890792639714
 30
0.0
 11
14.54083424877285
 21
26.37890792639714
 31
0.0
  0
LINE
  5
7F8B
330
17
100
AcDbEntity
  8
R-SWTS-DET2
100
AcDbLine
 10
14.50658434877285
 20
26.34790792639714
 30
0.0
 11
14.54083424877285
 21
26.34790792639714
 31
0.0
  0
LINE
  5
7F8C
330
17
100
AcDbEntity
  8
R-SWTS-DET2
100
AcDbLine
 10
14.42583435877285
 20
26.29815794639714
 30
0.0
 11
14.42583435877285
 21
26.26390798639714
 31
0.0
  0
LINE
  5
7F8D
330
17
100
AcDbEntity
  8
R-SWTS-DET2
100
AcDbLine
 10
14.45683431877285
 20
26.29815794639714
 30
0.0
 11
14.45683431877285
 21
26.26390798639714
 31
0.0
  0
CIRCLE
  5
7F90
330
17
100
AcDbEntity
  8
R-SWTS-DET2
100
AcDbCircle
 10
14.44133430877285
 20
26.36340792639714
 30
0.0
 40
0.1865
  0
ARC
  5
7F91
330
17
100
AcDbEntity
  8
R-SWTS-DET2
100
AcDbCircle
 10
14.37608438877285
 20
26.29815794639714
 30
0.0
 40
0.04975
100
AcDbArc
 50
0.0
 51
89.99990999999999
  0
ARC
  5
7F92
330
17
100
AcDbEntity
  8
R-SWTS-DET2
100
AcDbCircle
 10
14.50658434877285
 20
26.29815794639714
 30
0.0
 40
0.04975
100
AcDbArc
 50
89.99997000000004
 51
180.0
  0
ARC
  5
7F93
330
17
100
AcDbEntity
  8
R-SWTS-DET2
100
AcDbCircle
 10
14.50658434877285
 20
26.42865790639714
 30
0.0
 40
0.04975
100
AcDbArc
 50
180.0
 51
270.0
  0
ARC
  5
7F94
330
17
100
AcDbEntity
  8
R-SWTS-DET2
100
AcDbCircle
 10
14.37608438877285
 20
26.42865790639714
 30
0.0
 40
0.04975
100
AcDbArc
 50
270.0
 51
0.0
  0
LINE
  5
7F95
330
17
100
AcDbEntity
  8
R-SWTS-DET2
100
AcDbLine
 10
14.07083453934568
 20
26.61710460138889
 30
0.0
 11
14.04083456934567
 21
26.74210460138889
 31
0.0
  0
LINE
  5
7F96
330
17
100
AcDbEntity
  8
R-SWTS-DET2
100
AcDbLine
 10
14.04083438934567
 20
26.74210530138889
 30
0.0
 11
13.91083444934567
 21
26.74210530138889
 31
0.0
  0
LINE
  5
7F97
330
17
100
AcDbEntity
  8
R-SWTS-DET2
100
AcDbLine
 10
13.88083435934567
 20
26.61710480138889
 30
0.0
 11
13.91083438934568
 21
26.74210480138889
 31
0.0
  0
LINE
  5
7F98
330
17
100
AcDbEntity
  8
R-SWTS-DET2
100
AcDbLine
 10
14.16833392934568
 20
26.17960535765366
 30
0.0
 11
14.07083393934567
 21
26.29560530138889
 31
0.0
  0
LINE
  5
7F99
330
17
100
AcDbEntity
  8
R-SWTS-DET2
100
AcDbLine
 10
13.78333472934567
 20
26.17960537384059
 30
0.0
 11
13.88083471934568
 21
26.29560540138889
 31
0.0
  0
LINE
  5
7F9A
330
17
100
AcDbEntity
  8
R-SWTS-DET2
100
AcDbLine
 10
13.78333442934567
 20
26.17960530138889
 30
0.0
 11
14.16833422934567
 21
26.17960530138889
 31
0.0
  0
LINE
  5
7F9B
330
17
100
AcDbEntity
  8
R-SWTS-DET2
100
AcDbLine
 10
14.07083393934567
 20
26.29560530138889
 30
0.0
 11
14.07083435934567
 21
26.61710530138889
 31
0.0
  0
LINE
  5
7F9C
330
17
100
AcDbEntity
  8
R-SWTS-DET2
100
AcDbLine
 10
13.88083471934568
 20
26.29560540138889
 30
0.0
 11
13.88083441934568
 21
26.61710530138889
 31
0.0
  0
LINE
  5
7F9D
330
17
100
AcDbEntity
  8
R-SWTS-DET2
100
AcDbLine
 10
14.07083393934567
 20
26.29560530138889
 30
0.0
 11
13.88083471934568
 21
26.29560540138889
 31
0.0
  0
LINE
  5
7F9F
330
17
100
AcDbEntity
  8
R-SWTS-DET2
100
AcDbLine
 10
13.49483435877287
 20
26.46290786639715
 30
0.0
 11
13.52583431877287
 21
26.46290786639715
 31
0.0
  0
LINE
  5
7FA0
330
17
100
AcDbEntity
  8
R-SWTS-DET2
100
AcDbLine
 10
13.49483435877287
 20
26.26390798639715
 30
0.0
 11
13.52583431877287
 21
26.26390798639715
 31
0.0
  0
LINE
  5
7FA1
330
17
100
AcDbEntity
  8
R-SWTS-DET2
100
AcDbLine
 10
13.41083436877287
 20
26.37890792639714
 30
0.0
 11
13.41083436877287
 21
26.34790792639714
 31
0.0
  0
LINE
  5
7FA2
330
17
100
AcDbEntity
  8
R-SWTS-DET2
100
AcDbLine
 10
13.60983424877287
 20
26.37890792639714
 30
0.0
 11
13.60983424877287
 21
26.34790792639714
 31
0.0
  0
LINE
  5
7FA3
330
17
100
AcDbEntity
  8
R-SWTS-DET2
100
AcDbLine
 10
13.49483435877287
 20
26.46290786639715
 30
0.0
 11
13.49483435877287
 21
26.42865790639715
 31
0.0
  0
LINE
  5
7FA4
330
17
100
AcDbEntity
  8
R-SWTS-DET2
100
AcDbLine
 10
13.52583431877287
 20
26.46290786639715
 30
0.0
 11
13.52583431877287
 21
26.42865790639715
 31
0.0
  0
LINE
  5
7FA5
330
17
100
AcDbEntity
  8
R-SWTS-DET2
100
AcDbLine
 10
13.41083436877287
 20
26.37890792639714
 30
0.0
 11
13.44508438877287
 21
26.37890792639714
 31
0.0
  0
LINE
  5
7FA6
330
17
100
AcDbEntity
  8
R-SWTS-DET2
100
AcDbLine
 10
13.41083436877287
 20
26.34790792639714
 30
0.0
 11
13.44508438877287
 21
26.34790792639714
 31
0.0
  0
LINE
  5
7FA7
330
17
100
AcDbEntity
  8
R-SWTS-DET2
100
AcDbLine
 10
13.57558434877287
 20
26.37890792639714
 30
0.0
 11
13.60983424877287
 21
26.37890792639714
 31
0.0
  0
LINE
  5
7FA8
330
17
100
AcDbEntity
  8
R-SWTS-DET2
100
AcDbLine
 10
13.57558434877287
 20
26.34790792639714
 30
0.0
 11
13.60983424877287
 21
26.34790792639714
 31
0.0
  0
LINE
  5
7FA9
330
17
100
AcDbEntity
  8
R-SWTS-DET2
100
AcDbLine
 10
13.49483435877287
 20
26.29815794639715
 30
0.0
 11
13.49483435877287
 21
26.26390798639715
 31
0.0
  0
LINE
  5
7FAA
330
17
100
AcDbEntity
  8
R-SWTS-DET2
100
AcDbLine
 10
13.52583431877287
 20
26.29815794639715
 30
0.0
 11
13.52583431877287
 21
26.26390798639715
 31
0.0
  0
CIRCLE
  5
7FAD
330
17
100
AcDbEntity
  8
R-SWTS-DET2
100
AcDbCircle
 10
13.51033430877287
 20
26.36340792639714
 30
0.0
 40
0.1865
  0
ARC
  5
7FAE
330
17
100
AcDbEntity
  8
R-SWTS-DET2
100
AcDbCircle
 10
13.44508438877287
 20
26.29815794639715
 30
0.0
 40
0.04975
100
AcDbArc
 50
0.0
 51
89.99990999999999
  0
ARC
  5
7FAF
330
17
100
AcDbEntity
  8
R-SWTS-DET2
100
AcDbCircle
 10
13.57558434877287
 20
26.29815794639715
 30
0.0
 40
0.04975
100
AcDbArc
 50
89.99997000000004
 51
180.0
  0
ARC
  5
7FB0
330
17
100
AcDbEntity
  8
R-SWTS-DET2
100
AcDbCircle
 10
13.57558434877287
 20
26.42865790639715
 30
0.0
 40
0.04975
100
AcDbArc
 50
180.0
 51
270.0
  0
ARC
  5
7FB1
330
17
100
AcDbEntity
  8
R-SWTS-DET2
100
AcDbCircle
 10
13.44508438877287
 20
26.42865790639715
 30
0.0
 40
0.04975
100
AcDbArc
 50
270.0
 51
0.0
  0
LWPOLYLINE
  5
7FB2
330
17
100
AcDbEntity
  8
R-SWTS-DET2
100
AcDbPolyline
 90
       31
 70
     1
 43
0.0
 10
11.88641805020683
 20
26.93498876573539
 10
11.91323457674577
 20
26.93986306633336
 10
11.87910445262464
 20
27.04709766401511
 10
11.81815780196457
 20
27.05197196289379
 10
11.74260293160579
 20
27.04899079389984
 10
11.7526934731641
 20
27.08000033652108
 42
-0.1257100272134179
 10
11.98468487518616
 20
27.13174266411473
 42
0.2260837189018228
 10
12.13827043561777
 20
27.18146052275884
 10
12.23382574527746
 20
27.29240114091919
 42
-0.6449762263124317
 10
12.25976003729564
 20
27.28065979844553
 10
12.25818030026759
 20
27.15142286281614
 42
-0.1518691569180708
 10
12.24182752367126
 20
27.10698770846688
 10
12.20332433537601
 20
27.04706192919841
 42
0.0293454671788447
 10
12.18592944617311
 20
26.99517928600578
 10
12.16869915658958
 20
26.87338527616874
 42
0.6538117075652882
 10
12.18893996749244
 20
26.86639853920338
 10
12.23303171471477
 20
27.0316474566933
 42
-0.8886355728344963
 10
12.25818030026759
 20
27.02958602579391
 10
12.25818030026759
 20
26.89534040540126
 42
-0.0642046489364144
 10
12.21574783835816
 20
26.70672414869397
 42
-0.6896355001773956
 10
12.11313910797006
 20
26.70672414869397
 42
-0.0703560868358924
 10
12.07190664606063
 20
26.89534040540126
 10
12.07190664606063
 20
26.99104321573489
 10
11.99855988808404
 20
26.99104321573489
 10
11.97661909326657
 20
26.93742591603438
 10
12.01562495118005
 20
26.93255161715569
 10
11.98149482498803
 20
26.89599436782878
 10
12.01318708531931
 20
26.87406001857648
 10
11.95224043258837
 20
26.82044272059525
 10
11.89616951364976
 20
26.88624576835212
 10
11.92054817432797
 20
26.89599436782878
  0
LWPOLYLINE
  5
7FB3
330
17
100
AcDbEntity
  8
R-SWTS-DET2
100
AcDbPolyline
 90
       31
 70
     1
 43
0.0
 10
12.88349524191442
 20
26.93498876573539
 10
12.85667871537549
 20
26.93986306633336
 10
12.89080883949662
 20
27.04709766401511
 10
12.95175549015669
 20
27.05197196289379
 10
13.02731036051547
 20
27.04899079389984
 10
13.01721981895715
 20
27.08000033652108
 42
0.1257100272134179
 10
12.7852284169351
 20
27.13174266411473
 42
-0.2260837189018228
 10
12.63164285650349
 20
27.18146052275884
 10
12.5360875468438
 20
27.29240114091919
 42
0.6449762263124317
 10
12.51015325482561
 20
27.28065979844553
 10
12.51173299185367
 20
27.15142286281614
 42
0.1518691569180708
 10
12.52808576845
 20
27.10698770846688
 10
12.56658895674525
 20
27.04706192919841
 42
-0.0293454671788447
 10
12.58398384594815
 20
26.99517928600578
 10
12.60121413553167
 20
26.87338527616874
 42
-0.6538117075652882
 10
12.58097332462881
 20
26.86639853920338
 10
12.53688157740649
 20
27.0316474566933
 42
0.8886355728344963
 10
12.51173299185367
 20
27.02958602579391
 10
12.51173299185367
 20
26.89534040540126
 42
0.0642046489364144
 10
12.55416545376309
 20
26.70672414869397
 42
0.6896355001773956
 10
12.6567741841512
 20
26.70672414869397
 42
0.0703560868358924
 10
12.69800664606063
 20
26.89534040540126
 10
12.69800664606063
 20
26.99104321573489
 10
12.77135340403722
 20
26.99104321573489
 10
12.79329419885468
 20
26.93742591603438
 10
12.75428834094121
 20
26.93255161715569
 10
12.78841846713322
 20
26.89599436782878
 10
12.75672620680194
 20
26.87406001857648
 10
12.81767285953289
 20
26.82044272059525
 10
12.87374377847149
 20
26.88624576835212
 10
12.84936511779329
 20
26.89599436782878
  0
LWPOLYLINE
  5
7FB5
330
17
100
AcDbEntity
  8
R-SWTS-DET2
100
AcDbPolyline
 90
       49
 70
     1
 43
0.0
 10
14.83478811096251
 20
26.80105846570994
 42
0.4142135623730951
 10
14.81478811096251
 20
26.78105846570995
 10
14.81478811096251
 20
26.57153258870721
 42
-0.4142135623730951
 10
14.75278811096251
 20
26.50953258870721
 10
14.64974876639502
 20
26.50953258870721
 42
0.5836453620014595
 10
14.63261965699751
 20
26.47920817050335
 42
-0.2917882532423142
 10
14.62647829091944
 20
26.23728108100653
 10
14.52070174021963
 20
26.23728108100653
 10
14.49591717627555
 20
26.28020920500111
 42
3.265165369800561
 10
14.38391717627555
 20
26.28020920500111
 10
14.35913261108802
 20
26.23728107885281
 10
14.25827735282223
 20
26.23728105741537
 42
0.4142135001167244
 10
14.23827735707336
 20
26.21728105741537
 10
14.23827735707336
 20
26.19925584070168
 42
-0.4142135623730951
 10
14.21827735707336
 20
26.17925584070168
 10
14.17627735707337
 20
26.17925584070169
 10
14.07947444031248
 20
26.2906148893876
 10
13.86935991223862
 20
26.2906148893876
 10
13.77255703662338
 20
26.17925584070168
 10
13.73055703662338
 20
26.17925584070168
 42
-0.4142135623730951
 10
13.71055703662338
 20
26.19925584070168
 10
13.71055703662338
 20
26.2172810567816
 42
0.4142134982762367
 10
13.69055704100019
 20
26.2372810567816
 10
13.58970174146309
 20
26.23728107885281
 10
13.56491717627557
 20
26.28020920500111
 42
3.265165369800561
 10
13.45291717627557
 20
26.28020920500111
 10
13.42813261233149
 20
26.23728108100653
 10
13.32235606163168
 20
26.23728108100653
 42
-0.2917882532423119
 10
13.31621469555361
 20
26.47920817050335
 42
0.5836453620014551
 10
13.2990855861561
 20
26.50953258870721
 10
12.95267433433401
 20
26.50953258870721
 42
-0.4142135623730951
 10
12.93267433433401
 20
26.52953258870721
 10
12.93267433433401
 20
26.61453258870722
 42
-0.4142135623730951
 10
12.95267433433401
 20
26.63453258870721
 10
13.55608028668773
 20
26.63453258870721
 10
13.76662208149508
 20
26.42399079389985
 10
14.18221227105603
 20
26.42399079389985
 10
14.39275406586338
 20
26.63453258870721
 10
14.66978811096252
 20
26.63453258870721
 42
0.4142135623730951
 10
14.68978811096252
 20
26.65453258870722
 10
14.68978811096251
 20
26.86405846570995
 42
-0.4142135623731035
 10
14.75178811096251
 20
26.92605846570994
 10
15.85206771558835
 20
26.92605846570995
 42
-0.4142135623731013
 10
16.10206771558835
 20
26.67605846570994
 10
16.10206771558835
 20
26.31505846570994
 42
-0.8391187447063689
 10
16.04387647665426
 20
26.30479912619119
 10
15.97706771558835
 20
26.55991208938889
 10
15.97706771558835
 20
26.67605846570994
 42
0.4142135623731034
 10
15.85206771558835
 20
26.80105846570994
  0
LWPOLYLINE
  5
7FB6
330
17
100
AcDbEntity
  8
R-SWTS-DET2
100
AcDbPolyline
 90
       31
 70
     1
 43
0.0
 10
11.88641805020683
 20
25.16299282206429
 10
11.91323457674577
 20
25.15811852146633
 10
11.87910445262464
 20
25.05088392378457
 10
11.81815780196457
 20
25.04600962490588
 10
11.74260293160579
 20
25.04899079389984
 10
11.7526934731641
 20
25.0179812512786
 42
0.1257100272134179
 10
11.98468487518616
 20
24.96623892368495
 42
-0.2260837189018228
 10
12.13827043561777
 20
24.91652106504085
 10
12.23382574527746
 20
24.80558044688049
 42
0.6449762263124317
 10
12.25976003729564
 20
24.81732178935415
 10
12.25818030026759
 20
24.94655872498354
 42
0.1518691569180708
 10
12.24182752367126
 20
24.9909938793328
 10
12.20332433537601
 20
25.05091965860128
 42
-0.0293454671788447
 10
12.18592944617311
 20
25.1028023017939
 10
12.16869915658958
 20
25.22459631163094
 42
-0.6538117075652882
 10
12.18893996749244
 20
25.2315830485963
 10
12.23303171471477
 20
25.06633413110638
 42
0.8886355728344963
 10
12.25818030026759
 20
25.06839556200577
 10
12.25818030026759
 20
25.20264118239843
 42
0.0642046489364144
 10
12.21574783835816
 20
25.39125743910571
 42
0.6896355001773956
 10
12.11313910797006
 20
25.39125743910571
 42
0.0703560868358924
 10
12.07190664606063
 20
25.20264118239843
 10
12.07190664606063
 20
25.10693837206479
 10
11.99855988808404
 20
25.10693837206479
 10
11.97661909326657
 20
25.16055567176531
 10
12.01562495118005
 20
25.165429970644
 10
11.98149482498803
 20
25.20198721997091
 10
12.01318708531931
 20
25.2239215692232
 10
11.95224043258837
 20
25.27753886720443
 10
11.89616951364976
 20
25.21173581944756
 10
11.92054817432796
 20
25.20198721997091
  0
LWPOLYLINE
  5
7FB7
330
17
100
AcDbEntity
  8
R-SWTS-DET2
100
AcDbPolyline
 90
       31
 70
     1
 43
0.0
 10
12.88349524191442
 20
25.16299282206429
 10
12.85667871537549
 20
25.15811852146633
 10
12.89080883949662
 20
25.05088392378457
 10
12.95175549015669
 20
25.04600962490588
 10
13.02731036051547
 20
25.04899079389984
 10
13.01721981895715
 20
25.0179812512786
 42
-0.1257100272134179
 10
12.7852284169351
 20
24.96623892368495
 42
0.2260837189018228
 10
12.63164285650349
 20
24.91652106504085
 10
12.5360875468438
 20
24.80558044688049
 42
-0.6449762263124317
 10
12.51015325482561
 20
24.81732178935415
 10
12.51173299185367
 20
24.94655872498354
 42
-0.1518691569180708
 10
12.52808576845
 20
24.9909938793328
 10
12.56658895674525
 20
25.05091965860128
 42
0.0293454671788447
 10
12.58398384594815
 20
25.1028023017939
 10
12.60121413553167
 20
25.22459631163094
 42
0.6538117075652882
 10
12.58097332462881
 20
25.2315830485963
 10
12.53688157740649
 20
25.06633413110638
 42
-0.8886355728344963
 10
12.51173299185367
 20
25.06839556200577
 10
12.51173299185367
 20
25.20264118239843
 42
-0.0642046489364144
 10
12.55416545376309
 20
25.39125743910571
 42
-0.6896355001773956
 10
12.6567741841512
 20
25.39125743910571
 42
-0.0703560868358924
 10
12.69800664606063
 20
25.20264118239843
 10
12.69800664606063
 20
25.10693837206479
 10
12.77135340403721
 20
25.10693837206479
 10
12.79329419885468
 20
25.16055567176531
 10
12.75428834094121
 20
25.165429970644
 10
12.78841846713322
 20
25.20198721997091
 10
12.75672620680194
 20
25.2239215692232
 10
12.81767285953289
 20
25.27753886720443
 10
12.87374377847149
 20
25.21173581944756
 10
12.84936511779329
 20
25.20198721997091
  0
LINE
  5
7FD0
330
17
100
AcDbEntity
  8
R-SWTS-DET2
100
AcDbLine
 10
13.02155771783391
 20
18.76973497860635
 30
0.0
 11
13.02155771783391
 21
20.76971484796976
 31
0.0
  0
LINE
  5
7FD1
330
17
100
AcDbEntity
  8
R-SWTS-DET3
100
AcDbLine
 10
12.50420400337906
 20
18.33223497860632
 30
0.0
 11
12.25420400337906
 21
18.33223497860632
 31
0.0
  0
LINE
  5
7FD2
330
17
100
AcDbEntity
  8
R-SWTS-DET3
100
AcDbLine
 10
12.50420400337906
 20
18.33223497860632
 30
0.0
 11
12.50420400337906
 21
20.70723497860632
 31
0.0
  0
LINE
  5
7FD3
330
17
100
AcDbEntity
  8
R-SWTS-DET3
100
AcDbLine
 10
12.25420400337906
 20
18.33223497860632
 30
0.0
 11
12.25420400337906
 21
20.70723497860632
 31
0.0
  0
LINE
  5
7FD4
330
17
100
AcDbEntity
  8
R-SWTS-DET2
100
AcDbLine
 10
11.73685028892422
 20
18.76973497860635
 30
0.0
 11
11.73685028892422
 21
20.76971484796976
 31
0.0
  0
LWPOLYLINE
  5
7FD7
330
17
100
AcDbEntity
  8
R-SWTS-DET2
100
AcDbPolyline
 90
        4
 70
     1
 43
0.0
 10
12.62920400337906
 20
17.89473497860632
 10
12.12920400337906
 20
17.89473497860632
 10
12.12920400337906
 20
18.33223497860632
 10
12.62920400337907
 20
18.33223497860632
  0
LWPOLYLINE
  5
7FD8
330
17
100
AcDbEntity
  8
R-SWTS-DET2
100
AcDbPolyline
 90
       31
 70
     1
 43
0.0
 10
12.87774259923286
 20
18.6557329504419
 10
12.85092607269392
 20
18.66060725103986
 10
12.88505619681506
 20
18.76784184872161
 10
12.94600284747512
 20
18.7727161476003
 10
13.02155771783391
 20
18.76973497860635
 10
13.01146717627559
 20
18.80074452122758
 42
0.1257100272134179
 10
12.77947577425353
 20
18.85248684882124
 42
-0.2260837189018228
 10
12.62589021382193
 20
18.90220470746534
 10
12.53033490416223
 20
19.01314532562569
 42
0.6449762263124317
 10
12.50440061214405
 20
19.00140398315203
 10
12.5059803491721
 20
18.87216704752265
 42
0.1518691569180708
 10
12.52233312576843
 20
18.82773189317339
 10
12.56083631406368
 20
18.76780611390491
 42
-0.0293454671788447
 10
12.57823120326658
 20
18.71592347071229
 10
12.59546149285011
 20
18.59412946087525
 42
-0.6538117075652882
 10
12.57522068194725
 20
18.58714272390988
 10
12.53112893472492
 20
18.75239164139981
 42
0.8886355728344963
 10
12.5059803491721
 20
18.75033021050042
 10
12.5059803491721
 20
18.61608459010776
 42
0.0642046489364144
 10
12.54841281108153
 20
18.42746833340047
 42
0.6896355001773956
 10
12.65102154146964
 20
18.42746833340047
 42
0.0703560868358924
 10
12.69225400337906
 20
18.61608459010776
 10
12.69225400337906
 20
18.71178740044139
 10
12.76560076135565
 20
18.71178740044139
 10
12.78754155617312
 20
18.65817010074088
 10
12.74853569825964
 20
18.65329580186219
 10
12.78266582445166
 20
18.61673855253528
 10
12.75097356412038
 20
18.59480420328299
 10
12.81192021685132
 20
18.54118690530175
 10
12.86799113578993
 20
18.60698995305862
 10
12.84361247511172
 20
18.61673855253528
  0
LWPOLYLINE
  5
7FD9
330
17
100
AcDbEntity
  8
R-SWTS-DET2
100
AcDbPolyline
 90
       31
 70
     1
 43
0.0
 10
11.88066540752527
 20
18.6557329504419
 10
11.9074819340642
 20
18.66060725103986
 10
11.87335180994307
 20
18.76784184872161
 10
11.812405159283
 20
18.7727161476003
 10
11.73685028892422
 20
18.76973497860635
 10
11.74694083048254
 20
18.80074452122758
 42
-0.1257100272134179
 10
11.97893223250459
 20
18.85248684882124
 42
0.2260837189018228
 10
12.1325177929362
 20
18.90220470746534
 10
12.22807310259589
 20
19.01314532562569
 42
-0.6449762263124317
 10
12.25400739461408
 20
19.00140398315203
 10
12.25242765758602
 20
18.87216704752265
 42
-0.1518691569180708
 10
12.23607488098969
 20
18.82773189317339
 10
12.19757169269444
 20
18.76780611390491
 42
0.0293454671788447
 10
12.18017680349154
 20
18.71592347071229
 10
12.16294651390802
 20
18.59412946087525
 42
0.6538117075652882
 10
12.18318732481088
 20
18.58714272390988
 10
12.2272790720332
 20
18.75239164139981
 42
-0.8886355728344963
 10
12.25242765758602
 20
18.75033021050042
 10
12.25242765758602
 20
18.61608459010776
 42
-0.0642046489364144
 10
12.2099951956766
 20
18.42746833340047
 42
-0.6896355001773956
 10
12.10738646528849
 20
18.42746833340047
 42
-0.0703560868358924
 10
12.06615400337907
 20
18.61608459010776
 10
12.06615400337907
 20
18.71178740044139
 10
11.99280724540248
 20
18.71178740044139
 10
11.97086645058501
 20
18.65817010074088
 10
12.00987230849848
 20
18.65329580186219
 10
11.97574218230647
 20
18.61673855253528
 10
12.00743444263775
 20
18.59480420328299
 10
11.9464877899068
 20
18.54118690530175
 10
11.8904168709682
 20
18.60698995305862
 10
11.9147955316464
 20
18.61673855253528
  0
LWPOLYLINE
  5
7FDA
330
17
100
AcDbEntity
  8
R-SWTS-DET1
100
AcDbPolyline
 90
       75
 70
     1
 43
0.0
 10
11.86662765758596
 20
18.66723497860633
 10
11.89562765758595
 20
18.66723497860633
 10
11.85959735455565
 20
18.76973497860633
 10
11.72427765758601
 20
18.76973497860633
 42
0.4142135623733032
 10
11.71427765758599
 20
18.75973497860631
 10
11.71427765758602
 20
18.67473497860633
 42
-0.4142135623733032
 10
11.70427765758601
 20
18.66473497860634
 10
11.67933664143463
 20
18.66473497860635
 42
0.5773502691905092
 10
11.67067638739678
 20
18.64973497860633
 10
11.76822894628005
 20
18.48076899021218
 42
0.267949192430891
 10
11.77694811014724
 20
18.47573497860635
 10
11.82457265758596
 20
18.47573497860635
 42
-0.4142135623730951
 10
11.88457265758597
 20
18.41573497860635
 10
11.88457265758597
 20
17.99473497860631
 42
0.4142135623730951
 10
12.06457265758596
 20
17.81473497860632
 10
12.73058265758593
 20
17.81473497860632
 42
-0.4142135623730257
 10
12.79058265758594
 20
17.75473497860631
 10
12.79058265758593
 20
16.95973497860632
 42
0.9999999999999776
 10
12.8705826575859
 20
16.95973497860632
 10
12.87058265758595
 20
18.44586417467317
 42
-0.1990202627215954
 10
12.87644639424177
 20
18.4600121801391
 10
12.93774304014287
 20
18.52125795295558
 42
0.1990202627216068
 10
12.96852765758594
 20
18.59553498165173
 10
12.96852765758593
 20
18.66973497860633
 42
-0.4142135623731684
 10
12.98852765758593
 20
18.68973497860633
 10
16.06118677737165
 20
18.68973497860626
 42
-0.3275382217171905
 10
16.13750191348489
 20
18.63373497860663
 42
0.3275382217217361
 10
16.20427765758596
 20
18.58473497860625
 10
16.23627765758596
 20
18.58473497860625
 42
0.414213562372991
 10
16.27627765758596
 20
18.62473497860624
 10
16.27627765758598
 20
18.66473497860625
 10
16.21427765758596
 20
18.66473497860625
 10
16.214277657586
 20
18.75973497860627
 42
0.4142135623726789
 10
16.204277657586
 20
18.76973497860626
 10
12.89555796061626
 20
18.76973497860633
 10
12.85952765758595
 20
18.66723497860631
 10
12.88852765758594
 20
18.66723497860631
 10
12.88852765758594
 20
18.59553497860632
 42
-0.1989123673795612
 10
12.8812053271156
 20
18.57785730907663
 10
12.81452765758593
 20
18.51123497860631
 10
12.77257765758595
 20
18.51123497860631
 42
-0.3541185725306532
 10
12.75301470557125
 20
18.52707674478996
 10
12.73057765758594
 20
18.6292349786063
 10
12.73057765758594
 20
18.66723497860631
 10
12.75957765758594
 20
18.66723497860631
 10
12.75957765758594
 20
18.67923497860631
 42
0.4142135623730951
 10
12.73957765758593
 20
18.69923497860629
 10
12.71057765758593
 20
18.69923497860632
 42
0.4142135623730951
 10
12.69057765758594
 20
18.67923497860628
 10
12.69057765758594
 20
18.4772399786063
 42
0.4142135623730951
 10
12.72858265758594
 20
18.4392349786063
 10
12.72858265758594
 20
18.46123497860629
 10
12.76558265758594
 20
18.46123497860629
 42
-0.4142135623730951
 10
12.79058265758595
 20
18.43623497860629
 10
12.79058265758593
 20
17.95473497860631
 42
-0.4142135623731645
 10
12.73058265758593
 20
17.89473497860632
 10
12.06457265758596
 20
17.89473497860632
 42
-0.4142135623730951
 10
11.96457265758597
 20
17.99473497860631
 10
11.96457265758597
 20
18.43623497860632
 42
-0.4142135623730951
 10
11.98957265758597
 20
18.46123497860632
 10
12.02657265758598
 20
18.46123497860631
 10
12.02657265758598
 20
18.4392349786063
 42
0.4142135623730951
 10
12.06457765758598
 20
18.4772399786063
 10
12.06457765758598
 20
18.67923497860631
 42
0.4142135623730951
 10
12.04457765758597
 20
18.69923497860634
 10
12.01557765758598
 20
18.69923497860632
 42
0.414213562372991
 10
11.99557765758596
 20
18.67923497860633
 10
11.99557765758596
 20
18.66723497860633
 10
12.02457765758596
 20
18.66723497860633
 10
12.02457765758596
 20
18.62923497860633
 10
12.00214060960067
 20
18.52707674478996
 42
-0.3541185725307227
 10
11.98257765758595
 20
18.51123497860633
 10
11.94062765758597
 20
18.51123497860633
 10
11.87394998805631
 20
18.57785730907666
 42
-0.198912367379643
 10
11.86662765758596
 20
18.59553497860632
  0
LWPOLYLINE
  5
7FDB
330
17
100
AcDbEntity
  8
R-SWTS-DET1
100
AcDbPolyline
 90
       73
 70
     1
 43
0.0
 10
11.65717765758603
 20
18.65373497860253
 42
-0.4142135623730951
 10
11.66717765758602
 20
18.66373497860252
 10
11.70917765758605
 20
18.66373497860252
 42
0.4142135623730951
 10
11.71917765758604
 20
18.67373497860254
 10
11.71917765758604
 20
18.75873497860251
 42
0.4142135623731471
 10
11.70917765758604
 20
18.76873497860251
 10
11.604177657586
 20
18.76873497860251
 42
0.4142135623739275
 10
11.59417765758601
 20
18.75873497860252
 10
11.59417765758601
 20
16.76973497860631
 10
11.71917765758604
 20
16.76973497860631
 10
11.71917765758604
 20
16.81473497860633
 10
12.4916765284808
 20
16.81473497860633
 10
12.4916765284808
 20
16.76973497860628
 10
12.7416765284808
 20
16.76973497860632
 10
12.7416765284808
 20
16.81473497860633
 10
13.532177657586
 20
16.81473497860633
 10
13.532177657586
 20
16.76973497860631
 10
13.59417765758601
 20
16.76973497860631
 10
13.59417765758601
 20
16.81473497860633
 10
14.34417765758601
 20
16.81473497860633
 10
14.34417765758601
 20
16.76973497860631
 10
14.40617765758599
 20
16.76973497860631
 10
14.40617765758602
 20
16.8147349786063
 10
15.19667878669121
 20
16.8147349786063
 10
15.1966787866912
 20
16.76973497860632
 10
15.4466787866912
 20
16.76973497860628
 10
15.44667878669121
 20
16.81473497860631
 10
16.21917765758598
 20
16.81473497860632
 10
16.21917765758598
 20
16.76973497860631
 10
16.34417765758601
 20
16.76973497860631
 10
16.34417765758601
 20
18.75873497860252
 42
0.4142135623739275
 10
16.33417765758602
 20
18.76873497860251
 10
16.22917765758598
 20
18.76873497860251
 42
0.4142135623731471
 10
16.21917765758598
 20
18.75873497860251
 10
16.21917765758598
 20
18.67373497860254
 42
0.4142135623730951
 10
16.22917765758597
 20
18.66373497860252
 10
16.271177657586
 20
18.66373497860252
 42
-0.4142135623730951
 10
16.28117765758599
 20
18.65373497860253
 10
16.28117765758599
 20
18.58373497860251
 42
-0.4142135623730951
 10
16.271177657586
 20
18.57373497860251
 10
16.21917765758598
 20
18.57373497860251
 10
16.26283791162384
 20
18.49811320033753
 42
-0.131652497587239
 10
16.264177657586
 20
18.49311320033755
 10
16.264177657586
 20
17.70578297860251
 10
16.21917765758598
 20
17.70578297063756
 10
16.21917765758598
 20
16.89473497860631
 10
15.40515259198286
 20
16.89473497860632
 42
0.3152987888789334
 10
15.39575566577508
 20
16.88815518003959
 10
15.37545847079381
 20
16.83238909515045
 42
-0.3152987888785436
 10
15.36606154458598
 20
16.82580929658373
 10
15.28667878669119
 20
16.82580929658373
 42
-0.4142135623727309
 10
15.27667878669121
 20
16.83580929658372
 10
15.27667878669121
 20
16.88473497860634
 42
0.4142135623731471
 10
15.26667878669121
 20
16.89473497860634
 10
13.98407765758605
 20
16.89473497860631
 10
13.96907765758601
 20
16.87973497860632
 10
13.95407765758602
 20
16.89473497860631
 10
12.6716765284808
 20
16.89473497860634
 42
0.4142135623731471
 10
12.6616765284808
 20
16.88473497860634
 10
12.6616765284808
 20
16.83580929658372
 42
-0.4142135623727309
 10
12.65167652848081
 20
16.82580929658373
 10
12.57229377058602
 20
16.82580929658373
 42
-0.3152987888785437
 10
12.56289684437819
 20
16.83238909515045
 10
12.54259964939693
 20
16.88815518003959
 42
0.3152987888789466
 10
12.53320272318909
 20
16.89473497860634
 10
11.71917765758604
 20
16.89473497860631
 10
11.71917765758604
 20
17.70578297063756
 10
11.67417765758602
 20
17.70578297860252
 10
11.67417765758602
 20
18.49311320033755
 42
-0.1316524975872335
 10
11.67551740354818
 20
18.49811320033753
 10
11.71917765758604
 20
18.57373497860252
 10
11.66717765758602
 20
18.57373497860252
 42
-0.4142135623730951
 10
11.65717765758603
 20
18.58373497860251
  0
LWPOLYLINE
  5
804B
330
17
100
AcDbEntity
  8
R-SWTS-DET1
100
AcDbPolyline
 90
       96
 70
     1
 43
0.0
 10
41.35533017252396
 20
10.40762424037672
 10
41.35533017252396
 20
10.44957424037672
 42
-0.3541185725307177
 10
41.3711719387076
 20
10.46913719239139
 10
41.47333017252395
 20
10.49157424037671
 10
41.51133017252397
 20
10.49157424037671
 10
41.51133017252397
 20
10.46257424037672
 10
41.52333017252397
 20
10.46257424037672
 42
0.4142135623730951
 10
41.54333017252397
 20
10.48257424037672
 10
41.54333017252397
 20
10.51157424037671
 42
0.4142135623730951
 10
41.52333017252397
 20
10.53157424037671
 10
41.32133517252396
 20
10.53157424037671
 42
0.4142135623730951
 10
41.28333017252396
 20
10.49356924037672
 10
41.30533017252396
 20
10.49356924037672
 10
41.30533017252396
 20
10.43156924037671
 10
41.28333017252396
 20
10.43156924037671
 10
41.28333017252396
 20
10.37679318427861
 42
0.198901884618128
 10
41.29065178997595
 20
10.35911622779605
 10
41.36404629120346
 20
10.28571580556276
 42
-0.668164052169275
 10
41.34990358516506
 20
10.25157424037671
 10
40.42383017252396
 20
10.25157424037671
 42
-0.4142135623730951
 10
40.36383017252396
 20
10.31157424037671
 10
40.36383017252396
 20
11.15757924037671
 42
-0.4142135623730951
 10
40.46383017252395
 20
11.25757924037672
 10
41.28033017252396
 20
11.25757924037672
 42
-0.4142135623730951
 10
41.30533017252396
 20
11.23257924037671
 10
41.30533017252396
 20
11.19557924037671
 10
41.28333017252396
 20
11.19557924037671
 42
0.4142135623730951
 10
41.32133517252396
 20
11.15757424037671
 10
41.52333017252397
 20
11.15757424037671
 42
0.4142135623730951
 10
41.54333017252397
 20
11.17757424037671
 10
41.54333017252397
 20
11.20657424037672
 42
0.4142135623730951
 10
41.52333017252397
 20
11.22657424037671
 10
41.51133017252397
 20
11.22657424037671
 10
41.51133017252397
 20
11.19757424037671
 10
41.47333017252395
 20
11.19757424037671
 10
41.3711719387076
 20
11.22001128836204
 42
-0.3541185725307012
 10
41.35533017252396
 20
11.23957424037672
 10
41.35533017252396
 20
11.28152424037672
 10
41.4219525029943
 20
11.34820190990638
 42
-0.1989123673796526
 10
41.43963017252396
 20
11.35552424037671
 10
41.51133017252397
 20
11.35552424037671
 10
41.51133017252397
 20
11.32652424037672
 10
41.59383017252396
 20
11.35552424037671
 10
41.58383017252396
 20
11.40852336541064
 10
41.61383017252396
 20
11.41906881995609
 10
41.61383017252396
 20
14.68157424037671
 10
39.61383017252396
 20
14.68157424037671
 10
39.61383017252396
 20
14.22757332801328
 10
39.69383017252396
 20
14.22757332801328
 10
39.69383017252396
 20
14.11957332801328
 42
0.4142135623730951
 10
39.75583017252396
 20
14.05757332801328
 10
39.77383017252396
 20
14.05757332801328
 10
39.77383017252396
 20
14.24557332801328
 42
0.4142135623730951
 10
39.71183017252396
 20
14.30757332801328
 10
39.68383017252396
 20
14.30757332801327
 10
39.68383017252396
 20
14.55157424037671
 42
-0.4142135623730863
 10
39.74383017252396
 20
14.61157424037671
 10
41.48383017252385
 20
14.61157424037671
 42
-0.4142135623730864
 10
41.54383017252385
 20
14.55157424037671
 10
41.54383017252391
 20
13.09357424037683
 42
-0.4142135623722106
 10
41.52383017252396
 20
13.07357424037683
 10
41.52383017252396
 20
12.72957424037683
 42
-0.4142135623722627
 10
41.54383017252391
 20
12.70957424037683
 10
41.54383017252391
 20
12.16257424037683
 42
-0.4142135623722106
 10
41.52383017252396
 20
12.14257424037671
 10
41.52383017252396
 20
11.79857424037671
 42
-0.4142135623722627
 10
41.54383017252391
 20
11.77857424037671
 10
41.54383017252397
 20
11.49552424037671
 42
-0.4142135623731023
 10
41.47383017252396
 20
11.42552424037671
 10
41.44377474327536
 20
11.42552424037671
 42
0.1990202627215684
 10
41.36949771457923
 20
11.39473962293365
 10
41.30825194176273
 20
11.33344297703253
 42
-0.1990202627215683
 10
41.2941039362968
 20
11.32757924037671
 10
40.46383017252395
 20
11.32757924037671
 42
0.4142135623730958
 10
40.29383017252395
 20
11.15757924037671
 10
40.29383017252395
 20
10.31157424037671
 42
-0.4142135623730951
 10
40.23383017252396
 20
10.25157424037671
 10
39.74383017252396
 20
10.25157424037671
 42
-0.4142135623730951
 10
39.68383017252396
 20
10.31157424037671
 10
39.68383017252396
 20
10.5555733280133
 10
39.71183017252396
 20
10.55557332801329
 42
0.4142135623730951
 10
39.77383017252396
 20
10.61757332801329
 10
39.77383017252396
 20
10.80557332801328
 10
39.75583017252396
 20
10.80557332801328
 42
0.4142135623730951
 10
39.69383017252396
 20
10.74357332801328
 10
39.69383017252396
 20
10.63557332801328
 10
39.61383017252396
 20
10.63557332801328
 10
39.61383017252396
 20
10.18157424037671
 10
41.61383017252396
 20
10.18157424037671
 10
41.61383017252396
 20
10.27007966079734
 10
41.58383017252396
 20
10.2806251153428
 10
41.59383017252396
 20
10.33362424037671
 10
41.51133017252397
 20
10.36262424037672
 10
41.51133017252397
 20
10.33362424037671
 10
41.43963017252396
 20
10.33362424037671
 42
-0.1989123673796526
 10
41.4219525029943
 20
10.34094657084705
  0
LWPOLYLINE
  5
804C
330
17
100
AcDbEntity
  8
R-SWTS-DET2
  6
HIDDEN
100
AcDbPolyline
 90
       31
 70
     1
 43
0.0
 10
39.81483017252396
 20
10.87762832801328
 42
-0.3152987888789836
 10
39.83362872340277
 20
10.86446544098051
 10
39.83483017252396
 20
10.86112332801328
 42
0.4157274902824888
 10
39.86083017252395
 20
10.84962332801328
 10
39.97285775740684
 20
10.89051726820389
 42
-0.9985929533858886
 10
39.99683017252394
 20
10.82462332801328
 10
39.77983017252396
 20
10.74562332801328
 10
39.77983017252396
 20
10.80762332801328
 10
39.69383017252396
 20
10.80762332801328
 10
39.69383017252396
 20
10.63762332801328
 10
39.61383017252396
 20
10.63762332801328
 10
39.61383017252396
 20
14.22757332801328
 10
39.69383017252396
 20
14.22757332801328
 10
39.69383017252396
 20
14.05757332801328
 10
39.77983017252396
 20
14.05757332801328
 10
39.77983017252396
 20
14.11962332801328
 10
39.99683017252394
 20
14.04062332801328
 42
-1.000483153037823
 10
39.97283017252394
 20
13.97487332801328
 10
39.86083017252395
 20
14.01577332801328
 42
0.4142446109993052
 10
39.83503632010823
 20
14.00381373087979
 10
39.83362872340277
 20
14.00073121504605
 42
-0.3155167061000723
 10
39.81483017252396
 20
13.98757332801328
 10
39.69383017252396
 20
13.98757332801328
 10
39.69383017252396
 20
13.66132332801328
 10
39.68383017252396
 20
13.65132332801328
 10
39.69383017252396
 20
13.64132332801328
 10
39.69383017252396
 20
11.22362332801328
 10
39.68383017252396
 20
11.21362332801328
 10
39.69383017252396
 20
11.20362332801328
 10
39.69383017252396
 20
10.87762332801328
 10
39.81483017252396
 20
10.87762332801328
  0
LINE
  5
804D
330
17
100
AcDbEntity
  8
R-SWTS-DET2
100
AcDbLine
 10
41.61383017252397
 20
11.48744112772809
 30
0.0
 11
43.61381004188737
 21
11.48744112772809
 31
0.0
  0
LINE
  5
804E
330
17
100
AcDbEntity
  8
R-SWTS-DET3
100
AcDbLine
 10
41.23883017252396
 20
10.97008741327325
 30
0.0
 11
41.23883017252396
 21
10.72008741327325
 31
0.0
  0
LINE
  5
804F
330
17
100
AcDbEntity
  8
R-SWTS-DET3
100
AcDbLine
 10
41.23883017252396
 20
10.97008741327325
 30
0.0
 11
43.61383017252395
 21
10.97008741327325
 31
0.0
  0
LINE
  5
8050
330
17
100
AcDbEntity
  8
R-SWTS-DET3
100
AcDbLine
 10
41.23883017252396
 20
10.72008741327325
 30
0.0
 11
43.61383017252395
 21
10.72008741327325
 31
0.0
  0
LINE
  5
8051
330
17
100
AcDbEntity
  8
R-SWTS-DET2
100
AcDbLine
 10
41.61383017252397
 20
10.2027336988184
 30
0.0
 11
43.61381004188737
 21
10.2027336988184
 31
0.0
  0
LWPOLYLINE
  5
8054
330
17
100
AcDbEntity
  8
R-SWTS-DET2
100
AcDbPolyline
 90
       31
 70
     1
 43
0.0
 10
41.49982814435951
 20
11.34362600912704
 10
41.50470244495749
 20
11.31680948258811
 10
41.61193704263922
 20
11.35093960670924
 10
41.61681134151791
 20
11.41188625736931
 10
41.61383017252397
 20
11.48744112772809
 10
41.6448397151452
 20
11.47735058616977
 42
-0.1257100272134179
 10
41.69658204273885
 20
11.24535918414771
 42
0.2260837189018228
 10
41.74629990138295
 20
11.09177362371611
 10
41.85724051954331
 20
10.99621831405642
 42
-0.6449762263124317
 10
41.84549917706966
 20
10.97028402203823
 10
41.71626224144026
 20
10.97186375906628
 42
-0.1518691569180708
 10
41.671827087091
 20
10.98821653566262
 10
41.61190130782253
 20
11.02671972395786
 42
0.0293454671788447
 10
41.5600186646299
 20
11.04411461316076
 10
41.43822465479286
 20
11.06134490274429
 42
0.6538117075652882
 10
41.4312379178275
 20
11.04110409184143
 10
41.59648683531742
 20
10.99701234461911
 42
-0.8886355728344963
 10
41.59442540441803
 20
10.97186375906629
 10
41.46017978402539
 20
10.97186375906629
 42
-0.0642046489364144
 10
41.27156352731809
 20
11.01429622097571
 42
-0.6896355001773956
 10
41.27156352731809
 20
11.11690495136382
 42
-0.0703560868358924
 10
41.46017978402537
 20
11.15813741327325
 10
41.55588259435901
 20
11.15813741327325
 10
41.55588259435901
 20
11.23148417124983
 10
41.50226529465849
 20
11.2534249660673
 10
41.4973909957798
 20
11.21441910815383
 10
41.4608337464529
 20
11.24854923434584
 10
41.4388993972006
 20
11.21685697401456
 10
41.38528209921936
 20
11.27780362674551
 10
41.45108514697624
 20
11.33387454568411
 10
41.4608337464529
 20
11.30949588500591
  0
LWPOLYLINE
  5
8055
330
17
100
AcDbEntity
  8
R-SWTS-DET2
100
AcDbPolyline
 90
       31
 70
     1
 43
0.0
 10
41.49982814435951
 20
10.34654881741945
 10
41.50470244495749
 20
10.37336534395839
 10
41.61193704263922
 20
10.33923521983725
 10
41.61681134151791
 20
10.27828856917718
 10
41.61383017252396
 20
10.2027336988184
 10
41.6448397151452
 20
10.21282424037672
 42
0.1257100272134179
 10
41.69658204273885
 20
10.44481564239878
 42
-0.2260837189018228
 10
41.74629990138295
 20
10.59840120283038
 10
41.85724051954331
 20
10.69395651249007
 42
0.6449762263124317
 10
41.84549917706966
 20
10.71989080450826
 10
41.71626224144026
 20
10.71831106748021
 42
0.1518691569180708
 10
41.671827087091
 20
10.70195829088388
 10
41.61190130782253
 20
10.66345510258863
 42
-0.0293454671788447
 10
41.5600186646299
 20
10.64606021338573
 10
41.43822465479286
 20
10.6288299238022
 42
-0.6538117075652882
 10
41.4312379178275
 20
10.64907073470506
 10
41.59648683531742
 20
10.69316248192738
 42
0.8886355728344963
 10
41.59442540441803
 20
10.71831106748021
 10
41.46017978402539
 20
10.71831106748021
 42
0.0642046489364144
 10
41.27156352731809
 20
10.67587860557078
 42
0.6896355001773956
 10
41.27156352731809
 20
10.57326987518267
 42
0.0703560868358924
 10
41.46017978402539
 20
10.53203741327325
 10
41.55588259435901
 20
10.53203741327325
 10
41.55588259435901
 20
10.45869065529666
 10
41.50226529465849
 20
10.43674986047919
 10
41.4973909957798
 20
10.47575571839266
 10
41.4608337464529
 20
10.44162559220065
 10
41.4388993972006
 20
10.47331785253193
 10
41.38528209921936
 20
10.41237119980098
 10
41.45108514697624
 20
10.35630028086238
 10
41.4608337464529
 20
10.38067894154058
  0
LWPOLYLINE
  5
8056
330
17
100
AcDbEntity
  8
R-SWTS-DET1
100
AcDbPolyline
 90
      108
 70
     1
 43
0.0
 10
48.64736151207934
 20
10.07448523823361
 10
48.64736151207934
 20
10.10348523823362
 42
-0.4142135623730951
 10
48.66736151207934
 20
10.12348523823361
 10
48.86935651207934
 20
10.12348523823361
 42
-0.4142135623730815
 10
48.90736151207935
 20
10.08548023823362
 10
48.88536151207934
 20
10.08548023823362
 10
48.88536151207934
 20
10.02348023823361
 10
48.90736151207935
 20
10.02348023823361
 10
48.90736151207935
 20
9.96870418213551
 42
-0.1989018846181229
 10
48.90003989462734
 20
9.951027225652943
 10
48.83664458672794
 20
9.887626803419658
 42
0.6681640521692495
 10
48.85078729276634
 20
9.853485238233606
 10
49.44186151207935
 20
9.853485238233608
 42
0.4142135623730953
 10
49.54186151207935
 20
9.953485238233607
 10
49.54186151207935
 20
10.74949023823361
 42
0.4142135623730944
 10
49.44186151207935
 20
10.84949023823361
 10
48.91036151207934
 20
10.84949023823361
 42
0.4142135623730743
 10
48.88536151207934
 20
10.82449023823361
 10
48.88536151207934
 20
10.78749023823361
 10
48.90736151207935
 20
10.78749023823361
 42
-0.4142135623730951
 10
48.86935651207934
 20
10.74948523823361
 10
48.66736151207934
 20
10.74948523823361
 42
-0.4142135623730951
 10
48.64736151207934
 20
10.76948523823361
 10
48.64736151207934
 20
10.79848523823361
 42
-0.4142135623730951
 10
48.66736151207934
 20
10.81848523823361
 10
48.67936151207935
 20
10.81848523823361
 10
48.67936151207935
 20
10.78948523823361
 10
48.71736151207935
 20
10.78948523823361
 10
48.8195197458957
 20
10.81192228621894
 42
0.3541185725306792
 10
48.83536151207934
 20
10.83148523823361
 10
48.83536151207934
 20
10.87343523823361
 10
48.768739181609
 20
10.94011290776327
 42
0.1989123673796387
 10
48.75106151207934
 20
10.94743523823361
 10
48.67936151207935
 20
10.94743523823361
 10
48.67936151207935
 20
10.91843523823361
 10
48.59686151207935
 20
10.94743523823361
 10
48.60686151207935
 20
11.00043436326753
 10
48.57686151207935
 20
11.01097981781299
 10
48.57686151207935
 20
14.2734852382336
 10
50.57686151207935
 20
14.2734852382336
 10
50.57686151207935
 20
11.01097981781299
 10
50.54686151207935
 20
11.00043436326753
 10
50.55686151207935
 20
10.94743523823361
 10
50.47436151207935
 20
10.91843523823361
 10
50.47436151207935
 20
10.94743523823361
 10
50.40266151207934
 20
10.94743523823361
 42
0.1989123673796472
 10
50.38498384254968
 20
10.94011290776327
 10
50.31836151207935
 20
10.87343523823361
 10
50.31836151207935
 20
10.83148523823361
 42
0.3541185725306887
 10
50.33420327826299
 20
10.81192228621894
 10
50.43636151207934
 20
10.78948523823361
 10
50.47436151207935
 20
10.78948523823361
 10
50.47436151207935
 20
10.81848523823361
 10
50.48636151207935
 20
10.81848523823361
 42
-0.4142135623730951
 10
50.50636151207935
 20
10.79848523823361
 10
50.50636151207935
 20
10.76948523823361
 42
-0.4142135623730951
 10
50.48636151207935
 20
10.74948523823361
 10
50.28436651207934
 20
10.74948523823361
 42
-0.4142135623730951
 10
50.24636151207935
 20
10.78749023823361
 10
50.26836151207935
 20
10.78749023823361
 10
50.26836151207935
 20
10.82449023823361
 42
0.4142135623731054
 10
50.24336151207934
 20
10.84949023823361
 10
49.71186151207934
 20
10.84949023823361
 42
0.4142135623730975
 10
49.61186151207934
 20
10.74949023823361
 10
49.61186151207935
 20
9.953485238233607
 42
0.4142135623730947
 10
49.71186151207935
 20
9.853485238233606
 10
50.30293573139235
 20
9.853485238233606
 42
0.668164052169264
 10
50.31707843743075
 20
9.887626803419658
 10
50.25368312953134
 20
9.951027225652943
 42
-0.1989018846181211
 10
50.24636151207935
 20
9.96870418213551
 10
50.24636151207935
 20
10.02348023823361
 10
50.26836151207935
 20
10.02348023823361
 10
50.26836151207935
 20
10.08548023823362
 10
50.24636151207935
 20
10.08548023823362
 42
-0.4142135623730882
 10
50.28436651207934
 20
10.12348523823361
 10
50.48636151207935
 20
10.12348523823361
 42
-0.4142135623730951
 10
50.50636151207935
 20
10.10348523823362
 10
50.50636151207935
 20
10.07448523823361
 42
-0.4142135623730951
 10
50.48636151207935
 20
10.05448523823361
 10
50.47436151207935
 20
10.05448523823361
 10
50.47436151207935
 20
10.08348523823362
 10
50.43636151207934
 20
10.08348523823362
 10
50.33420327826299
 20
10.06104819024829
 42
0.3541185725306979
 10
50.31836151207935
 20
10.04148523823362
 10
50.31836151207935
 20
9.999535238233615
 10
50.38498384254968
 20
9.932857568703951
 42
0.1989123673796394
 10
50.40266151207934
 20
9.925535238233615
 10
50.47436151207935
 20
9.925535238233614
 10
50.47436151207935
 20
9.954535238233614
 10
50.55686151207935
 20
9.925535238233614
 10
50.54686151207935
 20
9.872536113199696
 10
50.57686151207935
 20
9.861990658654239
 10
50.57686151207935
 20
9.773485238233607
 10
48.57686151207935
 20
9.773485238233607
 10
48.57686151207935
 20
9.861990658654239
 10
48.60686151207935
 20
9.872536113199696
 10
48.59686151207935
 20
9.925535238233614
 10
48.67936151207935
 20
9.954535238233614
 10
48.67936151207935
 20
9.925535238233614
 10
48.75106151207934
 20
9.925535238233614
 42
0.1989123673796395
 10
48.768739181609
 20
9.932857568703951
 10
48.83536151207934
 20
9.999535238233615
 10
48.83536151207934
 20
10.04148523823361
 42
0.3541185725307153
 10
48.8195197458957
 20
10.06104819024829
 10
48.71736151207935
 20
10.08348523823362
 10
48.67936151207935
 20
10.08348523823362
 10
48.67936151207935
 20
10.05448523823361
 10
48.66736151207934
 20
10.05448523823361
 42
-0.4142135623730951
  0
LWPOLYLINE
  5
8057
330
17
100
AcDbEntity
  8
R-SWTS-DET1
100
AcDbPolyline
 90
       32
 70
     1
 43
0.0
 10
48.88243974284057
 20
10.92535397488943
 10
48.82119397002407
 20
10.98665062079055
 42
0.1990202627215685
 10
48.74691694132793
 20
11.01743523823361
 10
48.71686151207935
 20
11.01743523823361
 42
-0.4142135623730989
 10
48.64686151207934
 20
11.08743523823361
 10
48.64686151207934
 20
11.37048523823361
 42
-0.4142135623731082
 10
48.66686151207934
 20
11.39048523823361
 10
48.66686151207934
 20
11.73448523823361
 42
-0.414213562373069
 10
48.64686151207934
 20
11.75448523823361
 10
48.64686151207934
 20
12.30148523823361
 42
-0.4142135623731082
 10
48.66686151207934
 20
12.32148523823361
 10
48.66686151207934
 20
12.66548523823361
 42
-0.414213562373069
 10
48.64686151207934
 20
12.68548523823361
 10
48.64686151207934
 20
14.1334852382336
 42
-0.4142135623730951
 10
48.70686151207934
 20
14.1934852382336
 10
50.44686151207935
 20
14.1934852382336
 42
-0.4142135623730951
 10
50.50686151207934
 20
14.1334852382336
 10
50.50686151207935
 20
12.68548523823361
 42
-0.4142135623730951
 10
50.48686151207935
 20
12.66548523823361
 10
50.48686151207935
 20
12.32148523823361
 42
-0.4142135623731341
 10
50.50686151207935
 20
12.30148523823361
 10
50.50686151207935
 20
11.75448523823361
 42
-0.414213562373069
 10
50.48686151207935
 20
11.73448523823361
 10
50.48686151207935
 20
11.39048523823361
 42
-0.4142135623731212
 10
50.50686151207935
 20
11.37048523823361
 10
50.50686151207935
 20
11.08743523823361
 42
-0.4142135623730987
 10
50.43686151207936
 20
11.01743523823361
 10
50.40680608283076
 20
11.01743523823361
 42
0.1990202627215685
 10
50.33252905413462
 20
10.98665062079055
 10
50.27128328131812
 20
10.92535397488943
 42
-0.1990202627215657
 10
50.25713527585219
 20
10.91949023823361
 10
48.89658774830651
 20
10.91949023823361
 42
-0.1990202627215792
  0
LINE
  5
8058
330
17
100
AcDbEntity
  8
R-SWTS-DET2
100
AcDbLine
 10
48.57686151207933
 20
11.07935212558499
 30
0.0
 11
46.57688164271593
 21
11.07935212558499
 31
0.0
  0
LINE
  5
8059
330
17
100
AcDbEntity
  8
R-SWTS-DET3
100
AcDbLine
 10
48.95186151207933
 20
10.56199841113015
 30
0.0
 11
48.95186151207933
 21
10.31199841113014
 31
0.0
  0
LINE
  5
805A
330
17
100
AcDbEntity
  8
R-SWTS-DET3
100
AcDbLine
 10
48.95186151207933
 20
10.56199841113015
 30
0.0
 11
46.57686151207934
 21
10.56199841113015
 31
0.0
  0
LINE
  5
805B
330
17
100
AcDbEntity
  8
R-SWTS-DET3
100
AcDbLine
 10
48.95186151207933
 20
10.31199841113014
 30
0.0
 11
46.57686151207934
 21
10.31199841113014
 31
0.0
  0
LINE
  5
805C
330
17
100
AcDbEntity
  8
R-SWTS-DET2
100
AcDbLine
 10
48.57686151207933
 20
9.794644696675305
 30
0.0
 11
46.57688164271593
 21
9.794644696675305
 31
0.0
  0
LINE
  5
805F
330
17
100
AcDbEntity
  8
R-SWTS-DET2
100
AcDbLine
 10
50.57686151207936
 20
11.07935212558499
 30
0.0
 11
52.57684138144277
 21
11.07935212558499
 31
0.0
  0
LINE
  5
8060
330
17
100
AcDbEntity
  8
R-SWTS-DET3
100
AcDbLine
 10
50.20186151207935
 20
10.56199841113015
 30
0.0
 11
50.20186151207935
 21
10.31199841113014
 31
0.0
  0
LINE
  5
8061
330
17
100
AcDbEntity
  8
R-SWTS-DET3
100
AcDbLine
 10
50.20186151207935
 20
10.56199841113015
 30
0.0
 11
52.57686151207935
 21
10.56199841113015
 31
0.0
  0
LINE
  5
8062
330
17
100
AcDbEntity
  8
R-SWTS-DET3
100
AcDbLine
 10
50.20186151207935
 20
10.31199841113014
 30
0.0
 11
52.57686151207935
 21
10.31199841113014
 31
0.0
  0
LINE
  5
8063
330
17
100
AcDbEntity
  8
R-SWTS-DET2
100
AcDbLine
 10
50.57686151207936
 20
9.794644696675305
 30
0.0
 11
52.57684138144277
 21
9.794644696675305
 31
0.0
  0
LWPOLYLINE
  5
8066
330
17
100
AcDbEntity
  8
R-SWTS-DET2
100
AcDbPolyline
 90
       31
 70
     1
 43
0.0
 10
48.69086354024378
 20
10.93553700698394
 10
48.68598923964582
 20
10.908720480445
 10
48.57875464196407
 20
10.94285060456614
 10
48.57388034308538
 20
11.00379725522621
 10
48.57686151207933
 20
11.07935212558499
 10
48.5458519694581
 20
11.06926158402667
 42
0.1257100272134179
 10
48.49410964186444
 20
10.83727018200461
 42
-0.2260837189018228
 10
48.44439178322034
 20
10.68368462157301
 10
48.33345116505999
 20
10.58812931191332
 42
0.6449762263124317
 10
48.34519250753365
 20
10.56219501989513
 10
48.47442944316303
 20
10.56377475692318
 42
0.1518691569180708
 10
48.51886459751229
 20
10.58012753351952
 10
48.57879037678078
 20
10.61863072181477
 42
-0.0293454671788447
 10
48.6306730199734
 20
10.63602561101766
 10
48.75246702981043
 20
10.65325590060119
 42
-0.6538117075652882
 10
48.7594537667758
 20
10.63301508969833
 10
48.59420484928588
 20
10.58892334247601
 42
0.8886355728344963
 10
48.59626628018526
 20
10.56377475692318
 10
48.73051190057792
 20
10.56377475692318
 42
0.0642046489364144
 10
48.9191281572852
 20
10.60620721883261
 42
0.6896355001773956
 10
48.9191281572852
 20
10.70881594922072
 42
0.0703560868358924
 10
48.73051190057792
 20
10.75004841113014
 10
48.63480909024429
 20
10.75004841113014
 10
48.63480909024429
 20
10.82339516910673
 10
48.6884263899448
 20
10.8453359639242
 10
48.69330068882349
 20
10.80633010601073
 10
48.7298579381504
 20
10.84046023220274
 10
48.75179228740269
 20
10.80876797187146
 10
48.80540958538393
 20
10.86971462460241
 10
48.73960653762705
 20
10.92578554354101
 10
48.7298579381504
 20
10.90140688286281
  0
LWPOLYLINE
  5
8067
330
17
100
AcDbEntity
  8
R-SWTS-DET2
100
AcDbPolyline
 90
       31
 70
     1
 43
0.0
 10
48.69086354024378
 20
9.938459815276353
 10
48.68598923964582
 20
9.965276341815288
 10
48.57875464196407
 20
9.931146217694156
 10
48.57388034308538
 20
9.870199567034086
 10
48.57686151207933
 20
9.794644696675305
 10
48.5458519694581
 20
9.804735238233623
 42
-0.1257100272134179
 10
48.49410964186444
 20
10.03672664025568
 42
0.2260837189018228
 10
48.44439178322034
 20
10.19031220068728
 10
48.33345116505999
 20
10.28586751034697
 42
-0.6449762263124317
 10
48.34519250753365
 20
10.31180180236516
 10
48.47442944316303
 20
10.31022206533711
 42
-0.1518691569180708
 10
48.51886459751229
 20
10.29386928874078
 10
48.57879037678078
 20
10.25536610044553
 42
0.0293454671788447
 10
48.6306730199734
 20
10.23797121124263
 10
48.75246702981043
 20
10.2207409216591
 42
0.6538117075652882
 10
48.7594537667758
 20
10.24098173256196
 10
48.59420484928588
 20
10.28507347978429
 42
-0.8886355728344963
 10
48.59626628018526
 20
10.31022206533711
 10
48.73051190057792
 20
10.31022206533711
 42
-0.0642046489364144
 10
48.9191281572852
 20
10.26778960342768
 42
-0.6896355001773956
 10
48.9191281572852
 20
10.16518087303957
 42
-0.0703560868358924
 10
48.73051190057792
 20
10.12394841113015
 10
48.63480909024429
 20
10.12394841113015
 10
48.63480909024429
 20
10.05060165315356
 10
48.6884263899448
 20
10.02866085833609
 10
48.69330068882349
 20
10.06766671624957
 10
48.7298579381504
 20
10.03353659005755
 10
48.75179228740269
 20
10.06522885038883
 10
48.80540958538393
 20
10.00428219765788
 10
48.73960653762705
 20
9.948211278719282
 10
48.7298579381504
 20
9.972589939397485
  0
LWPOLYLINE
  5
8068
330
17
100
AcDbEntity
  8
R-SWTS-DET2
100
AcDbPolyline
 90
       31
 70
     1
 43
0.0
 10
50.46285948391491
 20
9.938459815276353
 10
50.46773378451288
 20
9.965276341815288
 10
50.57496838219463
 20
9.931146217694156
 10
50.57984268107332
 20
9.870199567034086
 10
50.57686151207936
 20
9.794644696675305
 10
50.60787105470059
 20
9.804735238233623
 42
0.1257100272134179
 10
50.65961338229425
 20
10.03672664025568
 42
-0.2260837189018228
 10
50.70933124093834
 20
10.19031220068728
 10
50.8202718590987
 20
10.28586751034697
 42
0.6449762263124317
 10
50.80853051662504
 20
10.31180180236516
 10
50.67929358099566
 20
10.31022206533711
 42
0.1518691569180708
 10
50.6348584266464
 20
10.29386928874078
 10
50.57493264737792
 20
10.25536610044553
 42
-0.0293454671788447
 10
50.5230500041853
 20
10.23797121124263
 10
50.40125599434826
 20
10.2207409216591
 42
-0.6538117075652882
 10
50.3942692573829
 20
10.24098173256196
 10
50.55951817487282
 20
10.28507347978429
 42
0.8886355728344963
 10
50.55745674397343
 20
10.31022206533711
 10
50.42321112358077
 20
10.31022206533711
 42
0.0642046489364144
 10
50.23459486687348
 20
10.26778960342768
 42
0.6896355001773956
 10
50.23459486687348
 20
10.16518087303957
 42
0.0703560868358924
 10
50.42321112358077
 20
10.12394841113015
 10
50.5189139339144
 20
10.12394841113015
 10
50.5189139339144
 20
10.05060165315356
 10
50.46529663421389
 20
10.02866085833609
 10
50.4604223353352
 20
10.06766671624957
 10
50.42386508600829
 20
10.03353659005755
 10
50.401930736756
 20
10.06522885038883
 10
50.34831343877476
 20
10.00428219765788
 10
50.41411648653164
 20
9.948211278719282
 10
50.42386508600829
 20
9.972589939397485
  0
LWPOLYLINE
  5
8069
330
17
100
AcDbEntity
  8
R-SWTS-DET2
100
AcDbPolyline
 90
       31
 70
     1
 43
0.0
 10
50.46285948391491
 20
10.93553700698394
 10
50.46773378451288
 20
10.908720480445
 10
50.57496838219463
 20
10.94285060456614
 10
50.57984268107332
 20
11.00379725522621
 10
50.57686151207936
 20
11.07935212558499
 10
50.60787105470059
 20
11.06926158402667
 42
-0.1257100272134179
 10
50.65961338229425
 20
10.83727018200461
 42
0.2260837189018228
 10
50.70933124093834
 20
10.68368462157301
 10
50.8202718590987
 20
10.58812931191332
 42
-0.6449762263124317
 10
50.80853051662504
 20
10.56219501989513
 10
50.67929358099566
 20
10.56377475692318
 42
-0.1518691569180708
 10
50.6348584266464
 20
10.58012753351952
 10
50.57493264737792
 20
10.61863072181477
 42
0.0293454671788447
 10
50.5230500041853
 20
10.63602561101766
 10
50.40125599434826
 20
10.65325590060119
 42
0.6538117075652882
 10
50.3942692573829
 20
10.63301508969833
 10
50.55951817487282
 20
10.58892334247601
 42
-0.8886355728344963
 10
50.55745674397343
 20
10.56377475692318
 10
50.42321112358077
 20
10.56377475692318
 42
-0.0642046489364144
 10
50.23459486687348
 20
10.60620721883261
 42
-0.6896355001773956
 10
50.23459486687348
 20
10.70881594922072
 42
-0.0703560868358924
 10
50.42321112358077
 20
10.75004841113014
 10
50.5189139339144
 20
10.75004841113014
 10
50.5189139339144
 20
10.82339516910673
 10
50.46529663421389
 20
10.8453359639242
 10
50.4604223353352
 20
10.80633010601073
 10
50.42386508600829
 20
10.84046023220274
 10
50.401930736756
 20
10.80876797187146
 10
50.34831343877476
 20
10.86971462460241
 10
50.41411648653164
 20
10.92578554354101
 10
50.42386508600829
 20
10.90140688286281
  0
DIMENSION
  5
8145
330
17
100
AcDbEntity
  8
R-ANNO-DIMS
100
AcDbDimension
  2
*D25
 10
9.968997176275552
 20
38.09861793385996
 30
0.0
 11
9.718997176275545
 21
37.09911793386186
 31
0.0
 70
    32
 71
     5
 42
-1.0
  3
STANDARD
100
AcDbAlignedDimension
 13
11.60641717627558
 23
36.09961793386376
 33
0.0
 14
11.5964171762756
 24
38.09861793385996
 34
0.0
 50
90.0
100
AcDbRotatedDimension
1001
ACAD
1000
DSTYLE
1002
{
1070
   287
1070
     0
1070
   270
1070
     6
1070
   287
1070
     0
1070
   270
1070
     6
1070
    41
1040
0.2
1070
    42
1040
0.125
1070
    43
1040
0.375
1070
    44
1040
0.125
1070
    73
1070
     0
1070
    74
1070
     0
1070
    77
1070
     1
1070
    78
1070
     3
1070
   140
1040
0.25
1070
   141
1040
0.0
1070
   147
1040
0.125
1070
   271
1070
     5
1070
   272
1070
     5
1070
   273
1070
     4
1070
   276
1070
     2
1070
   277
1070
     4
1070
   284
1070
     3
1070
   285
1070
     3
1070
   286
1070
     3
1070
   289
1070
     0
1002
}
  0
LINE
  5
816C
330
17
100
AcDbEntity
  8
R-ANNO-DIMS
100
AcDbLine
 10
10.16292934064321
 20
37.66111793385996
 30
0.0
 11
11.68170512495524
 21
37.66111793385996
 31
0.0
  0
LINE
  5
818F
330
17
100
AcDbEntity
  8
R-ANNO-DIMS
100
AcDbLine
 10
10.14148680151777
 20
16.89473497860631
 30
0.0
 11
11.55304905104958
 21
16.89473497860631
 31
0.0
  0
LINE
  5
8190
330
17
100
AcDbEntity
  8
R-SWTS-DET2
100
AcDbLine
 10
12.12920400337906
 20
17.89473497860632
 30
0.0
 11
12.62920400337906
 21
17.89473497860632
 31
0.0
  0
MTEXT
  5
8318
102
{ACAD_XDICTIONARY
360
8319
102
}
330
17
100
AcDbEntity
  8
TEXT
100
AcDbMText
 10
1.000000084398437
 20
2.0
 30
0.0
 40
0.375
 41
15.4571868900598
 71
     1
 72
     5
  1
ENGINEERING CHANGE:  97910-094 (MARCH 2017)\PFILE NAME:  KCDC031 SHEET 02 OF 08.DWG
 73
     1
 44
1.0
1001
ACAD
1000
ACAD_MTEXT_COLUMN_INFO_BEGIN
1070
    75
1070
     2
1070
    79
1070
     0
1070
    76
1070
     1
1070
    78
1070
     0
1070
    48
1040
15.4571868900598
1070
    49
1040
1.25
1070
    50
1070
     1
1040
0.0
1000
ACAD_MTEXT_COLUMN_INFO_END
1000
MTEXTBEGIN
1070
    73
1070
     1
1070
    44
1040
1.0
1070
    74
1070
     0
1000
MTEXTEND
  0
INSERT
  5
87B9
330
17
100
AcDbEntity
  8
0
100
AcDbBlockReference
  2
Kawneer Logo English
 10
1.000000084398437
 20
2.5
 30
0.0
 41
5.337
 42
5.337
 43
5.337
  0
ENDSEC
  0
SECTION
  2
OBJECTS
  0
DICTIONARY
  5
C
330
0
100
AcDbDictionary
281
     1
  3
ACAD_CIP_PREVIOUS_PRODUCT_INFO
350
82F2
  3
ACAD_COLOR
350
8258
  3
ACAD_FIELDLIST
350
8316
  3
ACAD_GROUP
350
D
  3
ACAD_LAYOUT
350
485C
  3
ACAD_MATERIAL
350
8226
  3
ACAD_MLEADERSTYLE
350
826D
  3
ACAD_MLINESTYLE
350
1A
  3
ACAD_PLOTSETTINGS
350
485D
  3
ACAD_PLOTSTYLENAME
350
485A
  3
ACAD_SCALELIST
350
825B
  3
ACAD_TABLESTYLE
350
8259
  3
ACAD_VISUALSTYLE
350
823F
  3
ACDB_RECOMPOSE_DATA
350
884C
  3
ACDBVARIABLEDICTIONARY
350
3E
  3
DWGPROPS
350
884D
  0
DICTIONARY
  5
82AD
330
8
100
AcDbDictionary
280
     1
281
     1
  0
DICTIONARY
  5
828C
330
2
100
AcDbDictionary
280
     1
281
     1
  3
ACAD_LAYERSTATES
360
828D
  0
DICTIONARY
  5
829C
330
E
100
AcDbDictionary
280
     1
281
     1
  3
ADSK_XREC_LAYER_RECONCILED
360
829D
  0
DICTIONARY
  5
829E
330
65A3
100
AcDbDictionary
280
     1
281
     1
  3
ADSK_XREC_LAYER_RECONCILED
360
829F
  0
DICTIONARY
  5
82A0
330
65A4
100
AcDbDictionary
280
     1
281
     1
  3
ADSK_XREC_LAYER_RECONCILED
360
82A1
  0
DICTIONARY
  5
82A2
330
65A5
100
AcDbDictionary
280
     1
281
     1
  3
ADSK_XREC_LAYER_RECONCILED
360
82A3
  0
DICTIONARY
  5
82A4
330
65A6
100
AcDbDictionary
280
     1
281
     1
  3
ADSK_XREC_LAYER_RECONCILED
360
82A5
  0
DICTIONARY
  5
82A6
330
65A7
100
AcDbDictionary
280
     1
281
     1
  3
ADSK_XREC_LAYER_RECONCILED
360
82A7
  0
DICTIONARY
  5
8307
330
8306
100
AcDbDictionary
280
     1
281
     1
  0
DICTIONARY
  5
4A11
330
17
100
AcDbDictionary
280
     1
281
     1
  3
ACAD_LAYOUTSELFREF
360
8211
  0
DICTIONARY
  5
4A0F
330
14
100
AcDbDictionary
280
     1
281
     1
  3
ACAD_LAYOUTSELFREF
360
8210
  0
DICTIONARY
  5
87B5
330
87AB
100
AcDbDictionary
280
     1
281
     1
  3
ACAD_SORTENTS
360
87B6
  0
DICTIONARY
  5
884A
330
87AC
100
AcDbDictionary
280
     1
281
     1
  3
ACAD_MTEXT_2008_RT
360
884B
  0
DICTIONARY
  5
8319
330
8318
100
AcDbDictionary
280
     1
281
     1
  0
XRECORD
  5
82F2
102
{ACAD_REACTORS
330
C
102
}
330
C
100
AcDbXrecord
280
     1
300
ACD
300
2012
300
85730ACD_2012_0F
  0
DICTIONARY
  5
8258
102
{ACAD_REACTORS
330
C
102
}
330
C
100
AcDbDictionary
281
     1
  0
FIELDLIST
  5
8316
102
{ACAD_REACTORS
330
C
102
}
330
C
100
AcDbIdSet
 90
        0
100
AcDbFieldList
  0
DICTIONARY
  5
D
102
{ACAD_REACTORS
330
C
102
}
330
C
100
AcDbDictionary
281
     1
  0
DICTIONARY
  5
485C
102
{ACAD_REACTORS
330
C
102
}
330
C
100
AcDbDictionary
281
     1
  3
Layout1
350
485F
  3
Model
350
485E
  0
DICTIONARY
  5
8226
102
{ACAD_REACTORS
330
C
102
}
330
C
100
AcDbDictionary
281
     1
  3
ByBlock
350
822F
  3
ByLayer
350
8227
  3
Global
350
8237
  0
DICTIONARY
  5
826D
102
{ACAD_REACTORS
330
C
102
}
330
C
100
AcDbDictionary
281
     1
  3
Standard
350
826E
  0
DICTIONARY
  5
1A
102
{ACAD_REACTORS
330
C
102
}
330
C
100
AcDbDictionary
281
     1
  3
STANDARD
350
1B
  0
DICTIONARY
  5
485D
102
{ACAD_REACTORS
330
C
102
}
330
C
100
AcDbDictionary
281
     1
  0
ACDBDICTIONARYWDFLT
  5
485A
102
{ACAD_REACTORS
330
C
102
}
330
C
100
AcDbDictionary
281
     1
  3
Normal
350
485B
100
AcDbDictionaryWithDefault
340
485B
  0
DICTIONARY
  5
825B
102
{ACAD_REACTORS
330
C
102
}
330
C
100
AcDbDictionary
281
     1
  3
A0
350
825C
  3
A1
350
8789
  3
A2
350
878A
  3
A3
350
878B
  3
A4
350
878C
  3
A5
350
878D
  3
A6
350
878E
  3
A7
350
878F
  3
A8
350
8790
  3
A9
350
8791
  3
B0
350
8792
  3
B1
350
8793
  3
B2
350
8794
  3
B3
350
8795
  3
B4
350
8796
  3
B5
350
8797
  3
B6
350
8798
  0
DICTIONARY
  5
8259
102
{ACAD_REACTORS
330
C
102
}
330
C
100
AcDbDictionary
281
     1
  3
Standard
350
825A
  0
DICTIONARY
  5
823F
102
{ACAD_REACTORS
330
C
102
}
330
C
100
AcDbDictionary
281
     1
  3
2dWireframe
350
8245
  3
3D Hidden
350
87A9
  3
3dWireframe
350
87AA
  3
Basic
350
8244
  3
Brighten
350
824B
  3
ColorChange
350
824F
  3
Conceptual
350
8248
  3
Dim
350
824A
  3
EdgeColorOff
350
8257
  3
Facepattern
350
824E
  3
Flat
350
8240
  3
FlatWithEdges
350
8241
  3
Gouraud
350
8242
  3
GouraudWithEdges
350
8243
  3
Hidden
350
8247
  3
JitterOff
350
8255
  3
Linepattern
350
824D
  3
OverhangOff
350
8256
  3
Realistic
350
8249
  3
Shaded
350
8254
  3
Shaded with edges
350
8253
  3
Shades of Gray
350
8250
  3
Sketchy
350
8251
  3
Thicken
350
824C
  3
Wireframe
350
8246
  3
X-Ray
350
8252
  0
XRECORD
  5
884C
102
{ACAD_REACTORS
330
C
102
}
330
C
100
AcDbXrecord
280
     1
 90
        1
330
825A
330
8318
330
87AC
  0
DICTIONARY
  5
3E
102
{ACAD_REACTORS
330
C
102
}
330
C
100
AcDbDictionary
281
     1
  3
CANNOSCALE
350
82EA
  3
CMLEADERSTYLE
350
82E9
  3
CTABLESTYLE
350
82E8
  3
DIMADEC
350
3F
  3
DIMASSOC
350
82ED
  3
INDEXCTL
350
82EC
  3
LAYEREVAL
350
877E
  3
LAYERNOTIFY
350
877F
  3
LIGHTINGUNITS
350
877D
  3
MSLTSCALE
350
877C
  3
SORTENTS
350
82EB
  3
XCLIPFRAME
350
8848
  0
XRECORD
  5
884D
102
{ACAD_REACTORS
330
C
102
}
330
C
100
AcDbXrecord
280
     1
  1
DWGPROPS COOKIE
  2

  3

  4

  6

  7

  8
quadiss
  9

300
=
301
=
302
=
303
=
304
=
305
=
306
=
307
=
308
=
309
=
 40
0.8027793518518519
 41
2450777.537570949
 42
2457807.530923032
  1

 90
        0
  0
DICTIONARY
  5
828D
102
{ACAD_REACTORS
330
828C
102
}
330
828C
100
AcDbDictionary
281
     1
  0
XRECORD
  5
829D
102
{ACAD_REACTORS
330
829C
102
}
330
829C
100
AcDbXrecord
280
     1
290
     1
  0
XRECORD
  5
829F
102
{ACAD_REACTORS
330
829E
102
}
330
829E
100
AcDbXrecord
280
     1
290
     1
  0
XRECORD
  5
82A1
102
{ACAD_REACTORS
330
82A0
102
}
330
82A0
100
AcDbXrecord
280
     1
290
     1
  0
XRECORD
  5
82A3
102
{ACAD_REACTORS
330
82A2
102
}
330
82A2
100
AcDbXrecord
280
     1
290
     1
  0
XRECORD
  5
82A5
102
{ACAD_REACTORS
330
82A4
102
}
330
82A4
100
AcDbXrecord
280
     1
290
     1
  0
XRECORD
  5
82A7
102
{ACAD_REACTORS
330
82A6
102
}
330
82A6
100
AcDbXrecord
280
     1
290
     1
  0
XRECORD
  5
8211
102
{ACAD_REACTORS
330
4A11
102
}
330
4A11
100
AcDbXrecord
280
     1
340
17
  0
XRECORD
  5
8210
102
{ACAD_REACTORS
330
4A0F
102
}
330
4A0F
100
AcDbXrecord
280
     1
340
14
  0
SORTENTSTABLE
  5
87B6
102
{ACAD_REACTORS
330
87B5
102
}
330
87B5
100
AcDbSortentsTable
330
87AB
  0
XRECORD
  5
884B
102
{ACAD_REACTORS
330
884A
102
}
330
884A
100
AcDbXrecord
280
     1
 40
102645.0
  1
\pxqr;{\fArial TUR|b0|i0|c0|p34;\T1.05;AN ARCONIC COMPANY}
  0
LAYOUT
  5
485F
102
{ACAD_XDICTIONARY
360
8850
102
}
102
{ACAD_REACTORS
330
485C
102
}
330
485C
100
AcDbPlotSettings
  1

  2
\\NOAKCI-SRV7\Marketing Communications - HP4550hdn
  4

  6

 40
0.0
 41
0.0
 42
0.0
 43
0.0
 44
0.0
 45
0.0
 46
0.0
 47
0.0
 48
0.0
 49
0.0
140
0.0
141
0.0
142
1.0
143
1.0
 70
   688
 72
     0
 73
     0
 74
     5
  7
monochrome.ctb
 75
    16
147
1.0
148
0.0
149
0.0
100
AcDbLayout
  1
Layout1
 70
     1
 71
     1
 10
0.0
 20
0.0
 11
12.0
 21
9.0
 12
0.0
 22
0.0
 32
0.0
 14
1.000000000000000E+20
 24
1.000000000000000E+20
 34
1.000000000000000E+20
 15
-1.000000000000000E+20
 25
-1.000000000000000E+20
 35
-1.000000000000000E+20
146
0.0
 13
0.0
 23
0.0
 33
0.0
 16
1.0
 26
0.0
 36
0.0
 17
0.0
 27
1.0
 37
0.0
 76
     0
330
14
  0
LAYOUT
  5
485E
102
{ACAD_XDICTIONARY
360
884E
102
}
102
{ACAD_REACTORS
330
485C
102
}
330
485C
100
AcDbPlotSettings
  1

  2
\\KWRKCI-HUB03\KCI_MKT_HP9000_PCL6
  4
11x17
  6

 40
3.174999952316284
 41
3.174999952316284
 42
3.17498779296875
 43
3.17498779296875
 44
279.3999938964844
 45
431.8000183105469
 46
0.0
 47
0.0
 48
0.0
 49
0.0
140
0.0
141
0.0
142
1.0
143
4.051530155393382
 70
 11952
 72
     0
 73
     1
 74
     1
  7
monochrome.ctb
 75
     0
147
0.2468203275418804
148
0.0525966469568914
149
0.0326778140019542
100
AcDbLayout
  1
Model
 70
     1
 71
     0
 10
0.0
 20
0.0
 11
12.0
 21
9.0
 12
0.0
 22
0.0
 32
0.0
 14
0.0
 24
0.0
 34
0.0
 15
0.0
 25
0.0
 35
0.0
146
0.0
 13
0.0
 23
0.0
 33
0.0
 16
1.0
 26
0.0
 36
0.0
 17
0.0
 27
1.0
 37
0.0
 76
     0
330
17
331
81EA
  0
MATERIAL
  5
822F
102
{ACAD_XDICTIONARY
360
8230
102
}
102
{ACAD_REACTORS
330
8226
102
}
330
8226
100
AcDbMaterial
  1
ByBlock
 72
     0
 43
0.0208333333333333
 43
0.0
 43
0.0
 43
0.0
 43
0.0
 43
0.0208333333333333
 43
0.0
 43
0.0
 43
0.0
 43
0.0
 43
1.0
 43
0.0
 43
0.0
 43
0.0
 43
0.0
 43
1.0
 77
     0
 47
0.0208333333333333
 47
0.0
 47
0.0
 47
0.0
 47
0.0
 47
0.0208333333333333
 47
0.0
 47
0.0
 47
0.0
 47
0.0
 47
1.0
 47
0.0
 47
0.0
 47
0.0
 47
0.0
 47
1.0
171
     0
 49
0.0208333333333333
 49
0.0
 49
0.0
 49
0.0
 49
0.0
 49
0.0208333333333333
 49
0.0
 49
0.0
 49
0.0
 49
0.0
 49
1.0
 49
0.0
 49
0.0
 49
0.0
 49
0.0
 49
1.0
175
     0
142
0.0208333333333333
142
0.0
142
0.0
142
0.0
142
0.0
142
0.0208333333333333
142
0.0
142
0.0
142
0.0
142
0.0
142
1.0
142
0.0
142
0.0
142
0.0
142
0.0
142
1.0
179
     0
144
0.0208333333333333
144
0.0
144
0.0
144
0.0
144
0.0
144
0.0208333333333333
144
0.0
144
0.0
144
0.0
144
0.0
144
1.0
144
0.0
144
0.0
144
0.0
144
0.0
144
1.0
147
0.0208333333333333
147
0.0
147
0.0
147
0.0
147
0.0
147
0.0208333333333333
147
0.0
147
0.0
147
0.0
147
0.0
147
1.0
147
0.0
147
0.0
147
0.0
147
0.0
147
1.0
  0
MATERIAL
  5
8227
102
{ACAD_XDICTIONARY
360
8228
102
}
102
{ACAD_REACTORS
330
8226
102
}
330
8226
100
AcDbMaterial
  1
ByLayer
 72
     0
 43
0.0208333333333333
 43
0.0
 43
0.0
 43
0.0
 43
0.0
 43
0.0208333333333333
 43
0.0
 43
0.0
 43
0.0
 43
0.0
 43
1.0
 43
0.0
 43
0.0
 43
0.0
 43
0.0
 43
1.0
 77
     0
 47
0.0208333333333333
 47
0.0
 47
0.0
 47
0.0
 47
0.0
 47
0.0208333333333333
 47
0.0
 47
0.0
 47
0.0
 47
0.0
 47
1.0
 47
0.0
 47
0.0
 47
0.0
 47
0.0
 47
1.0
171
     0
 49
0.0208333333333333
 49
0.0
 49
0.0
 49
0.0
 49
0.0
 49
0.0208333333333333
 49
0.0
 49
0.0
 49
0.0
 49
0.0
 49
1.0
 49
0.0
 49
0.0
 49
0.0
 49
0.0
 49
1.0
175
     0
142
0.0208333333333333
142
0.0
142
0.0
142
0.0
142
0.0
142
0.0208333333333333
142
0.0
142
0.0
142
0.0
142
0.0
142
1.0
142
0.0
142
0.0
142
0.0
142
0.0
142
1.0
179
     0
144
0.0208333333333333
144
0.0
144
0.0
144
0.0
144
0.0
144
0.0208333333333333
144
0.0
144
0.0
144
0.0
144
0.0
144
1.0
144
0.0
144
0.0
144
0.0
144
0.0
144
1.0
147
0.0208333333333333
147
0.0
147
0.0
147
0.0
147
0.0
147
0.0208333333333333
147
0.0
147
0.0
147
0.0
147
0.0
147
1.0
147
0.0
147
0.0
147
0.0
147
0.0
147
1.0
  0
MATERIAL
  5
8237
102
{ACAD_XDICTIONARY
360
8238
102
}
102
{ACAD_REACTORS
330
8226
102
}
330
8226
100
AcDbMaterial
  1
Global
 72
     0
 43
0.0208333333333333
 43
0.0
 43
0.0
 43
0.0
 43
0.0
 43
0.0208333333333333
 43
0.0
 43
0.0
 43
0.0
 43
0.0
 43
1.0
 43
0.0
 43
0.0
 43
0.0
 43
0.0
 43
1.0
 77
     0
 47
0.0208333333333333
 47
0.0
 47
0.0
 47
0.0
 47
0.0
 47
0.0208333333333333
 47
0.0
 47
0.0
 47
0.0
 47
0.0
 47
1.0
 47
0.0
 47
0.0
 47
0.0
 47
0.0
 47
1.0
171
     0
 49
0.0208333333333333
 49
0.0
 49
0.0
 49
0.0
 49
0.0
 49
0.0208333333333333
 49
0.0
 49
0.0
 49
0.0
 49
0.0
 49
1.0
 49
0.0
 49
0.0
 49
0.0
 49
0.0
 49
1.0
175
     0
142
0.0208333333333333
142
0.0
142
0.0
142
0.0
142
0.0
142
0.0208333333333333
142
0.0
142
0.0
142
0.0
142
0.0
142
1.0
142
0.0
142
0.0
142
0.0
142
0.0
142
1.0
179
     0
144
0.0208333333333333
144
0.0
144
0.0
144
0.0
144
0.0
144
0.0208333333333333
144
0.0
144
0.0
144
0.0
144
0.0
144
1.0
144
0.0
144
0.0
144
0.0
144
0.0
144
1.0
147
0.0208333333333333
147
0.0
147
0.0
147
0.0
147
0.0
147
0.0208333333333333
147
0.0
147
0.0
147
0.0
147
0.0
147
1.0
147
0.0
147
0.0
147
0.0
147
0.0
147
1.0
  0
MLEADERSTYLE
  5
826E
102
{ACAD_REACTORS
330
826D
102
}
330
826D
100
AcDbMLeaderStyle
170
     2
171
     1
172
     0
 90
        2
 40
0.0
 41
0.0
173
     1
 91
-1056964608
340
11
 92
       -2
290
     1
 42
0.09
291
     1
 43
0.36
  3
Standard
 44
0.18
300

342
F
174
     1
178
     6
175
     1
176
     0
 93
-1056964608
 45
0.18
292
     0
297
     0
 46
0.18
 94
-1056964608
 47
1.0
 49
1.0
140
1.0
293
     1
141
0.0
294
     1
177
     0
142
1.0
295
     0
296
     0
143
0.125
1001
ACAD_MLEADERVER
1070
     2
  0
MLINESTYLE
  5
1B
102
{ACAD_REACTORS
330
1A
102
}
330
1A
100
AcDbMlineStyle
  2
STANDARD
 70
     0
  3

 62
   256
 51
90.0
 52
90.0
 71
     2
 49
0.5
 62
   256
  6
BYLAYER
 49
-0.5
 62
   256
  6
BYLAYER
  0
ACDBPLACEHOLDER
  5
485B
102
{ACAD_REACTORS
330
485A
102
}
330
485A
  0
SCALE
  5
825C
102
{ACAD_REACTORS
330
825B
102
}
330
825B
100
AcDbScale
 70
     0
300
1:1
140
1.0
141
1.0
290
     1
  0
SCALE
  5
8789
102
{ACAD_REACTORS
330
825B
102
}
330
825B
100
AcDbScale
 70
     0
300
1/128" = 1'-0"
140
0.0078125
141
12.0
290
     0
  0
SCALE
  5
878A
102
{ACAD_REACTORS
330
825B
102
}
330
825B
100
AcDbScale
 70
     0
300
1/64" = 1'-0"
140
0.015625
141
12.0
290
     0
  0
SCALE
  5
878B
102
{ACAD_REACTORS
330
825B
102
}
330
825B
100
AcDbScale
 70
     0
300
1/32" = 1'-0"
140
0.03125
141
12.0
290
     0
  0
SCALE
  5
878C
102
{ACAD_REACTORS
330
825B
102
}
330
825B
100
AcDbScale
 70
     0
300
1/16" = 1'-0"
140
0.0625
141
12.0
290
     0
  0
SCALE
  5
878D
102
{ACAD_REACTORS
330
825B
102
}
330
825B
100
AcDbScale
 70
     0
300
3/32" = 1'-0"
140
0.09375
141
12.0
290
     0
  0
SCALE
  5
878E
102
{ACAD_REACTORS
330
825B
102
}
330
825B
100
AcDbScale
 70
     0
300
1/8" = 1'-0"
140
0.125
141
12.0
290
     0
  0
SCALE
  5
878F
102
{ACAD_REACTORS
330
825B
102
}
330
825B
100
AcDbScale
 70
     0
300
3/16" = 1'-0"
140
0.1875
141
12.0
290
     0
  0
SCALE
  5
8790
102
{ACAD_REACTORS
330
825B
102
}
330
825B
100
AcDbScale
 70
     0
300
1/4" = 1'-0"
140
0.25
141
12.0
290
     0
  0
SCALE
  5
8791
102
{ACAD_REACTORS
330
825B
102
}
330
825B
100
AcDbScale
 70
     0
300
3/8" = 1'-0"
140
0.375
141
12.0
290
     0
  0
SCALE
  5
8792
102
{ACAD_REACTORS
330
825B
102
}
330
825B
100
AcDbScale
 70
     0
300
1/2" = 1'-0"
140
0.5
141
12.0
290
     0
  0
SCALE
  5
8793
102
{ACAD_REACTORS
330
825B
102
}
330
825B
100
AcDbScale
 70
     0
300
3/4" = 1'-0"
140
0.75
141
12.0
290
     0
  0
SCALE
  5
8794
102
{ACAD_REACTORS
330
825B
102
}
330
825B
100
AcDbScale
 70
     0
300
1" = 1'-0"
140
1.0
141
12.0
290
     0
  0
SCALE
  5
8795
102
{ACAD_REACTORS
330
825B
102
}
330
825B
100
AcDbScale
 70
     0
300
1-1/2" = 1'-0"
140
1.5
141
12.0
290
     0
  0
SCALE
  5
8796
102
{ACAD_REACTORS
330
825B
102
}
330
825B
100
AcDbScale
 70
     0
300
3" = 1'-0"
140
3.0
141
12.0
290
     0
  0
SCALE
  5
8797
102
{ACAD_REACTORS
330
825B
102
}
330
825B
100
AcDbScale
 70
     0
300
6" = 1'-0"
140
6.0
141
12.0
290
     0
  0
SCALE
  5
8798
102
{ACAD_REACTORS
330
825B
102
}
330
825B
100
AcDbScale
 70
     0
300
1'-0" = 1'-0"
140
12.0
141
12.0
290
     0
  0
TABLESTYLE
  5
825A
102
{ACAD_XDICTIONARY
360
82A9
102
}
102
{ACAD_REACTORS
330
8259
102
}
330
8259
100
AcDbTableStyle
  3
Standard
 70
     0
 71
     0
 40
0.06
 41
0.06
280
     0
281
     0
  7
STANDARD
140
0.18
170
     2
 62
     0
 63
     7
283
     0
274
    -2
284
     1
 64
     0
275
    -2
285
     1
 65
     0
276
    -2
286
     1
 66
     0
277
    -2
287
     1
 67
     0
278
    -2
288
     1
 68
     0
279
    -2
289
     1
 69
     0
  7
STANDARD
140
0.25
170
     5
 62
     0
 63
     7
283
     0
274
    -2
284
     1
 64
     0
275
    -2
285
     1
 65
     0
276
    -2
286
     1
 66
     0
277
    -2
287
     1
 67
     0
278
    -2
288
     1
 68
     0
279
    -2
289
     1
 69
     0
  7
STANDARD
140
0.18
170
     5
 62
     0
 63
     7
283
     0
274
    -2
284
     1
 64
     0
275
    -2
285
     1
 65
     0
276
    -2
286
     1
 66
     0
277
    -2
287
     1
 67
     0
278
    -2
288
     1
 68
     0
279
    -2
289
     1
 69
     0
  0
VISUALSTYLE
  5
8245
102
{ACAD_XDICTIONARY
360
885F
102
}
102
{ACAD_REACTORS
330
823F
102
}
330
823F
100
AcDbVisualStyle
  2
2dWireframe
 70
     4
 71
     0
 72
     2
 73
     0
 90
        0
 40
-0.6
 41
-30.0
 62
     5
 63
     7
 74
     1
 91
        4
 64
     7
 65
   257
 75
     1
175
     1
 42
1.0
 92
        0
 66
   257
 43
1.0
 76
     1
 77
     6
 78
     2
 67
     7
 79
     5
170
     0
171
     0
290
     0
174
     0
 93
        1
 44
0.0
173
     0
291
     0
 45
0.0
1001
ACAD
1000
AcDbSavedByObjectVersion
1070
     0
  0
VISUALSTYLE
  5
87A9
102
{ACAD_XDICTIONARY
360
8886
102
}
102
{ACAD_REACTORS
330
823F
102
}
330
823F
100
AcDbVisualStyle
  2
3D Hidden
 70
     6
 71
     1
 72
     2
 73
     2
 90
        0
 40
-0.6
 41
-30.0
 62
     5
 63
     7
 74
     2
 91
        2
 64
     7
 65
   257
 75
     2
175
     1
 42
40.0
 92
        0
 66
   257
 43
1.0
 76
     1
 77
     6
 78
     2
 67
     7
 79
     3
170
     0
171
     0
290
     0
174
     0
 93
        1
 44
0.0
173
     0
291
     0
 45
0.0
1001
ACAD
1000
AcDbSavedByObjectVersion
1070
     0
  0
VISUALSTYLE
  5
87AA
102
{ACAD_XDICTIONARY
360
8888
102
}
102
{ACAD_REACTORS
330
823F
102
}
330
823F
100
AcDbVisualStyle
  2
3dWireframe
 70
     5
 71
     0
 72
     2
 73
     0
 90
        0
 40
-0.6
 41
-30.0
 62
     5
 63
     7
 74
     1
 91
        4
 64
     7
 65
   257
 75
     1
175
     1
 42
1.0
 92
        0
 66
   257
 43
1.0
 76
     1
 77
     6
 78
     2
 67
     7
 79
     5
170
     0
171
     0
290
     0
174
     0
 93
        1
 44
0.0
173
     0
291
     0
 45
0.0
1001
ACAD
1000
AcDbSavedByObjectVersion
1070
     0
  0
VISUALSTYLE
  5
8244
102
{ACAD_XDICTIONARY
360
885D
102
}
102
{ACAD_REACTORS
330
823F
102
}
330
823F
100
AcDbVisualStyle
  2
Basic
 70
     7
 71
     1
 72
     0
 73
     1
 90
        0
 40
-0.6
 41
-30.0
 62
     5
 63
     7
 74
     0
 91
        4
 64
     7
 65
   257
 75
     1
175
     1
 42
1.0
 92
        8
 66
     7
 43
1.0
 76
     1
 77
     6
 78
     2
 67
     7
 79
     5
170
     0
171
     0
290
     0
174
     0
 93
        1
 44
0.0
173
     0
291
     1
 45
0.0
1001
ACAD
1000
AcDbSavedByObjectVersion
1070
     0
  0
VISUALSTYLE
  5
824B
102
{ACAD_XDICTIONARY
360
886B
102
}
102
{ACAD_REACTORS
330
823F
102
}
330
823F
100
AcDbVisualStyle
  2
Brighten
 70
    12
 71
     2
 72
     2
 73
     0
 90
        0
 40
-0.6
 41
-30.0
 62
     5
 63
     7
 74
     1
 91
        4
 64
     7
 65
   257
 75
     1
175
     1
 42
1.0
 92
        8
 66
     7
 43
1.0
 76
     1
 77
     6
 78
     2
 67
     7
 79
     5
170
     0
171
     0
290
     0
174
     0
 93
        1
 44
50.0
173
     0
291
     1
 45
0.0
1001
ACAD
1000
AcDbSavedByObjectVersion
1070
     0
  0
VISUALSTYLE
  5
824F
102
{ACAD_XDICTIONARY
360
8873
102
}
102
{ACAD_REACTORS
330
823F
102
}
330
823F
100
AcDbVisualStyle
  2
ColorChange
 70
    16
 71
     2
 72
     2
 73
     3
 90
        0
 40
-0.6
 41
-30.0
 62
     5
 63
     8
 74
     1
 91
        4
 64
     7
 65
   257
 75
     1
175
     1
 42
1.0
 92
        8
 66
     8
 43
1.0
 76
     1
 77
     6
 78
     2
 67
     7
 79
     5
170
     0
171
     0
290
     0
174
     0
 93
        1
 44
0.0
173
     0
291
     1
 45
0.0
1001
ACAD
1000
AcDbSavedByObjectVersion
1070
     0
  0
VISUALSTYLE
  5
8248
102
{ACAD_XDICTIONARY
360
8865
102
}
102
{ACAD_REACTORS
330
823F
102
}
330
823F
100
AcDbVisualStyle
  2
Conceptual
 70
     9
 71
     3
 72
     2
 73
     0
 90
        0
 40
-0.6
 41
-30.0
 62
     5
 63
     7
 74
     2
 91
        2
 64
     7
 65
   257
 75
     1
175
     1
 42
179.0
 92
        8
 66
     7
 43
1.0
 76
     1
 77
     6
 78
     2
 67
     7
 79
     3
170
     0
171
     0
290
     0
174
     0
 93
        1
 44
0.0
173
     0
291
     0
 45
0.0
1001
ACAD
1000
AcDbSavedByObjectVersion
1070
     0
  0
VISUALSTYLE
  5
824A
102
{ACAD_XDICTIONARY
360
8869
102
}
102
{ACAD_REACTORS
330
823F
102
}
330
823F
100
AcDbVisualStyle
  2
Dim
 70
    11
 71
     2
 72
     2
 73
     0
 90
        0
 40
-0.6
 41
-30.0
 62
     5
 63
     7
 74
     1
 91
        4
 64
     7
 65
   257
 75
     1
175
     1
 42
1.0
 92
        8
 66
     7
 43
1.0
 76
     1
 77
     6
 78
     2
 67
     7
 79
     5
170
     0
171
     0
290
     0
174
     0
 93
        1
 44
-50.0
173
     0
291
     1
 45
0.0
1001
ACAD
1000
AcDbSavedByObjectVersion
1070
     0
  0
VISUALSTYLE
  5
8257
102
{ACAD_XDICTIONARY
360
8883
102
}
102
{ACAD_REACTORS
330
823F
102
}
330
823F
100
AcDbVisualStyle
  2
EdgeColorOff
 70
    22
 71
     2
 72
     2
 73
     0
 90
        0
 40
-0.6
 41
-30.0
 62
     5
 63
     7
 74
     1
 91
        4
 64
     7
 65
   257
 75
     1
175
     1
 42
1.0
 92
        8
 66
     7
 43
1.0
 76
     1
 77
     6
 78
     2
 67
     7
 79
     5
170
     0
171
     0
290
     0
174
     0
 93
        1
 44
0.0
173
     0
291
     1
 45
0.0
1001
ACAD
1000
AcDbSavedByObjectVersion
1070
     0
  0
VISUALSTYLE
  5
824E
102
{ACAD_XDICTIONARY
360
8871
102
}
102
{ACAD_REACTORS
330
823F
102
}
330
823F
100
AcDbVisualStyle
  2
Facepattern
 70
    15
 71
     2
 72
     2
 73
     0
 90
        0
 40
-0.6
 41
-30.0
 62
     5
 63
     7
 74
     1
 91
        4
 64
     7
 65
   257
 75
     1
175
     1
 42
1.0
 92
        8
 66
     7
 43
1.0
 76
     1
 77
     6
 78
     2
 67
     7
 79
     5
170
     0
171
     0
290
     0
174
     0
 93
        1
 44
0.0
173
     0
291
     1
 45
0.0
1001
ACAD
1000
AcDbSavedByObjectVersion
1070
     0
  0
VISUALSTYLE
  5
8240
102
{ACAD_XDICTIONARY
360
8855
102
}
102
{ACAD_REACTORS
330
823F
102
}
330
823F
100
AcDbVisualStyle
  2
Flat
 70
     0
 71
     2
 72
     1
 73
     1
 90
        2
 40
-0.6
 41
30.0
 62
     5
 63
     7
 74
     0
 91
        0
 64
     7
 65
   257
 75
     1
175
     1
 42
1.0
 92
        8
 66
     7
 43
1.0
 76
     1
 77
     6
 78
     2
 67
     7
 79
     5
170
     0
171
     0
290
     0
174
     0
 93
       13
 44
0.0
173
     0
291
     1
 45
0.0
1001
ACAD
1000
AcDbSavedByObjectVersion
1070
     0
  0
VISUALSTYLE
  5
8241
102
{ACAD_XDICTIONARY
360
8857
102
}
102
{ACAD_REACTORS
330
823F
102
}
330
823F
100
AcDbVisualStyle
  2
FlatWithEdges
 70
     1
 71
     2
 72
     1
 73
     1
 90
        2
 40
-0.6
 41
30.0
 62
     5
 63
     7
 74
     1
 91
        0
 64
     7
 65
   257
 75
     1
175
     1
 42
1.0
 92
        0
 66
   257
 43
1.0
 76
     1
 77
     6
 78
     2
 67
     7
 79
     5
170
     0
171
     0
290
     0
174
     0
 93
       13
 44
0.0
173
     0
291
     1
 45
0.0
1001
ACAD
1000
AcDbSavedByObjectVersion
1070
     0
  0
VISUALSTYLE
  5
8242
102
{ACAD_XDICTIONARY
360
8859
102
}
102
{ACAD_REACTORS
330
823F
102
}
330
823F
100
AcDbVisualStyle
  2
Gouraud
 70
     2
 71
     2
 72
     2
 73
     1
 90
        2
 40
-0.6
 41
30.0
 62
     5
 63
     7
 74
     0
 91
        0
 64
     7
 65
   257
 75
     1
175
     1
 42
1.0
 92
        0
 66
     7
 43
1.0
 76
     1
 77
     6
 78
     2
 67
     7
 79
     5
170
     0
171
     0
290
     0
174
     0
 93
       13
 44
0.0
173
     0
291
     1
 45
0.0
1001
ACAD
1000
AcDbSavedByObjectVersion
1070
     0
  0
VISUALSTYLE
  5
8243
102
{ACAD_XDICTIONARY
360
885B
102
}
102
{ACAD_REACTORS
330
823F
102
}
330
823F
100
AcDbVisualStyle
  2
GouraudWithEdges
 70
     3
 71
     2
 72
     2
 73
     1
 90
        2
 40
-0.6
 41
30.0
 62
     5
 63
     7
 74
     1
 91
        0
 64
     7
 65
   257
 75
     1
175
     1
 42
1.0
 92
        0
 66
   257
 43
1.0
 76
     1
 77
     6
 78
     2
 67
     7
 79
     5
170
     0
171
     0
290
     0
174
     0
 93
       13
 44
0.0
173
     0
291
     1
 45
0.0
1001
ACAD
1000
AcDbSavedByObjectVersion
1070
     0
  0
VISUALSTYLE
  5
8247
102
{ACAD_XDICTIONARY
360
8863
102
}
102
{ACAD_REACTORS
330
823F
102
}
330
823F
100
AcDbVisualStyle
  2
Hidden
 70
     6
 71
     1
 72
     2
 73
     2
 90
        0
 40
-0.6
 41
-30.0
 62
     5
 63
     7
 74
     2
 91
        2
 64
     7
 65
   257
 75
     2
175
     1
 42
40.0
 92
        0
 66
   257
 43
1.0
 76
     1
 77
     6
 78
     2
 67
     7
 79
     3
170
     0
171
     0
290
     0
174
     0
 93
        1
 44
0.0
173
     0
291
     0
 45
0.0
1001
ACAD
1000
AcDbSavedByObjectVersion
1070
     0
  0
VISUALSTYLE
  5
8255
102
{ACAD_XDICTIONARY
360
887F
102
}
102
{ACAD_REACTORS
330
823F
102
}
330
823F
100
AcDbVisualStyle
  2
JitterOff
 70
    20
 71
     2
 72
     2
 73
     0
 90
        0
 40
-0.6
 41
-30.0
 62
     5
 63
     7
 74
     1
 91
        4
 64
     7
 65
   257
 75
     1
175
     1
 42
1.0
 92
       10
 66
     7
 43
1.0
 76
     1
 77
     6
 78
     2
 67
     7
 79
     5
170
     0
171
     0
290
     0
174
     0
 93
        1
 44
0.0
173
     0
291
     1
 45
0.0
1001
ACAD
1000
AcDbSavedByObjectVersion
1070
     0
  0
VISUALSTYLE
  5
824D
102
{ACAD_XDICTIONARY
360
886F
102
}
102
{ACAD_REACTORS
330
823F
102
}
330
823F
100
AcDbVisualStyle
  2
Linepattern
 70
    14
 71
     2
 72
     2
 73
     0
 90
        0
 40
-0.6
 41
-30.0
 62
     5
 63
     7
 74
     1
 91
        4
 64
     7
 65
   257
 75
     7
175
     7
 42
1.0
 92
        8
 66
     7
 43
1.0
 76
     1
 77
     6
 78
     2
 67
     7
 79
     5
170
     0
171
     0
290
     0
174
     0
 93
        1
 44
0.0
173
     0
291
     1
 45
0.0
1001
ACAD
1000
AcDbSavedByObjectVersion
1070
     0
  0
VISUALSTYLE
  5
8256
102
{ACAD_XDICTIONARY
360
8881
102
}
102
{ACAD_REACTORS
330
823F
102
}
330
823F
100
AcDbVisualStyle
  2
OverhangOff
 70
    21
 71
     2
 72
     2
 73
     0
 90
        0
 40
-0.6
 41
-30.0
 62
     5
 63
     7
 74
     1
 91
        4
 64
     7
 65
   257
 75
     1
175
     1
 42
1.0
 92
        9
 66
     7
 43
1.0
 76
     1
 77
     6
 78
     2
 67
     7
 79
     5
170
     0
171
     0
290
     0
174
     0
 93
        1
 44
0.0
173
     0
291
     1
 45
0.0
1001
ACAD
1000
AcDbSavedByObjectVersion
1070
     0
  0
VISUALSTYLE
  5
8249
102
{ACAD_XDICTIONARY
360
8867
102
}
102
{ACAD_REACTORS
330
823F
102
}
330
823F
100
AcDbVisualStyle
  2
Realistic
 70
     8
 71
     2
 72
     2
 73
     0
 90
        2
 40
-0.6
 41
30.0
 62
     5
 63
     7
 74
     0
 91
        0
 64
     7
 65
   257
 75
     1
175
     1
 42
1.0
 92
        8
 66
   257
 43
1.0
 76
     1
 77
     6
 78
     2
 67
     7
 79
     3
170
     0
171
     0
290
     0
174
     0
 93
       13
 44
0.0
173
     0
291
     0
 45
0.0
1001
ACAD
1000
AcDbSavedByObjectVersion
1070
     0
  0
VISUALSTYLE
  5
8254
102
{ACAD_XDICTIONARY
360
887D
102
}
102
{ACAD_REACTORS
330
823F
102
}
330
823F
100
AcDbVisualStyle
  2
Shaded
 70
    27
 71
     2
 72
     2
 73
     1
 90
        2
 40
-0.6
 41
30.0
 62
     5
 63
     7
 74
     0
 91
        4
 64
     7
 65
   257
 75
     1
175
     1
 42
1.0
 92
        8
 66
   257
 43
1.0
 76
     1
 77
     6
 78
     2
 67
     8
 79
     3
170
     0
171
     0
290
     0
174
     0
 93
        5
 44
0.0
173
     0
291
     0
 45
0.0
1001
ACAD
1000
AcDbSavedByObjectVersion
1070
     0
  0
VISUALSTYLE
  5
8253
102
{ACAD_XDICTIONARY
360
887B
102
}
102
{ACAD_REACTORS
330
823F
102
}
330
823F
100
AcDbVisualStyle
  2
Shaded with edges
 70
    26
 71
     2
 72
     2
 73
     1
 90
        2
 40
-0.6
 41
30.0
 62
     5
 63
     7
 74
     1
 91
       10
 64
     7
 65
   257
 75
     2
175
     1
 42
1.0
 92
        8
 66
   257
 43
1.0
 76
     1
 77
     6
 78
     2
 67
     7
 79
     3
170
     0
171
     0
290
     0
174
     0
 93
        5
 44
0.0
173
     0
291
     0
 45
0.0
1001
ACAD
1000
AcDbSavedByObjectVersion
1070
     0
  0
VISUALSTYLE
  5
8250
102
{ACAD_XDICTIONARY
360
8875
102
}
102
{ACAD_REACTORS
330
823F
102
}
330
823F
100
AcDbVisualStyle
  2
Shades of Gray
 70
    23
 71
     2
 72
     2
 73
     3
 90
        0
 40
-0.6
 41
-30.0
 62
     5
 63
     7
 74
     2
 91
        2
 64
     7
 65
     7
 75
     1
175
     1
 42
40.0
 92
        8
 66
     7
 43
1.0
 76
     1
 77
     6
 78
     2
 67
     7
 79
     3
170
     0
171
     0
290
     0
174
     0
 93
        1
 44
0.0
173
     0
291
     0
 45
0.0
1001
ACAD
1000
AcDbSavedByObjectVersion
1070
     0
  0
VISUALSTYLE
  5
8251
102
{ACAD_XDICTIONARY
360
8877
102
}
102
{ACAD_REACTORS
330
823F
102
}
330
823F
100
AcDbVisualStyle
  2
Sketchy
 70
    24
 71
     1
 72
     2
 73
     2
 90
        0
 40
-0.6
 41
-30.0
 62
     5
 63
     7
 74
     2
 91
        2
 64
     7
 65
     7
 75
     1
175
     1
 42
40.0
 92
       11
 66
     7
 43
1.0
 76
     1
 77
     6
 78
     2
 67
     7
 79
     6
170
     0
171
     0
290
     0
174
     0
 93
        1
 44
0.0
173
     0
291
     0
 45
0.0
1001
ACAD
1000
AcDbSavedByObjectVersion
1070
     0
  0
VISUALSTYLE
  5
824C
102
{ACAD_XDICTIONARY
360
886D
102
}
102
{ACAD_REACTORS
330
823F
102
}
330
823F
100
AcDbVisualStyle
  2
Thicken
 70
    13
 71
     2
 72
     2
 73
     0
 90
        0
 40
-0.6
 41
-30.0
 62
     5
 63
     7
 74
     1
 91
        4
 64
     7
 65
   257
 75
     1
175
     1
 42
1.0
 92
       12
 66
     7
 43
1.0
 76
     1
 77
     6
 78
     2
 67
     7
 79
     5
170
     0
171
     0
290
     0
174
     0
 93
        1
 44
0.0
173
     0
291
     1
 45
0.0
1001
ACAD
1000
AcDbSavedByObjectVersion
1070
     0
  0
VISUALSTYLE
  5
8246
102
{ACAD_XDICTIONARY
360
8861
102
}
102
{ACAD_REACTORS
330
823F
102
}
330
823F
100
AcDbVisualStyle
  2
Wireframe
 70
     5
 71
     0
 72
     2
 73
     0
 90
        0
 40
-0.6
 41
-30.0
 62
     5
 63
     7
 74
     1
 91
        4
 64
     7
 65
   257
 75
     1
175
     1
 42
1.0
 92
        0
 66
   257
 43
1.0
 76
     1
 77
     6
 78
     2
 67
     7
 79
     3
170
     0
171
     0
290
     0
174
     0
 93
        1
 44
0.0
173
     0
291
     0
 45
0.0
1001
ACAD
1000
AcDbSavedByObjectVersion
1070
     0
  0
VISUALSTYLE
  5
8252
102
{ACAD_XDICTIONARY
360
8879
102
}
102
{ACAD_REACTORS
330
823F
102
}
330
823F
100
AcDbVisualStyle
  2
X-Ray
 70
    25
 71
     2
 72
     2
 73
     1
 90
        1
 40
0.5
 41
-30.0
 62
     5
 63
     7
 74
     1
 91
        0
 64
     7
 65
   257
 75
     1
175
     1
 42
1.0
 92
        8
 66
     7
 43
1.0
 76
     1
 77
     6
 78
     2
 67
     7
 79
     3
170
     0
171
     0
290
     0
174
     0
 93
       13
 44
0.0
173
     0
291
     0
 45
0.0
1001
ACAD
1000
AcDbSavedByObjectVersion
1070
     0
  0
DICTIONARYVAR
  5
82EA
102
{ACAD_REACTORS
330
3E
102
}
330
3E
100
DictionaryVariables
280
     0
  1
1:1
  0
DICTIONARYVAR
  5
82E9
102
{ACAD_REACTORS
330
3E
102
}
330
3E
100
DictionaryVariables
280
     0
  1
STANDARD
  0
DICTIONARYVAR
  5
82E8
102
{ACAD_REACTORS
330
3E
102
}
330
3E
100
DictionaryVariables
280
     0
  1
STANDARD
  0
DICTIONARYVAR
  5
3F
102
{ACAD_REACTORS
330
3E
102
}
330
3E
100
DictionaryVariables
280
     0
  1
0
  0
DICTIONARYVAR
  5
82ED
102
{ACAD_REACTORS
330
3E
102
}
330
3E
100
DictionaryVariables
280
     0
  1
1
  0
DICTIONARYVAR
  5
82EC
102
{ACAD_REACTORS
330
3E
102
}
330
3E
100
DictionaryVariables
280
     0
  1
0
  0
DICTIONARYVAR
  5
877E
102
{ACAD_REACTORS
330
3E
102
}
330
3E
100
DictionaryVariables
280
     0
  1
1
  0
DICTIONARYVAR
  5
877F
102
{ACAD_REACTORS
330
3E
102
}
330
3E
100
DictionaryVariables
280
     0
  1
15
  0
DICTIONARYVAR
  5
877D
102
{ACAD_REACTORS
330
3E
102
}
330
3E
100
DictionaryVariables
280
     0
  1
0
  0
DICTIONARYVAR
  5
877C
102
{ACAD_REACTORS
330
3E
102
}
330
3E
100
DictionaryVariables
280
     0
  1
0
  0
DICTIONARYVAR
  5
82EB
102
{ACAD_REACTORS
330
3E
102
}
330
3E
100
DictionaryVariables
280
     0
  1
127
  0
DICTIONARYVAR
  5
8848
102
{ACAD_REACTORS
330
3E
102
}
330
3E
100
DictionaryVariables
280
     0
  1
2
  0
DICTIONARY
  5
8850
330
485F
100
AcDbDictionary
280
     1
281
     1
  3
ACAD_XREC_ROUNDTRIP
360
8851
  0
DICTIONARY
  5
884E
330
485E
100
AcDbDictionary
280
     1
281
     1
  3
ACAD_XREC_ROUNDTRIP
360
884F
  0
DICTIONARY
  5
8230
330
822F
100
AcDbDictionary
280
     1
281
     1
  3
ACAD_XREC_ROUNDTRIP
360
8853
  3
BUMPTILE
360
8232
  3
DIFFUSETILE
360
8231
  3
OPACITYTILE
360
8235
  3
REFLECTIONTILE
360
8234
  3
REFRACTIONTILE
360
8236
  3
SPECULARTILE
360
8233
  0
DICTIONARY
  5
8228
330
8227
100
AcDbDictionary
280
     1
281
     1
  3
ACAD_XREC_ROUNDTRIP
360
8852
  3
BUMPTILE
360
822A
  3
DIFFUSETILE
360
8229
  3
OPACITYTILE
360
822D
  3
REFLECTIONTILE
360
822C
  3
REFRACTIONTILE
360
822E
  3
SPECULARTILE
360
822B
  0
DICTIONARY
  5
8238
330
8237
100
AcDbDictionary
280
     1
281
     1
  3
ACAD_XREC_ROUNDTRIP
360
8854
  3
BUMPTILE
360
823A
  3
DIFFUSETILE
360
8239
  3
OPACITYTILE
360
823D
  3
REFLECTIONTILE
360
823C
  3
REFRACTIONTILE
360
823E
  3
SPECULARTILE
360
823B
  0
DICTIONARY
  5
82A9
330
825A
100
AcDbDictionary
280
     1
281
     1
  3
ACAD_ROUNDTRIP_2008_TABLESTYLE_CELLSTYLEMAP
360
8849
  3
ACAD_XREC_ROUNDTRIP
360
8885
  0
DICTIONARY
  5
885F
330
8245
100
AcDbDictionary
280
     1
281
     1
  3
ACAD_XREC_ROUNDTRIP
360
8860
  0
DICTIONARY
  5
8886
330
87A9
100
AcDbDictionary
280
     1
281
     1
  3
ACAD_XREC_ROUNDTRIP
360
8887
  0
DICTIONARY
  5
8888
330
87AA
100
AcDbDictionary
280
     1
281
     1
  3
ACAD_XREC_ROUNDTRIP
360
8889
  0
DICTIONARY
  5
885D
330
8244
100
AcDbDictionary
280
     1
281
     1
  3
ACAD_XREC_ROUNDTRIP
360
885E
  0
DICTIONARY
  5
886B
330
824B
100
AcDbDictionary
280
     1
281
     1
  3
ACAD_XREC_ROUNDTRIP
360
886C
  0
DICTIONARY
  5
8873
330
824F
100
AcDbDictionary
280
     1
281
     1
  3
ACAD_XREC_ROUNDTRIP
360
8874
  0
DICTIONARY
  5
8865
330
8248
100
AcDbDictionary
280
     1
281
     1
  3
ACAD_XREC_ROUNDTRIP
360
8866
  0
DICTIONARY
  5
8869
330
824A
100
AcDbDictionary
280
     1
281
     1
  3
ACAD_XREC_ROUNDTRIP
360
886A
  0
DICTIONARY
  5
8883
330
8257
100
AcDbDictionary
280
     1
281
     1
  3
ACAD_XREC_ROUNDTRIP
360
8884
  0
DICTIONARY
  5
8871
330
824E
100
AcDbDictionary
280
     1
281
     1
  3
ACAD_XREC_ROUNDTRIP
360
8872
  0
DICTIONARY
  5
8855
330
8240
100
AcDbDictionary
280
     1
281
     1
  3
ACAD_XREC_ROUNDTRIP
360
8856
  0
DICTIONARY
  5
8857
330
8241
100
AcDbDictionary
280
     1
281
     1
  3
ACAD_XREC_ROUNDTRIP
360
8858
  0
DICTIONARY
  5
8859
330
8242
100
AcDbDictionary
280
     1
281
     1
  3
ACAD_XREC_ROUNDTRIP
360
885A
  0
DICTIONARY
  5
885B
330
8243
100
AcDbDictionary
280
     1
281
     1
  3
ACAD_XREC_ROUNDTRIP
360
885C
  0
DICTIONARY
  5
8863
330
8247
100
AcDbDictionary
280
     1
281
     1
  3
ACAD_XREC_ROUNDTRIP
360
8864
  0
DICTIONARY
  5
887F
330
8255
100
AcDbDictionary
280
     1
281
     1
  3
ACAD_XREC_ROUNDTRIP
360
8880
  0
DICTIONARY
  5
886F
330
824D
100
AcDbDictionary
280
     1
281
     1
  3
ACAD_XREC_ROUNDTRIP
360
8870
  0
DICTIONARY
  5
8881
330
8256
100
AcDbDictionary
280
     1
281
     1
  3
ACAD_XREC_ROUNDTRIP
360
8882
  0
DICTIONARY
  5
8867
330
8249
100
AcDbDictionary
280
     1
281
     1
  3
ACAD_XREC_ROUNDTRIP
360
8868
  0
DICTIONARY
  5
887D
330
8254
100
AcDbDictionary
280
     1
281
     1
  3
ACAD_XREC_ROUNDTRIP
360
887E
  0
DICTIONARY
  5
887B
330
8253
100
AcDbDictionary
280
     1
281
     1
  3
ACAD_XREC_ROUNDTRIP
360
887C
  0
DICTIONARY
  5
8875
330
8250
100
AcDbDictionary
280
     1
281
     1
  3
ACAD_XREC_ROUNDTRIP
360
8876
  0
DICTIONARY
  5
8877
330
8251
100
AcDbDictionary
280
     1
281
     1
  3
ACAD_XREC_ROUNDTRIP
360
8878
  0
DICTIONARY
  5
886D
330
824C
100
AcDbDictionary
280
     1
281
     1
  3
ACAD_XREC_ROUNDTRIP
360
886E
  0
DICTIONARY
  5
8861
330
8246
100
AcDbDictionary
280
     1
281
     1
  3
ACAD_XREC_ROUNDTRIP
360
8862
  0
DICTIONARY
  5
8879
330
8252
100
AcDbDictionary
280
     1
281
     1
  3
ACAD_XREC_ROUNDTRIP
360
887A
  0
XRECORD
  5
8851
102
{ACAD_REACTORS
330
8850
102
}
330
8850
100
AcDbXrecord
280
     1
102
SHADEPLOT
 70
     0
102
SHADEPLOTRESLEVEL
 70
     2
102
SHADEPLOTCUSTOMDPI
 70
   300
  0
XRECORD
  5
884F
102
{ACAD_REACTORS
330
884E
102
}
330
884E
100
AcDbXrecord
280
     1
102
SHADEPLOT
 70
     0
102
SHADEPLOTRESLEVEL
 70
     2
102
SHADEPLOTCUSTOMDPI
 70
   300
  0
XRECORD
  5
8853
102
{ACAD_REACTORS
330
8230
102
}
330
8230
100
AcDbXrecord
280
     1
102
MATERIAL
148
0.0
149
0.0
149
0.0
 93
        0
 94
      127
282
     0
 72
     0
 77
     0
171
     0
175
     0
179
     0
273
     0
  0
XRECORD
  5
8232
102
{ACAD_REACTORS
330
8230
102
}
330
8230
100
AcDbXrecord
280
     1
270
     1
271
     1
  0
XRECORD
  5
8231
102
{ACAD_REACTORS
330
8230
102
}
330
8230
100
AcDbXrecord
280
     1
270
     1
271
     1
  0
XRECORD
  5
8235
102
{ACAD_REACTORS
330
8230
102
}
330
8230
100
AcDbXrecord
280
     1
270
     1
271
     1
  0
XRECORD
  5
8234
102
{ACAD_REACTORS
330
8230
102
}
330
8230
100
AcDbXrecord
280
     1
270
     1
271
     1
  0
XRECORD
  5
8236
102
{ACAD_REACTORS
330
8230
102
}
330
8230
100
AcDbXrecord
280
     1
270
     1
271
     1
  0
XRECORD
  5
8233
102
{ACAD_REACTORS
330
8230
102
}
330
8230
100
AcDbXrecord
280
     1
270
     1
271
     1
  0
XRECORD
  5
8852
102
{ACAD_REACTORS
330
8228
102
}
330
8228
100
AcDbXrecord
280
     1
102
MATERIAL
148
0.0
149
0.0
149
0.0
 93
        0
 94
      127
282
     0
 72
     0
 77
     0
171
     0
175
     0
179
     0
273
     0
  0
XRECORD
  5
822A
102
{ACAD_REACTORS
330
8228
102
}
330
8228
100
AcDbXrecord
280
     1
270
     1
271
     1
  0
XRECORD
  5
8229
102
{ACAD_REACTORS
330
8228
102
}
330
8228
100
AcDbXrecord
280
     1
270
     1
271
     1
  0
XRECORD
  5
822D
102
{ACAD_REACTORS
330
8228
102
}
330
8228
100
AcDbXrecord
280
     1
270
     1
271
     1
  0
XRECORD
  5
822C
102
{ACAD_REACTORS
330
8228
102
}
330
8228
100
AcDbXrecord
280
     1
270
     1
271
     1
  0
XRECORD
  5
822E
102
{ACAD_REACTORS
330
8228
102
}
330
8228
100
AcDbXrecord
280
     1
270
     1
271
     1
  0
XRECORD
  5
822B
102
{ACAD_REACTORS
330
8228
102
}
330
8228
100
AcDbXrecord
280
     1
270
     1
271
     1
  0
XRECORD
  5
8854
102
{ACAD_REACTORS
330
8238
102
}
330
8238
100
AcDbXrecord
280
     1
102
MATERIAL
148
0.0
149
0.0
149
0.0
 93
        0
 94
      127
282
     0
 72
     0
 77
     0
171
     0
175
     0
179
     0
273
     0
  0
XRECORD
  5
823A
102
{ACAD_REACTORS
330
8238
102
}
330
8238
100
AcDbXrecord
280
     1
270
     1
271
     1
  0
XRECORD
  5
8239
102
{ACAD_REACTORS
330
8238
102
}
330
8238
100
AcDbXrecord
280
     1
270
     1
271
     1
  0
XRECORD
  5
823D
102
{ACAD_REACTORS
330
8238
102
}
330
8238
100
AcDbXrecord
280
     1
270
     1
271
     1
  0
XRECORD
  5
823C
102
{ACAD_REACTORS
330
8238
102
}
330
8238
100
AcDbXrecord
280
     1
270
     1
271
     1
  0
XRECORD
  5
823E
102
{ACAD_REACTORS
330
8238
102
}
330
8238
100
AcDbXrecord
280
     1
270
     1
271
     1
  0
XRECORD
  5
823B
102
{ACAD_REACTORS
330
8238
102
}
330
8238
100
AcDbXrecord
280
     1
270
     1
271
     1
  0
CELLSTYLEMAP
  5
8849
102
{ACAD_REACTORS
330
82A9
102
}
330
82A9
100
AcDbCellStyleMap
 90
        3
300
CELLSTYLE
  1
TABLEFORMAT_BEGIN
 90
        5
170
     1
 91
        0
 92
    32768
 62
   257
 93
        1
300
CONTENTFORMAT
  1
CONTENTFORMAT_BEGIN
 90
        0
 91
        0
 92
      512
 93
        0
300

 40
0.0
140
1.0
 94
        5
 62
     0
340
F
144
0.25
309
CONTENTFORMAT_END
171
     0
 94
        0
309
TABLEFORMAT_END
  1
CELLSTYLE_BEGIN
 90
        1
 91
        1
300
_TITLE
309
CELLSTYLE_END
300
CELLSTYLE
  1
TABLEFORMAT_BEGIN
 90
        5
170
     1
 91
        0
 92
        0
 62
   257
 93
        1
300
CONTENTFORMAT
  1
CONTENTFORMAT_BEGIN
 90
        0
 91
        0
 92
      512
 93
        0
300

 40
0.0
140
1.0
 94
        5
 62
     0
340
F
144
0.18
309
CONTENTFORMAT_END
171
     0
 94
        0
309
TABLEFORMAT_END
  1
CELLSTYLE_BEGIN
 90
        2
 91
        1
300
_HEADER
309
CELLSTYLE_END
300
CELLSTYLE
  1
TABLEFORMAT_BEGIN
 90
        5
170
     1
 91
        0
 92
        0
 62
   257
 93
        1
300
CONTENTFORMAT
  1
CONTENTFORMAT_BEGIN
 90
        0
 91
        0
 92
      512
 93
        0
300

 40
0.0
140
1.0
 94
        2
 62
     0
340
F
144
0.18
309
CONTENTFORMAT_END
171
     0
 94
        0
309
TABLEFORMAT_END
  1
CELLSTYLE_BEGIN
 90
        3
 91
        2
300
_DATA
309
CELLSTYLE_END
  0
XRECORD
  5
8885
102
{ACAD_REACTORS
330
82A9
102
}
330
82A9
100
AcDbXrecord
280
     1
102
ACAD_ROUNDTRIP_PRE2007_TABLESTYLE
 90
      512
 91
        0
  1

 92
      512
 93
        0
  2

 94
      512
 95
        0
  3

  0
XRECORD
  5
8860
102
{ACAD_REACTORS
330
885F
102
}
330
885F
100
AcDbXrecord
280
     1
102
RTVSPropertyOp0
 70
     1
102
RTVSPropertyOp1
 70
     1
102
RTVSPropertyOp2
 70
     1
102
RTVSPropertyOp3
 70
     1
102
RTVSPropertyOp4
 70
     1
102
RTVSPropertyOp5
 70
     1
102
RTVSPropertyOp6
 70
     1
102
RTVSPropertyOp7
 70
     1
102
RTVSPropertyOp8
 70
     1
102
RTVSPropertyOp9
 70
     1
102
RTVSPropertyOp10
 70
     1
102
RTVSPropertyOp11
 70
     1
102
RTVSPropertyOp12
 70
     1
102
RTVSPropertyOp13
 70
     1
102
RTVSPropertyOp14
 70
     1
102
RTVSPropertyOp15
 70
     1
102
RTVSPropertyOp16
 70
     1
102
RTVSPropertyOp17
 70
     1
102
RTVSPropertyOp18
 70
     1
102
RTVSPropertyOp19
 70
     1
102
RTVSPropertyOp20
 70
     1
102
RTVSPropertyOp21
 70
     1
102
RTVSPropertyOp22
 70
     1
102
RTVSPropertyOp23
 70
     1
102
RTVSPropertyOp24
 70
     1
102
RTVSPropertyOp25
 70
     1
102
RTVSPropertyOp26
 70
     1
102
RTVSPropertyOp27
 70
     1
102
RTVSPropertyOp28
 70
     1
102
RTVSPropertyOp29
 70
     1
102
RTVSPropertyOp30
 70
     1
102
RTVSPropertyOp31
 70
     1
102
RTVSPropertyOp32
 70
     1
  0
XRECORD
  5
8887
102
{ACAD_REACTORS
330
8886
102
}
330
8886
100
AcDbXrecord
280
     1
102
RTVSPropertyOp0
 70
     1
102
RTVSPropertyOp1
 70
     1
102
RTVSPropertyOp2
 70
     1
102
RTVSPropertyOp3
 70
     1
102
RTVSPropertyOp4
 70
     1
102
RTVSPropertyOp5
 70
     1
102
RTVSPropertyOp6
 70
     1
102
RTVSPropertyOp7
 70
     1
102
RTVSPropertyOp8
 70
     1
102
RTVSPropertyOp9
 70
     1
102
RTVSPropertyOp10
 70
     1
102
RTVSPropertyOp11
 70
     1
102
RTVSPropertyOp12
 70
     1
102
RTVSPropertyOp13
 70
     1
102
RTVSPropertyOp14
 70
     1
102
RTVSPropertyOp15
 70
     1
102
RTVSPropertyOp16
 70
     1
102
RTVSPropertyOp17
 70
     1
102
RTVSPropertyOp18
 70
     1
102
RTVSPropertyOp19
 70
     1
102
RTVSPropertyOp20
 70
     1
102
RTVSPropertyOp21
 70
     1
102
RTVSPropertyOp22
 70
     1
102
RTVSPropertyOp23
 70
     1
102
RTVSPropertyOp24
 70
     1
102
RTVSPropertyOp25
 70
     1
102
RTVSPropertyOp26
 70
     1
102
RTVSPropertyOp27
 70
     1
102
RTVSPropertyOp28
 70
     1
102
RTVSPropertyOp29
 70
     1
102
RTVSPropertyOp30
 70
     1
102
RTVSPropertyOp31
 70
     1
102
RTVSPropertyOp32
 70
     1
  0
XRECORD
  5
8889
102
{ACAD_REACTORS
330
8888
102
}
330
8888
100
AcDbXrecord
280
     1
102
RTVSPropertyOp0
 70
     1
102
RTVSPropertyOp1
 70
     1
102
RTVSPropertyOp2
 70
     1
102
RTVSPropertyOp3
 70
     1
102
RTVSPropertyOp4
 70
     1
102
RTVSPropertyOp5
 70
     1
102
RTVSPropertyOp6
 70
     1
102
RTVSPropertyOp7
 70
     1
102
RTVSPropertyOp8
 70
     1
102
RTVSPropertyOp9
 70
     1
102
RTVSPropertyOp10
 70
     1
102
RTVSPropertyOp11
 70
     1
102
RTVSPropertyOp12
 70
     1
102
RTVSPropertyOp13
 70
     1
102
RTVSPropertyOp14
 70
     1
102
RTVSPropertyOp15
 70
     1
102
RTVSPropertyOp16
 70
     1
102
RTVSPropertyOp17
 70
     1
102
RTVSPropertyOp18
 70
     1
102
RTVSPropertyOp19
 70
     1
102
RTVSPropertyOp20
 70
     1
102
RTVSPropertyOp21
 70
     1
102
RTVSPropertyOp22
 70
     1
102
RTVSPropertyOp23
 70
     1
102
RTVSPropertyOp24
 70
     1
102
RTVSPropertyOp25
 70
     1
102
RTVSPropertyOp26
 70
     1
102
RTVSPropertyOp27
 70
     1
102
RTVSPropertyOp28
 70
     1
102
RTVSPropertyOp29
 70
     1
102
RTVSPropertyOp30
 70
     1
102
RTVSPropertyOp31
 70
     1
102
RTVSPropertyOp32
 70
     1
  0
XRECORD
  5
885E
102
{ACAD_REACTORS
330
885D
102
}
330
885D
100
AcDbXrecord
280
     1
102
RTVSPropertyOp0
 70
     1
102
RTVSPropertyOp1
 70
     1
102
RTVSPropertyOp2
 70
     1
102
RTVSPropertyOp3
 70
     1
102
RTVSPropertyOp4
 70
     1
102
RTVSPropertyOp5
 70
     1
102
RTVSPropertyOp6
 70
     1
102
RTVSPropertyOp7
 70
     1
102
RTVSPropertyOp8
 70
     1
102
RTVSPropertyOp9
 70
     1
102
RTVSPropertyOp10
 70
     1
102
RTVSPropertyOp11
 70
     1
102
RTVSPropertyOp12
 70
     1
102
RTVSPropertyOp13
 70
     1
102
RTVSPropertyOp14
 70
     1
102
RTVSPropertyOp15
 70
     1
102
RTVSPropertyOp16
 70
     1
102
RTVSPropertyOp17
 70
     1
102
RTVSPropertyOp18
 70
     1
102
RTVSPropertyOp19
 70
     1
102
RTVSPropertyOp20
 70
     1
102
RTVSPropertyOp21
 70
     1
102
RTVSPropertyOp22
 70
     1
102
RTVSPropertyOp23
 70
     1
102
RTVSPropertyOp24
 70
     1
102
RTVSPropertyOp25
 70
     1
102
RTVSPropertyOp26
 70
     1
102
RTVSPropertyOp27
 70
     1
102
RTVSPropertyOp28
 70
     1
102
RTVSPropertyOp29
 70
     1
102
RTVSPropertyOp30
 70
     1
102
RTVSPropertyOp31
 70
     1
102
RTVSPropertyOp32
 70
     1
  0
XRECORD
  5
886C
102
{ACAD_REACTORS
330
886B
102
}
330
886B
100
AcDbXrecord
280
     1
102
RTVSPropertyOp0
 70
     1
102
RTVSPropertyOp1
 70
     1
102
RTVSPropertyOp2
 70
     1
102
RTVSPropertyOp3
 70
     1
102
RTVSPropertyOp4
 70
     1
102
RTVSPropertyOp5
 70
     1
102
RTVSPropertyOp6
 70
     1
102
RTVSPropertyOp7
 70
     1
102
RTVSPropertyOp8
 70
     1
102
RTVSPropertyOp9
 70
     1
102
RTVSPropertyOp10
 70
     1
102
RTVSPropertyOp11
 70
     1
102
RTVSPropertyOp12
 70
     1
102
RTVSPropertyOp13
 70
     1
102
RTVSPropertyOp14
 70
     1
102
RTVSPropertyOp15
 70
     1
102
RTVSPropertyOp16
 70
     1
102
RTVSPropertyOp17
 70
     1
102
RTVSPropertyOp18
 70
     1
102
RTVSPropertyOp19
 70
     1
102
RTVSPropertyOp20
 70
     1
102
RTVSPropertyOp21
 70
     1
102
RTVSPropertyOp22
 70
     1
102
RTVSPropertyOp23
 70
     1
102
RTVSPropertyOp24
 70
     1
102
RTVSPropertyOp25
 70
     1
102
RTVSPropertyOp26
 70
     1
102
RTVSPropertyOp27
 70
     1
102
RTVSPropertyOp28
 70
     1
102
RTVSPropertyOp29
 70
     1
102
RTVSPropertyOp30
 70
     1
102
RTVSPropertyOp31
 70
     1
102
RTVSPropertyOp32
 70
     1
  0
XRECORD
  5
8874
102
{ACAD_REACTORS
330
8873
102
}
330
8873
100
AcDbXrecord
280
     1
102
RTVSPropertyOp0
 70
     1
102
RTVSPropertyOp1
 70
     1
102
RTVSPropertyOp2
 70
     1
102
RTVSPropertyOp3
 70
     1
102
RTVSPropertyOp4
 70
     1
102
RTVSPropertyOp5
 70
     1
102
RTVSPropertyOp6
 70
     1
102
RTVSPropertyOp7
 70
     1
102
RTVSPropertyOp8
 70
     1
102
RTVSPropertyOp9
 70
     1
102
RTVSPropertyOp10
 70
     1
102
RTVSPropertyOp11
 70
     1
102
RTVSPropertyOp12
 70
     1
102
RTVSPropertyOp13
 70
     1
102
RTVSPropertyOp14
 70
     1
102
RTVSPropertyOp15
 70
     1
102
RTVSPropertyOp16
 70
     1
102
RTVSPropertyOp17
 70
     1
102
RTVSPropertyOp18
 70
     1
102
RTVSPropertyOp19
 70
     1
102
RTVSPropertyOp20
 70
     1
102
RTVSPropertyOp21
 70
     1
102
RTVSPropertyOp22
 70
     1
102
RTVSPropertyOp23
 70
     1
102
RTVSPropertyOp24
 70
     1
102
RTVSPropertyOp25
 70
     1
102
RTVSPropertyOp26
 70
     1
102
RTVSPropertyOp27
 70
     1
102
RTVSPropertyOp28
 70
     1
102
RTVSPropertyOp29
 70
     1
102
RTVSPropertyOp30
 70
     1
102
RTVSPropertyOp31
 70
     1
102
RTVSPropertyOp32
 70
     1
  0
XRECORD
  5
8866
102
{ACAD_REACTORS
330
8865
102
}
330
8865
100
AcDbXrecord
280
     1
102
RTVSPropertyOp0
 70
     1
102
RTVSPropertyOp1
 70
     1
102
RTVSPropertyOp2
 70
     1
102
RTVSPropertyOp3
 70
     1
102
RTVSPropertyOp4
 70
     1
102
RTVSPropertyOp5
 70
     1
102
RTVSPropertyOp6
 70
     1
102
RTVSPropertyOp7
 70
     1
102
RTVSPropertyOp8
 70
     1
102
RTVSPropertyOp9
 70
     1
102
RTVSPropertyOp10
 70
     1
102
RTVSPropertyOp11
 70
     1
102
RTVSPropertyOp12
 70
     1
102
RTVSPropertyOp13
 70
     1
102
RTVSPropertyOp14
 70
     1
102
RTVSPropertyOp15
 70
     1
102
RTVSPropertyOp16
 70
     1
102
RTVSPropertyOp17
 70
     1
102
RTVSPropertyOp18
 70
     1
102
RTVSPropertyOp19
 70
     1
102
RTVSPropertyOp20
 70
     1
102
RTVSPropertyOp21
 70
     1
102
RTVSPropertyOp22
 70
     1
102
RTVSPropertyOp23
 70
     1
102
RTVSPropertyOp24
 70
     1
102
RTVSPropertyOp25
 70
     1
102
RTVSPropertyOp26
 70
     1
102
RTVSPropertyOp27
 70
     1
102
RTVSPropertyOp28
 70
     1
102
RTVSPropertyOp29
 70
     1
102
RTVSPropertyOp30
 70
     1
102
RTVSPropertyOp31
 70
     1
102
RTVSPropertyOp32
 70
     1
  0
XRECORD
  5
886A
102
{ACAD_REACTORS
330
8869
102
}
330
8869
100
AcDbXrecord
280
     1
102
RTVSPropertyOp0
 70
     1
102
RTVSPropertyOp1
 70
     1
102
RTVSPropertyOp2
 70
     1
102
RTVSPropertyOp3
 70
     1
102
RTVSPropertyOp4
 70
     1
102
RTVSPropertyOp5
 70
     1
102
RTVSPropertyOp6
 70
     1
102
RTVSPropertyOp7
 70
     1
102
RTVSPropertyOp8
 70
     1
102
RTVSPropertyOp9
 70
     1
102
RTVSPropertyOp10
 70
     1
102
RTVSPropertyOp11
 70
     1
102
RTVSPropertyOp12
 70
     1
102
RTVSPropertyOp13
 70
     1
102
RTVSPropertyOp14
 70
     1
102
RTVSPropertyOp15
 70
     1
102
RTVSPropertyOp16
 70
     1
102
RTVSPropertyOp17
 70
     1
102
RTVSPropertyOp18
 70
     1
102
RTVSPropertyOp19
 70
     1
102
RTVSPropertyOp20
 70
     1
102
RTVSPropertyOp21
 70
     1
102
RTVSPropertyOp22
 70
     1
102
RTVSPropertyOp23
 70
     1
102
RTVSPropertyOp24
 70
     1
102
RTVSPropertyOp25
 70
     1
102
RTVSPropertyOp26
 70
     1
102
RTVSPropertyOp27
 70
     1
102
RTVSPropertyOp28
 70
     1
102
RTVSPropertyOp29
 70
     1
102
RTVSPropertyOp30
 70
     1
102
RTVSPropertyOp31
 70
     1
102
RTVSPropertyOp32
 70
     1
  0
XRECORD
  5
8884
102
{ACAD_REACTORS
330
8883
102
}
330
8883
100
AcDbXrecord
280
     1
102
RTVSPropertyOp0
 70
     0
102
RTVSPropertyOp1
 70
     0
102
RTVSPropertyOp2
 70
     0
102
RTVSPropertyOp3
 70
     0
102
RTVSPropertyOp4
 70
     0
102
RTVSPropertyOp5
 70
     0
102
RTVSPropertyOp6
 70
     0
102
RTVSPropertyOp7
 70
     0
102
RTVSPropertyOp8
 70
     0
102
RTVSPropertyOp9
 70
     0
102
RTVSPropertyOp10
 70
     0
102
RTVSPropertyOp11
 70
     0
102
RTVSPropertyOp12
 70
     0
102
RTVSPropertyOp13
 70
     0
102
RTVSPropertyOp14
 70
     2
102
RTVSPropertyOp15
 70
     0
102
RTVSPropertyOp16
 70
     0
102
RTVSPropertyOp17
 70
     0
102
RTVSPropertyOp18
 70
     0
102
RTVSPropertyOp19
 70
     0
102
RTVSPropertyOp20
 70
     0
102
RTVSPropertyOp21
 70
     0
102
RTVSPropertyOp22
 70
     0
102
RTVSPropertyOp23
 70
     0
102
RTVSPropertyOp24
 70
     0
102
RTVSPropertyOp25
 70
     0
102
RTVSPropertyOp26
 70
     0
102
RTVSPropertyOp27
 70
     0
102
RTVSPropertyOp28
 70
     1
102
RTVSPropertyOp29
 70
     1
102
RTVSPropertyOp30
 70
     1
102
RTVSPropertyOp31
 70
     1
102
RTVSPropertyOp32
 70
     1
  0
XRECORD
  5
8872
102
{ACAD_REACTORS
330
8871
102
}
330
8871
100
AcDbXrecord
280
     1
102
RTVSPropertyOp0
 70
     1
102
RTVSPropertyOp1
 70
     1
102
RTVSPropertyOp2
 70
     1
102
RTVSPropertyOp3
 70
     1
102
RTVSPropertyOp4
 70
     1
102
RTVSPropertyOp5
 70
     1
102
RTVSPropertyOp6
 70
     1
102
RTVSPropertyOp7
 70
     1
102
RTVSPropertyOp8
 70
     1
102
RTVSPropertyOp9
 70
     1
102
RTVSPropertyOp10
 70
     1
102
RTVSPropertyOp11
 70
     1
102
RTVSPropertyOp12
 70
     1
102
RTVSPropertyOp13
 70
     1
102
RTVSPropertyOp14
 70
     1
102
RTVSPropertyOp15
 70
     1
102
RTVSPropertyOp16
 70
     1
102
RTVSPropertyOp17
 70
     1
102
RTVSPropertyOp18
 70
     1
102
RTVSPropertyOp19
 70
     1
102
RTVSPropertyOp20
 70
     1
102
RTVSPropertyOp21
 70
     1
102
RTVSPropertyOp22
 70
     1
102
RTVSPropertyOp23
 70
     1
102
RTVSPropertyOp24
 70
     1
102
RTVSPropertyOp25
 70
     1
102
RTVSPropertyOp26
 70
     1
102
RTVSPropertyOp27
 70
     1
102
RTVSPropertyOp28
 70
     1
102
RTVSPropertyOp29
 70
     1
102
RTVSPropertyOp30
 70
     1
102
RTVSPropertyOp31
 70
     1
102
RTVSPropertyOp32
 70
     1
  0
XRECORD
  5
8856
102
{ACAD_REACTORS
330
8855
102
}
330
8855
100
AcDbXrecord
280
     1
102
RTVSPropertyOp0
 70
     1
102
RTVSPropertyOp1
 70
     1
102
RTVSPropertyOp2
 70
     1
102
RTVSPropertyOp3
 70
     1
102
RTVSPropertyOp4
 70
     1
102
RTVSPropertyOp5
 70
     1
102
RTVSPropertyOp6
 70
     1
102
RTVSPropertyOp7
 70
     1
102
RTVSPropertyOp8
 70
     1
102
RTVSPropertyOp9
 70
     1
102
RTVSPropertyOp10
 70
     1
102
RTVSPropertyOp11
 70
     1
102
RTVSPropertyOp12
 70
     1
102
RTVSPropertyOp13
 70
     1
102
RTVSPropertyOp14
 70
     1
102
RTVSPropertyOp15
 70
     1
102
RTVSPropertyOp16
 70
     1
102
RTVSPropertyOp17
 70
     1
102
RTVSPropertyOp18
 70
     1
102
RTVSPropertyOp19
 70
     1
102
RTVSPropertyOp20
 70
     1
102
RTVSPropertyOp21
 70
     1
102
RTVSPropertyOp22
 70
     1
102
RTVSPropertyOp23
 70
     1
102
RTVSPropertyOp24
 70
     1
102
RTVSPropertyOp25
 70
     1
102
RTVSPropertyOp26
 70
     1
102
RTVSPropertyOp27
 70
     1
102
RTVSPropertyOp28
 70
     1
102
RTVSPropertyOp29
 70
     1
102
RTVSPropertyOp30
 70
     1
102
RTVSPropertyOp31
 70
     1
102
RTVSPropertyOp32
 70
     1
  0
XRECORD
  5
8858
102
{ACAD_REACTORS
330
8857
102
}
330
8857
100
AcDbXrecord
280
     1
102
RTVSPropertyOp0
 70
     1
102
RTVSPropertyOp1
 70
     1
102
RTVSPropertyOp2
 70
     1
102
RTVSPropertyOp3
 70
     1
102
RTVSPropertyOp4
 70
     1
102
RTVSPropertyOp5
 70
     1
102
RTVSPropertyOp6
 70
     1
102
RTVSPropertyOp7
 70
     1
102
RTVSPropertyOp8
 70
     1
102
RTVSPropertyOp9
 70
     1
102
RTVSPropertyOp10
 70
     1
102
RTVSPropertyOp11
 70
     1
102
RTVSPropertyOp12
 70
     1
102
RTVSPropertyOp13
 70
     1
102
RTVSPropertyOp14
 70
     1
102
RTVSPropertyOp15
 70
     1
102
RTVSPropertyOp16
 70
     1
102
RTVSPropertyOp17
 70
     1
102
RTVSPropertyOp18
 70
     1
102
RTVSPropertyOp19
 70
     1
102
RTVSPropertyOp20
 70
     1
102
RTVSPropertyOp21
 70
     1
102
RTVSPropertyOp22
 70
     1
102
RTVSPropertyOp23
 70
     1
102
RTVSPropertyOp24
 70
     1
102
RTVSPropertyOp25
 70
     1
102
RTVSPropertyOp26
 70
     1
102
RTVSPropertyOp27
 70
     1
102
RTVSPropertyOp28
 70
     1
102
RTVSPropertyOp29
 70
     1
102
RTVSPropertyOp30
 70
     1
102
RTVSPropertyOp31
 70
     1
102
RTVSPropertyOp32
 70
     1
  0
XRECORD
  5
885A
102
{ACAD_REACTORS
330
8859
102
}
330
8859
100
AcDbXrecord
280
     1
102
RTVSPropertyOp0
 70
     1
102
RTVSPropertyOp1
 70
     1
102
RTVSPropertyOp2
 70
     1
102
RTVSPropertyOp3
 70
     1
102
RTVSPropertyOp4
 70
     1
102
RTVSPropertyOp5
 70
     1
102
RTVSPropertyOp6
 70
     1
102
RTVSPropertyOp7
 70
     1
102
RTVSPropertyOp8
 70
     1
102
RTVSPropertyOp9
 70
     1
102
RTVSPropertyOp10
 70
     1
102
RTVSPropertyOp11
 70
     1
102
RTVSPropertyOp12
 70
     1
102
RTVSPropertyOp13
 70
     1
102
RTVSPropertyOp14
 70
     1
102
RTVSPropertyOp15
 70
     1
102
RTVSPropertyOp16
 70
     1
102
RTVSPropertyOp17
 70
     1
102
RTVSPropertyOp18
 70
     1
102
RTVSPropertyOp19
 70
     1
102
RTVSPropertyOp20
 70
     1
102
RTVSPropertyOp21
 70
     1
102
RTVSPropertyOp22
 70
     1
102
RTVSPropertyOp23
 70
     1
102
RTVSPropertyOp24
 70
     1
102
RTVSPropertyOp25
 70
     1
102
RTVSPropertyOp26
 70
     1
102
RTVSPropertyOp27
 70
     1
102
RTVSPropertyOp28
 70
     1
102
RTVSPropertyOp29
 70
     1
102
RTVSPropertyOp30
 70
     1
102
RTVSPropertyOp31
 70
     1
102
RTVSPropertyOp32
 70
     1
  0
XRECORD
  5
885C
102
{ACAD_REACTORS
330
885B
102
}
330
885B
100
AcDbXrecord
280
     1
102
RTVSPropertyOp0
 70
     1
102
RTVSPropertyOp1
 70
     1
102
RTVSPropertyOp2
 70
     1
102
RTVSPropertyOp3
 70
     1
102
RTVSPropertyOp4
 70
     1
102
RTVSPropertyOp5
 70
     1
102
RTVSPropertyOp6
 70
     1
102
RTVSPropertyOp7
 70
     1
102
RTVSPropertyOp8
 70
     1
102
RTVSPropertyOp9
 70
     1
102
RTVSPropertyOp10
 70
     1
102
RTVSPropertyOp11
 70
     1
102
RTVSPropertyOp12
 70
     1
102
RTVSPropertyOp13
 70
     1
102
RTVSPropertyOp14
 70
     1
102
RTVSPropertyOp15
 70
     1
102
RTVSPropertyOp16
 70
     1
102
RTVSPropertyOp17
 70
     1
102
RTVSPropertyOp18
 70
     1
102
RTVSPropertyOp19
 70
     1
102
RTVSPropertyOp20
 70
     1
102
RTVSPropertyOp21
 70
     1
102
RTVSPropertyOp22
 70
     1
102
RTVSPropertyOp23
 70
     1
102
RTVSPropertyOp24
 70
     1
102
RTVSPropertyOp25
 70
     1
102
RTVSPropertyOp26
 70
     1
102
RTVSPropertyOp27
 70
     1
102
RTVSPropertyOp28
 70
     1
102
RTVSPropertyOp29
 70
     1
102
RTVSPropertyOp30
 70
     1
102
RTVSPropertyOp31
 70
     1
102
RTVSPropertyOp32
 70
     1
  0
XRECORD
  5
8864
102
{ACAD_REACTORS
330
8863
102
}
330
8863
100
AcDbXrecord
280
     1
102
RTVSPropertyOp0
 70
     1
102
RTVSPropertyOp1
 70
     1
102
RTVSPropertyOp2
 70
     1
102
RTVSPropertyOp3
 70
     1
102
RTVSPropertyOp4
 70
     1
102
RTVSPropertyOp5
 70
     1
102
RTVSPropertyOp6
 70
     1
102
RTVSPropertyOp7
 70
     1
102
RTVSPropertyOp8
 70
     1
102
RTVSPropertyOp9
 70
     1
102
RTVSPropertyOp10
 70
     1
102
RTVSPropertyOp11
 70
     1
102
RTVSPropertyOp12
 70
     1
102
RTVSPropertyOp13
 70
     1
102
RTVSPropertyOp14
 70
     1
102
RTVSPropertyOp15
 70
     1
102
RTVSPropertyOp16
 70
     1
102
RTVSPropertyOp17
 70
     1
102
RTVSPropertyOp18
 70
     1
102
RTVSPropertyOp19
 70
     1
102
RTVSPropertyOp20
 70
     1
102
RTVSPropertyOp21
 70
     1
102
RTVSPropertyOp22
 70
     1
102
RTVSPropertyOp23
 70
     1
102
RTVSPropertyOp24
 70
     1
102
RTVSPropertyOp25
 70
     1
102
RTVSPropertyOp26
 70
     1
102
RTVSPropertyOp27
 70
     1
102
RTVSPropertyOp28
 70
     1
102
RTVSPropertyOp29
 70
     1
102
RTVSPropertyOp30
 70
     1
102
RTVSPropertyOp31
 70
     1
102
RTVSPropertyOp32
 70
     1
  0
XRECORD
  5
8880
102
{ACAD_REACTORS
330
887F
102
}
330
887F
100
AcDbXrecord
280
     1
102
RTVSPropertyOp0
 70
     0
102
RTVSPropertyOp1
 70
     0
102
RTVSPropertyOp2
 70
     0
102
RTVSPropertyOp3
 70
     0
102
RTVSPropertyOp4
 70
     0
102
RTVSPropertyOp5
 70
     0
102
RTVSPropertyOp6
 70
     0
102
RTVSPropertyOp7
 70
     0
102
RTVSPropertyOp8
 70
     0
102
RTVSPropertyOp9
 70
     0
102
RTVSPropertyOp10
 70
     0
102
RTVSPropertyOp11
 70
     0
102
RTVSPropertyOp12
 70
     0
102
RTVSPropertyOp13
 70
     0
102
RTVSPropertyOp14
 70
     2
102
RTVSPropertyOp15
 70
     0
102
RTVSPropertyOp16
 70
     0
102
RTVSPropertyOp17
 70
     0
102
RTVSPropertyOp18
 70
     0
102
RTVSPropertyOp19
 70
     0
102
RTVSPropertyOp20
 70
     0
102
RTVSPropertyOp21
 70
     0
102
RTVSPropertyOp22
 70
     0
102
RTVSPropertyOp23
 70
     0
102
RTVSPropertyOp24
 70
     0
102
RTVSPropertyOp25
 70
     0
102
RTVSPropertyOp26
 70
     0
102
RTVSPropertyOp27
 70
     0
102
RTVSPropertyOp28
 70
     1
102
RTVSPropertyOp29
 70
     1
102
RTVSPropertyOp30
 70
     1
102
RTVSPropertyOp31
 70
     1
102
RTVSPropertyOp32
 70
     1
  0
XRECORD
  5
8870
102
{ACAD_REACTORS
330
886F
102
}
330
886F
100
AcDbXrecord
280
     1
102
RTVSPropertyOp0
 70
     1
102
RTVSPropertyOp1
 70
     1
102
RTVSPropertyOp2
 70
     1
102
RTVSPropertyOp3
 70
     1
102
RTVSPropertyOp4
 70
     1
102
RTVSPropertyOp5
 70
     1
102
RTVSPropertyOp6
 70
     1
102
RTVSPropertyOp7
 70
     1
102
RTVSPropertyOp8
 70
     1
102
RTVSPropertyOp9
 70
     1
102
RTVSPropertyOp10
 70
     1
102
RTVSPropertyOp11
 70
     1
102
RTVSPropertyOp12
 70
     1
102
RTVSPropertyOp13
 70
     1
102
RTVSPropertyOp14
 70
     1
102
RTVSPropertyOp15
 70
     1
102
RTVSPropertyOp16
 70
     1
102
RTVSPropertyOp17
 70
     1
102
RTVSPropertyOp18
 70
     1
102
RTVSPropertyOp19
 70
     1
102
RTVSPropertyOp20
 70
     1
102
RTVSPropertyOp21
 70
     1
102
RTVSPropertyOp22
 70
     1
102
RTVSPropertyOp23
 70
     1
102
RTVSPropertyOp24
 70
     1
102
RTVSPropertyOp25
 70
     1
102
RTVSPropertyOp26
 70
     1
102
RTVSPropertyOp27
 70
     1
102
RTVSPropertyOp28
 70
     1
102
RTVSPropertyOp29
 70
     1
102
RTVSPropertyOp30
 70
     1
102
RTVSPropertyOp31
 70
     1
102
RTVSPropertyOp32
 70
     1
  0
XRECORD
  5
8882
102
{ACAD_REACTORS
330
8881
102
}
330
8881
100
AcDbXrecord
280
     1
102
RTVSPropertyOp0
 70
     0
102
RTVSPropertyOp1
 70
     0
102
RTVSPropertyOp2
 70
     0
102
RTVSPropertyOp3
 70
     0
102
RTVSPropertyOp4
 70
     0
102
RTVSPropertyOp5
 70
     0
102
RTVSPropertyOp6
 70
     0
102
RTVSPropertyOp7
 70
     0
102
RTVSPropertyOp8
 70
     0
102
RTVSPropertyOp9
 70
     0
102
RTVSPropertyOp10
 70
     0
102
RTVSPropertyOp11
 70
     0
102
RTVSPropertyOp12
 70
     0
102
RTVSPropertyOp13
 70
     0
102
RTVSPropertyOp14
 70
     2
102
RTVSPropertyOp15
 70
     0
102
RTVSPropertyOp16
 70
     0
102
RTVSPropertyOp17
 70
     0
102
RTVSPropertyOp18
 70
     0
102
RTVSPropertyOp19
 70
     0
102
RTVSPropertyOp20
 70
     0
102
RTVSPropertyOp21
 70
     0
102
RTVSPropertyOp22
 70
     0
102
RTVSPropertyOp23
 70
     0
102
RTVSPropertyOp24
 70
     0
102
RTVSPropertyOp25
 70
     0
102
RTVSPropertyOp26
 70
     0
102
RTVSPropertyOp27
 70
     0
102
RTVSPropertyOp28
 70
     1
102
RTVSPropertyOp29
 70
     1
102
RTVSPropertyOp30
 70
     1
102
RTVSPropertyOp31
 70
     1
102
RTVSPropertyOp32
 70
     1
  0
XRECORD
  5
8868
102
{ACAD_REACTORS
330
8867
102
}
330
8867
100
AcDbXrecord
280
     1
102
RTVSPropertyOp0
 70
     1
102
RTVSPropertyOp1
 70
     1
102
RTVSPropertyOp2
 70
     1
102
RTVSPropertyOp3
 70
     1
102
RTVSPropertyOp4
 70
     1
102
RTVSPropertyOp5
 70
     1
102
RTVSPropertyOp6
 70
     1
102
RTVSPropertyOp7
 70
     1
102
RTVSPropertyOp8
 70
     1
102
RTVSPropertyOp9
 70
     1
102
RTVSPropertyOp10
 70
     1
102
RTVSPropertyOp11
 70
     1
102
RTVSPropertyOp12
 70
     1
102
RTVSPropertyOp13
 70
     1
102
RTVSPropertyOp14
 70
     1
102
RTVSPropertyOp15
 70
     1
102
RTVSPropertyOp16
 70
     1
102
RTVSPropertyOp17
 70
     1
102
RTVSPropertyOp18
 70
     1
102
RTVSPropertyOp19
 70
     1
102
RTVSPropertyOp20
 70
     1
102
RTVSPropertyOp21
 70
     1
102
RTVSPropertyOp22
 70
     1
102
RTVSPropertyOp23
 70
     1
102
RTVSPropertyOp24
 70
     1
102
RTVSPropertyOp25
 70
     1
102
RTVSPropertyOp26
 70
     1
102
RTVSPropertyOp27
 70
     1
102
RTVSPropertyOp28
 70
     1
102
RTVSPropertyOp29
 70
     1
102
RTVSPropertyOp30
 70
     1
102
RTVSPropertyOp31
 70
     1
102
RTVSPropertyOp32
 70
     1
  0
XRECORD
  5
887E
102
{ACAD_REACTORS
330
887D
102
}
330
887D
100
AcDbXrecord
280
     1
102
RTVSPropertyOp0
 70
     1
102
RTVSPropertyOp1
 70
     1
102
RTVSPropertyOp2
 70
     1
102
RTVSPropertyOp3
 70
     1
102
RTVSPropertyOp4
 70
     1
102
RTVSPropertyOp5
 70
     1
102
RTVSPropertyOp6
 70
     1
102
RTVSPropertyOp7
 70
     1
102
RTVSPropertyOp8
 70
     1
102
RTVSPropertyOp9
 70
     1
102
RTVSPropertyOp10
 70
     1
102
RTVSPropertyOp11
 70
     1
102
RTVSPropertyOp12
 70
     1
102
RTVSPropertyOp13
 70
     1
102
RTVSPropertyOp14
 70
     1
102
RTVSPropertyOp15
 70
     1
102
RTVSPropertyOp16
 70
     1
102
RTVSPropertyOp17
 70
     1
102
RTVSPropertyOp18
 70
     1
102
RTVSPropertyOp19
 70
     1
102
RTVSPropertyOp20
 70
     1
102
RTVSPropertyOp21
 70
     1
102
RTVSPropertyOp22
 70
     1
102
RTVSPropertyOp23
 70
     1
102
RTVSPropertyOp24
 70
     1
102
RTVSPropertyOp25
 70
     1
102
RTVSPropertyOp26
 70
     1
102
RTVSPropertyOp27
 70
     1
102
RTVSPropertyOp28
 70
     1
102
RTVSPropertyOp29
 70
     1
102
RTVSPropertyOp30
 70
     1
102
RTVSPropertyOp31
 70
     1
102
RTVSPropertyOp32
 70
     1
  0
XRECORD
  5
887C
102
{ACAD_REACTORS
330
887B
102
}
330
887B
100
AcDbXrecord
280
     1
102
RTVSPropertyOp0
 70
     1
102
RTVSPropertyOp1
 70
     1
102
RTVSPropertyOp2
 70
     1
102
RTVSPropertyOp3
 70
     1
102
RTVSPropertyOp4
 70
     1
102
RTVSPropertyOp5
 70
     1
102
RTVSPropertyOp6
 70
     1
102
RTVSPropertyOp7
 70
     1
102
RTVSPropertyOp8
 70
     1
102
RTVSPropertyOp9
 70
     1
102
RTVSPropertyOp10
 70
     1
102
RTVSPropertyOp11
 70
     1
102
RTVSPropertyOp12
 70
     1
102
RTVSPropertyOp13
 70
     1
102
RTVSPropertyOp14
 70
     1
102
RTVSPropertyOp15
 70
     1
102
RTVSPropertyOp16
 70
     1
102
RTVSPropertyOp17
 70
     1
102
RTVSPropertyOp18
 70
     1
102
RTVSPropertyOp19
 70
     1
102
RTVSPropertyOp20
 70
     1
102
RTVSPropertyOp21
 70
     1
102
RTVSPropertyOp22
 70
     1
102
RTVSPropertyOp23
 70
     1
102
RTVSPropertyOp24
 70
     1
102
RTVSPropertyOp25
 70
     1
102
RTVSPropertyOp26
 70
     1
102
RTVSPropertyOp27
 70
     1
102
RTVSPropertyOp28
 70
     1
102
RTVSPropertyOp29
 70
     1
102
RTVSPropertyOp30
 70
     1
102
RTVSPropertyOp31
 70
     1
102
RTVSPropertyOp32
 70
     1
  0
XRECORD
  5
8876
102
{ACAD_REACTORS
330
8875
102
}
330
8875
100
AcDbXrecord
280
     1
102
RTVSPropertyOp0
 70
     1
102
RTVSPropertyOp1
 70
     1
102
RTVSPropertyOp2
 70
     1
102
RTVSPropertyOp3
 70
     1
102
RTVSPropertyOp4
 70
     1
102
RTVSPropertyOp5
 70
     1
102
RTVSPropertyOp6
 70
     1
102
RTVSPropertyOp7
 70
     1
102
RTVSPropertyOp8
 70
     1
102
RTVSPropertyOp9
 70
     1
102
RTVSPropertyOp10
 70
     1
102
RTVSPropertyOp11
 70
     1
102
RTVSPropertyOp12
 70
     1
102
RTVSPropertyOp13
 70
     1
102
RTVSPropertyOp14
 70
     1
102
RTVSPropertyOp15
 70
     1
102
RTVSPropertyOp16
 70
     1
102
RTVSPropertyOp17
 70
     1
102
RTVSPropertyOp18
 70
     1
102
RTVSPropertyOp19
 70
     1
102
RTVSPropertyOp20
 70
     1
102
RTVSPropertyOp21
 70
     1
102
RTVSPropertyOp22
 70
     1
102
RTVSPropertyOp23
 70
     1
102
RTVSPropertyOp24
 70
     1
102
RTVSPropertyOp25
 70
     1
102
RTVSPropertyOp26
 70
     1
102
RTVSPropertyOp27
 70
     1
102
RTVSPropertyOp28
 70
     1
102
RTVSPropertyOp29
 70
     1
102
RTVSPropertyOp30
 70
     1
102
RTVSPropertyOp31
 70
     1
102
RTVSPropertyOp32
 70
     1
  0
XRECORD
  5
8878
102
{ACAD_REACTORS
330
8877
102
}
330
8877
100
AcDbXrecord
280
     1
102
RTVSPropertyOp0
 70
     1
102
RTVSPropertyOp1
 70
     1
102
RTVSPropertyOp2
 70
     1
102
RTVSPropertyOp3
 70
     1
102
RTVSPropertyOp4
 70
     1
102
RTVSPropertyOp5
 70
     1
102
RTVSPropertyOp6
 70
     1
102
RTVSPropertyOp7
 70
     1
102
RTVSPropertyOp8
 70
     1
102
RTVSPropertyOp9
 70
     1
102
RTVSPropertyOp10
 70
     1
102
RTVSPropertyOp11
 70
     1
102
RTVSPropertyOp12
 70
     1
102
RTVSPropertyOp13
 70
     1
102
RTVSPropertyOp14
 70
     1
102
RTVSPropertyOp15
 70
     1
102
RTVSPropertyOp16
 70
     1
102
RTVSPropertyOp17
 70
     1
102
RTVSPropertyOp18
 70
     1
102
RTVSPropertyOp19
 70
     1
102
RTVSPropertyOp20
 70
     1
102
RTVSPropertyOp21
 70
     1
102
RTVSPropertyOp22
 70
     1
102
RTVSPropertyOp23
 70
     1
102
RTVSPropertyOp24
 70
     1
102
RTVSPropertyOp25
 70
     1
102
RTVSPropertyOp26
 70
     1
102
RTVSPropertyOp27
 70
     1
102
RTVSPropertyOp28
 70
     1
102
RTVSPropertyOp29
 70
     1
102
RTVSPropertyOp30
 70
     1
102
RTVSPropertyOp31
 70
     1
102
RTVSPropertyOp32
 70
     1
  0
XRECORD
  5
886E
102
{ACAD_REACTORS
330
886D
102
}
330
886D
100
AcDbXrecord
280
     1
102
RTVSPropertyOp0
 70
     1
102
RTVSPropertyOp1
 70
     1
102
RTVSPropertyOp2
 70
     1
102
RTVSPropertyOp3
 70
     1
102
RTVSPropertyOp4
 70
     1
102
RTVSPropertyOp5
 70
     1
102
RTVSPropertyOp6
 70
     1
102
RTVSPropertyOp7
 70
     1
102
RTVSPropertyOp8
 70
     1
102
RTVSPropertyOp9
 70
     1
102
RTVSPropertyOp10
 70
     1
102
RTVSPropertyOp11
 70
     1
102
RTVSPropertyOp12
 70
     1
102
RTVSPropertyOp13
 70
     1
102
RTVSPropertyOp14
 70
     1
102
RTVSPropertyOp15
 70
     1
102
RTVSPropertyOp16
 70
     1
102
RTVSPropertyOp17
 70
     1
102
RTVSPropertyOp18
 70
     1
102
RTVSPropertyOp19
 70
     1
102
RTVSPropertyOp20
 70
     1
102
RTVSPropertyOp21
 70
     1
102
RTVSPropertyOp22
 70
     1
102
RTVSPropertyOp23
 70
     1
102
RTVSPropertyOp24
 70
     1
102
RTVSPropertyOp25
 70
     1
102
RTVSPropertyOp26
 70
     1
102
RTVSPropertyOp27
 70
     1
102
RTVSPropertyOp28
 70
     1
102
RTVSPropertyOp29
 70
     1
102
RTVSPropertyOp30
 70
     1
102
RTVSPropertyOp31
 70
     1
102
RTVSPropertyOp32
 70
     1
  0
XRECORD
  5
8862
102
{ACAD_REACTORS
330
8861
102
}
330
8861
100
AcDbXrecord
280
     1
102
RTVSPropertyOp0
 70
     1
102
RTVSPropertyOp1
 70
     1
102
RTVSPropertyOp2
 70
     1
102
RTVSPropertyOp3
 70
     1
102
RTVSPropertyOp4
 70
     1
102
RTVSPropertyOp5
 70
     1
102
RTVSPropertyOp6
 70
     1
102
RTVSPropertyOp7
 70
     1
102
RTVSPropertyOp8
 70
     1
102
RTVSPropertyOp9
 70
     1
102
RTVSPropertyOp10
 70
     1
102
RTVSPropertyOp11
 70
     1
102
RTVSPropertyOp12
 70
     1
102
RTVSPropertyOp13
 70
     1
102
RTVSPropertyOp14
 70
     1
102
RTVSPropertyOp15
 70
     1
102
RTVSPropertyOp16
 70
     1
102
RTVSPropertyOp17
 70
     1
102
RTVSPropertyOp18
 70
     1
102
RTVSPropertyOp19
 70
     1
102
RTVSPropertyOp20
 70
     1
102
RTVSPropertyOp21
 70
     1
102
RTVSPropertyOp22
 70
     1
102
RTVSPropertyOp23
 70
     1
102
RTVSPropertyOp24
 70
     1
102
RTVSPropertyOp25
 70
     1
102
RTVSPropertyOp26
 70
     1
102
RTVSPropertyOp27
 70
     1
102
RTVSPropertyOp28
 70
     1
102
RTVSPropertyOp29
 70
     1
102
RTVSPropertyOp30
 70
     1
102
RTVSPropertyOp31
 70
     1
102
RTVSPropertyOp32
 70
     1
  0
XRECORD
  5
887A
102
{ACAD_REACTORS
330
8879
102
}
330
8879
100
AcDbXrecord
280
     1
102
RTVSPropertyOp0
 70
     1
102
RTVSPropertyOp1
 70
     1
102
RTVSPropertyOp2
 70
     1
102
RTVSPropertyOp3
 70
     1
102
RTVSPropertyOp4
 70
     1
102
RTVSPropertyOp5
 70
     1
102
RTVSPropertyOp6
 70
     1
102
RTVSPropertyOp7
 70
     1
102
RTVSPropertyOp8
 70
     1
102
RTVSPropertyOp9
 70
     1
102
RTVSPropertyOp10
 70
     1
102
RTVSPropertyOp11
 70
     1
102
RTVSPropertyOp12
 70
     1
102
RTVSPropertyOp13
 70
     1
102
RTVSPropertyOp14
 70
     1
102
RTVSPropertyOp15
 70
     1
102
RTVSPropertyOp16
 70
     1
102
RTVSPropertyOp17
 70
     1
102
RTVSPropertyOp18
 70
     1
102
RTVSPropertyOp19
 70
     1
102
RTVSPropertyOp20
 70
     1
102
RTVSPropertyOp21
 70
     1
102
RTVSPropertyOp22
 70
     1
102
RTVSPropertyOp23
 70
     1
102
RTVSPropertyOp24
 70
     1
102
RTVSPropertyOp25
 70
     1
102
RTVSPropertyOp26
 70
     1
102
RTVSPropertyOp27
 70
     1
102
RTVSPropertyOp28
 70
     1
102
RTVSPropertyOp29
 70
     1
102
RTVSPropertyOp30
 70
     1
102
RTVSPropertyOp31
 70
     1
102
RTVSPropertyOp32
 70
     1
  0
ENDSEC
  0
EOF
