  0
SECTION
  2
HEADER
  9
$ACADVER
  1
AC1015
  9
$ACADMAINTVER
 70
    20
  9
$DWGCODEPAGE
  3
ANSI_1252
  9
$INSBASE
 10
0.0
 20
0.0
 30
0.0
  9
$EXTMIN
 10
0.0
 20
0.0
 30
0.0
  9
$EXTMAX
 10
67.85899319401801
 20
42.16016963571056
 30
0.0
  9
$LIMMIN
 10
0.0
 20
0.0
  9
$LIMMAX
 10
12.0
 20
9.0
  9
$ORTHOMODE
 70
     0
  9
$REGENMODE
 70
     1
  9
$FILLMODE
 70
     1
  9
$QTEXTMODE
 70
     0
  9
$MIRRTEXT
 70
     1
  9
$LTSCALE
 40
0.5
  9
$ATTMODE
 70
     1
  9
$TEXTSIZE
 40
0.25
  9
$TRACEWID
 40
0.05
  9
$TEXTSTYLE
  7
STANDARD
  9
$CLAYER
  8
0
  9
$CELTYPE
  6
BYLAYER
  9
$CECOLOR
 62
   256
  9
$CELTSCALE
 40
1.0
  9
$DISPSILH
 70
     0
  9
$DIMSCALE
 40
1.0
  9
$DIMASZ
 40
0.2
  9
$DIMEXO
 40
0.125
  9
$DIMDLI
 40
0.375
  9
$DIMRND
 40
0.0
  9
$DIMDLE
 40
0.0
  9
$DIMEXE
 40
0.125
  9
$DIMTP
 40
0.0
  9
$DIMTM
 40
0.0
  9
$DIMTXT
 40
0.25
  9
$DIMCEN
 40
0.0
  9
$DIMTSZ
 40
0.0
  9
$DIMTOL
 70
     0
  9
$DIMLIM
 70
     0
  9
$DIMTIH
 70
     0
  9
$DIMTOH
 70
     0
  9
$DIMSE1
 70
     0
  9
$DIMSE2
 70
     0
  9
$DIMTAD
 70
     1
  9
$DIMZIN
 70
     3
  9
$DIMBLK
  1

  9
$DIMASO
 70
     1
  9
$DIMSHO
 70
     1
  9
$DIMPOST
  1

  9
$DIMAPOST
  1

  9
$DIMALT
 70
     0
  9
$DIMALTD
 70
     2
  9
$DIMALTF
 40
25.4
  9
$DIMLFAC
 40
1.0
  9
$DIMTOFL
 70
     0
  9
$DIMTVP
 40
0.0
  9
$DIMTIX
 70
     0
  9
$DIMSOXD
 70
     0
  9
$DIMSAH
 70
     0
  9
$DIMBLK1
  1

  9
$DIMBLK2
  1

  9
$DIMSTYLE
  2
STANDARD
  9
$DIMCLRD
 70
     0
  9
$DIMCLRE
 70
     0
  9
$DIMCLRT
 70
     0
  9
$DIMTFAC
 40
1.0
  9
$DIMGAP
 40
0.125
  9
$DIMJUST
 70
     0
  9
$DIMSD1
 70
     0
  9
$DIMSD2
 70
     0
  9
$DIMTOLJ
 70
     1
  9
$DIMTZIN
 70
     3
  9
$DIMALTZ
 70
     3
  9
$DIMALTTZ
 70
     3
  9
$DIMUPT
 70
     0
  9
$DIMDEC
 70
     5
  9
$DIMTDEC
 70
     5
  9
$DIMALTU
 70
     4
  9
$DIMALTTD
 70
     2
  9
$DIMTXSTY
  7
STANDARD
  9
$DIMAUNIT
 70
     0
  9
$DIMADEC
 70
     0
  9
$DIMALTRND
 40
0.0
  9
$DIMAZIN
 70
     0
  9
$DIMDSEP
 70
    46
  9
$DIMATFIT
 70
     0
  9
$DIMFRAC
 70
     2
  9
$DIMLDRBLK
  1

  9
$DIMLUNIT
 70
     4
  9
$DIMLWD
 70
    -2
  9
$DIMLWE
 70
    -2
  9
$DIMTMOVE
 70
     0
  9
$LUNITS
 70
     2
  9
$LUPREC
 70
     5
  9
$SKETCHINC
 40
0.1
  9
$FILLETRAD
 40
0.0
  9
$AUNITS
 70
     0
  9
$AUPREC
 70
     0
  9
$MENU
  1
ACAD
  9
$ELEVATION
 40
0.0
  9
$PELEVATION
 40
0.0
  9
$THICKNESS
 40
0.0
  9
$LIMCHECK
 70
     0
  9
$CHAMFERA
 40
0.0
  9
$CHAMFERB
 40
0.0
  9
$CHAMFERC
 40
0.0
  9
$CHAMFERD
 40
0.0
  9
$SKPOLY
 70
     0
  9
$TDCREATE
 40
2450777.537570949
  9
$TDUCREATE
 40
2450777.745904282
  9
$TDUPDATE
 40
2457807.531090810
  9
$TDUUPDATE
 40
2457807.739424143
  9
$TDINDWG
 40
0.8042087500
  9
$TDUSRTIMER
 40
0.8042087500
  9
$USRTIMER
 70
     1
  9
$ANGBASE
 50
0.0
  9
$ANGDIR
 70
     0
  9
$PDMODE
 70
     0
  9
$PDSIZE
 40
0.0
  9
$PLINEWID
 40
0.0
  9
$SPLFRAME
 70
     0
  9
$SPLINETYPE
 70
     6
  9
$SPLINESEGS
 70
     8
  9
$HANDSEED
  5
8B2B
  9
$SURFTAB1
 70
     6
  9
$SURFTAB2
 70
     6
  9
$SURFTYPE
 70
     6
  9
$SURFU
 70
     6
  9
$SURFV
 70
     6
  9
$UCSBASE
  2

  9
$UCSNAME
  2

  9
$UCSORG
 10
0.0
 20
0.0
 30
0.0
  9
$UCSXDIR
 10
1.0
 20
0.0
 30
0.0
  9
$UCSYDIR
 10
0.0
 20
1.0
 30
0.0
  9
$UCSORTHOREF
  2

  9
$UCSORTHOVIEW
 70
     0
  9
$UCSORGTOP
 10
0.0
 20
0.0
 30
0.0
  9
$UCSORGBOTTOM
 10
0.0
 20
0.0
 30
0.0
  9
$UCSORGLEFT
 10
0.0
 20
0.0
 30
0.0
  9
$UCSORGRIGHT
 10
0.0
 20
0.0
 30
0.0
  9
$UCSORGFRONT
 10
0.0
 20
0.0
 30
0.0
  9
$UCSORGBACK
 10
0.0
 20
0.0
 30
0.0
  9
$PUCSBASE
  2

  9
$PUCSNAME
  2

  9
$PUCSORG
 10
0.0
 20
0.0
 30
0.0
  9
$PUCSXDIR
 10
1.0
 20
0.0
 30
0.0
  9
$PUCSYDIR
 10
0.0
 20
1.0
 30
0.0
  9
$PUCSORTHOREF
  2

  9
$PUCSORTHOVIEW
 70
     0
  9
$PUCSORGTOP
 10
0.0
 20
0.0
 30
0.0
  9
$PUCSORGBOTTOM
 10
0.0
 20
0.0
 30
0.0
  9
$PUCSORGLEFT
 10
0.0
 20
0.0
 30
0.0
  9
$PUCSORGRIGHT
 10
0.0
 20
0.0
 30
0.0
  9
$PUCSORGFRONT
 10
0.0
 20
0.0
 30
0.0
  9
$PUCSORGBACK
 10
0.0
 20
0.0
 30
0.0
  9
$USERI1
 70
     0
  9
$USERI2
 70
     0
  9
$USERI3
 70
     0
  9
$USERI4
 70
     0
  9
$USERI5
 70
     0
  9
$USERR1
 40
0.0
  9
$USERR2
 40
0.0
  9
$USERR3
 40
0.0
  9
$USERR4
 40
0.0
  9
$USERR5
 40
0.0
  9
$WORLDVIEW
 70
     1
  9
$SHADEDGE
 70
     3
  9
$SHADEDIF
 70
    70
  9
$TILEMODE
 70
     1
  9
$MAXACTVP
 70
    16
  9
$PINSBASE
 10
0.0
 20
0.0
 30
0.0
  9
$PLIMCHECK
 70
     0
  9
$PEXTMIN
 10
1.000000000000000E+20
 20
1.000000000000000E+20
 30
1.000000000000000E+20
  9
$PEXTMAX
 10
-1.000000000000000E+20
 20
-1.000000000000000E+20
 30
-1.000000000000000E+20
  9
$PLIMMIN
 10
0.0
 20
0.0
  9
$PLIMMAX
 10
12.0
 20
9.0
  9
$UNITMODE
 70
     0
  9
$VISRETAIN
 70
     0
  9
$PLINEGEN
 70
     0
  9
$PSLTSCALE
 70
     1
  9
$TREEDEPTH
 70
  3020
  9
$CMLSTYLE
  2
STANDARD
  9
$CMLJUST
 70
     0
  9
$CMLSCALE
 40
1.0
  9
$PROXYGRAPHICS
 70
     1
  9
$MEASUREMENT
 70
     0
  9
$CELWEIGHT
370
    -1
  9
$ENDCAPS
280
     0
  9
$JOINSTYLE
280
     0
  9
$LWDISPLAY
290
     0
  9
$INSUNITS
 70
     0
  9
$HYPERLINKBASE
  1

  9
$STYLESHEET
  1
monochrome.ctb
  9
$XEDIT
290
     1
  9
$CEPSNTYPE
380
     0
  9
$PSTYLEMODE
290
     1
  9
$FINGERPRINTGUID
  2
{AFB9463B-F323-4607-850C-DC68DBB64F67}
  9
$VERSIONGUID
  2
{1A45EA39-59D5-4309-91EA-700212D8C0AC}
  9
$EXTNAMES
290
     1
  9
$PSVPSCALE
 40
0.0
  9
$OLESTARTUP
290
     0
  0
ENDSEC
  0
SECTION
  2
CLASSES
  0
CLASS
  1
DICTIONARYVAR
  2
AcDbDictionaryVar
  3
ObjectDBX Classes
 90
        0
280
     0
281
     0
  0
CLASS
  1
ACDBDICTIONARYWDFLT
  2
AcDbDictionaryWithDefault
  3
ObjectDBX Classes
 90
        0
280
     0
281
     0
  0
CLASS
  1
ACDBPLACEHOLDER
  2
AcDbPlaceHolder
  3
ObjectDBX Classes
 90
        0
280
     0
281
     0
  0
CLASS
  1
LAYOUT
  2
AcDbLayout
  3
ObjectDBX Classes
 90
        0
280
     0
281
     0
  0
CLASS
  1
MATERIAL
  2
AcDbMaterial
  3
ObjectDBX Classes
 90
     1153
280
     0
281
     0
  0
CLASS
  1
VISUALSTYLE
  2
AcDbVisualStyle
  3
ObjectDBX Classes
 90
     4095
280
     0
281
     0
  0
CLASS
  1
TABLESTYLE
  2
AcDbTableStyle
  3
ObjectDBX Classes
 90
     4095
280
     0
281
     0
  0
CLASS
  1
SCALE
  2
AcDbScale
  3
ObjectDBX Classes
 90
     1153
280
     0
281
     0
  0
CLASS
  1
MLEADERSTYLE
  2
AcDbMLeaderStyle
  3
ACDB_MLEADERSTYLE_CLASS
 90
     4095
280
     0
281
     0
  0
CLASS
  1
SORTENTSTABLE
  2
AcDbSortentsTable
  3
ObjectDBX Classes
 90
        0
280
     0
281
     0
  0
CLASS
  1
CELLSTYLEMAP
  2
AcDbCellStyleMap
  3
ObjectDBX Classes
 90
     1152
280
     0
281
     0
  0
CLASS
  1
EXACXREFPANELOBJECT
  2
ExAcXREFPanelObject
  3
EXAC_ESW
 90
     1025
280
     0
281
     0
  0
CLASS
  1
NPOCOLLECTION
  2
AcDbImpNonPersistentObjectsCollection
  3
ObjectDBX Classes
 90
     1153
280
     0
281
     0
  0
CLASS
  1
FIELD
  2
AcDbField
  3
ObjectDBX Classes
 90
    33920
280
     0
281
     0
  0
CLASS
  1
FIELDLIST
  2
AcDbFieldList
  3
ObjectDBX Classes
 90
     1152
280
     0
281
     0
  0
ENDSEC
  0
SECTION
  2
TABLES
  0
TABLE
  2
VPORT
  5
8
102
{ACAD_XDICTIONARY
360
811F
102
}
330
0
100
AcDbSymbolTable
 70
     1
  0
VPORT
  5
8069
330
8
100
AcDbSymbolTableRecord
100
AcDbViewportTableRecord
  2
*Active
 70
     0
 10
0.0
 20
0.0
 11
1.0
 21
1.0
 12
47.16868200070761
 22
21.08008501418487
 13
0.0
 23
0.0
 14
1.0
 24
1.0
 15
0.0
 25
0.0
 16
0.0
 26
0.0
 36
1.0
 17
0.0
 27
0.0
 37
0.0
 40
42.54859081095035
 41
2.681260945709281
 42
50.0
 43
0.0
 44
0.0
 50
0.0
 51
0.0
 71
     0
 72
  2000
 73
     1
 74
     0
 75
     0
 76
     0
 77
     0
 78
     0
281
     0
 65
     1
110
0.0
120
0.0
130
0.0
111
1.0
121
0.0
131
0.0
112
0.0
122
1.0
132
0.0
 79
     0
146
0.0
1001
ACAD_NAV_VCDISPLAY
1070
     3
  0
ENDTAB
  0
TABLE
  2
LTYPE
  5
5
330
0
100
AcDbSymbolTable
 70
     4
  0
LTYPE
  5
11
330
5
100
AcDbSymbolTableRecord
100
AcDbLinetypeTableRecord
  2
BYBLOCK
 70
     0
  3

 72
    65
 73
     0
 40
0.0
  0
LTYPE
  5
12
330
5
100
AcDbSymbolTableRecord
100
AcDbLinetypeTableRecord
  2
BYLAYER
 70
     0
  3

 72
    65
 73
     0
 40
0.0
  0
LTYPE
  5
13
330
5
100
AcDbSymbolTableRecord
100
AcDbLinetypeTableRecord
  2
CONTINUOUS
 70
     0
  3
Solid line
 72
    65
 73
     0
 40
0.0
  0
LTYPE
  5
659A
330
5
100
AcDbSymbolTableRecord
100
AcDbLinetypeTableRecord
  2
CENTER
 70
     0
  3
____ _ ____ _ ____ _ ____ _ ____ _ ____ _ ____ 
 72
    65
 73
     4
 40
2.0
 49
1.25
 74
     0
 49
-0.25
 74
     0
 49
0.25
 74
     0
 49
-0.25
 74
     0
  0
LTYPE
  5
8A3A
330
5
100
AcDbSymbolTableRecord
100
AcDbLinetypeTableRecord
  2
DASHED
 70
     0
  3
Dashed __ __ __ __ __ __ __ __ __ __ __ __ __ _
 72
    65
 73
     2
 40
0.75
 49
0.5
 74
     0
 49
-0.25
 74
     0
  0
LTYPE
  5
8A3B
330
5
100
AcDbSymbolTableRecord
100
AcDbLinetypeTableRecord
  2
DOT
 70
     0
  3
Dot . . . . . . . . . . . . . . . . . . . . . .
 72
    65
 73
     2
 40
0.25
 49
0.0
 74
     0
 49
-0.25
 74
     0
  0
ENDTAB
  0
TABLE
  2
LAYER
  5
2
102
{ACAD_XDICTIONARY
360
80FE
102
}
330
0
100
AcDbSymbolTable
 70
     9
  0
LAYER
  5
E
102
{ACAD_XDICTIONARY
360
810E
102
}
330
2
100
AcDbSymbolTableRecord
100
AcDbLayerTableRecord
  2
0
 70
     0
 62
     7
  6
CONTINUOUS
370
    -3
390
485B
  0
LAYER
  5
65A3
102
{ACAD_XDICTIONARY
360
8110
102
}
330
2
100
AcDbSymbolTableRecord
100
AcDbLayerTableRecord
  2
R-SWTS-DET1
 70
     0
 62
     1
  6
CONTINUOUS
370
    -3
390
485B
  0
LAYER
  5
65A4
102
{ACAD_XDICTIONARY
360
8112
102
}
330
2
100
AcDbSymbolTableRecord
100
AcDbLayerTableRecord
  2
PART_NUMBERS
 70
     0
 62
     6
  6
CONTINUOUS
370
    -3
390
485B
  0
LAYER
  5
65A5
102
{ACAD_XDICTIONARY
360
8114
102
}
330
2
100
AcDbSymbolTableRecord
100
AcDbLayerTableRecord
  2
R-ANNO-DIMS
 70
     0
 62
     3
  6
CONTINUOUS
370
    -3
390
485B
  0
LAYER
  5
65A6
102
{ACAD_XDICTIONARY
360
8116
102
}
330
2
100
AcDbSymbolTableRecord
100
AcDbLayerTableRecord
  2
R-SWTS-DET2
 70
     0
 62
     4
  6
CONTINUOUS
370
    -3
390
485B
  0
LAYER
  5
65A7
102
{ACAD_XDICTIONARY
360
8118
102
}
330
2
100
AcDbSymbolTableRecord
100
AcDbLayerTableRecord
  2
R-SWTS-DET3
 70
     0
 62
     5
  6
CONTINUOUS
370
    -3
390
485B
  0
LAYER
  5
6BFE
330
2
100
AcDbSymbolTableRecord
100
AcDbLayerTableRecord
  2
DEFPOINTS
 70
     0
 62
     7
  6
CONTINUOUS
290
     0
370
    -3
390
485B
  0
LAYER
  5
8178
102
{ACAD_XDICTIONARY
360
8179
102
}
330
2
100
AcDbSymbolTableRecord
100
AcDbLayerTableRecord
  2
TEXT
 70
     0
 62
     3
  6
CONTINUOUS
370
    -3
390
485B
  0
LAYER
  5
8A3C
330
2
100
AcDbSymbolTableRecord
100
AcDbLayerTableRecord
  2
Kawneer Logo-English
 70
     0
 62
     7
  6
CONTINUOUS
370
    -3
390
485B
1001
AcAecLayerStandard
1000

1000

1001
AcCmTransparency
1071
        0
  0
ENDTAB
  0
TABLE
  2
STYLE
  5
3
330
0
100
AcDbSymbolTable
 70
     1
  0
STYLE
  5
F
330
3
100
AcDbSymbolTableRecord
100
AcDbTextStyleTableRecord
  2
STANDARD
 70
     0
 40
0.0
 41
1.0
 50
0.0
 71
     0
 42
0.25
  3
arial.ttf
  4

1001
ACAD
1000
Arial
1071
       34
  0
ENDTAB
  0
TABLE
  2
VIEW
  5
6
330
0
100
AcDbSymbolTable
 70
     0
  0
ENDTAB
  0
TABLE
  2
UCS
  5
7
330
0
100
AcDbSymbolTable
 70
     0
  0
ENDTAB
  0
TABLE
  2
APPID
  5
9
330
0
100
AcDbSymbolTable
 70
    16
  0
APPID
  5
10
330
9
100
AcDbSymbolTableRecord
100
AcDbRegAppTableRecord
  2
ACAD
 70
     0
  0
APPID
  5
4AF6
330
9
100
AcDbSymbolTableRecord
100
AcDbRegAppTableRecord
  2
MCAD_NO_VIS
 70
     0
  0
APPID
  5
817C
330
9
100
AcDbSymbolTableRecord
100
AcDbRegAppTableRecord
  2
ACAD_NAV_VCDISPLAY
 70
     0
  0
APPID
  5
8A3D
330
9
100
AcDbSymbolTableRecord
100
AcDbRegAppTableRecord
  2
ACAD_EXEMPT_FROM_CAD_STANDARDS
 70
     0
  0
APPID
  5
8A3E
330
9
100
AcDbSymbolTableRecord
100
AcDbRegAppTableRecord
  2
GradientColor1ACI
 70
     0
  0
APPID
  5
8A3F
330
9
100
AcDbSymbolTableRecord
100
AcDbRegAppTableRecord
  2
GradientColor2ACI
 70
     0
  0
APPID
  5
8A40
330
9
100
AcDbSymbolTableRecord
100
AcDbRegAppTableRecord
  2
ACAD_MLEADERVER
 70
     0
  0
APPID
  5
8A41
330
9
100
AcDbSymbolTableRecord
100
AcDbRegAppTableRecord
  2
ACAD_PSEXT
 70
     0
  0
APPID
  5
8A42
330
9
100
AcDbSymbolTableRecord
100
AcDbRegAppTableRecord
  2
ACAD_DSTYLE_DIMJAG
 70
     0
  0
APPID
  5
8A43
330
9
100
AcDbSymbolTableRecord
100
AcDbRegAppTableRecord
  2
ACAD_DSTYLE_DIMTALN
 70
     0
  0
APPID
  5
8A44
330
9
100
AcDbSymbolTableRecord
100
AcDbRegAppTableRecord
  2
ACAD_DSTYLE_DIMBREAK
 70
     0
  0
APPID
  5
8A45
330
9
100
AcDbSymbolTableRecord
100
AcDbRegAppTableRecord
  2
AcDbDynamicBlockGUID
 70
     0
  0
APPID
  5
8A46
330
9
100
AcDbSymbolTableRecord
100
AcDbRegAppTableRecord
  2
ACAUTHENVIRON
 70
     0
  0
APPID
  5
8A47
330
9
100
AcDbSymbolTableRecord
100
AcDbRegAppTableRecord
  2
AcDbDynamicBlockTrueName
 70
     0
  0
APPID
  5
8A48
330
9
100
AcDbSymbolTableRecord
100
AcDbRegAppTableRecord
  2
AcAecLayerStandard
 70
     0
  0
APPID
  5
8A49
330
9
100
AcDbSymbolTableRecord
100
AcDbRegAppTableRecord
  2
AcCmTransparency
 70
     0
  0
ENDTAB
  0
TABLE
  2
DIMSTYLE
  5
A
330
0
100
AcDbSymbolTable
 70
     2
100
AcDbDimStyleTable
 71
     1
340
26C
  0
DIMSTYLE
105
26C
330
A
100
AcDbSymbolTableRecord
100
AcDbDimStyleTableRecord
  2
STANDARD
 70
     0
340
F
  0
DIMSTYLE
105
6C04
102
{ACAD_REACTORS
330
77AE
330
77AF
330
77B9
330
77BA
330
77BB
330
77BC
330
77C0
330
77C1
330
77D6
330
77DD
330
77DE
330
77FF
330
7800
330
7801
330
7802
330
7805
330
7806
330
780E
330
7826
330
7827
330
7828
330
7840
330
7842
330
7843
330
7844
330
7846
102
}
330
A
100
AcDbSymbolTableRecord
100
AcDbDimStyleTableRecord
  2
SHOP_DETAILS_NORCROSS
 70
     0
  3
"
 41
0.2
 42
0.125
 43
0.375
 44
0.125
 73
     0
 74
     0
 76
     1
 77
     1
 78
     1
140
0.25
141
0.0
147
0.062
176
   256
177
   256
178
   256
276
     2
277
     5
284
     1
340
F
  0
ENDTAB
  0
TABLE
  2
BLOCK_RECORD
  5
1
330
0
100
AcDbSymbolTable
 70
    27
  0
BLOCK_RECORD
  5
17
102
{ACAD_XDICTIONARY
360
4A11
102
}
330
1
100
AcDbSymbolTableRecord
100
AcDbBlockTableRecord
  2
*MODEL_SPACE
340
485E
  0
BLOCK_RECORD
  5
14
102
{ACAD_XDICTIONARY
360
4A0F
102
}
330
1
100
AcDbSymbolTableRecord
100
AcDbBlockTableRecord
  2
*PAPER_SPACE
340
485F
  0
BLOCK_RECORD
  5
785B
330
1
100
AcDbSymbolTableRecord
100
AcDbBlockTableRecord
  2
*D0
340
0
  0
BLOCK_RECORD
  5
7867
330
1
100
AcDbSymbolTableRecord
100
AcDbBlockTableRecord
  2
*D1
340
0
  0
BLOCK_RECORD
  5
7873
330
1
100
AcDbSymbolTableRecord
100
AcDbBlockTableRecord
  2
*D2
340
0
  0
BLOCK_RECORD
  5
787E
330
1
100
AcDbSymbolTableRecord
100
AcDbBlockTableRecord
  2
*D3
340
0
  0
BLOCK_RECORD
  5
7889
330
1
100
AcDbSymbolTableRecord
100
AcDbBlockTableRecord
  2
*D4
340
0
  0
BLOCK_RECORD
  5
7894
330
1
100
AcDbSymbolTableRecord
100
AcDbBlockTableRecord
  2
*D5
340
0
  0
BLOCK_RECORD
  5
789F
330
1
100
AcDbSymbolTableRecord
100
AcDbBlockTableRecord
  2
*D6
340
0
  0
BLOCK_RECORD
  5
78AB
330
1
100
AcDbSymbolTableRecord
100
AcDbBlockTableRecord
  2
*D7
340
0
  0
BLOCK_RECORD
  5
78C2
330
1
100
AcDbSymbolTableRecord
100
AcDbBlockTableRecord
  2
*D8
340
0
  0
BLOCK_RECORD
  5
78CD
330
1
100
AcDbSymbolTableRecord
100
AcDbBlockTableRecord
  2
*D9
340
0
  0
BLOCK_RECORD
  5
78D8
330
1
100
AcDbSymbolTableRecord
100
AcDbBlockTableRecord
  2
*D10
340
0
  0
BLOCK_RECORD
  5
78FB
330
1
100
AcDbSymbolTableRecord
100
AcDbBlockTableRecord
  2
*D11
340
0
  0
BLOCK_RECORD
  5
7906
330
1
100
AcDbSymbolTableRecord
100
AcDbBlockTableRecord
  2
*D12
340
0
  0
BLOCK_RECORD
  5
7911
330
1
100
AcDbSymbolTableRecord
100
AcDbBlockTableRecord
  2
*D13
340
0
  0
BLOCK_RECORD
  5
791C
330
1
100
AcDbSymbolTableRecord
100
AcDbBlockTableRecord
  2
*D14
340
0
  0
BLOCK_RECORD
  5
7927
330
1
100
AcDbSymbolTableRecord
100
AcDbBlockTableRecord
  2
*D15
340
0
  0
BLOCK_RECORD
  5
7933
330
1
100
AcDbSymbolTableRecord
100
AcDbBlockTableRecord
  2
*D16
340
0
  0
BLOCK_RECORD
  5
793F
330
1
100
AcDbSymbolTableRecord
100
AcDbBlockTableRecord
  2
*D17
340
0
  0
BLOCK_RECORD
  5
794A
330
1
100
AcDbSymbolTableRecord
100
AcDbBlockTableRecord
  2
*D18
340
0
  0
BLOCK_RECORD
  5
7955
330
1
100
AcDbSymbolTableRecord
100
AcDbBlockTableRecord
  2
*D19
340
0
  0
BLOCK_RECORD
  5
7960
330
1
100
AcDbSymbolTableRecord
100
AcDbBlockTableRecord
  2
*D20
340
0
  0
BLOCK_RECORD
  5
796B
330
1
100
AcDbSymbolTableRecord
100
AcDbBlockTableRecord
  2
*D21
340
0
  0
BLOCK_RECORD
  5
7977
330
1
100
AcDbSymbolTableRecord
100
AcDbBlockTableRecord
  2
*D22
340
0
  0
BLOCK_RECORD
  5
7982
330
1
100
AcDbSymbolTableRecord
100
AcDbBlockTableRecord
  2
*D23
340
0
  0
BLOCK_RECORD
  5
798D
330
1
100
AcDbSymbolTableRecord
100
AcDbBlockTableRecord
  2
*D24
340
0
  0
BLOCK_RECORD
  5
7998
330
1
100
AcDbSymbolTableRecord
100
AcDbBlockTableRecord
  2
*D25
340
0
  0
BLOCK_RECORD
  5
8A4C
102
{ACAD_XDICTIONARY
360
8A56
102
}
330
1
100
AcDbSymbolTableRecord
100
AcDbBlockTableRecord
  2
Kawneer Logo English
340
0
102
{BLKREFS
331
8A5A
102
}
1001
ACAD
1000
DesignCenter Data
1002
{
1070
     1
1070
     1
1002
}
  0
ENDTAB
  0
ENDSEC
  0
SECTION
  2
BLOCKS
  0
BLOCK
  5
3C
330
17
100
AcDbEntity
  8
0
100
AcDbBlockBegin
  2
*MODEL_SPACE
 70
     0
 10
0.0
 20
0.0
 30
0.0
  3
*MODEL_SPACE
  1

  0
ENDBLK
  5
3D
330
17
100
AcDbEntity
  8
0
100
AcDbBlockEnd
  0
BLOCK
  5
3A
330
14
100
AcDbEntity
 67
     1
  8
0
100
AcDbBlockBegin
  2
*PAPER_SPACE
 70
     0
 10
0.0
 20
0.0
 30
0.0
  3
*PAPER_SPACE
  1

  0
ENDBLK
  5
3B
330
14
100
AcDbEntity
 67
     1
  8
0
100
AcDbBlockEnd
  0
BLOCK
  5
7865
330
785B
100
AcDbEntity
  8
0
100
AcDbBlockBegin
  2
*D0
 70
     1
 10
0.0
 20
0.0
 30
0.0
  3
*D0
  1

  0
LINE
  5
7F50
330
785B
100
AcDbEntity
  8
R-ANNO-DIMS
370
    -2
100
AcDbLine
 10
13.47841109660436
 20
32.97541345052343
 30
0.0
 11
13.47841109660436
 21
29.41148590984579
 31
0.0
  0
LINE
  5
7F51
330
785B
100
AcDbEntity
  8
R-ANNO-DIMS
370
    -2
100
AcDbLine
 10
11.22861109660436
 20
32.97641345052723
 30
0.0
 11
11.22861109660436
 21
29.41148590984579
 31
0.0
  0
LINE
  5
7F52
330
785B
100
AcDbEntity
  8
R-ANNO-DIMS
370
    -2
100
AcDbLine
 10
13.27841109660436
 20
29.53648590984579
 30
0.0
 11
11.42861109660436
 21
29.53648590984579
 31
0.0
  0
SOLID
  5
7F53
330
785B
100
AcDbEntity
  8
R-ANNO-DIMS
100
AcDbTrace
 10
13.27841109660436
 20
29.56981924317912
 30
0.0
 11
13.27841109660436
 21
29.50315257651245
 31
0.0
 12
13.47841109660436
 22
29.53648590984579
 32
0.0
 13
13.47841109660436
 23
29.53648590984579
 33
0.0
  0
SOLID
  5
7F54
330
785B
100
AcDbEntity
  8
R-ANNO-DIMS
100
AcDbTrace
 10
11.42861109660436
 20
29.56981924317912
 30
0.0
 11
11.42861109660436
 21
29.50315257651245
 31
0.0
 12
11.22861109660436
 22
29.53648590984579
 32
0.0
 13
11.22861109660436
 23
29.53648590984579
 33
0.0
  0
MTEXT
  5
7F55
330
785B
100
AcDbEntity
  8
R-ANNO-DIMS
100
AcDbMText
 10
12.35351109660436
 20
29.72348590984579
 30
0.0
 40
0.25
 41
0.0
 71
     5
 72
     1
  1
\A1;2 1/4"
 73
     1
 44
1.0
1001
ACAD
1000
MTEXTBEGIN
1070
    73
1070
     1
1070
    44
1040
1.0
1070
    74
1070
     0
1000
MTEXTEND
  0
POINT
  5
7F56
330
785B
100
AcDbEntity
  8
DEFPOINTS
 62
     0
100
AcDbPoint
 10
13.47841109660436
 20
33.10041345052343
 30
0.0
  0
POINT
  5
7F57
330
785B
100
AcDbEntity
  8
DEFPOINTS
 62
     0
100
AcDbPoint
 10
11.22861109660436
 20
33.10141345052723
 30
0.0
  0
POINT
  5
7F58
330
785B
100
AcDbEntity
  8
DEFPOINTS
 62
     0
100
AcDbPoint
 10
11.22861109660436
 20
29.53648590984579
 30
0.0
  0
ENDBLK
  5
7866
330
785B
100
AcDbEntity
  8
0
100
AcDbBlockEnd
  0
BLOCK
  5
7871
330
7867
100
AcDbEntity
  8
0
100
AcDbBlockBegin
  2
*D1
 70
     1
 10
0.0
 20
0.0
 30
0.0
  3
*D1
  1

  0
LINE
  5
7F59
330
7867
100
AcDbEntity
  8
R-ANNO-DIMS
370
    -2
100
AcDbLine
 10
11.35361109660438
 20
30.95764914940203
 30
0.0
 11
11.35361109660438
 21
30.07973237532328
 31
0.0
  0
LINE
  5
7F5A
330
7867
100
AcDbEntity
  8
R-ANNO-DIMS
370
    -2
100
AcDbLine
 10
13.35361109660439
 20
30.95732895181235
 30
0.0
 11
13.35361109660439
 21
30.07973237532328
 31
0.0
  0
LINE
  5
7F5B
330
7867
100
AcDbEntity
  8
R-ANNO-DIMS
370
    -2
100
AcDbLine
 10
11.55361109660438
 20
30.20473237532328
 30
0.0
 11
13.15361109660439
 21
30.20473237532328
 31
0.0
  0
SOLID
  5
7F5C
330
7867
100
AcDbEntity
  8
R-ANNO-DIMS
100
AcDbTrace
 10
11.55361109660438
 20
30.23806570865662
 30
0.0
 11
11.55361109660438
 21
30.17139904198995
 31
0.0
 12
11.35361109660438
 22
30.20473237532328
 32
0.0
 13
11.35361109660438
 23
30.20473237532328
 33
0.0
  0
SOLID
  5
7F5D
330
7867
100
AcDbEntity
  8
R-ANNO-DIMS
100
AcDbTrace
 10
13.15361109660439
 20
30.23806570865662
 30
0.0
 11
13.15361109660439
 21
30.17139904198995
 31
0.0
 12
13.35361109660439
 22
30.20473237532328
 32
0.0
 13
13.35361109660439
 23
30.20473237532328
 33
0.0
  0
MTEXT
  5
7F5E
330
7867
100
AcDbEntity
  8
R-ANNO-DIMS
100
AcDbMText
 10
12.35361109660438
 20
30.39173237532328
 30
0.0
 40
0.25
 41
0.0
 71
     5
 72
     1
  1
\A1;2"
 73
     1
 44
1.0
1001
ACAD
1000
MTEXTBEGIN
1070
    73
1070
     1
1070
    44
1040
1.0
1070
    74
1070
     0
1000
MTEXTEND
  0
POINT
  5
7F5F
330
7867
100
AcDbEntity
  8
DEFPOINTS
 62
     0
100
AcDbPoint
 10
11.35361109660438
 20
31.08264914940202
 30
0.0
  0
POINT
  5
7F60
330
7867
100
AcDbEntity
  8
DEFPOINTS
 62
     0
100
AcDbPoint
 10
13.35361109660439
 20
31.08232895181235
 30
0.0
  0
POINT
  5
7F61
330
7867
100
AcDbEntity
  8
DEFPOINTS
 62
     0
100
AcDbPoint
 10
13.35361109660439
 20
30.20473237532328
 30
0.0
  0
ENDBLK
  5
7872
330
7867
100
AcDbEntity
  8
0
100
AcDbBlockEnd
  0
BLOCK
  5
787C
330
7873
100
AcDbEntity
  8
0
100
AcDbBlockBegin
  2
*D2
 70
     1
 10
0.0
 20
0.0
 30
0.0
  3
*D2
  1

  0
LINE
  5
7F6A
330
7873
100
AcDbEntity
  8
R-ANNO-DIMS
370
    -2
100
AcDbLine
 10
11.10361109660436
 20
35.09041345052342
 30
0.0
 11
8.226191096604312
 21
35.09041345052342
 31
0.0
  0
LINE
  5
7F6B
330
7873
100
AcDbEntity
  8
R-ANNO-DIMS
370
    -2
100
AcDbLine
 10
8.351191096604312
 20
34.89041345052342
 30
0.0
 11
8.351191096604312
 21
31.28264914940202
 31
0.0
  0
SOLID
  5
7F6C
330
7873
100
AcDbEntity
  8
R-ANNO-DIMS
100
AcDbTrace
 10
8.317857763270978
 20
34.89041345052342
 30
0.0
 11
8.384524429937645
 21
34.89041345052342
 31
0.0
 12
8.351191096604312
 22
35.09041345052342
 32
0.0
 13
8.351191096604312
 23
35.09041345052342
 33
0.0
  0
SOLID
  5
7F6D
330
7873
100
AcDbEntity
  8
R-ANNO-DIMS
100
AcDbTrace
 10
8.317857763270978
 20
31.28264914940202
 30
0.0
 11
8.384524429937645
 21
31.28264914940202
 31
0.0
 12
8.351191096604312
 22
31.08264914940202
 32
0.0
 13
8.351191096604312
 23
31.08264914940202
 33
0.0
  0
MTEXT
  5
7F6E
330
7873
100
AcDbEntity
  8
R-ANNO-DIMS
100
AcDbMText
 10
8.164191096604307
 20
33.08653129996272
 30
0.0
 40
0.25
 41
0.0
 71
     5
 72
     1
  1
\A1;FH
 11
0.0000000000000001
 21
1.0
 31
0.0
 73
     1
 44
1.0
1001
ACAD
1000
MTEXTBEGIN
1070
    73
1070
     1
1070
    44
1040
1.0
1070
    74
1070
     0
1000
MTEXTEND
  0
POINT
  5
7F6F
330
7873
100
AcDbEntity
  8
DEFPOINTS
 62
     0
100
AcDbPoint
 10
11.22861109660436
 20
35.09041345052342
 30
0.0
  0
POINT
  5
7F70
330
7873
100
AcDbEntity
  8
DEFPOINTS
 62
     0
100
AcDbPoint
 10
11.10420229531515
 20
31.08264914940202
 30
0.0
  0
POINT
  5
7F71
330
7873
100
AcDbEntity
  8
DEFPOINTS
 62
     0
100
AcDbPoint
 10
8.351191096604312
 20
31.08264914940202
 30
0.0
  0
ENDBLK
  5
787D
330
7873
100
AcDbEntity
  8
0
100
AcDbBlockEnd
  0
BLOCK
  5
7887
330
787E
100
AcDbEntity
  8
0
100
AcDbBlockBegin
  2
*D3
 70
     1
 10
0.0
 20
0.0
 30
0.0
  3
*D3
  1

  0
LINE
  5
802C
330
787E
100
AcDbEntity
  8
R-ANNO-DIMS
370
    -2
100
AcDbLine
 10
8.664393948408701
 20
35.34041345052342
 30
0.0
 11
7.601191096604313
 21
35.34041345052342
 31
0.0
  0
LINE
  5
802D
330
787E
100
AcDbEntity
  8
R-ANNO-DIMS
370
    -2
100
AcDbLine
 10
7.726191096604313
 20
35.14041345052342
 30
0.0
 11
7.726191096604312
 21
31.28264914940203
 31
0.0
  0
SOLID
  5
802E
330
787E
100
AcDbEntity
  8
R-ANNO-DIMS
100
AcDbTrace
 10
7.692857763270979
 20
35.14041345052342
 30
0.0
 11
7.759524429937646
 21
35.14041345052342
 31
0.0
 12
7.726191096604313
 22
35.34041345052342
 32
0.0
 13
7.726191096604313
 23
35.34041345052342
 33
0.0
  0
SOLID
  5
802F
330
787E
100
AcDbEntity
  8
R-ANNO-DIMS
100
AcDbTrace
 10
7.692857763270978
 20
31.28264914940203
 30
0.0
 11
7.759524429937645
 21
31.28264914940203
 31
0.0
 12
7.726191096604312
 22
31.08264914940203
 32
0.0
 13
7.726191096604312
 23
31.08264914940203
 33
0.0
  0
MTEXT
  5
8030
330
787E
100
AcDbEntity
  8
R-ANNO-DIMS
100
AcDbMText
 10
7.539191096604306
 20
33.21153129996272
 30
0.0
 40
0.25
 41
0.0
 71
     5
 72
     1
  1
\A1;OD
 11
0.0000000000000001
 21
1.0
 31
0.0
 73
     1
 44
1.0
1001
ACAD
1000
MTEXTBEGIN
1070
    73
1070
     1
1070
    44
1040
1.0
1070
    74
1070
     0
1000
MTEXTEND
  0
POINT
  5
8031
330
787E
100
AcDbEntity
  8
DEFPOINTS
 62
     0
100
AcDbPoint
 10
8.789393948408701
 20
35.34041345052342
 30
0.0
  0
POINT
  5
8032
330
787E
100
AcDbEntity
  8
DEFPOINTS
 62
     0
100
AcDbPoint
 10
11.10420229531515
 20
31.08264914940202
 30
0.0
  0
POINT
  5
8033
330
787E
100
AcDbEntity
  8
DEFPOINTS
 62
     0
100
AcDbPoint
 10
7.726191096604312
 20
31.08264914940203
 30
0.0
  0
ENDBLK
  5
7888
330
787E
100
AcDbEntity
  8
0
100
AcDbBlockEnd
  0
BLOCK
  5
7892
330
7889
100
AcDbEntity
  8
0
100
AcDbBlockBegin
  2
*D4
 70
     1
 10
0.0
 20
0.0
 30
0.0
  3
*D4
  1

  0
LINE
  5
7F72
330
7889
100
AcDbEntity
  8
R-ANNO-DIMS
370
    -2
100
AcDbLine
 10
11.22861109660438
 20
34.65291345052337
 30
0.0
 11
8.851191096604312
 21
34.65291345052337
 31
0.0
  0
LINE
  5
7F73
330
7889
100
AcDbEntity
  8
R-ANNO-DIMS
370
    -2
100
AcDbLine
 10
8.976191096604312
 20
34.45291345052336
 30
0.0
 11
8.976191096604312
 21
31.28264914940202
 31
0.0
  0
SOLID
  5
7F74
330
7889
100
AcDbEntity
  8
R-ANNO-DIMS
100
AcDbTrace
 10
8.942857763270978
 20
34.45291345052336
 30
0.0
 11
9.009524429937645
 21
34.45291345052336
 31
0.0
 12
8.976191096604312
 22
34.65291345052337
 32
0.0
 13
8.976191096604312
 23
34.65291345052337
 33
0.0
  0
SOLID
  5
7F75
330
7889
100
AcDbEntity
  8
R-ANNO-DIMS
100
AcDbTrace
 10
8.942857763270978
 20
31.28264914940202
 30
0.0
 11
9.009524429937645
 21
31.28264914940202
 31
0.0
 12
8.976191096604312
 22
31.08264914940202
 32
0.0
 13
8.976191096604312
 23
31.08264914940202
 33
0.0
  0
MTEXT
  5
7F76
330
7889
100
AcDbEntity
  8
R-ANNO-DIMS
100
AcDbMText
 10
8.789191096604307
 20
32.8677812999627
 30
0.0
 40
0.25
 41
0.0
 71
     5
 72
     1
  1
\A1;MH
 11
0.0000000000000001
 21
1.0
 31
0.0
 73
     1
 44
1.0
1001
ACAD
1000
MTEXTBEGIN
1070
    73
1070
     1
1070
    44
1040
1.0
1070
    74
1070
     0
1000
MTEXTEND
  0
POINT
  5
7F77
330
7889
100
AcDbEntity
  8
DEFPOINTS
 62
     0
100
AcDbPoint
 10
11.35361109660438
 20
34.65291345052337
 30
0.0
  0
POINT
  5
7F78
330
7889
100
AcDbEntity
  8
DEFPOINTS
 62
     0
100
AcDbPoint
 10
11.10420229531515
 20
31.08264914940202
 30
0.0
  0
POINT
  5
7F79
330
7889
100
AcDbEntity
  8
DEFPOINTS
 62
     0
100
AcDbPoint
 10
8.976191096604312
 20
31.08264914940202
 30
0.0
  0
ENDBLK
  5
7893
330
7889
100
AcDbEntity
  8
0
100
AcDbBlockEnd
  0
BLOCK
  5
789D
330
7894
100
AcDbEntity
  8
0
100
AcDbBlockBegin
  2
*D5
 70
     1
 10
0.0
 20
0.0
 30
0.0
  3
*D5
  1

  0
LINE
  5
7F62
330
7894
100
AcDbEntity
  8
R-ANNO-DIMS
370
    -2
100
AcDbLine
 10
11.11361109660434
 20
33.09141345052724
 30
0.0
 11
9.476191096604312
 21
33.09141345052724
 31
0.0
  0
LINE
  5
7F63
330
7894
100
AcDbEntity
  8
R-ANNO-DIMS
370
    -2
100
AcDbLine
 10
9.601191096604312
 20
32.89141345052723
 30
0.0
 11
9.601191096604312
 21
31.28264914940202
 31
0.0
  0
SOLID
  5
7F64
330
7894
100
AcDbEntity
  8
R-ANNO-DIMS
100
AcDbTrace
 10
9.567857763270978
 20
32.89141345052723
 30
0.0
 11
9.634524429937645
 21
32.89141345052723
 31
0.0
 12
9.601191096604312
 22
33.09141345052724
 32
0.0
 13
9.601191096604312
 23
33.09141345052724
 33
0.0
  0
SOLID
  5
7F65
330
7894
100
AcDbEntity
  8
R-ANNO-DIMS
100
AcDbTrace
 10
9.567857763270978
 20
31.28264914940202
 30
0.0
 11
9.634524429937645
 21
31.28264914940202
 31
0.0
 12
9.601191096604312
 22
31.08264914940202
 32
0.0
 13
9.601191096604312
 23
31.08264914940202
 33
0.0
  0
MTEXT
  5
7F66
330
7894
100
AcDbEntity
  8
R-ANNO-DIMS
100
AcDbMText
 10
9.414191096604307
 20
32.08703129996463
 30
0.0
 40
0.25
 41
0.0
 71
     5
 72
     1
  1
\A1;DLO
 11
0.0000000000000001
 21
1.0
 31
0.0
 73
     1
 44
1.0
1001
ACAD
1000
MTEXTBEGIN
1070
    73
1070
     1
1070
    44
1040
1.0
1070
    74
1070
     0
1000
MTEXTEND
  0
POINT
  5
7F67
330
7894
100
AcDbEntity
  8
DEFPOINTS
 62
     0
100
AcDbPoint
 10
11.23861109660434
 20
33.09141345052724
 30
0.0
  0
POINT
  5
7F68
330
7894
100
AcDbEntity
  8
DEFPOINTS
 62
     0
100
AcDbPoint
 10
11.10420229531515
 20
31.08264914940202
 30
0.0
  0
POINT
  5
7F69
330
7894
100
AcDbEntity
  8
DEFPOINTS
 62
     0
100
AcDbPoint
 10
9.601191096604312
 20
31.08264914940202
 30
0.0
  0
ENDBLK
  5
789E
330
7894
100
AcDbEntity
  8
0
100
AcDbBlockEnd
  0
BLOCK
  5
78A9
330
789F
100
AcDbEntity
  8
0
100
AcDbBlockBegin
  2
*D6
 70
     1
 10
0.0
 20
0.0
 30
0.0
  3
*D6
  1

  0
LINE
  5
8034
330
789F
100
AcDbEntity
  8
R-ANNO-DIMS
370
    -2
100
AcDbLine
 10
11.10361109660436
 20
35.09041345052342
 30
0.0
 11
8.226191096604317
 21
35.09041345052342
 31
0.0
  0
LINE
  5
8035
330
789F
100
AcDbEntity
  8
R-ANNO-DIMS
370
    -2
100
AcDbLine
 10
8.351191096604317
 20
34.89041345052342
 30
0.0
 11
8.351191096604317
 21
34.69041345052342
 31
0.0
  0
LINE
  5
8036
330
789F
100
AcDbEntity
  8
R-ANNO-DIMS
370
    -2
100
AcDbLine
 10
8.351191096604317
 20
35.54041345052342
 30
0.0
 11
8.351191096604319
 21
38.28108011719009
 31
0.0
  0
SOLID
  5
8037
330
789F
100
AcDbEntity
  8
R-ANNO-DIMS
100
AcDbTrace
 10
8.317857763270984
 20
34.89041345052342
 30
0.0
 11
8.38452442993765
 21
34.89041345052342
 31
0.0
 12
8.351191096604317
 22
35.09041345052342
 32
0.0
 13
8.351191096604317
 23
35.09041345052342
 33
0.0
  0
SOLID
  5
8038
330
789F
100
AcDbEntity
  8
R-ANNO-DIMS
100
AcDbTrace
 10
8.317857763270984
 20
35.54041345052342
 30
0.0
 11
8.38452442993765
 21
35.54041345052342
 31
0.0
 12
8.351191096604317
 22
35.34041345052342
 32
0.0
 13
8.351191096604317
 23
35.34041345052342
 33
0.0
  0
MTEXT
  5
8039
330
789F
100
AcDbEntity
  8
R-ANNO-DIMS
100
AcDbMText
 10
8.164191096604312
 20
37.01074678385675
 30
0.0
 40
0.25
 41
0.0
 71
     5
 72
     1
  1
\A1;SHIM SPACE
 11
0.0000000000000001
 21
1.0
 31
0.0
 73
     1
 44
1.0
1001
ACAD
1000
MTEXTBEGIN
1070
    73
1070
     1
1070
    44
1040
1.0
1070
    74
1070
     0
1000
MTEXTEND
  0
POINT
  5
803A
330
789F
100
AcDbEntity
  8
DEFPOINTS
 62
     0
100
AcDbPoint
 10
11.22861109660436
 20
35.09041345052342
 30
0.0
  0
POINT
  5
803B
330
789F
100
AcDbEntity
  8
DEFPOINTS
 62
     0
100
AcDbPoint
 10
10.82259114190934
 20
35.34041345052342
 30
0.0
  0
POINT
  5
803C
330
789F
100
AcDbEntity
  8
DEFPOINTS
 62
     0
100
AcDbPoint
 10
8.351191096604317
 20
35.34041345052342
 30
0.0
  0
ENDBLK
  5
78AA
330
789F
100
AcDbEntity
  8
0
100
AcDbBlockEnd
  0
BLOCK
  5
78B5
330
78AB
100
AcDbEntity
  8
0
100
AcDbBlockBegin
  2
*D7
 70
     1
 10
0.0
 20
0.0
 30
0.0
  3
*D7
  1

  0
LINE
  5
7FA3
330
78AB
100
AcDbEntity
  8
R-ANNO-DIMS
370
    -2
100
AcDbLine
 10
9.476191096604312
 20
34.65291345052337
 30
0.0
 11
8.851191096604317
 21
34.65291345052337
 31
0.0
  0
LINE
  5
7FA4
330
78AB
100
AcDbEntity
  8
R-ANNO-DIMS
370
    -2
100
AcDbLine
 10
8.976191096604317
 20
34.45291345052336
 30
0.0
 11
8.976191096604317
 21
34.25291345052337
 31
0.0
  0
LINE
  5
7FA5
330
78AB
100
AcDbEntity
  8
R-ANNO-DIMS
370
    -2
100
AcDbLine
 10
8.976191096604317
 20
35.29041345052343
 30
0.0
 11
8.976191096604319
 21
36.69774678385675
 31
0.0
  0
SOLID
  5
7FA6
330
78AB
100
AcDbEntity
  8
R-ANNO-DIMS
100
AcDbTrace
 10
8.942857763270984
 20
34.45291345052336
 30
0.0
 11
9.00952442993765
 21
34.45291345052336
 31
0.0
 12
8.976191096604317
 22
34.65291345052337
 32
0.0
 13
8.976191096604317
 23
34.65291345052337
 33
0.0
  0
SOLID
  5
7FA7
330
78AB
100
AcDbEntity
  8
R-ANNO-DIMS
100
AcDbTrace
 10
8.942857763270984
 20
35.29041345052343
 30
0.0
 11
9.00952442993765
 21
35.29041345052343
 31
0.0
 12
8.976191096604317
 22
35.09041345052342
 32
0.0
 13
8.976191096604317
 23
35.09041345052342
 33
0.0
  0
MTEXT
  5
7FA8
330
78AB
100
AcDbEntity
  8
R-ANNO-DIMS
100
AcDbMText
 10
8.789191096604312
 20
36.09408011719009
 30
0.0
 40
0.25
 41
0.0
 71
     5
 72
     1
  1
\A1;7/16"
 11
0.0000000000000001
 21
1.0
 31
0.0
 73
     1
 44
1.0
1001
ACAD
1000
MTEXTBEGIN
1070
    73
1070
     1
1070
    44
1040
1.0
1070
    74
1070
     0
1000
MTEXTEND
  0
POINT
  5
7FA9
330
78AB
100
AcDbEntity
  8
DEFPOINTS
 62
     0
100
AcDbPoint
 10
9.601191096604312
 20
34.65291345052337
 30
0.0
  0
POINT
  5
7FAA
330
78AB
100
AcDbEntity
  8
DEFPOINTS
 62
     0
100
AcDbPoint
 10
11.22861109660436
 20
35.09041345052342
 30
0.0
  0
POINT
  5
7FAB
330
78AB
100
AcDbEntity
  8
DEFPOINTS
 62
     0
100
AcDbPoint
 10
8.976191096604317
 20
35.09041345052342
 30
0.0
  0
ENDBLK
  5
78B6
330
78AB
100
AcDbEntity
  8
0
100
AcDbBlockEnd
  0
BLOCK
  5
78CB
330
78C2
100
AcDbEntity
  8
0
100
AcDbBlockBegin
  2
*D8
 70
     1
 10
0.0
 20
0.0
 30
0.0
  3
*D8
  1

  0
LINE
  5
7F92
330
78C2
100
AcDbEntity
  8
R-ANNO-DIMS
370
    -2
100
AcDbLine
 10
11.28650794290858
 20
25.73856660255173
 30
0.0
 11
9.516669435783853
 21
25.73856660255173
 31
0.0
  0
LINE
  5
7F93
330
78C2
100
AcDbEntity
  8
R-ANNO-DIMS
370
    -2
100
AcDbLine
 10
9.641669435783853
 20
25.93856660255173
 30
0.0
 11
9.641669435783853
 21
27.5388868001414
 31
0.0
  0
SOLID
  5
7F94
330
78C2
100
AcDbEntity
  8
R-ANNO-DIMS
100
AcDbTrace
 10
9.60833610245052
 20
25.93856660255173
 30
0.0
 11
9.675002769117186
 21
25.93856660255173
 31
0.0
 12
9.641669435783853
 22
25.73856660255173
 32
0.0
 13
9.641669435783853
 23
25.73856660255173
 33
0.0
  0
SOLID
  5
7F95
330
78C2
100
AcDbEntity
  8
R-ANNO-DIMS
100
AcDbTrace
 10
9.60833610245052
 20
27.5388868001414
 30
0.0
 11
9.675002769117186
 21
27.5388868001414
 31
0.0
 12
9.641669435783853
 22
27.7388868001414
 32
0.0
 13
9.641669435783853
 23
27.7388868001414
 33
0.0
  0
MTEXT
  5
7F96
330
78C2
100
AcDbEntity
  8
R-ANNO-DIMS
100
AcDbMText
 10
9.45466943578385
 20
26.73872670134657
 30
0.0
 40
0.25
 41
0.0
 71
     5
 72
     1
  1
\A1;DLO
 11
0.0000000000000001
 21
1.0
 31
0.0
 73
     1
 44
1.0
1001
ACAD
1000
MTEXTBEGIN
1070
    73
1070
     1
1070
    44
1040
1.0
1070
    74
1070
     0
1000
MTEXTEND
  0
POINT
  5
7F97
330
78C2
100
AcDbEntity
  8
DEFPOINTS
 62
     0
100
AcDbPoint
 10
11.41150794290858
 20
25.73856660255173
 30
0.0
  0
POINT
  5
7F98
330
78C2
100
AcDbEntity
  8
DEFPOINTS
 62
     0
100
AcDbPoint
 10
11.13750794290857
 20
27.7388868001414
 30
0.0
  0
POINT
  5
7F99
330
78C2
100
AcDbEntity
  8
DEFPOINTS
 62
     0
100
AcDbPoint
 10
9.641669435783853
 20
27.7388868001414
 30
0.0
  0
ENDBLK
  5
78CC
330
78C2
100
AcDbEntity
  8
0
100
AcDbBlockEnd
  0
BLOCK
  5
78D6
330
78CD
100
AcDbEntity
  8
0
100
AcDbBlockBegin
  2
*D9
 70
     1
 10
0.0
 20
0.0
 30
0.0
  3
*D9
  1

  0
LINE
  5
7F8A
330
78CD
100
AcDbEntity
  8
R-ANNO-DIMS
370
    -2
100
AcDbLine
 10
11.25266943578385
 20
23.73856660255173
 30
0.0
 11
9.516669435783853
 21
23.73856660255173
 31
0.0
  0
LINE
  5
7F8B
330
78CD
100
AcDbEntity
  8
R-ANNO-DIMS
370
    -2
100
AcDbLine
 10
9.641669435783853
 20
23.53856660255173
 30
0.0
 11
9.641669435783853
 21
21.9388868001414
 31
0.0
  0
SOLID
  5
7F8C
330
78CD
100
AcDbEntity
  8
R-ANNO-DIMS
100
AcDbTrace
 10
9.60833610245052
 20
23.53856660255173
 30
0.0
 11
9.675002769117186
 21
23.53856660255173
 31
0.0
 12
9.641669435783853
 22
23.73856660255173
 32
0.0
 13
9.641669435783853
 23
23.73856660255173
 33
0.0
  0
SOLID
  5
7F8D
330
78CD
100
AcDbEntity
  8
R-ANNO-DIMS
100
AcDbTrace
 10
9.60833610245052
 20
21.9388868001414
 30
0.0
 11
9.675002769117186
 21
21.9388868001414
 31
0.0
 12
9.641669435783853
 22
21.7388868001414
 32
0.0
 13
9.641669435783853
 23
21.7388868001414
 33
0.0
  0
MTEXT
  5
7F8E
330
78CD
100
AcDbEntity
  8
R-ANNO-DIMS
100
AcDbMText
 10
9.45466943578385
 20
22.73872670134657
 30
0.0
 40
0.25
 41
0.0
 71
     5
 72
     1
  1
\A1;DLO
 11
0.0000000000000001
 21
1.0
 31
0.0
 73
     1
 44
1.0
1001
ACAD
1000
MTEXTBEGIN
1070
    73
1070
     1
1070
    44
1040
1.0
1070
    74
1070
     0
1000
MTEXTEND
  0
POINT
  5
7F8F
330
78CD
100
AcDbEntity
  8
DEFPOINTS
 62
     0
100
AcDbPoint
 10
11.37766943578386
 20
23.73856660255173
 30
0.0
  0
POINT
  5
7F90
330
78CD
100
AcDbEntity
  8
DEFPOINTS
 62
     0
100
AcDbPoint
 10
11.13750794290857
 20
21.7388868001414
 30
0.0
  0
POINT
  5
7F91
330
78CD
100
AcDbEntity
  8
DEFPOINTS
 62
     0
100
AcDbPoint
 10
9.641669435783853
 20
21.7388868001414
 30
0.0
  0
ENDBLK
  5
78D7
330
78CD
100
AcDbEntity
  8
0
100
AcDbBlockEnd
  0
BLOCK
  5
78E1
330
78D8
100
AcDbEntity
  8
0
100
AcDbBlockBegin
  2
*D10
 70
     1
 10
0.0
 20
0.0
 30
0.0
  3
*D10
  1

  0
LINE
  5
7F82
330
78D8
100
AcDbEntity
  8
R-ANNO-DIMS
370
    -2
100
AcDbLine
 10
11.28650794290858
 20
25.73856660255173
 30
0.0
 11
9.516669435783853
 21
25.73856660255173
 31
0.0
  0
LINE
  5
7F83
330
78D8
100
AcDbEntity
  8
R-ANNO-DIMS
370
    -2
100
AcDbLine
 10
9.641669435783853
 20
25.53856660255173
 30
0.0
 11
9.641669435783853
 21
23.93856660255173
 31
0.0
  0
SOLID
  5
7F84
330
78D8
100
AcDbEntity
  8
R-ANNO-DIMS
100
AcDbTrace
 10
9.60833610245052
 20
25.53856660255173
 30
0.0
 11
9.675002769117186
 21
25.53856660255173
 31
0.0
 12
9.641669435783853
 22
25.73856660255173
 32
0.0
 13
9.641669435783853
 23
25.73856660255173
 33
0.0
  0
SOLID
  5
7F85
330
78D8
100
AcDbEntity
  8
R-ANNO-DIMS
100
AcDbTrace
 10
9.60833610245052
 20
23.93856660255173
 30
0.0
 11
9.675002769117186
 21
23.93856660255173
 31
0.0
 12
9.641669435783853
 22
23.73856660255173
 32
0.0
 13
9.641669435783853
 23
23.73856660255173
 33
0.0
  0
MTEXT
  5
7F86
330
78D8
100
AcDbEntity
  8
R-ANNO-DIMS
100
AcDbMText
 10
9.45466943578385
 20
24.73856660255173
 30
0.0
 40
0.25
 41
0.0
 71
     5
 72
     1
  1
\A1;2"
 11
0.0000000000000001
 21
1.0
 31
0.0
 73
     1
 44
1.0
1001
ACAD
1000
MTEXTBEGIN
1070
    73
1070
     1
1070
    44
1040
1.0
1070
    74
1070
     0
1000
MTEXTEND
  0
POINT
  5
7F87
330
78D8
100
AcDbEntity
  8
DEFPOINTS
 62
     0
100
AcDbPoint
 10
11.41150794290858
 20
25.73856660255173
 30
0.0
  0
POINT
  5
7F88
330
78D8
100
AcDbEntity
  8
DEFPOINTS
 62
     0
100
AcDbPoint
 10
11.37766943578386
 20
23.73856660255173
 30
0.0
  0
POINT
  5
7F89
330
78D8
100
AcDbEntity
  8
DEFPOINTS
 62
     0
100
AcDbPoint
 10
9.641669435783853
 20
23.73856660255173
 30
0.0
  0
ENDBLK
  5
78E2
330
78D8
100
AcDbEntity
  8
0
100
AcDbBlockEnd
  0
BLOCK
  5
7904
330
78FB
100
AcDbEntity
  8
0
100
AcDbBlockBegin
  2
*D11
 70
     1
 10
0.0
 20
0.0
 30
0.0
  3
*D11
  1

  0
LINE
  5
8045
330
78FB
100
AcDbEntity
  8
R-ANNO-DIMS
370
    -2
100
AcDbLine
 10
9.306509070180197
 20
16.30278726021843
 30
0.0
 11
8.859891351278937
 21
16.30278726021843
 31
0.0
  0
LINE
  5
8046
330
78FB
100
AcDbEntity
  8
R-ANNO-DIMS
370
    -2
100
AcDbLine
 10
8.984891351278937
 20
16.50278726021843
 30
0.0
 11
8.984891351278937
 21
19.98587175892948
 31
0.0
  0
SOLID
  5
8047
330
78FB
100
AcDbEntity
  8
R-ANNO-DIMS
100
AcDbTrace
 10
8.951558017945604
 20
16.50278726021843
 30
0.0
 11
9.01822468461227
 21
16.50278726021843
 31
0.0
 12
8.984891351278937
 22
16.30278726021843
 32
0.0
 13
8.984891351278937
 23
16.30278726021843
 33
0.0
  0
SOLID
  5
8048
330
78FB
100
AcDbEntity
  8
R-ANNO-DIMS
100
AcDbTrace
 10
8.951558017945604
 20
19.98587175892948
 30
0.0
 11
9.01822468461227
 21
19.98587175892948
 31
0.0
 12
8.984891351278939
 22
20.18587175892948
 32
0.0
 13
8.984891351278939
 23
20.18587175892948
 33
0.0
  0
MTEXT
  5
8049
330
78FB
100
AcDbEntity
  8
R-ANNO-DIMS
100
AcDbMText
 10
8.797891351278936
 20
18.24432950957396
 30
0.0
 40
0.25
 41
0.0
 71
     5
 72
     1
  1
\A1;MH
 11
0.0000000000000001
 21
1.0
 31
0.0
 73
     1
 44
1.0
1001
ACAD
1000
MTEXTBEGIN
1070
    73
1070
     1
1070
    44
1040
1.0
1070
    74
1070
     0
1000
MTEXTEND
  0
POINT
  5
804A
330
78FB
100
AcDbEntity
  8
DEFPOINTS
 62
     0
100
AcDbPoint
 10
9.431509070180197
 20
16.30278726021843
 30
0.0
  0
POINT
  5
804B
330
78FB
100
AcDbEntity
  8
DEFPOINTS
 62
     0
100
AcDbPoint
 10
11.1049067472352
 20
20.18587175892948
 30
0.0
  0
POINT
  5
804C
330
78FB
100
AcDbEntity
  8
DEFPOINTS
 62
     0
100
AcDbPoint
 10
8.984891351278939
 20
20.18587175892948
 30
0.0
  0
ENDBLK
  5
7905
330
78FB
100
AcDbEntity
  8
0
100
AcDbBlockEnd
  0
BLOCK
  5
790F
330
7906
100
AcDbEntity
  8
0
100
AcDbBlockBegin
  2
*D12
 70
     1
 10
0.0
 20
0.0
 30
0.0
  3
*D12
  1

  0
LINE
  5
7EE2
330
7906
100
AcDbEntity
  8
R-ANNO-DIMS
370
    -2
100
AcDbLine
 10
11.10586395476348
 20
16.1777872602184
 30
0.0
 11
8.234891351278937
 21
16.1777872602184
 31
0.0
  0
LINE
  5
7EE3
330
7906
100
AcDbEntity
  8
R-ANNO-DIMS
370
    -2
100
AcDbLine
 10
8.359891351278937
 20
16.3777872602184
 30
0.0
 11
8.359891351278937
 21
19.98587175892948
 31
0.0
  0
SOLID
  5
7EE4
330
7906
100
AcDbEntity
  8
R-ANNO-DIMS
100
AcDbTrace
 10
8.326558017945604
 20
16.3777872602184
 30
0.0
 11
8.39322468461227
 21
16.3777872602184
 31
0.0
 12
8.359891351278937
 22
16.1777872602184
 32
0.0
 13
8.359891351278937
 23
16.1777872602184
 33
0.0
  0
SOLID
  5
7EE5
330
7906
100
AcDbEntity
  8
R-ANNO-DIMS
100
AcDbTrace
 10
8.326558017945604
 20
19.98587175892948
 30
0.0
 11
8.39322468461227
 21
19.98587175892948
 31
0.0
 12
8.359891351278939
 22
20.18587175892948
 32
0.0
 13
8.359891351278939
 23
20.18587175892948
 33
0.0
  0
MTEXT
  5
7EE6
330
7906
100
AcDbEntity
  8
R-ANNO-DIMS
100
AcDbMText
 10
8.172891351278936
 20
18.18182950957394
 30
0.0
 40
0.25
 41
0.0
 71
     5
 72
     1
  1
\A1;FH
 11
0.0000000000000001
 21
1.0
 31
0.0
 73
     1
 44
1.0
1001
ACAD
1000
MTEXTBEGIN
1070
    73
1070
     1
1070
    44
1040
1.0
1070
    74
1070
     0
1000
MTEXTEND
  0
POINT
  5
7EE7
330
7906
100
AcDbEntity
  8
DEFPOINTS
 62
     0
100
AcDbPoint
 10
11.23086395476348
 20
16.1777872602184
 30
0.0
  0
POINT
  5
7EE8
330
7906
100
AcDbEntity
  8
DEFPOINTS
 62
     0
100
AcDbPoint
 10
11.1049067472352
 20
20.18587175892948
 30
0.0
  0
POINT
  5
7EE9
330
7906
100
AcDbEntity
  8
DEFPOINTS
 62
     0
100
AcDbPoint
 10
8.359891351278939
 20
20.18587175892948
 30
0.0
  0
ENDBLK
  5
7910
330
7906
100
AcDbEntity
  8
0
100
AcDbBlockEnd
  0
BLOCK
  5
791A
330
7911
100
AcDbEntity
  8
0
100
AcDbBlockBegin
  2
*D13
 70
     1
 10
0.0
 20
0.0
 30
0.0
  3
*D13
  1

  0
LINE
  5
803D
330
7911
100
AcDbEntity
  8
R-ANNO-DIMS
370
    -2
100
AcDbLine
 10
8.695716674116482
 20
15.92778726021831
 30
0.0
 11
7.609891351278938
 21
15.92778726021831
 31
0.0
  0
LINE
  5
803E
330
7911
100
AcDbEntity
  8
R-ANNO-DIMS
370
    -2
100
AcDbLine
 10
7.734891351278938
 20
16.12778726021831
 30
0.0
 11
7.734891351278939
 21
19.98587175892948
 31
0.0
  0
SOLID
  5
803F
330
7911
100
AcDbEntity
  8
R-ANNO-DIMS
100
AcDbTrace
 10
7.701558017945605
 20
16.12778726021831
 30
0.0
 11
7.768224684612271
 21
16.12778726021831
 31
0.0
 12
7.734891351278938
 22
15.92778726021831
 32
0.0
 13
7.734891351278938
 23
15.92778726021831
 33
0.0
  0
SOLID
  5
8040
330
7911
100
AcDbEntity
  8
R-ANNO-DIMS
100
AcDbTrace
 10
7.701558017945606
 20
19.98587175892948
 30
0.0
 11
7.768224684612272
 21
19.98587175892948
 31
0.0
 12
7.734891351278939
 22
20.18587175892949
 32
0.0
 13
7.734891351278939
 23
20.18587175892949
 33
0.0
  0
MTEXT
  5
8041
330
7911
100
AcDbEntity
  8
R-ANNO-DIMS
100
AcDbMText
 10
7.547891351278935
 20
18.0568295095739
 30
0.0
 40
0.25
 41
0.0
 71
     5
 72
     1
  1
\A1;OD
 11
0.0000000000000001
 21
1.0
 31
0.0
 73
     1
 44
1.0
1001
ACAD
1000
MTEXTBEGIN
1070
    73
1070
     1
1070
    44
1040
1.0
1070
    74
1070
     0
1000
MTEXTEND
  0
POINT
  5
8042
330
7911
100
AcDbEntity
  8
DEFPOINTS
 62
     0
100
AcDbPoint
 10
8.820716674116482
 20
15.92778726021831
 30
0.0
  0
POINT
  5
8043
330
7911
100
AcDbEntity
  8
DEFPOINTS
 62
     0
100
AcDbPoint
 10
11.1049067472352
 20
20.18587175892948
 30
0.0
  0
POINT
  5
8044
330
7911
100
AcDbEntity
  8
DEFPOINTS
 62
     0
100
AcDbPoint
 10
7.734891351278939
 20
20.18587175892949
 30
0.0
  0
ENDBLK
  5
791B
330
7911
100
AcDbEntity
  8
0
100
AcDbBlockEnd
  0
BLOCK
  5
7925
330
791C
100
AcDbEntity
  8
0
100
AcDbBlockBegin
  2
*D14
 70
     1
 10
0.0
 20
0.0
 30
0.0
  3
*D14
  1

  0
LINE
  5
7EDA
330
791C
100
AcDbEntity
  8
R-ANNO-DIMS
370
    -2
100
AcDbLine
 10
11.10586395476348
 20
16.1777872602184
 30
0.0
 11
9.484891351278941
 21
16.1777872602184
 31
0.0
  0
LINE
  5
7EDB
330
791C
100
AcDbEntity
  8
R-ANNO-DIMS
370
    -2
100
AcDbLine
 10
9.609891351278941
 20
16.3777872602184
 30
0.0
 11
9.609891351278941
 21
17.97678726021459
 31
0.0
  0
SOLID
  5
7EDC
330
791C
100
AcDbEntity
  8
R-ANNO-DIMS
100
AcDbTrace
 10
9.576558017945608
 20
16.3777872602184
 30
0.0
 11
9.643224684612274
 21
16.3777872602184
 31
0.0
 12
9.609891351278941
 22
16.1777872602184
 32
0.0
 13
9.609891351278941
 23
16.1777872602184
 33
0.0
  0
SOLID
  5
7EDD
330
791C
100
AcDbEntity
  8
R-ANNO-DIMS
100
AcDbTrace
 10
9.576558017945608
 20
17.97678726021459
 30
0.0
 11
9.643224684612274
 21
17.97678726021459
 31
0.0
 12
9.609891351278941
 22
18.17678726021459
 32
0.0
 13
9.609891351278941
 23
18.17678726021459
 33
0.0
  0
MTEXT
  5
7EDE
330
791C
100
AcDbEntity
  8
R-ANNO-DIMS
100
AcDbMText
 10
9.42289135127894
 20
17.27307822518316
 30
0.0
 40
0.25
 41
0.0
 71
     5
 72
     1
  1
\A1;2"
 11
0.0000000000000001
 21
1.0
 31
0.0
 73
     1
 44
1.0
1001
ACAD
1000
MTEXTBEGIN
1070
    73
1070
     1
1070
    44
1040
1.0
1070
    74
1070
     0
1000
MTEXTEND
  0
POINT
  5
7EDF
330
791C
100
AcDbEntity
  8
DEFPOINTS
 62
     0
100
AcDbPoint
 10
11.23086395476348
 20
16.1777872602184
 30
0.0
  0
POINT
  5
7EE0
330
791C
100
AcDbEntity
  8
DEFPOINTS
 62
     0
100
AcDbPoint
 10
11.37986395476348
 20
18.17678726021459
 30
0.0
  0
POINT
  5
7EE1
330
791C
100
AcDbEntity
  8
DEFPOINTS
 62
     0
100
AcDbPoint
 10
9.609891351278941
 20
18.17678726021459
 30
0.0
  0
ENDBLK
  5
7926
330
791C
100
AcDbEntity
  8
0
100
AcDbBlockEnd
  0
BLOCK
  5
7931
330
7927
100
AcDbEntity
  8
0
100
AcDbBlockBegin
  2
*D15
 70
     1
 10
0.0
 20
0.0
 30
0.0
  3
*D15
  1

  0
LINE
  5
8056
330
7927
100
AcDbEntity
  8
R-ANNO-DIMS
370
    -2
100
AcDbLine
 10
11.10586395476348
 20
16.1777872602184
 30
0.0
 11
8.234891351278941
 21
16.1777872602184
 31
0.0
  0
LINE
  5
8057
330
7927
100
AcDbEntity
  8
R-ANNO-DIMS
370
    -2
100
AcDbLine
 10
8.359891351278941
 20
16.3777872602184
 30
0.0
 11
8.359891351278941
 21
16.57778726021839
 31
0.0
  0
LINE
  5
8058
330
7927
100
AcDbEntity
  8
R-ANNO-DIMS
370
    -2
100
AcDbLine
 10
8.359891351278941
 20
15.72778726021831
 30
0.0
 11
8.359891351278941
 21
12.98712059355164
 31
0.0
  0
SOLID
  5
8059
330
7927
100
AcDbEntity
  8
R-ANNO-DIMS
100
AcDbTrace
 10
8.326558017945608
 20
16.3777872602184
 30
0.0
 11
8.393224684612274
 21
16.3777872602184
 31
0.0
 12
8.359891351278941
 22
16.1777872602184
 32
0.0
 13
8.359891351278941
 23
16.1777872602184
 33
0.0
  0
SOLID
  5
805A
330
7927
100
AcDbEntity
  8
R-ANNO-DIMS
100
AcDbTrace
 10
8.326558017945608
 20
15.72778726021831
 30
0.0
 11
8.393224684612274
 21
15.72778726021831
 31
0.0
 12
8.359891351278941
 22
15.92778726021831
 32
0.0
 13
8.359891351278941
 23
15.92778726021831
 33
0.0
  0
MTEXT
  5
805B
330
7927
100
AcDbEntity
  8
R-ANNO-DIMS
100
AcDbMText
 10
8.172891351278938
 20
14.25745392688498
 30
0.0
 40
0.25
 41
0.0
 71
     5
 72
     1
  1
\A1;SHIM SPACE
 11
0.0000000000000001
 21
1.0
 31
0.0
 73
     1
 44
1.0
1001
ACAD
1000
MTEXTBEGIN
1070
    73
1070
     1
1070
    44
1040
1.0
1070
    74
1070
     0
1000
MTEXTEND
  0
POINT
  5
805C
330
7927
100
AcDbEntity
  8
DEFPOINTS
 62
     0
100
AcDbPoint
 10
11.23086395476348
 20
16.1777872602184
 30
0.0
  0
POINT
  5
805D
330
7927
100
AcDbEntity
  8
DEFPOINTS
 62
     0
100
AcDbPoint
 10
10.83129139658397
 20
15.92778726021831
 30
0.0
  0
POINT
  5
805E
330
7927
100
AcDbEntity
  8
DEFPOINTS
 62
     0
100
AcDbPoint
 10
8.359891351278941
 20
15.92778726021831
 30
0.0
  0
ENDBLK
  5
7932
330
7927
100
AcDbEntity
  8
0
100
AcDbBlockEnd
  0
BLOCK
  5
793D
330
7933
100
AcDbEntity
  8
0
100
AcDbBlockBegin
  2
*D16
 70
     1
 10
0.0
 20
0.0
 30
0.0
  3
*D16
  1

  0
LINE
  5
804D
330
7933
100
AcDbEntity
  8
R-ANNO-DIMS
370
    -2
100
AcDbLine
 10
9.306509070180197
 20
16.30278726021843
 30
0.0
 11
8.859891351278941
 21
16.30278726021843
 31
0.0
  0
LINE
  5
804E
330
7933
100
AcDbEntity
  8
R-ANNO-DIMS
370
    -2
100
AcDbLine
 10
8.984891351278941
 20
16.50278726021843
 30
0.0
 11
8.984891351278941
 21
16.70278726021843
 31
0.0
  0
LINE
  5
804F
330
7933
100
AcDbEntity
  8
R-ANNO-DIMS
370
    -2
100
AcDbLine
 10
8.984891351278941
 20
15.9777872602184
 30
0.0
 11
8.984891351278941
 21
14.75897793146337
 31
0.0
  0
SOLID
  5
8050
330
7933
100
AcDbEntity
  8
R-ANNO-DIMS
100
AcDbTrace
 10
8.951558017945608
 20
16.50278726021843
 30
0.0
 11
9.018224684612274
 21
16.50278726021843
 31
0.0
 12
8.984891351278941
 22
16.30278726021843
 32
0.0
 13
8.984891351278941
 23
16.30278726021843
 33
0.0
  0
SOLID
  5
8051
330
7933
100
AcDbEntity
  8
R-ANNO-DIMS
100
AcDbTrace
 10
8.951558017945608
 20
15.9777872602184
 30
0.0
 11
9.018224684612274
 21
15.9777872602184
 31
0.0
 12
8.984891351278941
 22
16.1777872602184
 32
0.0
 13
8.984891351278941
 23
16.1777872602184
 33
0.0
  0
MTEXT
  5
8052
330
7933
100
AcDbEntity
  8
R-ANNO-DIMS
100
AcDbMText
 10
8.79789135127894
 20
15.23764459813003
 30
0.0
 40
0.25
 41
0.0
 71
     5
 72
     1
  1
\A1;1/8"
 11
0.0000000000000001
 21
1.0
 31
0.0
 73
     1
 44
1.0
1001
ACAD
1000
MTEXTBEGIN
1070
    73
1070
     1
1070
    44
1040
1.0
1070
    74
1070
     0
1000
MTEXTEND
  0
POINT
  5
8053
330
7933
100
AcDbEntity
  8
DEFPOINTS
 62
     0
100
AcDbPoint
 10
9.431509070180197
 20
16.30278726021843
 30
0.0
  0
POINT
  5
8054
330
7933
100
AcDbEntity
  8
DEFPOINTS
 62
     0
100
AcDbPoint
 10
11.23086395476348
 20
16.1777872602184
 30
0.0
  0
POINT
  5
8055
330
7933
100
AcDbEntity
  8
DEFPOINTS
 62
     0
100
AcDbPoint
 10
8.984891351278941
 20
16.1777872602184
 30
0.0
  0
ENDBLK
  5
793E
330
7933
100
AcDbEntity
  8
0
100
AcDbBlockEnd
  0
BLOCK
  5
7948
330
793F
100
AcDbEntity
  8
0
100
AcDbBlockBegin
  2
*D17
 70
     1
 10
0.0
 20
0.0
 30
0.0
  3
*D17
  1

  0
LINE
  5
7F04
330
793F
100
AcDbEntity
  8
R-ANNO-DIMS
370
    -2
100
AcDbLine
 10
11.25486395476348
 20
18.17678726021459
 30
0.0
 11
9.484891351278937
 21
18.17678726021459
 31
0.0
  0
LINE
  5
7F05
330
793F
100
AcDbEntity
  8
R-ANNO-DIMS
370
    -2
100
AcDbLine
 10
9.609891351278937
 20
18.37678726021459
 30
0.0
 11
9.609891351278937
 21
19.98587175892948
 31
0.0
  0
SOLID
  5
7F06
330
793F
100
AcDbEntity
  8
R-ANNO-DIMS
100
AcDbTrace
 10
9.576558017945604
 20
18.37678726021459
 30
0.0
 11
9.64322468461227
 21
18.37678726021459
 31
0.0
 12
9.609891351278937
 22
18.17678726021459
 32
0.0
 13
9.609891351278937
 23
18.17678726021459
 33
0.0
  0
SOLID
  5
7F07
330
793F
100
AcDbEntity
  8
R-ANNO-DIMS
100
AcDbTrace
 10
9.576558017945604
 20
19.98587175892948
 30
0.0
 11
9.64322468461227
 21
19.98587175892948
 31
0.0
 12
9.609891351278939
 22
20.18587175892948
 32
0.0
 13
9.609891351278939
 23
20.18587175892948
 33
0.0
  0
MTEXT
  5
7F08
330
793F
100
AcDbEntity
  8
R-ANNO-DIMS
100
AcDbMText
 10
9.422891351278936
 20
19.18132950957204
 30
0.0
 40
0.25
 41
0.0
 71
     5
 72
     1
  1
\A1;DLO
 11
0.0000000000000001
 21
1.0
 31
0.0
 73
     1
 44
1.0
1001
ACAD
1000
MTEXTBEGIN
1070
    73
1070
     1
1070
    44
1040
1.0
1070
    74
1070
     0
1000
MTEXTEND
  0
POINT
  5
7F09
330
793F
100
AcDbEntity
  8
DEFPOINTS
 62
     0
100
AcDbPoint
 10
11.37986395476348
 20
18.17678726021459
 30
0.0
  0
POINT
  5
7F0A
330
793F
100
AcDbEntity
  8
DEFPOINTS
 62
     0
100
AcDbPoint
 10
11.1049067472352
 20
20.18587175892948
 30
0.0
  0
POINT
  5
7F0B
330
793F
100
AcDbEntity
  8
DEFPOINTS
 62
     0
100
AcDbPoint
 10
9.609891351278939
 20
20.18587175892948
 30
0.0
  0
ENDBLK
  5
7949
330
793F
100
AcDbEntity
  8
0
100
AcDbBlockEnd
  0
BLOCK
  5
7953
330
794A
100
AcDbEntity
  8
0
100
AcDbBlockBegin
  2
*D18
 70
     1
 10
0.0
 20
0.0
 30
0.0
  3
*D18
  1

  0
LINE
  5
7FEB
330
794A
100
AcDbEntity
  8
R-ANNO-DIMS
370
    -2
100
AcDbLine
 10
49.99767065984466
 20
9.892087539246638
 30
0.0
 11
49.99767065984466
 21
8.305087539246642
 31
0.0
  0
LINE
  5
7FEC
330
794A
100
AcDbEntity
  8
R-ANNO-DIMS
370
    -2
100
AcDbLine
 10
49.79767065984465
 20
8.430087539246642
 30
0.0
 11
48.19735046225499
 21
8.430087539246642
 31
0.0
  0
SOLID
  5
7FED
330
794A
100
AcDbEntity
  8
R-ANNO-DIMS
100
AcDbTrace
 10
49.79767065984465
 20
8.463420872579975
 30
0.0
 11
49.79767065984465
 21
8.396754205913309
 31
0.0
 12
49.99767065984466
 22
8.430087539246642
 32
0.0
 13
49.99767065984466
 23
8.430087539246642
 33
0.0
  0
SOLID
  5
7FEE
330
794A
100
AcDbEntity
  8
R-ANNO-DIMS
100
AcDbTrace
 10
48.19735046225499
 20
8.463420872579975
 30
0.0
 11
48.19735046225499
 21
8.396754205913309
 31
0.0
 12
47.99735046225499
 22
8.430087539246642
 32
0.0
 13
47.99735046225499
 23
8.430087539246642
 33
0.0
  0
MTEXT
  5
7FEF
330
794A
100
AcDbEntity
  8
R-ANNO-DIMS
100
AcDbMText
 10
48.99751056104982
 20
8.617087539246641
 30
0.0
 40
0.25
 41
0.0
 71
     5
 72
     1
  1
\A1;DLO
 73
     1
 44
1.0
1001
ACAD
1000
MTEXTBEGIN
1070
    73
1070
     1
1070
    44
1040
1.0
1070
    74
1070
     0
1000
MTEXTEND
  0
POINT
  5
7FF0
330
794A
100
AcDbEntity
  8
DEFPOINTS
 62
     0
100
AcDbPoint
 10
49.99767065984466
 20
10.01708753924664
 30
0.0
  0
POINT
  5
7FF1
330
794A
100
AcDbEntity
  8
DEFPOINTS
 62
     0
100
AcDbPoint
 10
47.99735046225499
 20
9.675926046371372
 30
0.0
  0
POINT
  5
7FF2
330
794A
100
AcDbEntity
  8
DEFPOINTS
 62
     0
100
AcDbPoint
 10
47.99735046225499
 20
8.430087539246642
 30
0.0
  0
ENDBLK
  5
7954
330
794A
100
AcDbEntity
  8
0
100
AcDbBlockEnd
  0
BLOCK
  5
795E
330
7955
100
AcDbEntity
  8
0
100
AcDbBlockBegin
  2
*D19
 70
     1
 10
0.0
 20
0.0
 30
0.0
  3
*D19
  1

  0
LINE
  5
7FF3
330
7955
100
AcDbEntity
  8
R-ANNO-DIMS
370
    -2
100
AcDbLine
 10
51.99771865984466
 20
9.892087539246638
 30
0.0
 11
51.99771865984466
 21
8.305087539246642
 31
0.0
  0
LINE
  5
7FF4
330
7955
100
AcDbEntity
  8
R-ANNO-DIMS
370
    -2
100
AcDbLine
 10
52.19771865984466
 20
8.430087539246642
 30
0.0
 11
53.79735046225498
 21
8.430087539246642
 31
0.0
  0
SOLID
  5
7FF5
330
7955
100
AcDbEntity
  8
R-ANNO-DIMS
100
AcDbTrace
 10
52.19771865984466
 20
8.463420872579975
 30
0.0
 11
52.19771865984466
 21
8.396754205913309
 31
0.0
 12
51.99771865984466
 22
8.430087539246642
 32
0.0
 13
51.99771865984466
 23
8.430087539246642
 33
0.0
  0
SOLID
  5
7FF6
330
7955
100
AcDbEntity
  8
R-ANNO-DIMS
100
AcDbTrace
 10
53.79735046225498
 20
8.463420872579975
 30
0.0
 11
53.79735046225498
 21
8.396754205913309
 31
0.0
 12
53.99735046225498
 22
8.430087539246642
 32
0.0
 13
53.99735046225498
 23
8.430087539246642
 33
0.0
  0
MTEXT
  5
7FF7
330
7955
100
AcDbEntity
  8
R-ANNO-DIMS
100
AcDbMText
 10
52.99753456104983
 20
8.617087539246641
 30
0.0
 40
0.25
 41
0.0
 71
     5
 72
     1
  1
\A1;DLO
 73
     1
 44
1.0
1001
ACAD
1000
MTEXTBEGIN
1070
    73
1070
     1
1070
    44
1040
1.0
1070
    74
1070
     0
1000
MTEXTEND
  0
POINT
  5
7FF8
330
7955
100
AcDbEntity
  8
DEFPOINTS
 62
     0
100
AcDbPoint
 10
51.99771865984466
 20
10.01708753924664
 30
0.0
  0
POINT
  5
7FF9
330
7955
100
AcDbEntity
  8
DEFPOINTS
 62
     0
100
AcDbPoint
 10
53.99735046225498
 20
9.675926046371372
 30
0.0
  0
POINT
  5
7FFA
330
7955
100
AcDbEntity
  8
DEFPOINTS
 62
     0
100
AcDbPoint
 10
53.99735046225498
 20
8.430087539246642
 30
0.0
  0
ENDBLK
  5
795F
330
7955
100
AcDbEntity
  8
0
100
AcDbBlockEnd
  0
BLOCK
  5
7969
330
7960
100
AcDbEntity
  8
0
100
AcDbBlockBegin
  2
*D20
 70
     1
 10
0.0
 20
0.0
 30
0.0
  3
*D20
  1

  0
LINE
  5
7FE3
330
7960
100
AcDbEntity
  8
R-ANNO-DIMS
370
    -2
100
AcDbLine
 10
49.99762265984464
 20
9.892087539246638
 30
0.0
 11
49.99762265984464
 21
8.305087539246642
 31
0.0
  0
LINE
  5
7FE4
330
7960
100
AcDbEntity
  8
R-ANNO-DIMS
370
    -2
100
AcDbLine
 10
50.19762265984464
 20
8.430087539246642
 30
0.0
 11
51.79771865984466
 21
8.430087539246642
 31
0.0
  0
SOLID
  5
7FE5
330
7960
100
AcDbEntity
  8
R-ANNO-DIMS
100
AcDbTrace
 10
50.19762265984464
 20
8.463420872579975
 30
0.0
 11
50.19762265984464
 21
8.396754205913309
 31
0.0
 12
49.99762265984464
 22
8.430087539246642
 32
0.0
 13
49.99762265984464
 23
8.430087539246642
 33
0.0
  0
SOLID
  5
7FE6
330
7960
100
AcDbEntity
  8
R-ANNO-DIMS
100
AcDbTrace
 10
51.79771865984466
 20
8.463420872579975
 30
0.0
 11
51.79771865984466
 21
8.396754205913309
 31
0.0
 12
51.99771865984466
 22
8.430087539246642
 32
0.0
 13
51.99771865984466
 23
8.430087539246642
 33
0.0
  0
MTEXT
  5
7FE7
330
7960
100
AcDbEntity
  8
R-ANNO-DIMS
100
AcDbMText
 10
50.99767065984465
 20
8.617087539246641
 30
0.0
 40
0.25
 41
0.0
 71
     5
 72
     1
  1
\A1;2"
 73
     1
 44
1.0
1001
ACAD
1000
MTEXTBEGIN
1070
    73
1070
     1
1070
    44
1040
1.0
1070
    74
1070
     0
1000
MTEXTEND
  0
POINT
  5
7FE8
330
7960
100
AcDbEntity
  8
DEFPOINTS
 62
     0
100
AcDbPoint
 10
49.99762265984464
 20
10.01708753924664
 30
0.0
  0
POINT
  5
7FE9
330
7960
100
AcDbEntity
  8
DEFPOINTS
 62
     0
100
AcDbPoint
 10
51.99771865984466
 20
10.01708753924664
 30
0.0
  0
POINT
  5
7FEA
330
7960
100
AcDbEntity
  8
DEFPOINTS
 62
     0
100
AcDbPoint
 10
51.99771865984466
 20
8.430087539246642
 30
0.0
  0
ENDBLK
  5
796A
330
7960
100
AcDbEntity
  8
0
100
AcDbBlockEnd
  0
BLOCK
  5
7975
330
796B
100
AcDbEntity
  8
0
100
AcDbBlockBegin
  2
*D21
 70
     1
 10
0.0
 20
0.0
 30
0.0
  3
*D21
  1

  0
LINE
  5
8060
330
796B
100
AcDbEntity
  8
R-ANNO-DIMS
370
    -2
100
AcDbLine
 10
39.55977008409225
 20
10.11424171759275
 30
0.0
 11
39.55977008409225
 21
7.934693542319593
 31
0.0
  0
LINE
  5
8061
330
796B
100
AcDbEntity
  8
R-ANNO-DIMS
370
    -2
100
AcDbLine
 10
39.75977008409225
 20
8.059693542319593
 30
0.0
 11
39.95977008409225
 21
8.059693542319593
 31
0.0
  0
LINE
  5
8062
330
796B
100
AcDbEntity
  8
R-ANNO-DIMS
370
    -2
100
AcDbLine
 10
39.10977008409225
 20
8.059693542319593
 30
0.0
 11
36.36910341742559
 21
8.059693542319593
 31
0.0
  0
SOLID
  5
8063
330
796B
100
AcDbEntity
  8
R-ANNO-DIMS
100
AcDbTrace
 10
39.75977008409225
 20
8.093026875652926
 30
0.0
 11
39.75977008409225
 21
8.026360208986259
 31
0.0
 12
39.55977008409225
 22
8.059693542319593
 32
0.0
 13
39.55977008409225
 23
8.059693542319593
 33
0.0
  0
SOLID
  5
8064
330
796B
100
AcDbEntity
  8
R-ANNO-DIMS
100
AcDbTrace
 10
39.10977008409225
 20
8.093026875652926
 30
0.0
 11
39.10977008409225
 21
8.026360208986259
 31
0.0
 12
39.30977008409225
 22
8.059693542319593
 32
0.0
 13
39.30977008409225
 23
8.059693542319593
 33
0.0
  0
MTEXT
  5
8065
330
796B
100
AcDbEntity
  8
R-ANNO-DIMS
100
AcDbMText
 10
37.63943675075892
 20
8.246693542319592
 30
0.0
 40
0.25
 41
0.0
 71
     5
 72
     1
  1
\A1;SHIM SPACE
 73
     1
 44
1.0
1001
ACAD
1000
MTEXTBEGIN
1070
    73
1070
     1
1070
    44
1040
1.0
1070
    74
1070
     0
1000
MTEXTEND
  0
POINT
  5
8066
330
796B
100
AcDbEntity
  8
DEFPOINTS
 62
     0
100
AcDbPoint
 10
39.55977008409225
 20
10.23924171759275
 30
0.0
  0
POINT
  5
8067
330
796B
100
AcDbEntity
  8
DEFPOINTS
 62
     0
100
AcDbPoint
 10
39.30977008409225
 20
9.86862921247183
 30
0.0
  0
POINT
  5
8068
330
796B
100
AcDbEntity
  8
DEFPOINTS
 62
     0
100
AcDbPoint
 10
39.30977008409225
 20
8.059693542319593
 30
0.0
  0
ENDBLK
  5
7976
330
796B
100
AcDbEntity
  8
0
100
AcDbBlockEnd
  0
BLOCK
  5
7980
330
7977
100
AcDbEntity
  8
0
100
AcDbBlockBegin
  2
*D22
 70
     1
 10
0.0
 20
0.0
 30
0.0
  3
*D22
  1

  0
LINE
  5
7D56
330
7977
100
AcDbEntity
  8
R-ANNO-DIMS
370
    -2
100
AcDbLine
 10
39.30977008409225
 20
9.74362921247183
 30
0.0
 11
39.30977008409225
 21
7.372193542319593
 31
0.0
  0
LINE
  5
7D57
330
7977
100
AcDbEntity
  8
R-ANNO-DIMS
370
    -2
100
AcDbLine
 10
39.50977008409225
 20
7.497193542319593
 30
0.0
 11
43.3604104792716
 21
7.497193542319593
 31
0.0
  0
SOLID
  5
7D58
330
7977
100
AcDbEntity
  8
R-ANNO-DIMS
100
AcDbTrace
 10
39.50977008409225
 20
7.530526875652926
 30
0.0
 11
39.50977008409225
 21
7.463860208986259
 31
0.0
 12
39.30977008409225
 22
7.497193542319593
 32
0.0
 13
39.30977008409225
 23
7.497193542319593
 33
0.0
  0
SOLID
  5
7D59
330
7977
100
AcDbEntity
  8
R-ANNO-DIMS
100
AcDbTrace
 10
43.3604104792716
 20
7.530526875652926
 30
0.0
 11
43.3604104792716
 21
7.463860208986259
 31
0.0
 12
43.56041047927161
 22
7.497193542319593
 32
0.0
 13
43.56041047927161
 23
7.497193542319593
 33
0.0
  0
MTEXT
  5
7D5A
330
7977
100
AcDbEntity
  8
R-ANNO-DIMS
100
AcDbMText
 10
41.43509028168192
 20
7.684193542319593
 30
0.0
 40
0.25
 41
0.0
 71
     5
 72
     1
  1
\A1;OD  
 73
     1
 44
1.0
1001
ACAD
1000
MTEXTBEGIN
1070
    73
1070
     1
1070
    44
1040
1.0
1070
    74
1070
     0
1000
MTEXTEND
  0
POINT
  5
7D5B
330
7977
100
AcDbEntity
  8
DEFPOINTS
 62
     0
100
AcDbPoint
 10
39.30977008409225
 20
9.86862921247183
 30
0.0
  0
POINT
  5
7D5C
330
7977
100
AcDbEntity
  8
DEFPOINTS
 62
     0
100
AcDbPoint
 10
43.56041047927161
 20
10.11424171759272
 30
0.0
  0
POINT
  5
7D5D
330
7977
100
AcDbEntity
  8
DEFPOINTS
 62
     0
100
AcDbPoint
 10
43.56041047927161
 20
7.497193542319593
 30
0.0
  0
ENDBLK
  5
7981
330
7977
100
AcDbEntity
  8
0
100
AcDbBlockEnd
  0
BLOCK
  5
798B
330
7982
100
AcDbEntity
  8
0
100
AcDbBlockBegin
  2
*D23
 70
     1
 10
0.0
 20
0.0
 30
0.0
  3
*D23
  1

  0
LINE
  5
7D6F
330
7982
100
AcDbEntity
  8
R-ANNO-DIMS
370
    -2
100
AcDbLine
 10
39.55977008409225
 20
10.11424171759275
 30
0.0
 11
39.55977008409225
 21
7.934693542319593
 31
0.0
  0
LINE
  5
7D70
330
7982
100
AcDbEntity
  8
R-ANNO-DIMS
370
    -2
100
AcDbLine
 10
39.75977008409225
 20
8.059693542319593
 30
0.0
 11
43.3604104792716
 21
8.059693542319593
 31
0.0
  0
SOLID
  5
7D71
330
7982
100
AcDbEntity
  8
R-ANNO-DIMS
100
AcDbTrace
 10
39.75977008409225
 20
8.093026875652926
 30
0.0
 11
39.75977008409225
 21
8.026360208986259
 31
0.0
 12
39.55977008409225
 22
8.059693542319593
 32
0.0
 13
39.55977008409225
 23
8.059693542319593
 33
0.0
  0
SOLID
  5
7D72
330
7982
100
AcDbEntity
  8
R-ANNO-DIMS
100
AcDbTrace
 10
43.3604104792716
 20
8.093026875652926
 30
0.0
 11
43.3604104792716
 21
8.026360208986259
 31
0.0
 12
43.56041047927161
 22
8.059693542319593
 32
0.0
 13
43.56041047927161
 23
8.059693542319593
 33
0.0
  0
MTEXT
  5
7D73
330
7982
100
AcDbEntity
  8
R-ANNO-DIMS
100
AcDbMText
 10
41.56009028168193
 20
8.246693542319592
 30
0.0
 40
0.25
 41
0.0
 71
     5
 72
     1
  1
\A1;FW  
 73
     1
 44
1.0
1001
ACAD
1000
MTEXTBEGIN
1070
    73
1070
     1
1070
    44
1040
1.0
1070
    74
1070
     0
1000
MTEXTEND
  0
POINT
  5
7D74
330
7982
100
AcDbEntity
  8
DEFPOINTS
 62
     0
100
AcDbPoint
 10
39.55977008409225
 20
10.23924171759275
 30
0.0
  0
POINT
  5
7D75
330
7982
100
AcDbEntity
  8
DEFPOINTS
 62
     0
100
AcDbPoint
 10
43.56041047927161
 20
10.11424171759272
 30
0.0
  0
POINT
  5
7D76
330
7982
100
AcDbEntity
  8
DEFPOINTS
 62
     0
100
AcDbPoint
 10
43.56041047927161
 20
8.059693542319593
 30
0.0
  0
ENDBLK
  5
798C
330
7982
100
AcDbEntity
  8
0
100
AcDbBlockEnd
  0
BLOCK
  5
7996
330
798D
100
AcDbEntity
  8
0
100
AcDbBlockBegin
  2
*D24
 70
     1
 10
0.0
 20
0.0
 30
0.0
  3
*D24
  1

  0
LINE
  5
7D67
330
798D
100
AcDbEntity
  8
R-ANNO-DIMS
370
    -2
100
AcDbLine
 10
41.55977008409226
 20
10.11424171759275
 30
0.0
 11
41.55977008409226
 21
8.497193542319593
 31
0.0
  0
LINE
  5
7D68
330
798D
100
AcDbEntity
  8
R-ANNO-DIMS
370
    -2
100
AcDbLine
 10
41.75977008409226
 20
8.622193542319593
 30
0.0
 11
43.35977008409225
 21
8.622193542319593
 31
0.0
  0
SOLID
  5
7D69
330
798D
100
AcDbEntity
  8
R-ANNO-DIMS
100
AcDbTrace
 10
41.75977008409226
 20
8.655526875652926
 30
0.0
 11
41.75977008409226
 21
8.588860208986259
 31
0.0
 12
41.55977008409226
 22
8.622193542319593
 32
0.0
 13
41.55977008409226
 23
8.622193542319593
 33
0.0
  0
SOLID
  5
7D6A
330
798D
100
AcDbEntity
  8
R-ANNO-DIMS
100
AcDbTrace
 10
43.35977008409225
 20
8.655526875652926
 30
0.0
 11
43.35977008409225
 21
8.588860208986259
 31
0.0
 12
43.55977008409226
 22
8.622193542319593
 32
0.0
 13
43.55977008409226
 23
8.622193542319593
 33
0.0
  0
MTEXT
  5
7D6B
330
798D
100
AcDbEntity
  8
R-ANNO-DIMS
100
AcDbMText
 10
42.55977008409226
 20
8.809193542319592
 30
0.0
 40
0.25
 41
0.0
 71
     5
 72
     1
  1
\A1;DLO
 73
     1
 44
1.0
1001
ACAD
1000
MTEXTBEGIN
1070
    73
1070
     1
1070
    44
1040
1.0
1070
    74
1070
     0
1000
MTEXTEND
  0
POINT
  5
7D6C
330
798D
100
AcDbEntity
  8
DEFPOINTS
 62
     0
100
AcDbPoint
 10
41.55977008409226
 20
10.23924171759275
 30
0.0
  0
POINT
  5
7D6D
330
798D
100
AcDbEntity
  8
DEFPOINTS
 62
     0
100
AcDbPoint
 10
43.55977008409226
 20
9.866080224717464
 30
0.0
  0
POINT
  5
7D6E
330
798D
100
AcDbEntity
  8
DEFPOINTS
 62
     0
100
AcDbPoint
 10
43.55977008409226
 20
8.622193542319593
 30
0.0
  0
ENDBLK
  5
7997
330
798D
100
AcDbEntity
  8
0
100
AcDbBlockEnd
  0
BLOCK
  5
79A1
330
7998
100
AcDbEntity
  8
0
100
AcDbBlockBegin
  2
*D25
 70
     1
 10
0.0
 20
0.0
 30
0.0
  3
*D25
  1

  0
LINE
  5
7D77
330
7998
100
AcDbEntity
  8
R-ANNO-DIMS
370
    -2
100
AcDbLine
 10
39.55977008409225
 20
10.11424171759275
 30
0.0
 11
39.55977008409225
 21
8.497193542319593
 31
0.0
  0
LINE
  5
7D78
330
7998
100
AcDbEntity
  8
R-ANNO-DIMS
370
    -2
100
AcDbLine
 10
39.75977008409225
 20
8.622193542319593
 30
0.0
 11
41.35977008409226
 21
8.622193542319593
 31
0.0
  0
SOLID
  5
7D79
330
7998
100
AcDbEntity
  8
R-ANNO-DIMS
100
AcDbTrace
 10
39.75977008409225
 20
8.655526875652926
 30
0.0
 11
39.75977008409225
 21
8.588860208986259
 31
0.0
 12
39.55977008409225
 22
8.622193542319593
 32
0.0
 13
39.55977008409225
 23
8.622193542319593
 33
0.0
  0
SOLID
  5
7D7A
330
7998
100
AcDbEntity
  8
R-ANNO-DIMS
100
AcDbTrace
 10
41.35977008409226
 20
8.655526875652926
 30
0.0
 11
41.35977008409226
 21
8.588860208986259
 31
0.0
 12
41.55977008409226
 22
8.622193542319593
 32
0.0
 13
41.55977008409226
 23
8.622193542319593
 33
0.0
  0
MTEXT
  5
7D7B
330
7998
100
AcDbEntity
  8
R-ANNO-DIMS
100
AcDbMText
 10
40.55977008409225
 20
8.809193542319592
 30
0.0
 40
0.25
 41
0.0
 71
     5
 72
     1
  1
\A1;2"
 73
     1
 44
1.0
1001
ACAD
1000
MTEXTBEGIN
1070
    73
1070
     1
1070
    44
1040
1.0
1070
    74
1070
     0
1000
MTEXTEND
  0
POINT
  5
7D7C
330
7998
100
AcDbEntity
  8
DEFPOINTS
 62
     0
100
AcDbPoint
 10
39.55977008409225
 20
10.23924171759275
 30
0.0
  0
POINT
  5
7D7D
330
7998
100
AcDbEntity
  8
DEFPOINTS
 62
     0
100
AcDbPoint
 10
41.55977008409226
 20
10.23924171759275
 30
0.0
  0
POINT
  5
7D7E
330
7998
100
AcDbEntity
  8
DEFPOINTS
 62
     0
100
AcDbPoint
 10
41.55977008409226
 20
8.622193542319593
 30
0.0
  0
ENDBLK
  5
79A2
330
7998
100
AcDbEntity
  8
0
100
AcDbBlockEnd
  0
BLOCK
  5
8A58
330
8A4C
100
AcDbEntity
  8
0
100
AcDbBlockBegin
  2
Kawneer Logo English
 70
     0
 10
0.0
 20
0.0
 30
0.0
  3
Kawneer Logo English
  1

  0
MTEXT
  5
8A4D
102
{ACAD_XDICTIONARY
360
8AEB
102
}
330
8A4C
100
AcDbEntity
  8
Kawneer Logo-English
100
AcDbMText
 10
1.510096758583198
 20
0.0372523876656778
 30
0.0
 40
0.036
 41
0.6125900866323382
 71
     3
 72
     5
  1
{\fArial TUR|b0|i0|c0|p34;\T1.05;AN ARCONIC COMPANY}
 73
     1
 44
1.0
1001
ACAD
1000
ACAD_MTEXT_COLUMN_INFO_BEGIN
1070
    75
1070
     2
1070
    79
1070
     0
1070
    76
1070
     1
1070
    78
1070
     0
1070
    48
1040
0.6125900866323382
1070
    49
1040
1.0
1070
    50
1070
     1
1040
0.0
1000
ACAD_MTEXT_COLUMN_INFO_END
1000
MTEXTBEGIN
1070
    73
1070
     1
1070
    44
1040
1.0
1070
    74
1070
     0
1000
MTEXTEND
  0
HATCH
  5
8A4E
330
8A4C
100
AcDbEntity
  8
Kawneer Logo-English
100
AcDbHatch
 10
0.0
 20
0.0
 30
0.0
210
0.0
220
0.0
230
1.0
  2
SOLID
 70
     1
 71
     0
 91
        1
 92
        1
 93
       81
 72
     1
 10
0.2706169776412204
 20
0.0336337282279411
 11
0.2687512969786691
 21
0.0350329887248546
 72
     1
 10
0.2687512969786696
 20
0.0350329887248547
 11
0.2633408230572721
 21
0.039137486182467
 72
     1
 10
0.2633408230572729
 20
0.0391374861824669
 11
0.2550385441089194
 21
0.0453875164020133
 72
     1
 10
0.2550385441089191
 20
0.0453875164020132
 11
0.2442175962661241
 21
0.053596511317238
 72
     1
 10
0.2442175962661235
 20
0.0535965113172379
 11
0.2314376837276472
 21
0.0632980507625037
 72
     1
 10
0.2314376837276479
 20
0.0632980507625037
 11
0.2172585106922595
 21
0.0741189986052996
 72
     1
 10
0.2172585106922598
 20
0.0741189986052996
 11
0.2019599292593419
 21
0.0856862187131167
 72
     1
 10
0.201959929259341
 20
0.0856862187131167
 11
0.1862882116939105
 21
0.0976265749534437
 72
     1
 10
0.1862882116939102
 20
0.0976265749534437
 11
0.1706164941284813
 21
0.1095669311937706
 72
     1
 10
0.1706164941284811
 20
0.1095669311937709
 11
0.1553179126955632
 21
0.1211341513015875
 72
     1
 10
0.1553179126955642
 20
0.1211341513015876
 11
0.1411387396601757
 21
0.131955099144384
 72
     1
 10
0.1411387396601755
 20
0.1319550991443839
 11
0.1284521111548274
 21
0.141749922622777
 72
     1
 10
0.1284521111548278
 20
0.1417499226227768
 11
0.117631163312031
 21
0.1499589175380016
 72
     1
 10
0.1176311633120304
 20
0.1499589175380017
 11
0.1094221683968068
 21
0.1563022317906752
 72
     1
 10
0.1094221683968062
 20
0.1563022317906754
 11
0.1041049785085351
 21
0.1604067292482882
 72
     1
 10
0.1041049785085351
 20
0.1604067292482878
 11
0.1023325818791119
 21
0.1618992737783286
 72
     1
 10
0.1023325818791116
 20
0.1618992737783289
 11
0.1043848306079176
 21
0.1636716704077524
 72
     1
 10
0.1043848306079194
 20
0.1636716704077524
 11
0.1100751566286996
 21
0.1683358720641301
 72
     1
 10
0.1100751566286986
 20
0.1683358720641301
 11
0.1189371397758159
 21
0.1757053106812067
 72
     1
 10
0.1189371397758161
 20
0.1757053106812067
 11
0.1304110758505067
 21
0.1851269980270901
 72
     1
 10
0.1304110758505059
 20
0.1851269980270902
 11
0.1439372606540007
 21
0.1963210820023967
 72
     1
 10
0.1439372606540017
 20
0.1963210820023967
 11
0.1589559899875385
 21
0.2087278584083611
 72
     1
 10
0.1589559899875379
 20
0.2087278584083611
 11
0.1750941277186041
 21
0.2220674751456017
 72
     1
 10
0.1750941277186047
 20
0.2220674751456017
 11
0.19169868561531
 21
0.2358735120484796
 72
     1
 10
0.1916986856153105
 20
0.2358735120484796
 11
0.208303243512014
 21
0.2495862649182301
 72
     1
 10
0.2083032435120131
 20
0.2495862649182304
 11
0.2244413812430811
 21
0.2628325976223432
 72
     1
 10
0.2244413812430812
 20
0.2628325976223429
 11
0.239460110576618
 21
0.2753326580614352
 72
     1
 10
0.2394601105766174
 20
0.2753326580614351
 11
0.2529862953801122
 21
0.2864334580036143
 72
     1
 10
0.2529862953801132
 20
0.2864334580036143
 11
0.2643669474216756
 21
0.2958551453494973
 72
     1
 10
0.2643669474216757
 20
0.2958551453494973
 11
0.2731356465356649
 21
0.3031312999334466
 72
     1
 10
0.273135646535664
 20
0.3031312999334466
 11
0.2788259725564443
 21
0.3077955015898243
 72
     1
 10
0.278825972556445
 20
0.3077955015898246
 11
0.2807849372521245
 21
0.3094746141861208
 72
     1
 10
0.2807849372521249
 20
0.3094746141861205
 11
0.2798520969208501
 21
0.3094746141861205
 72
     1
 10
0.2798520969208496
 20
0.3094746141861205
 11
0.2769602918938953
 21
0.3095678982192478
 72
     1
 10
0.2769602918938943
 20
0.3095678982192481
 11
0.2724826583037715
 21
0.3095678982192481
 72
     1
 10
0.2724826583037729
 20
0.3095678982192481
 11
0.2666057642167363
 21
0.3095678982192481
 72
     1
 10
0.266605764216735
 20
0.3095678982192481
 11
0.2597027457652953
 21
0.3095678982192481
 72
     1
 10
0.2597027457652956
 20
0.3095678982192481
 11
0.2519601710157094
 21
0.3095678982192481
 72
     1
 10
0.2519601710157104
 20
0.3095678982192481
 11
0.2437511761004851
 21
0.3095678982192481
 72
     1
 10
0.243751176100484
 20
0.3095678982192481
 11
0.2351690450527495
 21
0.3095678982192481
 72
     1
 10
0.2351690450527495
 20
0.3095678982192481
 11
0.2266801980381413
 21
0.3095678982192481
 72
     1
 10
0.2266801980381423
 20
0.3095678982192481
 11
0.2183779190897905
 21
0.3094746141861208
 72
     1
 10
0.2183779190897899
 20
0.3094746141861205
 11
0.2106353443402037
 21
0.3094746141861205
 72
     1
 10
0.2106353443402029
 20
0.3094746141861205
 11
0.2037323258887632
 21
0.3094746141861205
 72
     1
 10
0.203732325888764
 20
0.3094746141861205
 11
0.1978554318017273
 21
0.3094746141861205
 72
     1
 10
0.1978554318017278
 20
0.3094746141861205
 11
0.1932845141784786
 21
0.3094746141861205
 72
     1
 10
0.1932845141784787
 20
0.3094746141861205
 11
0.1903927091515244
 21
0.3094746141861205
 72
     1
 10
0.1903927091515234
 20
0.3094746141861205
 11
0.1893665847871204
 21
0.3094746141861205
 72
     1
 10
0.1893665847871206
 20
0.3094746141861205
 11
0.1879673242902067
 21
0.3077955015898243
 72
     1
 10
0.1879673242902076
 20
0.3077955015898246
 11
0.1841426789319786
 21
0.3030380159003196
 72
     1
 10
0.1841426789319787
 20
0.3030380159003192
 11
0.1780792167786874
 21
0.29576186131637
 72
     1
 10
0.1780792167786873
 20
0.29576186131637
 11
0.170243357995973
 21
0.2862468899373593
 72
     1
 10
0.170243357995973
 20
0.2862468899373593
 11
0.1610082387163447
 21
0.2750528059620528
 72
     1
 10
0.1610082387163438
 20
0.2750528059620528
 11
0.1507469950723126
 21
0.2624594614898328
 72
     1
 10
0.1507469950723133
 20
0.2624594614898328
 11
0.1396461951301336
 21
0.2491198447525922
 72
     1
 10
0.1396461951301333
 20
0.2491198447525922
 11
0.1282655430885727
 21
0.2352205238165866
 72
     1
 10
0.1282655430885726
 20
0.2352205238165868
 11
0.1168848910470102
 21
0.2214144869137089
 72
     1
 10
0.1168848910470102
 20
0.2214144869137087
 11
0.1058773751379587
 21
0.2079815861433408
 72
     1
 10
0.105877375137958
 20
0.2079815861433408
 11
0.0955228474608004
 21
0.1954815257042486
 72
     1
 10
0.0955228474608019
 20
0.1954815257042488
 11
0.0862877281811736
 21
0.1842874417289424
 72
     1
 10
0.0862877281811727
 20
0.1842874417289424
 11
0.0784518693984583
 21
0.1747724703499316
 72
     1
 10
0.0784518693984584
 20
0.1747724703499314
 11
0.0723884072451672
 21
0.1674963157659821
 72
     1
 10
0.0723884072451671
 20
0.1674963157659822
 11
0.0685637618869363
 21
0.1627388300764767
 72
     1
 10
0.0685637618869364
 20
0.1627388300764767
 11
0.0671645013900242
 21
0.1611530015133082
 72
     1
 10
0.0671645013900251
 20
0.1611530015133082
 11
0.0680040576881734
 21
0.1596604569832674
 72
     1
 10
0.0680040576881726
 20
0.1596604569832674
 11
0.0704294425494878
 21
0.1556492435587824
 72
     1
 10
0.0704294425494871
 20
0.1556492435587824
 11
0.0742540879077179
 21
0.1493059293061089
 72
     1
 10
0.0742540879077192
 20
0.1493059293061089
 11
0.0791048576303511
 21
0.1411902184240116
 72
     1
 10
0.0791048576303508
 20
0.1411902184240116
 11
0.0848884676842594
 21
0.1314886789787458
 72
     1
 10
0.0848884676842596
 20
0.1314886789787459
 11
0.0913250659700619
 21
0.1207610151690772
 72
     1
 10
0.0913250659700613
 20
0.1207610151690775
 11
0.0982280844214992
 21
0.1091937950612604
 72
     1
 10
0.0982280844214985
 20
0.1091937950612603
 11
0.1053176709391927
 21
0.0973467228540611
 72
     1
 10
0.105317670939193
 20
0.0973467228540612
 11
0.1124072574568872
 21
0.0854996506468619
 72
     1
 10
0.1124072574568871
 20
0.0854996506468617
 11
0.1193102759083267
 21
0.0739324305390446
 72
     1
 10
0.1193102759083278
 20
0.0739324305390448
 11
0.1257468741941283
 21
0.0632047667293762
 72
     1
 10
0.1257468741941277
 20
0.063204766729376
 11
0.1315304842480362
 21
0.0535032272841102
 72
     1
 10
0.1315304842480365
 20
0.0535032272841104
 11
0.1363812539706702
 21
0.0453875164020132
 72
     1
 10
0.1363812539706699
 20
0.0453875164020132
 11
0.1402058993288989
 21
0.0391374861824667
 72
     1
 10
0.1402058993288988
 20
0.0391374861824669
 11
0.1426312841902157
 21
0.0350329887248546
 72
     1
 10
0.1426312841902164
 20
0.0350329887248547
 11
0.1434708404883648
 21
0.0336337282279412
 72
     1
 10
0.143470840488364
 20
0.0336337282279411
 11
0.2706169776412211
 21
0.0336337282279411
 97
        0
 75
     0
 76
     1
 98
        1
 10
-0.3743130907707726
 20
-0.2500502867693841
1001
ACAD
1010
0.0
1020
0.0
1030
0.0
  0
HATCH
  5
8A4F
330
8A4C
100
AcDbEntity
  8
Kawneer Logo-English
100
AcDbHatch
 10
0.0
 20
0.0
 30
0.0
210
0.0
220
0.0
230
1.0
  2
SOLID
 70
     1
 71
     0
 91
        1
 92
        1
 93
       18
 72
     1
 10
0.0001865656044393
 20
0.2563959993365415
 11
-0.0000000024618153
 21
0.113671428651383
 72
     1
 10
-0.0000000024618159
 20
0.1136714286513832
 11
0.0012126899688416
 21
0.1152572572145516
 72
     1
 10
0.0012126899688421
 20
0.1152572572145516
 11
0.0045709151614355
 21
0.1197348908046738
 72
     1
 10
0.004570915161435
 20
0.119734890804674
 11
0.0098881050497044
 21
0.1268244773223682
 72
     1
 10
0.0098881050497044
 20
0.1268244773223682
 11
0.0166978394680158
 21
0.1359663125688683
 72
     1
 10
0.016697839468016
 20
0.1359663125688683
 11
0.0248135503501131
 21
0.1467872604116651
 72
     1
 10
0.024813550350113
 20
0.1467872604116652
 11
0.0338621015634867
 21
0.1588209006851195
 72
     1
 10
0.0338621015634872
 20
0.1588209006851194
 11
0.0434703569756247
 21
0.1716940972567221
 72
     1
 10
0.0434703569756247
 20
0.1716940972567224
 11
0.0534517485202732
 21
0.1850337139939626
 72
     1
 10
0.0534517485202724
 20
0.1850337139939624
 11
0.0634331400649208
 21
0.1983733307312025
 72
     1
 10
0.0634331400649222
 20
0.1983733307312024
 11
0.0730413954770597
 21
0.2112465273028051
 72
     1
 10
0.0730413954770595
 20
0.2112465273028053
 11
0.0820899466904331
 21
0.2233734516093873
 72
     1
 10
0.0820899466904321
 20
0.2233734516093873
 11
0.0902056575725293
 21
0.2341943994521837
 72
     1
 10
0.0902056575725308
 20
0.2341943994521837
 11
0.0970153919908422
 21
0.2433362346986839
 72
     1
 10
0.0970153919908405
 20
0.2433362346986839
 11
0.1022392978459834
 21
0.2503325371832507
 72
     1
 10
0.1022392978459843
 20
0.2503325371832508
 11
0.1056908070717041
 21
0.2549034548065008
 72
     1
 10
0.1056908070717046
 20
0.254903454806501
 11
0.1069034995023621
 21
0.2564892833696694
 72
     1
 10
0.1069034995023625
 20
0.2564892833696695
 11
0.0001865656044399
 21
0.2563959993365418
 97
        0
 75
     0
 76
     1
 98
        1
 10
-0.3743130907707726
 20
-0.2500502867693841
1001
ACAD
1010
0.0
1020
0.0
1030
0.0
  0
HATCH
  5
8A50
330
8A4C
100
AcDbEntity
  8
Kawneer Logo-English
100
AcDbHatch
 10
0.0
 20
0.0
 30
0.0
210
0.0
220
0.0
230
1.0
  2
SOLID
 70
     1
 71
     0
 91
        2
 92
       16
 93
       76
 72
     1
 10
1.358402087941634
 20
0.1650709309046659
 11
1.358402087941634
 21
0.16796273593162
 72
     1
 10
1.358402087941634
 20
0.1679627359316202
 11
1.358402087941634
 21
0.1729067896873803
 72
     1
 10
1.358402087941634
 20
0.1729067896873803
 11
1.358402087941634
 21
0.1791568199069267
 72
     1
 10
1.358402087941634
 20
0.1791568199069267
 11
1.358402087941634
 21
0.1861531223914932
 72
     1
 10
1.358402087941634
 20
0.186153122391493
 11
1.358402087941634
 21
0.1931494248760595
 72
     1
 10
1.358402087941634
 20
0.1931494248760596
 11
1.358402087941634
 21
0.1994927391287338
 72
     1
 10
1.358402087941634
 20
0.1994927391287336
 11
1.358402087941634
 21
0.2044367928844937
 72
     1
 10
1.358402087941634
 20
0.2044367928844937
 11
1.358402087941634
 21
0.2072353138783208
 72
     1
 10
1.358402087941634
 20
0.2072353138783208
 11
1.359894632471676
 21
0.2072353138783208
 72
     1
 10
1.359894632471676
 20
0.2072353138783208
 11
1.362693153465502
 21
0.2072353138783208
 72
     1
 10
1.362693153465502
 20
0.2072353138783208
 11
1.366424514790605
 21
0.2072353138783208
 72
     1
 10
1.366424514790606
 20
0.2072353138783208
 11
1.371088716446983
 21
0.2072353138783208
 72
     1
 10
1.371088716446982
 20
0.2072353138783208
 11
1.376405906335254
 21
0.2072353138783208
 72
     1
 10
1.376405906335254
 20
0.2072353138783208
 11
1.382282800422289
 21
0.2072353138783208
 72
     1
 10
1.38228280042229
 20
0.2072353138783208
 11
1.388346262575581
 21
0.2072353138783208
 72
     1
 10
1.388346262575579
 20
0.2072353138783208
 11
1.394596292795125
 21
0.2072353138783208
 72
     1
 10
1.394596292795125
 20
0.2072353138783208
 11
1.400753038981545
 21
0.2072353138783208
 72
     1
 10
1.400753038981546
 20
0.2072353138783208
 11
1.406723217101709
 21
0.2072353138783208
 72
     1
 10
1.406723217101708
 20
0.2072353138783208
 11
1.412320259089362
 21
0.2072353138783208
 72
     1
 10
1.412320259089362
 20
0.2072353138783208
 11
1.417264312845122
 21
0.2072353138783208
 72
     1
 10
1.417264312845123
 20
0.2072353138783208
 11
1.421368810302735
 21
0.2072353138783208
 72
     1
 10
1.421368810302734
 20
0.2072353138783208
 11
1.424540467429071
 21
0.2072353138783208
 72
     1
 10
1.424540467429072
 20
0.2072353138783208
 11
1.426592716157878
 21
0.2072353138783208
 72
     1
 10
1.426592716157878
 20
0.2072353138783208
 11
1.427338988422898
 21
0.2072353138783208
 72
     1
 10
1.427338988422898
 20
0.2072353138783208
 11
1.430977065714873
 21
0.207142029845193
 72
     1
 10
1.430977065714872
 20
0.207142029845193
 11
1.434335290907465
 21
0.2068621777458102
 72
     1
 10
1.434335290907465
 20
0.2068621777458102
 11
1.435921119470633
 21
0.2066756096795552
 72
     1
 10
1.435921119470633
 20
0.206675609679555
 11
1.437413664000673
 21
0.2063957575801723
 72
     1
 10
1.437413664000674
 20
0.2063957575801723
 11
1.438906208530714
 21
0.2061159054807895
 72
     1
 10
1.438906208530714
 20
0.2061159054807898
 11
1.440398753060756
 21
0.2056494853151523
 72
     1
 10
1.440398753060756
 20
0.2056494853151521
 11
1.441704729524542
 21
0.2050897811163865
 72
     1
 10
1.441704729524542
 20
0.2050897811163866
 11
1.443010705988328
 21
0.204530076917621
 72
     1
 10
1.443010705988329
 20
0.204530076917621
 11
1.444223398418986
 21
0.2036905206194736
 72
     1
 10
1.444223398418985
 20
0.2036905206194736
 11
1.445436090849643
 21
0.2028509643213252
 72
     1
 10
1.445436090849643
 20
0.2028509643213252
 11
1.446555499247174
 21
0.2018248399569224
 72
     1
 10
1.446555499247173
 20
0.2018248399569223
 11
1.447581623611576
 21
0.2007054315593917
 72
     1
 10
1.447581623611578
 20
0.2007054315593915
 11
1.448607747975981
 21
0.1993061710624781
 72
     1
 10
1.448607747975981
 20
0.1993061710624781
 11
1.449540588307258
 21
0.1978136265324374
 72
     1
 10
1.449540588307256
 20
0.1978136265324373
 11
1.450380144605403
 21
0.1961345139361415
 72
     1
 10
1.450380144605404
 20
0.1961345139361415
 11
1.451126416870426
 21
0.1944554013398453
 72
     1
 10
1.451126416870426
 20
0.1944554013398454
 11
1.451592837036063
 21
0.1929628568098046
 72
     1
 10
1.451592837036062
 20
0.1929628568098046
 11
1.451965973168573
 21
0.1913770282466361
 72
     1
 10
1.451965973168574
 20
0.1913770282466361
 11
1.452245825267955
 21
0.1899777677497231
 72
     1
 10
1.452245825267954
 20
0.1899777677497231
 11
1.452432393334211
 21
0.188671791285937
 72
     1
 10
1.452432393334211
 20
0.1886717912859369
 11
1.452432393334211
 21
0.1874590988552789
 72
     1
 10
1.452432393334211
 20
0.1874590988552789
 11
1.452525677367338
 21
0.1863396904577482
 72
     1
 10
1.452525677367337
 20
0.1863396904577481
 11
1.452432393334211
 21
0.1844740097951972
 72
     1
 10
1.452432393334211
 20
0.1844740097951974
 11
1.452245825267955
 21
0.1827948971989012
 72
     1
 10
1.452245825267954
 20
0.1827948971989009
 11
1.451872689135445
 21
0.1810225005694773
 72
     1
 10
1.451872689135446
 20
0.1810225005694774
 11
1.451406268969809
 21
0.1794366720063093
 72
     1
 10
1.451406268969809
 20
0.1794366720063094
 11
1.450846564771043
 21
0.1779441274762682
 72
     1
 10
1.450846564771041
 20
0.1779441274762681
 11
1.450100292506021
 21
0.1764515829462274
 72
     1
 10
1.450100292506023
 20
0.1764515829462275
 11
1.449260736207875
 21
0.1750523224493141
 72
     1
 10
1.449260736207873
 20
0.1750523224493139
 11
1.448327895876597
 21
0.1737463459855283
 72
     1
 10
1.448327895876596
 20
0.1737463459855281
 11
1.44702191941281
 21
0.1723470854886151
 72
     1
 10
1.447021919412811
 20
0.1723470854886151
 11
1.445715942949025
 21
0.1711343930579568
 72
     1
 10
1.445715942949026
 20
0.1711343930579568
 11
1.444316682452114
 21
0.1700149846604262
 72
     1
 10
1.444316682452114
 20
0.1700149846604259
 11
1.442824137922072
 21
0.168988860296023
 72
     1
 10
1.442824137922072
 20
0.168988860296023
 11
1.441238309358904
 21
0.1682425880310024
 72
     1
 10
1.441238309358902
 20
0.1682425880310024
 11
1.439559196762608
 21
0.1674963157659821
 72
     1
 10
1.439559196762608
 20
0.1674963157659822
 11
1.437880084166311
 21
0.1669366115672166
 72
     1
 10
1.437880084166311
 20
0.1669366115672167
 11
1.436107687536888
 21
0.1664701914015788
 72
     1
 10
1.436107687536888
 20
0.1664701914015789
 11
1.434242006874337
 21
0.166003771235941
 72
     1
 10
1.434242006874337
 20
0.1660037712359412
 11
1.432376326211786
 21
0.1657239191365588
 72
     1
 10
1.432376326211785
 20
0.1657239191365585
 11
1.430417361516107
 21
0.1655373510703035
 72
     1
 10
1.430417361516108
 20
0.1655373510703037
 11
1.428458396820429
 21
0.1653507830040482
 72
     1
 10
1.428458396820428
 20
0.1653507830040482
 11
1.424353899362817
 21
0.1651642149377932
 72
     1
 10
1.424353899362817
 20
0.1651642149377932
 11
1.420156117872077
 21
0.1650709309046658
 72
     1
 10
1.420156117872076
 20
0.1650709309046659
 11
1.41773073301076
 21
0.1650709309046659
 72
     1
 10
1.417730733010761
 20
0.1650709309046659
 11
1.411107566658704
 21
0.1650709309046659
 72
     1
 10
1.411107566658702
 20
0.1650709309046659
 11
1.401779163345947
 21
0.1650709309046659
 72
     1
 10
1.401779163345949
 20
0.1650709309046659
 11
1.390958215503152
 21
0.1650709309046659
 72
     1
 10
1.390958215503152
 20
0.1650709309046659
 11
1.379950699594101
 21
0.1650709309046659
 72
     1
 10
1.379950699594099
 20
0.1650709309046659
 11
1.369969308049451
 21
0.1650709309046659
 72
     1
 10
1.369969308049451
 20
0.1650709309046659
 11
1.362320017332992
 21
0.1650709309046659
 72
     1
 10
1.362320017332992
 20
0.1650709309046659
 11
1.358402087941635
 21
0.1650709309046659
 97
        0
 92
        1
 93
      107
 72
     1
 10
1.443756978253348
 20
0.1485596570410883
 11
1.446928635379685
 21
0.1492126452729816
 72
     1
 10
1.446928635379685
 20
0.1492126452729817
 11
1.449540588307256
 21
0.1498656335048746
 72
     1
 10
1.449540588307256
 20
0.1498656335048745
 11
1.451872689135445
 21
0.1506119057698948
 72
     1
 10
1.451872689135446
 20
0.1506119057698946
 11
1.45401822189738
 21
0.1514514620680426
 72
     1
 10
1.45401822189738
 20
0.1514514620680425
 11
1.455883902559929
 21
0.1521977343330632
 72
     1
 10
1.455883902559929
 20
0.1521977343330631
 11
1.457563015156225
 21
0.1530372906312111
 72
     1
 10
1.457563015156225
 20
0.1530372906312111
 11
1.459148843719394
 21
0.1539701309624869
 72
     1
 10
1.459148843719394
 20
0.1539701309624866
 11
1.460641388249434
 21
0.1549029712937624
 72
     1
 10
1.460641388249434
 20
0.1549029712937622
 11
1.462133932779476
 21
0.155835811625038
 72
     1
 10
1.462133932779476
 20
0.155835811625038
 11
1.463439909243262
 21
0.1568619359894408
 72
     1
 10
1.463439909243262
 20
0.1568619359894408
 11
1.464745885707048
 21
0.1579813443869714
 72
     1
 10
1.464745885707047
 20
0.1579813443869716
 11
1.465865294104579
 21
0.1591007527845022
 72
     1
 10
1.465865294104579
 20
0.1591007527845025
 11
1.466984702502109
 21
0.1602201611820331
 72
     1
 10
1.466984702502108
 20
0.1602201611820328
 11
1.468010826866511
 21
0.1613395695795634
 72
     1
 10
1.468010826866511
 20
0.1613395695795637
 11
1.468943667197788
 21
0.1625522620102216
 72
     1
 10
1.468943667197788
 20
0.1625522620102216
 11
1.469876507529063
 21
0.1636716704077522
 72
     1
 10
1.469876507529063
 20
0.1636716704077524
 11
1.470622779794084
 21
0.1648843628384107
 72
     1
 10
1.470622779794084
 20
0.1648843628384107
 11
1.471462336092232
 21
0.1661903393021964
 72
     1
 10
1.471462336092232
 20
0.1661903393021967
 11
1.472115324324125
 21
0.1674030317328546
 72
     1
 10
1.472115324324124
 20
0.1674030317328546
 11
1.472768312556016
 21
0.1686157241635125
 72
     1
 10
1.472768312556017
 20
0.1686157241635125
 11
1.473328016754783
 21
0.1699217006272986
 72
     1
 10
1.473328016754782
 20
0.1699217006272989
 11
1.47379443692042
 21
0.1711343930579568
 72
     1
 10
1.47379443692042
 20
0.1711343930579568
 11
1.474260857086057
 21
0.1724403695217425
 72
     1
 10
1.474260857086058
 20
0.1724403695217424
 11
1.474727277251697
 21
0.1736530619524008
 72
     1
 10
1.474727277251697
 20
0.173653061952401
 11
1.475380265483589
 21
0.1760784468137175
 72
     1
 10
1.475380265483588
 20
0.1760784468137173
 11
1.475846685649225
 21
0.1785038316750338
 72
     1
 10
1.475846685649226
 20
0.1785038316750335
 11
1.476219821781737
 21
0.1808359325032223
 72
     1
 10
1.476219821781738
 20
0.1808359325032223
 11
1.47649967388112
 21
0.1830747492982838
 72
     1
 10
1.47649967388112
 20
0.1830747492982838
 11
1.476592957914248
 21
0.1851269980270901
 72
     1
 10
1.476592957914248
 20
0.1851269980270902
 11
1.476686241947374
 21
0.1870859627227688
 72
     1
 10
1.476686241947375
 20
0.1870859627227687
 11
1.476592957914249
 21
0.1888583593521923
 72
     1
 10
1.476592957914248
 20
0.1888583593521922
 11
1.476499673881119
 21
0.1906307559816158
 72
     1
 10
1.47649967388112
 20
0.1906307559816159
 11
1.476406389847991
 21
0.1924031526110394
 72
     1
 10
1.476406389847991
 20
0.1924031526110394
 11
1.476126537748608
 21
0.1940822652073352
 72
     1
 10
1.476126537748608
 20
0.1940822652073352
 11
1.475846685649226
 21
0.195761377803631
 72
     1
 10
1.475846685649226
 20
0.1957613778036309
 11
1.475566833549843
 21
0.1974404903999272
 72
     1
 10
1.475566833549843
 20
0.1974404903999272
 11
1.475100413384206
 21
0.1990263189630953
 72
     1
 10
1.475100413384205
 20
0.1990263189630952
 11
1.474633993218568
 21
0.2006121475262637
 72
     1
 10
1.474633993218568
 20
0.2006121475262639
 11
1.47416757305293
 21
0.2021046920563051
 72
     1
 10
1.474167573052932
 20
0.2021046920563049
 11
1.473514584821038
 21
0.2035972365863457
 72
     1
 10
1.473514584821037
 20
0.2035972365863459
 11
1.472954880622271
 21
0.2050897811163867
 72
     1
 10
1.472954880622272
 20
0.2050897811163866
 11
1.472208608357252
 21
0.2064890416133
 72
     1
 10
1.472208608357252
 20
0.2064890416133001
 11
1.471462336092232
 21
0.2078883021102135
 72
     1
 10
1.471462336092232
 20
0.2078883021102136
 11
1.470622779794083
 21
0.2091942785739993
 72
     1
 10
1.470622779794084
 20
0.2091942785739991
 11
1.469783223495935
 21
0.2105002550377848
 72
     1
 10
1.469783223495934
 20
0.2105002550377851
 11
1.468850383164659
 21
0.2118062315015707
 72
     1
 10
1.468850383164661
 20
0.2118062315015709
 11
1.467917542833386
 21
0.2130189239322288
 72
     1
 10
1.467917542833385
 20
0.2130189239322289
 11
1.466891418468982
 21
0.2141383323297595
 72
     1
 10
1.466891418468982
 20
0.2141383323297595
 11
1.465772010071451
 21
0.2153510247604178
 72
     1
 10
1.46577201007145
 20
0.215351024760418
 11
1.464652601673919
 21
0.2163771491248209
 72
     1
 10
1.46465260167392
 20
0.2163771491248209
 11
1.463533193276389
 21
0.2174032734892238
 72
     1
 10
1.463533193276389
 20
0.2174032734892238
 11
1.462227216812603
 21
0.2184293978536266
 72
     1
 10
1.462227216812602
 20
0.2184293978536266
 11
1.461014524381945
 21
0.2193622381849024
 72
     1
 10
1.461014524381946
 20
0.2193622381849023
 11
1.459615263885032
 21
0.2202950785161781
 72
     1
 10
1.459615263885031
 20
0.2202950785161782
 11
1.458309287421245
 21
0.2211346348143262
 72
     1
 10
1.458309287421246
 20
0.221134634814326
 11
1.456816742891206
 21
0.221974191112474
 72
     1
 10
1.456816742891206
 20
0.2219741911124738
 11
1.455417482394292
 21
0.2227204633774945
 72
     1
 10
1.455417482394291
 20
0.2227204633774944
 11
1.453831653831122
 21
0.2233734516093874
 72
     1
 10
1.453831653831123
 20
0.2233734516093873
 11
1.452339109301082
 21
0.2240264398412803
 72
     1
 10
1.452339109301082
 20
0.2240264398412803
 11
1.450659996704785
 21
0.2245861440400459
 72
     1
 10
1.450659996704787
 20
0.2245861440400457
 11
1.44907416814162
 21
0.2251458482388108
 72
     1
 10
1.449074168141619
 20
0.2251458482388109
 11
1.447301771512194
 21
0.2256122684044489
 72
     1
 10
1.447301771512194
 20
0.2256122684044488
 11
1.445249522783388
 21
0.2261719726032139
 72
     1
 10
1.445249522783388
 20
0.226171972603214
 11
1.44329055808771
 21
0.2265451087357246
 72
     1
 10
1.443290558087712
 20
0.2265451087357244
 11
1.441145025325778
 21
0.2269182448682345
 72
     1
 10
1.441145025325776
 20
0.2269182448682345
 11
1.438906208530714
 21
0.2271980969676173
 72
     1
 10
1.438906208530714
 20
0.2271980969676173
 11
1.436387539636271
 21
0.2273846650338724
 72
     1
 10
1.436387539636271
 20
0.2273846650338724
 11
1.433495734609316
 21
0.2275712331001274
 72
     1
 10
1.433495734609317
 20
0.2275712331001274
 11
1.430044225383597
 21
0.2276645171332552
 72
     1
 10
1.430044225383597
 20
0.2276645171332549
 11
1.42612629599224
 21
0.2277578011663822
 72
     1
 10
1.42612629599224
 20
0.2277578011663825
 11
1.426033011959112
 21
0.2277578011663825
 72
     1
 10
1.426033011959111
 20
0.2277578011663825
 11
1.33489451159349
 21
0.2277578011663825
 72
     1
 10
1.334894511593491
 20
0.2277578011663825
 11
1.334894511593491
 21
0.0926825211976832
 72
     1
 10
1.334894511593491
 20
0.0926825211976832
 11
1.358588656007891
 21
0.0926825211976832
 72
     1
 10
1.358588656007891
 20
0.0926825211976832
 11
1.358588656007891
 21
0.0947347699264896
 72
     1
 10
1.358588656007891
 20
0.0947347699264896
 11
1.358588656007891
 21
0.1001452438478876
 72
     1
 10
1.358588656007891
 20
0.1001452438478875
 11
1.358588656007891
 21
0.1079811026306024
 72
     1
 10
1.358588656007891
 20
0.1079811026306024
 11
1.358588656007891
 21
0.1170296538439752
 72
     1
 10
1.358588656007891
 20
0.1170296538439753
 11
1.358588656007891
 21
0.1262647731236032
 72
     1
 10
1.358588656007891
 20
0.1262647731236031
 11
1.358588656007891
 21
0.1347536201382103
 72
     1
 10
1.358588656007891
 20
0.1347536201382104
 11
1.358588656007891
 21
0.1412835024571394
 72
     1
 10
1.358588656007891
 20
0.1412835024571393
 11
1.358588656007891
 21
0.1448282957159864
 72
     1
 10
1.358588656007891
 20
0.1448282957159865
 11
1.362320017332992
 21
0.1448282957159865
 72
     1
 10
1.362320017332992
 20
0.1448282957159865
 11
1.369409603850688
 21
0.1448282957159865
 72
     1
 10
1.369409603850688
 20
0.1448282957159865
 11
1.378738007163443
 21
0.1448282957159865
 72
     1
 10
1.378738007163443
 20
0.1448282957159865
 11
1.388999250807475
 21
0.1448282957159865
 72
     1
 10
1.388999250807473
 20
0.1448282957159865
 11
1.399260494451505
 21
0.1448282957159865
 72
     1
 10
1.399260494451506
 20
0.1448282957159865
 11
1.408215761631749
 21
0.1448282957159865
 72
     1
 10
1.408215761631748
 20
0.1448282957159865
 11
1.414745643950677
 21
0.1448282957159865
 72
     1
 10
1.414745643950678
 20
0.1448282957159865
 11
1.41773073301076
 21
0.1448282957159865
 72
     1
 10
1.417730733010761
 20
0.1448282957159865
 11
1.420062833838949
 21
0.1420297747221594
 72
     1
 10
1.420062833838949
 20
0.1420297747221597
 11
1.425193455660966
 21
0.1359663125688683
 72
     1
 10
1.425193455660965
 20
0.1359663125688683
 11
1.432283042178659
 21
0.1275707495873888
 72
     1
 10
1.432283042178659
 20
0.1275707495873886
 11
1.440305469027628
 21
0.1180557782083779
 72
     1
 10
1.440305469027629
 20
0.1180557782083781
 11
1.448234611843471
 21
0.1087273748956225
 72
     1
 10
1.448234611843471
 20
0.1087273748956225
 11
1.455044346261782
 21
0.1006116640135252
 72
     1
 10
1.455044346261782
 20
0.1006116640135252
 11
1.459895115984414
 21
0.0948280539596167
 72
     1
 10
1.459895115984414
 20
0.0948280539596169
 11
1.461760796646965
 21
0.0926825211976832
 72
     1
 10
1.461760796646967
 20
0.0926825211976832
 11
1.49254452757906
 21
0.0926825211976832
 72
     1
 10
1.492544527579059
 20
0.0926825211976832
 11
1.490678846916508
 21
0.0948280539596169
 72
     1
 10
1.490678846916508
 20
0.0948280539596169
 11
1.48564150912762
 21
0.100518379980398
 72
     1
 10
1.48564150912762
 20
0.1005183799803981
 11
1.478458638576797
 21
0.1088206589287502
 72
     1
 10
1.478458638576798
 20
0.1088206589287502
 11
1.470063075595318
 21
0.1183356303077609
 72
     1
 10
1.470063075595317
 20
0.118335630307761
 11
1.461480944547582
 21
0.1282237378192818
 72
     1
 10
1.461480944547582
 20
0.1282237378192818
 11
1.453551801731739
 21
0.1372722890326546
 72
     1
 10
1.45355180173174
 20
0.1372722890326546
 11
1.447395055545323
 21
0.1444551595834761
 72
     1
 10
1.447395055545323
 20
0.1444551595834759
 11
1.443756978253349
 21
0.1485596570410882
 97
        0
 75
     0
 76
     1
 98
        1
 10
-0.3743130907707726
 20
-0.2500502867693841
1001
ACAD
1010
0.0
1020
0.0
1030
0.0
  0
HATCH
  5
8A51
330
8A4C
100
AcDbEntity
  8
Kawneer Logo-English
100
AcDbHatch
 10
0.0
 20
0.0
 30
0.0
210
0.0
220
0.0
230
1.0
  2
SOLID
 70
     1
 71
     0
 91
        1
 92
        1
 93
       87
 72
     1
 10
1.205602841678699
 20
0.1525708704655737
 11
1.207468522341251
 21
0.1525708704655737
 72
     1
 10
1.207468522341252
 20
0.1525708704655737
 11
1.211199883666355
 21
0.1525708704655737
 72
     1
 10
1.211199883666355
 20
0.1525708704655737
 11
1.216517073554626
 21
0.1525708704655737
 72
     1
 10
1.216517073554626
 20
0.1525708704655737
 11
1.223046955873555
 21
0.1525708704655737
 72
     1
 10
1.223046955873553
 20
0.1525708704655737
 11
1.230602962556885
 21
0.1525708704655737
 72
     1
 10
1.230602962556885
 20
0.1525708704655737
 11
1.238998525538365
 21
0.1525708704655737
 72
     1
 10
1.238998525538365
 20
0.1525708704655737
 11
1.247767224652354
 21
0.1525708704655737
 72
     1
 10
1.247767224652355
 20
0.1525708704655737
 11
1.256815775865728
 21
0.1525708704655737
 72
     1
 10
1.256815775865729
 20
0.1525708704655737
 11
1.265771043045974
 21
0.1525708704655737
 72
     1
 10
1.265771043045973
 20
0.1525708704655737
 11
1.274446458126836
 21
0.1525708704655737
 72
     1
 10
1.274446458126837
 20
0.1525708704655737
 11
1.282562169008935
 21
0.1525708704655737
 72
     1
 10
1.282562169008935
 20
0.1525708704655737
 11
1.289745039559756
 21
0.1525708704655737
 72
     1
 10
1.289745039559755
 20
0.1525708704655737
 11
1.295808501713046
 21
0.1525708704655737
 72
     1
 10
1.295808501713046
 20
0.1525708704655737
 11
1.300472703369423
 21
0.1525708704655737
 72
     1
 10
1.300472703369423
 20
0.1525708704655737
 11
1.303457792429505
 21
0.1525708704655737
 72
     1
 10
1.303457792429505
 20
0.1525708704655737
 11
1.304483916793908
 21
0.1525708704655737
 72
     1
 10
1.304483916793908
 20
0.1525708704655737
 11
1.304483916793908
 21
0.1730000737205081
 72
     1
 10
1.304483916793908
 20
0.1730000737205078
 11
1.303457792429505
 21
0.1730000737205078
 72
     1
 10
1.303457792429505
 20
0.1730000737205078
 11
1.300472703369423
 21
0.1730000737205078
 72
     1
 10
1.300472703369423
 20
0.1730000737205078
 11
1.295808501713045
 21
0.1730000737205078
 72
     1
 10
1.295808501713046
 20
0.1730000737205078
 11
1.289745039559754
 21
0.1730000737205078
 72
     1
 10
1.289745039559755
 20
0.1730000737205078
 11
1.282562169008934
 21
0.1730000737205078
 72
     1
 10
1.282562169008935
 20
0.1730000737205078
 11
1.274446458126837
 21
0.1730000737205078
 72
     1
 10
1.274446458126837
 20
0.1730000737205078
 11
1.265771043045975
 21
0.1730000737205078
 72
     1
 10
1.265771043045973
 20
0.1730000737205078
 11
1.256815775865728
 21
0.1730000737205078
 72
     1
 10
1.256815775865729
 20
0.1730000737205078
 11
1.247767224652355
 21
0.1730000737205078
 72
     1
 10
1.247767224652355
 20
0.1730000737205078
 11
1.238998525538365
 21
0.1730000737205078
 72
     1
 10
1.238998525538365
 20
0.1730000737205078
 11
1.230602962556885
 21
0.1730000737205078
 72
     1
 10
1.230602962556885
 20
0.1730000737205078
 11
1.223046955873553
 21
0.1730000737205078
 72
     1
 10
1.223046955873553
 20
0.1730000737205078
 11
1.216517073554625
 21
0.1730000737205078
 72
     1
 10
1.216517073554626
 20
0.1730000737205078
 11
1.211199883666355
 21
0.1730000737205078
 72
     1
 10
1.211199883666355
 20
0.1730000737205078
 11
1.207468522341252
 21
0.1730000737205078
 72
     1
 10
1.207468522341252
 20
0.1730000737205078
 11
1.205602841678701
 21
0.1730000737205078
 72
     1
 10
1.205602841678699
 20
0.1730000737205078
 11
1.205602841678699
 21
0.1754254585818243
 72
     1
 10
1.205602841678699
 20
0.1754254585818245
 11
1.205602841678699
 21
0.1794366720063095
 72
     1
 10
1.205602841678699
 20
0.1794366720063094
 11
1.205602841678699
 21
0.1843807257620694
 72
     1
 10
1.205602841678699
 20
0.1843807257620694
 11
1.205602841678699
 21
0.1898844837165951
 72
     1
 10
1.205602841678699
 20
0.1898844837165951
 11
1.205602841678699
 21
0.1952949576379935
 72
     1
 10
1.205602841678699
 20
0.1952949576379937
 11
1.205602841678699
 21
0.2003322954268815
 72
     1
 10
1.205602841678699
 20
0.2003322954268814
 11
1.205602841678699
 21
0.2042502248182386
 72
     1
 10
1.205602841678699
 20
0.2042502248182386
 11
1.205602841678699
 21
0.206675609679555
 72
     1
 10
1.205602841678699
 20
0.206675609679555
 11
1.207468522341251
 21
0.206675609679555
 72
     1
 10
1.207468522341252
 20
0.206675609679555
 11
1.211293167699483
 21
0.206675609679555
 72
     1
 10
1.211293167699483
 20
0.206675609679555
 11
1.21670364162088
 21
0.206675609679555
 72
     1
 10
1.216703641620879
 20
0.206675609679555
 11
1.223420092006063
 21
0.206675609679555
 72
     1
 10
1.223420092006064
 20
0.206675609679555
 11
1.231255950788778
 21
0.206675609679555
 72
     1
 10
1.231255950788778
 20
0.206675609679555
 11
1.239744797803386
 21
0.206675609679555
 72
     1
 10
1.239744797803385
 20
0.206675609679555
 11
1.248886633049885
 21
0.206675609679555
 72
     1
 10
1.248886633049885
 20
0.206675609679555
 11
1.258121752329513
 21
0.206675609679555
 72
     1
 10
1.258121752329514
 20
0.206675609679555
 11
1.267356871609143
 21
0.206675609679555
 72
     1
 10
1.267356871609142
 20
0.206675609679555
 11
1.276218854756259
 21
0.206675609679555
 72
     1
 10
1.276218854756259
 20
0.206675609679555
 11
1.284521133704611
 21
0.206675609679555
 72
     1
 10
1.284521133704611
 20
0.206675609679555
 11
1.291890572321688
 21
0.206675609679555
 72
     1
 10
1.291890572321688
 20
0.206675609679555
 11
1.298140602541234
 21
0.206675609679555
 72
     1
 10
1.298140602541234
 20
0.206675609679555
 11
1.30289808823074
 21
0.206675609679555
 72
     1
 10
1.30289808823074
 20
0.206675609679555
 11
1.305976461323949
 21
0.206675609679555
 72
     1
 10
1.305976461323949
 20
0.206675609679555
 11
1.30709586972148
 21
0.206675609679555
 72
     1
 10
1.307095869721479
 20
0.206675609679555
 11
1.307095869721479
 21
0.2277578011663822
 72
     1
 10
1.307095869721479
 20
0.2277578011663825
 11
1.304577200827036
 21
0.2277578011663825
 72
     1
 10
1.304577200827037
 20
0.2277578011663825
 11
1.182188549363684
 21
0.2277578011663825
 72
     1
 10
1.182188549363684
 20
0.2277578011663825
 11
1.182188549363684
 21
0.0926825211976832
 72
     1
 10
1.182188549363684
 20
0.0926825211976832
 11
1.311853355410986
 21
0.0926825211976832
 72
     1
 10
1.311853355410985
 20
0.0926825211976832
 11
1.311853355410985
 21
0.113671428651383
 72
     1
 10
1.311853355410985
 20
0.1136714286513832
 11
1.310733947013454
 21
0.1136714286513832
 72
     1
 10
1.310733947013455
 20
0.1136714286513832
 11
1.307469005853991
 21
0.1136714286513832
 72
     1
 10
1.307469005853991
 20
0.1136714286513832
 11
1.302431668065102
 21
0.1136714286513832
 72
     1
 10
1.302431668065103
 20
0.1136714286513832
 11
1.295901785746174
 21
0.1136714286513832
 72
     1
 10
1.295901785746174
 20
0.1136714286513832
 11
1.288159210996586
 21
0.1136714286513832
 72
     1
 10
1.288159210996587
 20
0.1136714286513832
 11
1.279483795915724
 21
0.1136714286513832
 72
     1
 10
1.279483795915723
 20
0.1136714286513832
 11
1.270155392602968
 21
0.1136714286513832
 72
     1
 10
1.270155392602969
 20
0.1136714286513832
 11
1.260547137190832
 21
0.1136714286513832
 72
     1
 10
1.260547137190831
 20
0.1136714286513832
 11
1.250752313712437
 21
0.1136714286513832
 72
     1
 10
1.250752313712437
 20
0.1136714286513832
 11
1.241330626366554
 21
0.1136714286513832
 72
     1
 10
1.241330626366555
 20
0.1136714286513832
 11
1.23237535918631
 21
0.1136714286513832
 72
     1
 10
1.232375359186308
 20
0.1136714286513832
 11
1.224166364271082
 21
0.1136714286513832
 72
     1
 10
1.224166364271083
 20
0.1136714286513832
 11
1.217170061786517
 21
0.1136714286513832
 72
     1
 10
1.217170061786517
 20
0.1136714286513832
 11
1.211479735765737
 21
0.1136714286513832
 72
     1
 10
1.211479735765737
 20
0.1136714286513832
 11
1.20756180637438
 21
0.1136714286513832
 72
     1
 10
1.207561806374379
 20
0.1136714286513832
 11
1.2056028416787
 21
0.1136714286513832
 72
     1
 10
1.205602841678699
 20
0.1136714286513832
 11
1.205602841678699
 21
0.1163766656120825
 72
     1
 10
1.205602841678699
 20
0.1163766656120823
 11
1.205602841678699
 21
0.1209475832353323
 72
     1
 10
1.205602841678699
 20
0.1209475832353325
 11
1.205602841678699
 21
0.1267311932892411
 72
     1
 10
1.205602841678699
 20
0.1267311932892408
 11
1.205602841678699
 21
0.1330745075419143
 72
     1
 10
1.205602841678699
 20
0.1330745075419144
 11
1.205602841678699
 21
0.1395111058277156
 72
     1
 10
1.205602841678699
 20
0.1395111058277158
 11
1.205602841678699
 21
0.1452947158816239
 72
     1
 10
1.205602841678699
 20
0.145294715881624
 11
1.205602841678699
 21
0.1498656335048746
 72
     1
 10
1.205602841678699
 20
0.1498656335048745
 11
1.205602841678699
 21
0.1525708704655738
 97
        0
 75
     0
 76
     1
 98
        1
 10
-0.3743130907707726
 20
-0.2500502867693841
1001
ACAD
1010
0.0
1020
0.0
1030
0.0
  0
HATCH
  5
8A52
330
8A4C
100
AcDbEntity
  8
Kawneer Logo-English
100
AcDbHatch
 10
0.0
 20
0.0
 30
0.0
210
0.0
220
0.0
230
1.0
  2
SOLID
 70
     1
 71
     0
 91
        1
 92
        1
 93
       87
 72
     1
 10
1.049352086190046
 20
0.1525708704655737
 11
1.051217766852597
 21
0.1525708704655737
 72
     1
 10
1.051217766852596
 20
0.1525708704655737
 11
1.054949128177699
 21
0.1525708704655737
 72
     1
 10
1.0549491281777
 20
0.1525708704655737
 11
1.060173034032843
 21
0.1525708704655737
 72
     1
 10
1.060173034032843
 20
0.1525708704655737
 11
1.0667962003849
 21
0.1525708704655737
 72
     1
 10
1.0667962003849
 20
0.1525708704655737
 11
1.074352207068231
 21
0.1525708704655737
 72
     1
 10
1.074352207068232
 20
0.1525708704655737
 11
1.082747770049711
 21
0.1525708704655737
 72
     1
 10
1.082747770049711
 20
0.1525708704655737
 11
1.0915164691637
 21
0.1525708704655737
 72
     1
 10
1.091516469163701
 20
0.1525708704655737
 11
1.100565020377075
 21
0.1525708704655737
 72
     1
 10
1.100565020377073
 20
0.1525708704655737
 11
1.109520287557319
 21
0.1525708704655737
 72
     1
 10
1.10952028755732
 20
0.1525708704655737
 11
1.118195702638183
 21
0.1525708704655737
 72
     1
 10
1.118195702638182
 20
0.1525708704655737
 11
1.126218129487151
 21
0.1525708704655737
 72
     1
 10
1.126218129487152
 20
0.1525708704655737
 11
1.133401000037974
 21
0.1525708704655737
 72
     1
 10
1.133401000037974
 20
0.1525708704655737
 11
1.139557746224391
 21
0.1525708704655737
 72
     1
 10
1.139557746224392
 20
0.1525708704655737
 11
1.14422194788077
 21
0.1525708704655737
 72
     1
 10
1.144221947880769
 20
0.1525708704655737
 11
1.147207036940851
 21
0.1525708704655737
 72
     1
 10
1.147207036940852
 20
0.1525708704655737
 11
1.148233161305255
 21
0.1525708704655737
 72
     1
 10
1.148233161305255
 20
0.1525708704655737
 11
1.148233161305255
 21
0.1730000737205081
 72
     1
 10
1.148233161305255
 20
0.1730000737205078
 11
1.147207036940852
 21
0.1730000737205078
 72
     1
 10
1.147207036940852
 20
0.1730000737205078
 11
1.14422194788077
 21
0.1730000737205078
 72
     1
 10
1.144221947880769
 20
0.1730000737205078
 11
1.139557746224391
 21
0.1730000737205078
 72
     1
 10
1.139557746224392
 20
0.1730000737205078
 11
1.133494284071101
 21
0.1730000737205078
 72
     1
 10
1.133494284071101
 20
0.1730000737205078
 11
1.126218129487152
 21
0.1730000737205078
 72
     1
 10
1.126218129487152
 20
0.1730000737205078
 11
1.118195702638183
 21
0.1730000737205078
 72
     1
 10
1.118195702638182
 20
0.1730000737205078
 11
1.10952028755732
 21
0.1730000737205078
 72
     1
 10
1.10952028755732
 20
0.1730000737205078
 11
1.100565020377074
 21
0.1730000737205078
 72
     1
 10
1.100565020377073
 20
0.1730000737205078
 11
1.0915164691637
 21
0.1730000737205078
 72
     1
 10
1.091516469163701
 20
0.1730000737205078
 11
1.082747770049712
 21
0.1730000737205078
 72
     1
 10
1.082747770049711
 20
0.1730000737205078
 11
1.074352207068231
 21
0.1730000737205078
 72
     1
 10
1.074352207068232
 20
0.1730000737205078
 11
1.0667962003849
 21
0.1730000737205078
 72
     1
 10
1.0667962003849
 20
0.1730000737205078
 11
1.060173034032843
 21
0.1730000737205078
 72
     1
 10
1.060173034032843
 20
0.1730000737205078
 11
1.054949128177701
 21
0.1730000737205078
 72
     1
 10
1.0549491281777
 20
0.1730000737205078
 11
1.051217766852597
 21
0.1730000737205078
 72
     1
 10
1.051217766852596
 20
0.1730000737205078
 11
1.049352086190045
 21
0.1730000737205078
 72
     1
 10
1.049352086190046
 20
0.1730000737205078
 11
1.049352086190046
 21
0.1754254585818243
 72
     1
 10
1.049352086190046
 20
0.1754254585818245
 11
1.049352086190046
 21
0.1794366720063095
 72
     1
 10
1.049352086190046
 20
0.1794366720063094
 11
1.049352086190046
 21
0.1843807257620694
 72
     1
 10
1.049352086190046
 20
0.1843807257620694
 11
1.049352086190046
 21
0.1898844837165951
 72
     1
 10
1.049352086190046
 20
0.1898844837165951
 11
1.049352086190046
 21
0.1952949576379935
 72
     1
 10
1.049352086190046
 20
0.1952949576379937
 11
1.049352086190046
 21
0.2003322954268815
 72
     1
 10
1.049352086190046
 20
0.2003322954268814
 11
1.049352086190046
 21
0.2042502248182386
 72
     1
 10
1.049352086190046
 20
0.2042502248182386
 11
1.049352086190046
 21
0.206675609679555
 72
     1
 10
1.049352086190046
 20
0.206675609679555
 11
1.051217766852597
 21
0.206675609679555
 72
     1
 10
1.051217766852596
 20
0.206675609679555
 11
1.055042412210825
 21
0.206675609679555
 72
     1
 10
1.055042412210827
 20
0.206675609679555
 11
1.060452886132226
 21
0.206675609679555
 72
     1
 10
1.060452886132225
 20
0.206675609679555
 11
1.067169336517409
 21
0.206675609679555
 72
     1
 10
1.06716933651741
 20
0.206675609679555
 11
1.075005195300124
 21
0.206675609679555
 72
     1
 10
1.075005195300123
 20
0.206675609679555
 11
1.083494042314731
 21
0.206675609679555
 72
     1
 10
1.083494042314732
 20
0.206675609679555
 11
1.092542593528105
 21
0.206675609679555
 72
     1
 10
1.092542593528106
 20
0.206675609679555
 11
1.10187099684086
 21
0.206675609679555
 72
     1
 10
1.101870996840861
 20
0.206675609679555
 11
1.111106116120489
 21
0.206675609679555
 72
     1
 10
1.111106116120488
 20
0.206675609679555
 11
1.119968099267605
 21
0.206675609679555
 72
     1
 10
1.119968099267605
 20
0.206675609679555
 11
1.128270378215957
 21
0.206675609679555
 72
     1
 10
1.128270378215957
 20
0.206675609679555
 11
1.135639816833034
 21
0.206675609679555
 72
     1
 10
1.135639816833034
 20
0.206675609679555
 11
1.14188984705258
 21
0.206675609679555
 72
     1
 10
1.141889847052581
 20
0.206675609679555
 11
1.146647332742086
 21
0.206675609679555
 72
     1
 10
1.146647332742086
 20
0.206675609679555
 11
1.149725705835295
 21
0.206675609679555
 72
     1
 10
1.149725705835296
 20
0.206675609679555
 11
1.150845114232827
 21
0.206675609679555
 72
     1
 10
1.150845114232826
 20
0.206675609679555
 11
1.150845114232826
 21
0.2277578011663822
 72
     1
 10
1.150845114232826
 20
0.2277578011663825
 11
1.148326445338383
 21
0.2277578011663825
 72
     1
 10
1.148326445338383
 20
0.2277578011663825
 11
1.025937793875031
 21
0.2277578011663825
 72
     1
 10
1.025937793875032
 20
0.2277578011663825
 11
1.025937793875032
 21
0.0926825211976832
 72
     1
 10
1.025937793875032
 20
0.0926825211976832
 11
1.155602599922332
 21
0.0926825211976832
 72
     1
 10
1.155602599922332
 20
0.0926825211976832
 11
1.155602599922332
 21
0.113671428651383
 72
     1
 10
1.155602599922332
 20
0.1136714286513832
 11
1.154483191524801
 21
0.1136714286513832
 72
     1
 10
1.154483191524799
 20
0.1136714286513832
 11
1.151218250365336
 21
0.1136714286513832
 72
     1
 10
1.151218250365338
 20
0.1136714286513832
 11
1.146180912576449
 21
0.1136714286513832
 72
     1
 10
1.146180912576449
 20
0.1136714286513832
 11
1.13965103025752
 21
0.1136714286513832
 72
     1
 10
1.13965103025752
 20
0.1136714286513832
 11
1.131908455507932
 21
0.1136714286513832
 72
     1
 10
1.131908455507931
 20
0.1136714286513832
 11
1.12323304042707
 21
0.1136714286513832
 72
     1
 10
1.123233040427071
 20
0.1136714286513832
 11
1.113904637114314
 21
0.1136714286513832
 72
     1
 10
1.113904637114314
 20
0.1136714286513832
 11
1.104296381702177
 21
0.1136714286513832
 72
     1
 10
1.104296381702177
 20
0.1136714286513832
 11
1.094501558223783
 21
0.1136714286513832
 72
     1
 10
1.094501558223784
 20
0.1136714286513832
 11
1.085079870877901
 21
0.1136714286513832
 72
     1
 10
1.085079870877899
 20
0.1136714286513832
 11
1.076124603697654
 21
0.1136714286513832
 72
     1
 10
1.076124603697655
 20
0.1136714286513832
 11
1.067915608782429
 21
0.1136714286513832
 72
     1
 10
1.067915608782429
 20
0.1136714286513832
 11
1.060919306297863
 21
0.1136714286513832
 72
     1
 10
1.060919306297863
 20
0.1136714286513832
 11
1.055228980277083
 21
0.1136714286513832
 72
     1
 10
1.055228980277082
 20
0.1136714286513832
 11
1.051311050885725
 21
0.1136714286513832
 72
     1
 10
1.051311050885726
 20
0.1136714286513832
 11
1.049352086190046
 21
0.1136714286513832
 72
     1
 10
1.049352086190046
 20
0.1136714286513832
 11
1.049352086190046
 21
0.1163766656120825
 72
     1
 10
1.049352086190046
 20
0.1163766656120823
 11
1.049352086190046
 21
0.1209475832353323
 72
     1
 10
1.049352086190046
 20
0.1209475832353325
 11
1.049352086190046
 21
0.1267311932892411
 72
     1
 10
1.049352086190046
 20
0.1267311932892408
 11
1.049352086190046
 21
0.1330745075419143
 72
     1
 10
1.049352086190046
 20
0.1330745075419144
 11
1.049352086190046
 21
0.1395111058277156
 72
     1
 10
1.049352086190046
 20
0.1395111058277158
 11
1.049352086190046
 21
0.1452947158816239
 72
     1
 10
1.049352086190046
 20
0.145294715881624
 11
1.049352086190046
 21
0.1498656335048746
 72
     1
 10
1.049352086190046
 20
0.1498656335048745
 11
1.049352086190046
 21
0.1525708704655738
 97
        0
 75
     0
 76
     1
 98
        1
 10
-0.3743130907707726
 20
-0.2500502867693841
1001
ACAD
1010
0.0
1020
0.0
1030
0.0
  0
HATCH
  5
8A53
330
8A4C
100
AcDbEntity
  8
Kawneer Logo-English
100
AcDbHatch
 10
0.0
 20
0.0
 30
0.0
210
0.0
220
0.0
230
1.0
  2
SOLID
 70
     1
 71
     0
 91
        1
 92
        1
 93
       42
 72
     1
 10
0.9725793269260698
 20
0.2277578011663825
 11
0.9725793269260698
 21
0.1354998924032311
 72
     1
 10
0.9725793269260698
 20
0.1354998924032311
 11
0.9729524630585808
 21
0.1264513411898582
 72
     1
 10
0.9729524630585796
 20
0.1264513411898583
 11
0.9729524630585796
 21
0.1255185008585825
 72
     1
 10
0.9729524630585796
 20
0.1255185008585824
 11
0.9731390311248343
 21
0.1238393882622866
 72
     1
 10
0.9731390311248349
 20
0.1238393882622866
 11
0.9717397706279211
 21
0.1254252168254551
 72
     1
 10
0.97173977062792
 20
0.1254252168254551
 11
0.9710867823960281
 21
0.1262647731236031
 72
     1
 10
0.9710867823960294
 20
0.1262647731236031
 11
0.9641837639445897
 21
0.1339140638400625
 72
     1
 10
0.9641837639445899
 20
0.1339140638400624
 11
0.8755639324734129
 21
0.2277578011663823
 72
     1
 10
0.8755639324734115
 20
0.2277578011663825
 11
0.8529891964565429
 21
0.2277578011663825
 72
     1
 10
0.8529891964565434
 20
0.2277578011663825
 11
0.8529891964565434
 21
0.0926825211976832
 72
     1
 10
0.8529891964565434
 20
0.0926825211976832
 11
0.8756572165065401
 21
0.0926825211976832
 72
     1
 10
0.875657216506541
 20
0.0926825211976832
 11
0.875657216506541
 21
0.1927762887435495
 72
     1
 10
0.875657216506541
 20
0.1927762887435495
 11
0.875657216506541
 21
0.1931494248760597
 72
     1
 10
0.875657216506541
 20
0.1931494248760596
 11
0.8755639324734129
 21
0.193988981174208
 72
     1
 10
0.8755639324734115
 20
0.1939889811742079
 11
0.8754706484402849
 21
0.1952949576379935
 72
     1
 10
0.8754706484402859
 20
0.1952949576379937
 11
0.8753773644071577
 21
0.1967875021680344
 72
     1
 10
0.875377364407158
 20
0.1967875021680343
 11
0.8755639324734126
 21
0.1965076500686515
 72
     1
 10
0.8755639324734115
 20
0.1965076500686517
 11
0.8756572165065396
 21
0.1963210820023967
 72
     1
 10
0.875657216506541
 20
0.1963210820023967
 11
0.8764967728046894
 21
0.1954815257042487
 72
     1
 10
0.8764967728046887
 20
0.1954815257042488
 11
0.8781758854009835
 21
0.1936158450416976
 72
     1
 10
0.8781758854009842
 20
0.1936158450416973
 11
0.8797617139641527
 21
0.1917501643791464
 72
     1
 10
0.879761713964152
 20
0.1917501643791466
 11
0.8805079862291723
 21
0.1909106080809982
 72
     1
 10
0.8805079862291727
 20
0.190910608080998
 11
0.8816273946267036
 21
0.1897911996834678
 72
     1
 10
0.8816273946267028
 20
0.1897911996834681
 11
0.884519199653657
 21
0.1867128265902584
 72
     1
 10
0.8845191996536581
 20
0.1867128265902582
 11
0.8891834013100353
 21
0.1818620568676254
 72
     1
 10
0.889183401310035
 20
0.1818620568676252
 11
0.8951535794301982
 21
0.1756120266480794
 72
     1
 10
0.8951535794301985
 20
0.1756120266480794
 11
0.9021498819147662
 21
0.1681493039978751
 72
     1
 10
0.9021498819147669
 20
0.1681493039978752
 11
0.9099857406974814
 21
0.1598470250495227
 72
     1
 10
0.9099857406974813
 20
0.1598470250495225
 11
0.9183813036789613
 21
0.1509850419024051
 72
     1
 10
0.9183813036789612
 20
0.1509850419024052
 11
0.9271500027929521
 21
0.1418432066559046
 72
     1
 10
0.9271500027929509
 20
0.1418432066559046
 11
0.9358254178738118
 21
0.1326080873762767
 72
     1
 10
0.9358254178738132
 20
0.1326080873762767
 11
0.9442209808552931
 21
0.1237461042291589
 72
     1
 10
0.9442209808552931
 20
0.1237461042291589
 11
0.9520568396380092
 21
0.1154438252808068
 72
     1
 10
0.9520568396380092
 20
0.1154438252808068
 11
0.9590531421225751
 21
0.1079811026306025
 72
     1
 10
0.959053142122574
 20
0.1079811026306024
 11
0.9650233202427372
 21
0.101731072411056
 72
     1
 10
0.9650233202427376
 20
0.101731072411056
 11
0.9695942378659868
 21
0.0968803026884232
 72
     1
 10
0.9695942378659871
 20
0.096880302688423
 11
0.9725793269260696
 21
0.0938019295952138
 72
     1
 10
0.9725793269260698
 20
0.093801929595214
 11
0.9736054512904727
 21
0.0926825211976834
 72
     1
 10
0.9736054512904726
 20
0.0926825211976832
 11
0.9952473469760661
 21
0.0926825211976832
 72
     1
 10
0.9952473469760651
 20
0.0926825211976832
 11
0.9952473469760651
 21
0.2277578011663825
 72
     1
 10
0.9952473469760651
 20
0.2277578011663825
 11
0.9927286780816201
 21
0.2277578011663825
 72
     1
 10
0.9927286780816203
 20
0.2277578011663825
 11
0.9725793269260686
 21
0.2277578011663825
 97
        0
 75
     0
 76
     1
 98
        1
 10
-0.3743130907707726
 20
-0.2500502867693841
1001
ACAD
1010
0.0
1020
0.0
1030
0.0
  0
HATCH
  5
8A54
330
8A4C
100
AcDbEntity
  8
Kawneer Logo-English
100
AcDbHatch
 10
0.0
 20
0.0
 30
0.0
210
0.0
220
0.0
230
1.0
  2
SOLID
 70
     1
 71
     0
 91
        2
 92
       16
 93
       32
 72
     1
 10
0.5269615006757409
 20
0.144641727649731
 11
0.5290137494045469
 21
0.148652941074216
 72
     1
 10
0.5290137494045464
 20
0.1486529410742159
 11
0.5322786905640116
 21
0.1551828233931449
 72
     1
 10
0.532278690564012
 20
0.1551828233931452
 11
0.5364764720547521
 21
0.1633918183083696
 72
     1
 10
0.5364764720547526
 20
0.1633918183083696
 11
0.5409541056448736
 21
0.1722538014554874
 72
     1
 10
0.5409541056448726
 20
0.1722538014554873
 11
0.545338455201869
 21
0.1808359325032223
 72
     1
 10
0.5453384552018701
 20
0.1808359325032223
 11
0.5490698165269726
 21
0.1882053711202994
 72
     1
 10
0.549069816526973
 20
0.1882053711202996
 11
0.5515884854214162
 21
0.1932427089091875
 72
     1
 10
0.5515884854214148
 20
0.1932427089091872
 11
0.5526146097858177
 21
0.1952016736048658
 72
     1
 10
0.5526146097858194
 20
0.1952016736048658
 11
0.552801177852074
 21
0.195761377803631
 72
     1
 10
0.5528011778520723
 20
0.1957613778036309
 11
0.5533608820508379
 21
0.1970673542674166
 72
     1
 10
0.5533608820508378
 20
0.1970673542674169
 11
0.5542004383489863
 21
0.1990263189630955
 72
     1
 10
0.5542004383489872
 20
0.1990263189630952
 11
0.5550399946471356
 21
0.2012651357581567
 72
     1
 10
0.5550399946471352
 20
0.2012651357581567
 11
0.5555064148127727
 21
0.2001457273606265
 72
     1
 10
0.5555064148127729
 20
0.2001457273606264
 11
0.5560661190115385
 21
0.198933034929968
 72
     1
 10
0.5560661190115379
 20
0.198933034929968
 11
0.5567191072434298
 21
0.197533774433055
 72
     1
 10
0.5567191072434304
 20
0.197533774433055
 11
0.5574653795084506
 21
0.1959479458698865
 72
     1
 10
0.557465379508451
 20
0.1959479458698865
 11
0.5583049358065995
 21
0.1942688332735902
 72
     1
 10
0.5583049358065986
 20
0.1942688332735903
 11
0.5606370366347874
 21
0.1896046316172126
 72
     1
 10
0.5606370366347871
 20
0.1896046316172126
 11
0.5639952618273804
 21
0.1828881812320289
 72
     1
 10
0.5639952618273814
 20
0.1828881812320287
 11
0.5680064752518651
 21
0.1748657543830587
 72
     1
 10
0.5680064752518637
 20
0.1748657543830589
 11
0.57239082480886
 21
0.1661903393021966
 72
     1
 10
0.5723908248088612
 20
0.1661903393021967
 11
0.5765886062996012
 21
0.1577947763207168
 72
     1
 10
0.5765886062996
 20
0.1577947763207165
 11
0.5803199676247008
 21
0.1503320536705122
 72
     1
 10
0.5803199676247015
 20
0.1503320536705122
 11
0.5831184886185295
 21
0.144641727649731
 72
     1
 10
0.5831184886185295
 20
0.144641727649731
 11
0.5791072751940441
 21
0.144641727649731
 72
     1
 10
0.5791072751940436
 20
0.144641727649731
 11
0.5724841088419869
 21
0.144641727649731
 72
     1
 10
0.5724841088419872
 20
0.144641727649731
 11
0.5641818298936356
 21
0.144641727649731
 72
     1
 10
0.5641818298936352
 20
0.144641727649731
 11
0.5550399946471351
 21
0.144641727649731
 72
     1
 10
0.5550399946471352
 20
0.144641727649731
 11
0.5458981594006351
 21
0.144641727649731
 72
     1
 10
0.5458981594006352
 20
0.144641727649731
 11
0.5375958804522815
 21
0.144641727649731
 72
     1
 10
0.5375958804522814
 20
0.144641727649731
 11
0.5310659981333528
 21
0.144641727649731
 72
     1
 10
0.5310659981333524
 20
0.144641727649731
 11
0.5269615006757405
 21
0.144641727649731
 97
        0
 92
        1
 93
      141
 72
     1
 10
0.5656743744236757
 20
0.2277578011663825
 11
0.544405614870593
 21
0.2277578011663825
 72
     1
 10
0.544405614870593
 20
0.2277578011663825
 11
0.4748157261574382
 21
0.0934287934627039
 72
     1
 10
0.4748157261574378
 20
0.0934287934627039
 11
0.4729500454948865
 21
0.0955743262246376
 72
     1
 10
0.4729500454948874
 20
0.0955743262246376
 11
0.4699649564348049
 21
0.0991191194834847
 72
     1
 10
0.4699649564348043
 20
0.0991191194834847
 11
0.4661403110765752
 21
0.1036900371067346
 72
     1
 10
0.4661403110765754
 20
0.1036900371067347
 11
0.4615693934533244
 21
0.1091005110281331
 72
     1
 10
0.461569393453325
 20
0.109100511028133
 11
0.456345487598182
 21
0.1152572572145517
 72
     1
 10
0.4563454875981812
 20
0.1152572572145516
 11
0.4506551615774008
 21
0.1219737075997353
 72
     1
 10
0.4506551615774015
 20
0.1219737075997354
 11
0.4447782674903648
 21
0.1290632941174296
 72
     1
 10
0.4447782674903636
 20
0.1290632941174296
 11
0.4387148053370722
 21
0.1362461646682511
 72
     1
 10
0.4387148053370727
 20
0.1362461646682512
 11
0.4326513431837832
 21
0.1433357511859454
 72
     1
 10
0.4326513431837844
 20
0.1433357511859453
 11
0.4268677331298759
 21
0.1502387696373844
 72
     1
 10
0.4268677331298756
 20
0.1502387696373844
 11
0.4214572592084763
 21
0.1566753679231857
 72
     1
 10
0.4214572592084754
 20
0.1566753679231858
 11
0.4165132054527153
 21
0.1625522620102216
 72
     1
 10
0.4165132054527163
 20
0.1625522620102216
 11
0.4123154239619763
 21
0.1674963157659821
 72
     1
 10
0.4123154239619753
 20
0.1674963157659822
 11
0.4088639147362555
 21
0.1715075291904667
 72
     1
 10
0.4088639147362568
 20
0.1715075291904669
 11
0.4065318139080681
 21
0.1743993342174211
 72
     1
 10
0.4065318139080665
 20
0.1743993342174211
 11
0.405319121477409
 21
0.1757985947143345
 72
     1
 10
0.4053191214774104
 20
0.1757985947143345
 11
0.4067183819743243
 21
0.1769180031118651
 72
     1
 10
0.4067183819743235
 20
0.1769180031118651
 11
0.4094236189350213
 21
0.1788769678075437
 72
     1
 10
0.4094236189350218
 20
0.1788769678075437
 11
0.4132482642932526
 21
0.1816754888013702
 72
     1
 10
0.4132482642932525
 20
0.1816754888013703
 11
0.4179124659496298
 21
0.1852202820602174
 72
     1
 10
0.417912465949629
 20
0.1852202820602174
 11
0.4232296558379
 21
0.189138211451575
 72
     1
 10
0.4232296558379001
 20
0.1891382114515751
 11
0.4291065499249351
 21
0.1935225610085696
 72
     1
 10
0.4291065499249367
 20
0.1935225610085698
 11
0.4352632961113562
 21
0.1981867626649482
 72
     1
 10
0.4352632961113554
 20
0.1981867626649479
 11
0.4416066103640296
 21
0.2028509643213252
 72
     1
 10
0.4416066103640293
 20
0.2028509643213252
 11
0.4479499246167016
 21
0.2076084500108307
 72
     1
 10
0.4479499246167018
 20
0.2076084500108307
 11
0.4540133867699932
 21
0.2120860836009535
 72
     1
 10
0.4540133867699927
 20
0.2120860836009535
 11
0.4596104287576467
 21
0.2162838650916932
 72
     1
 10
0.4596104287576468
 20
0.216283865091693
 11
0.4646477665465351
 21
0.2200152264167952
 72
     1
 10
0.464647766546535
 20
0.2200152264167951
 11
0.4689388320704013
 21
0.223186883543132
 72
     1
 10
0.4689388320704016
 20
0.2231868835431323
 11
0.4721104891967386
 21
0.2256122684044488
 72
     1
 10
0.4721104891967376
 20
0.2256122684044488
 11
0.4742560219586717
 21
0.2271980969676172
 72
     1
 10
0.4742560219586727
 20
0.2271980969676173
 11
0.475002294223693
 21
0.2277578011663825
 72
     1
 10
0.4750022942236929
 20
0.2277578011663825
 11
0.4674462875403612
 21
0.2277578011663825
 72
     1
 10
0.4674462875403611
 20
0.2277578011663825
 11
0.4395543616352215
 21
0.2277578011663825
 72
     1
 10
0.439554361635222
 20
0.2277578011663825
 11
0.4386215213039473
 21
0.2270115289013622
 72
     1
 10
0.4386215213039466
 20
0.2270115289013622
 11
0.4359162843432469
 21
0.2250525642056836
 72
     1
 10
0.4359162843432465
 20
0.2250525642056836
 11
0.4318117868856346
 21
0.2220674751456017
 72
     1
 10
0.4318117868856351
 20
0.2220674751456017
 11
0.4264013129642376
 21
0.2180562617211167
 72
     1
 10
0.4264013129642379
 20
0.2180562617211168
 11
0.4200579987115638
 21
0.2132987760316117
 72
     1
 10
0.4200579987115641
 20
0.2132987760316114
 11
0.4128751281607416
 21
0.2079815861433408
 72
     1
 10
0.4128751281607408
 20
0.2079815861433408
 11
0.4051325534111546
 21
0.20229126012256
 72
     1
 10
0.4051325534111552
 20
0.20229126012256
 11
0.397016842529058
 21
0.1963210820023964
 72
     1
 10
0.3970168425290583
 20
0.1963210820023967
 11
0.3889011316469611
 21
0.1903509038822331
 72
     1
 10
0.3889011316469611
 20
0.190350903882233
 11
0.3808787047979902
 21
0.1844740097951972
 72
     1
 10
0.3808787047979898
 20
0.1844740097951974
 11
0.3733226981146581
 21
0.1787836837744166
 72
     1
 10
0.373322698114658
 20
0.1787836837744166
 11
0.3663263956300919
 21
0.173653061952401
 72
     1
 10
0.3663263956300931
 20
0.173653061952401
 11
0.3601696494436735
 21
0.169082144329151
 72
     1
 10
0.3601696494436726
 20
0.1690821443291508
 11
0.3550390276216579
 21
0.1653507830040483
 72
     1
 10
0.3550390276216584
 20
0.1653507830040482
 11
0.3513076662965558
 21
0.1625522620102218
 72
     1
 10
0.3513076662965551
 20
0.1625522620102216
 11
0.3490688495014928
 21
0.1609664334470531
 72
     1
 10
0.3490688495014926
 20
0.1609664334470531
 11
0.3490688495014926
 21
0.1631119662089868
 72
     1
 10
0.3490688495014926
 20
0.1631119662089868
 11
0.3490688495014926
 21
0.1662836233353237
 72
     1
 10
0.3490688495014926
 20
0.1662836233353238
 11
0.3490688495014926
 21
0.1702948367598088
 72
     1
 10
0.3490688495014926
 20
0.1702948367598088
 11
0.3490688495014926
 21
0.1749590384161865
 72
     1
 10
0.3490688495014926
 20
0.1749590384161865
 11
0.3490688495014926
 21
0.1801829442713294
 72
     1
 10
0.3490688495014926
 20
0.1801829442713296
 11
0.3490688495014926
 21
0.185779986258983
 72
     1
 10
0.3490688495014926
 20
0.1857799862589829
 11
0.3490688495014926
 21
0.1916568803460187
 72
     1
 10
0.3490688495014926
 20
0.1916568803460186
 11
0.3490688495014926
 21
0.1975337744330549
 72
     1
 10
0.3490688495014926
 20
0.197533774433055
 11
0.3490688495014926
 21
0.2033173844869632
 72
     1
 10
0.3490688495014926
 20
0.2033173844869631
 11
0.3490688495014926
 21
0.2088211424414888
 72
     1
 10
0.3490688495014926
 20
0.2088211424414888
 11
0.3490688495014926
 21
0.2139517642635044
 72
     1
 10
0.3490688495014926
 20
0.2139517642635044
 11
0.3490688495014926
 21
0.2185226818867544
 72
     1
 10
0.3490688495014926
 20
0.2185226818867545
 11
0.3490688495014926
 21
0.2222540432118567
 72
     1
 10
0.3490688495014926
 20
0.2222540432118567
 11
0.3490688495014926
 21
0.2252391322719387
 72
     1
 10
0.3490688495014926
 20
0.2252391322719387
 11
0.3490688495014926
 21
0.2271048129344895
 72
     1
 10
0.3490688495014926
 20
0.2271048129344895
 11
0.3490688495014926
 21
0.2277578011663825
 72
     1
 10
0.3490688495014926
 20
0.2277578011663825
 11
0.3258411252527322
 21
0.2277578011663825
 72
     1
 10
0.3258411252527336
 20
0.2277578011663825
 11
0.3258411252527336
 21
0.0926825211976832
 72
     1
 10
0.3258411252527336
 20
0.0926825211976832
 11
0.3486957133689848
 21
0.0926825211976832
 72
     1
 10
0.3486957133689845
 20
0.0926825211976832
 11
0.3486957133689845
 21
0.0943616337939795
 72
     1
 10
0.3486957133689845
 20
0.0943616337939795
 11
0.3486957133689845
 21
0.0988392673841017
 72
     1
 10
0.3486957133689845
 20
0.0988392673841017
 11
0.3486957133689845
 21
0.1051825816367752
 72
     1
 10
0.3486957133689845
 20
0.1051825816367753
 11
0.3486957133689845
 21
0.1125520202538523
 72
     1
 10
0.3486957133689845
 20
0.1125520202538524
 11
0.3486957133689845
 21
0.1200147429040567
 72
     1
 10
0.3486957133689845
 20
0.1200147429040567
 11
0.3486957133689845
 21
0.1267311932892408
 72
     1
 10
0.3486957133689845
 20
0.1267311932892408
 11
0.3486957133689845
 21
0.1317685310781287
 72
     1
 10
0.3486957133689845
 20
0.1317685310781289
 11
0.3486957133689845
 21
0.1342871999725727
 72
     1
 10
0.3486957133689845
 20
0.1342871999725725
 11
0.3507479620977905
 21
0.1356864604694859
 72
     1
 10
0.35074796209779
 20
0.1356864604694859
 11
0.3548524595554018
 21
0.1387648335626952
 72
     1
 10
0.3548524595554015
 20
0.1387648335626952
 11
0.3605427855761835
 21
0.1428693310203079
 72
     1
 10
0.3605427855761842
 20
0.1428693310203079
 11
0.3668860998288565
 21
0.1476268167098129
 72
     1
 10
0.3668860998288568
 20
0.1476268167098129
 11
0.373322698114659
 21
0.1522910183661906
 72
     1
 10
0.373322698114658
 20
0.1522910183661908
 11
0.3791995922016947
 21
0.1565820838900582
 72
     1
 10
0.3791995922016946
 20
0.1565820838900582
 11
0.3836772257918156
 21
0.1599403090826502
 72
     1
 10
0.3836772257918159
 20
0.1599403090826503
 11
0.386195894686261
 21
0.1618059897452011
 72
     1
 10
0.3861958946862609
 20
0.1618059897452011
 11
0.3873153030837921
 21
0.1604067292482882
 72
     1
 10
0.3873153030837915
 20
0.1604067292482878
 11
0.3894608358457238
 21
0.1577947763207163
 72
     1
 10
0.3894608358457248
 20
0.1577947763207165
 11
0.3925392089389353
 21
0.1541566990287417
 72
     1
 10
0.3925392089389348
 20
0.1541566990287417
 11
0.396457138330292
 21
0.149492497372364
 72
     1
 10
0.3964571383302933
 20
0.149492497372364
 11
0.4009347719204161
 21
0.1442685915172211
 72
     1
 10
0.4009347719204146
 20
0.1442685915172209
 11
0.4057855416430466
 21
0.138391697430185
 72
     1
 10
0.4057855416430463
 20
0.1383916974301853
 11
0.4109161634650628
 21
0.1322349512437666
 72
     1
 10
0.410916163465064
 20
0.1322349512437666
 11
0.4162333533533335
 21
0.1259849210242201
 72
     1
 10
0.4162333533533334
 20
0.1259849210242201
 11
0.4215505432416044
 21
0.1196416067715466
 72
     1
 10
0.4215505432416045
 20
0.1196416067715466
 11
0.4265878810304927
 21
0.113671428651383
 72
     1
 10
0.4265878810304931
 20
0.1136714286513832
 11
0.4312520826868704
 21
0.1079811026306024
 72
     1
 10
0.4312520826868696
 20
0.1079811026306024
 11
0.4355431482107378
 21
0.1029437648417141
 72
     1
 10
0.435543148210738
 20
0.1029437648417139
 11
0.4390879414695842
 21
0.0987459833509739
 72
     1
 10
0.4390879414695843
 20
0.0987459833509741
 11
0.4417931784302841
 21
0.0954810421915098
 72
     1
 10
0.4417931784302845
 20
0.0954810421915096
 11
0.4435655750597076
 21
0.0934287934627037
 72
     1
 10
0.4435655750597074
 20
0.0934287934627039
 11
0.4442185632915993
 21
0.0926825211976832
 72
     1
 10
0.4442185632915985
 20
0.0926825211976832
 11
0.4743493059918004
 21
0.0926825211976832
 72
     1
 10
0.4743493059918001
 20
0.0926825211976832
 11
0.4753754303562029
 21
0.0926825211976832
 72
     1
 10
0.4753754303562033
 20
0.0926825211976832
 11
0.5008419714000258
 21
0.0926825211976832
 72
     1
 10
0.5008419714000265
 20
0.0926825211976832
 11
0.5014949596319184
 21
0.0939884976614689
 72
     1
 10
0.501494959631919
 20
0.0939884976614688
 11
0.5031740722282155
 21
0.0973467228540609
 72
     1
 10
0.503174072228215
 20
0.0973467228540612
 11
0.5055061730564038
 21
0.1021042085435666
 72
     1
 10
0.505506173056403
 20
0.1021042085435665
 11
0.5083046940502291
 21
0.1077012505312196
 72
     1
 10
0.5083046940502292
 20
0.1077012505312194
 11
0.5111032150440553
 21
0.1134848605851279
 72
     1
 10
0.5111032150440549
 20
0.1134848605851281
 11
0.5137151679716264
 21
0.1186154824071433
 72
     1
 10
0.5137151679716277
 20
0.1186154824071433
 11
0.5156741326673071
 21
0.1226266958316283
 72
     1
 10
0.5156741326673076
 20
0.122626695831628
 11
0.5167002570317104
 21
0.1247722285935621
 72
     1
 10
0.5167002570317103
 20
0.1247722285935622
 11
0.5180062334954961
 21
0.1247722285935622
 72
     1
 10
0.5180062334954961
 20
0.1247722285935622
 11
0.5207114704561957
 21
0.1247722285935622
 72
     1
 10
0.5207114704561944
 20
0.1247722285935622
 11
0.5246293998475517
 21
0.1247722285935622
 72
     1
 10
0.5246293998475525
 20
0.1247722285935622
 11
0.5295734536033125
 21
0.1247722285935622
 72
     1
 10
0.5295734536033115
 20
0.1247722285935622
 11
0.5352637796240919
 21
0.1247722285935622
 72
     1
 10
0.5352637796240929
 20
0.1247722285935622
 11
0.5415138098436386
 21
0.1247722285935622
 72
     1
 10
0.5415138098436394
 20
0.1247722285935622
 11
0.5482302602288245
 21
0.1247722285935622
 72
     1
 10
0.5482302602288236
 20
0.1247722285935622
 11
0.5551332786802616
 21
0.1247722285935622
 72
     1
 10
0.5551332786802608
 20
0.1247722285935622
 11
0.5620362971317004
 21
0.1247722285935622
 72
     1
 10
0.5620362971317015
 20
0.1247722285935622
 11
0.5687527475168847
 21
0.1247722285935622
 72
     1
 10
0.5687527475168839
 20
0.1247722285935622
 11
0.5750027777364317
 21
0.1247722285935622
 72
     1
 10
0.5750027777364322
 20
0.1247722285935622
 11
0.5806931037572126
 21
0.1247722285935622
 72
     1
 10
0.5806931037572119
 20
0.1247722285935622
 11
0.585637157512972
 21
0.1247722285935622
 72
     1
 10
0.5856371575129727
 20
0.1247722285935622
 11
0.5895550869043299
 21
0.1247722285935622
 72
     1
 10
0.5895550869043289
 20
0.1247722285935622
 11
0.5922603238650286
 21
0.1247722285935622
 72
     1
 10
0.5922603238650291
 20
0.1247722285935622
 11
0.5935663003288148
 21
0.1247722285935622
 72
     1
 10
0.5935663003288148
 20
0.1247722285935622
 11
0.5945924246932176
 21
0.1226266958316281
 72
     1
 10
0.5945924246932175
 20
0.122626695831628
 11
0.5965513893888953
 21
0.1186154824071431
 72
     1
 10
0.5965513893888957
 20
0.1186154824071433
 11
0.5991633423164672
 21
0.1134848605851281
 72
     1
 10
0.5991633423164667
 20
0.1134848605851281
 11
0.6019618633102946
 21
0.1077012505312196
 72
     1
 10
0.6019618633102959
 20
0.1077012505312194
 11
0.604760384304122
 21
0.1021042085435664
 72
     1
 10
0.6047603843041221
 20
0.1021042085435665
 11
0.6070924851323109
 21
0.0973467228540611
 72
     1
 10
0.6070924851323101
 20
0.0973467228540612
 11
0.6087715977286067
 21
0.0939884976614691
 72
     1
 10
0.6087715977286062
 20
0.0939884976614688
 11
0.609424585960498
 21
0.0926825211976832
 72
     1
 10
0.6094245859604986
 20
0.0926825211976832
 11
0.6363836715343633
 21
0.0926825211976832
 72
     1
 10
0.6363836715343641
 20
0.0926825211976832
 11
0.5671669189537184
 21
0.2277578011663825
 72
     1
 10
0.5671669189537179
 20
0.2277578011663825
 11
0.5656743744236758
 21
0.2277578011663825
 97
        0
 75
     0
 76
     1
 98
        1
 10
-0.3743130907707726
 20
-0.2500502867693841
1001
ACAD
1010
0.0
1020
0.0
1030
0.0
  0
HATCH
  5
8A55
330
8A4C
100
AcDbEntity
  8
Kawneer Logo-English
100
AcDbHatch
 10
0.0
 20
0.0
 30
0.0
210
0.0
220
0.0
230
1.0
  2
SOLID
 70
     1
 71
     0
 91
        1
 92
        1
 93
       69
 72
     1
 10
0.8092389849197205
 20
0.2277578011663825
 11
0.778921674153266
 21
0.1309289747799811
 72
     1
 10
0.778921674153267
 20
0.1309289747799809
 11
0.7781754018882468
 21
0.1287834420180468
 72
     1
 10
0.7781754018882468
 20
0.1287834420180467
 11
0.7776156976894812
 21
0.1270110453886236
 72
     1
 10
0.7776156976894813
 20
0.1270110453886237
 11
0.7771492775238438
 21
0.1253319327923275
 72
     1
 10
0.7771492775238436
 20
0.1253319327923274
 11
0.7766828573582045
 21
0.1238393882622867
 72
     1
 10
0.7766828573582046
 20
0.1238393882622866
 11
0.7764030052588217
 21
0.1248655126266895
 72
     1
 10
0.776403005258822
 20
0.1248655126266896
 11
0.7761231531594392
 21
0.1259849210242202
 72
     1
 10
0.7761231531594391
 20
0.1259849210242201
 11
0.7759365850931844
 21
0.1268244773223681
 72
     1
 10
0.7759365850931843
 20
0.1268244773223682
 11
0.7758433010600562
 21
0.1271976134548783
 72
     1
 10
0.7758433010600552
 20
0.1271976134548783
 11
0.7755634489606744
 21
0.1280371697530267
 72
     1
 10
0.775563448960674
 20
0.1280371697530267
 11
0.7750970287950349
 21
0.1291565781505569
 72
     1
 10
0.7750970287950363
 20
0.1291565781505568
 11
0.773977620397507
 21
0.1323282352768938
 72
     1
 10
0.7739776203975062
 20
0.1323282352768939
 11
0.7721119397349549
 21
0.1372722890326544
 72
     1
 10
0.7721119397349554
 20
0.1372722890326546
 11
0.7697798389067666
 21
0.1436156032853281
 72
     1
 10
0.769779838906767
 20
0.1436156032853281
 11
0.7670746019460673
 21
0.1511716099686602
 72
     1
 10
0.7670746019460668
 20
0.15117160996866
 11
0.7639962288528581
 21
0.1595671729501399
 72
     1
 10
0.7639962288528582
 20
0.15956717295014
 11
0.7606380036602665
 21
0.1686157241635125
 72
     1
 10
0.7606380036602652
 20
0.1686157241635125
 11
0.7572797784676718
 21
0.1778508434431408
 72
     1
 10
0.7572797784676726
 20
0.1778508434431408
 11
0.753921553275081
 21
0.187179246755896
 72
     1
 10
0.7539215532750814
 20
0.1871792467558961
 11
0.7505633280824898
 21
0.1962277979692689
 72
     1
 10
0.7505633280824902
 20
0.1962277979692689
 11
0.7474849549892814
 21
0.2046233609507488
 72
     1
 10
0.7474849549892797
 20
0.2046233609507488
 11
0.74477971802858
 21
0.2121793676340809
 72
     1
 10
0.7447797180285814
 20
0.2121793676340809
 11
0.7424476172003926
 21
0.2185226818867544
 72
     1
 10
0.7424476172003929
 20
0.2185226818867545
 11
0.7405819365378416
 21
0.2234667356425151
 72
     1
 10
0.7405819365378408
 20
0.2234667356425151
 11
0.7394625281403098
 21
0.2266383927688516
 72
     1
 10
0.7394625281403103
 20
0.2266383927688516
 11
0.7390893920078009
 21
0.2277578011663822
 72
     1
 10
0.7390893920078004
 20
0.2277578011663825
 11
0.7191266089185034
 21
0.2277578011663825
 72
     1
 10
0.7191266089185029
 20
0.2277578011663825
 11
0.6843316645619254
 21
0.1336342117406798
 72
     1
 10
0.6843316645619267
 20
0.1336342117406795
 11
0.6832122561643957
 21
0.130649122680598
 72
     1
 10
0.6832122561643961
 20
0.1306491226805981
 11
0.6823726998662476
 21
0.1282237378192816
 72
     1
 10
0.6823726998662468
 20
0.1282237378192818
 11
0.6817197116343549
 21
0.1260782050573481
 72
     1
 10
0.6817197116343552
 20
0.1260782050573481
 11
0.6811600074355896
 21
0.1241192403616695
 72
     1
 10
0.6811600074355884
 20
0.1241192403616695
 11
0.6808801553362055
 21
0.1250520806929446
 72
     1
 10
0.6808801553362059
 20
0.1250520806929445
 11
0.6805070192036949
 21
0.1261714890904751
 72
     1
 10
0.680507019203696
 20
0.1261714890904752
 11
0.6802271671043131
 21
0.1272908974880058
 72
     1
 10
0.680227167104313
 20
0.1272908974880061
 11
0.6798540309718037
 21
0.1286901579849195
 72
     1
 10
0.6798540309718031
 20
0.1286901579849194
 11
0.6794808948392922
 21
0.12980956638245
 72
     1
 10
0.6794808948392932
 20
0.1298095663824503
 11
0.6784547704748904
 21
0.1328879394756595
 72
     1
 10
0.67845477047489
 20
0.1328879394756595
 11
0.6769622259448497
 21
0.1378319932314196
 72
     1
 10
0.6769622259448496
 20
0.1378319932314196
 11
0.6750032612491701
 21
0.1441753074840938
 72
     1
 10
0.6750032612491697
 20
0.1441753074840937
 11
0.6725778763878547
 21
0.1516380301342981
 72
     1
 10
0.6725778763878556
 20
0.1516380301342981
 11
0.6699659234602841
 21
0.160033593115778
 72
     1
 10
0.6699659234602829
 20
0.160033593115778
 11
0.6671674024664549
 21
0.168988860296023
 72
     1
 10
0.6671674024664554
 20
0.168988860296023
 11
0.6642755974395012
 21
0.1782239795756509
 72
     1
 10
0.6642755974395019
 20
0.178223979575651
 11
0.6613837924125477
 21
0.1874590988552789
 72
     1
 10
0.6613837924125466
 20
0.1874590988552789
 11
0.6585852714187205
 21
0.1964143660355239
 72
     1
 10
0.6585852714187204
 20
0.1964143660355237
 11
0.6559733184911489
 21
0.2047166449838762
 72
     1
 10
0.6559733184911494
 20
0.2047166449838765
 11
0.6536412176629606
 21
0.2122726516672082
 72
     1
 10
0.6536412176629614
 20
0.2122726516672082
 11
0.6515889689341538
 21
0.2186159659198823
 72
     1
 10
0.6515889689341537
 20
0.2186159659198821
 11
0.6500964244041133
 21
0.2234667356425149
 72
     1
 10
0.6500964244041132
 20
0.2234667356425151
 11
0.6490703000397104
 21
0.2266383927688516
 72
     1
 10
0.6490703000397105
 20
0.2266383927688516
 11
0.6487904479403276
 21
0.2277578011663822
 72
     1
 10
0.648790447940328
 20
0.2277578011663825
 11
0.6237903270621445
 21
0.2277578011663825
 72
     1
 10
0.6237903270621437
 20
0.2277578011663825
 11
0.6676338226320932
 21
0.0926825211976832
 72
     1
 10
0.6676338226320926
 20
0.0926825211976832
 11
0.6922608073777669
 21
0.0926825211976832
 72
     1
 10
0.6922608073777666
 20
0.0926825211976832
 11
0.726029627369941
 21
0.1855001341596003
 72
     1
 10
0.7260296273699423
 20
0.1855001341596003
 11
0.7269624677012189
 21
0.1882986551534267
 72
     1
 10
0.7269624677012177
 20
0.1882986551534266
 11
0.7278020239993661
 21
0.1906307559816158
 72
     1
 10
0.727802023999367
 20
0.1906307559816159
 11
0.7284550122312589
 21
0.1927762887435496
 72
     1
 10
0.7284550122312581
 20
0.1927762887435495
 11
0.7290147164300237
 21
0.1947352534392281
 72
     1
 10
0.7290147164300232
 20
0.1947352534392282
 11
0.7298542727281716
 21
0.192216584544784
 72
     1
 10
0.729854272728173
 20
0.1922165845447839
 11
0.7306938290263214
 21
0.1894180635509575
 72
     1
 10
0.7306938290263206
 20
0.1894180635509575
 11
0.7318132374238499
 21
0.1863396904577483
 72
     1
 10
0.7318132374238511
 20
0.1863396904577481
 11
0.7331192138876387
 21
0.1827016131657736
 72
     1
 10
0.7331192138876382
 20
0.1827016131657737
 11
0.7654887733828987
 21
0.0926825211976834
 72
     1
 10
0.7654887733828986
 20
0.0926825211976832
 11
0.7895560539298075
 21
0.0926825211976832
 72
     1
 10
0.7895560539298075
 20
0.0926825211976832
 11
0.8341458217647785
 21
0.2277578011663825
 72
     1
 10
0.8341458217647783
 20
0.2277578011663825
 11
0.830601028505932
 21
0.2277578011663825
 72
     1
 10
0.8306010285059324
 20
0.2277578011663825
 11
0.8092389849197216
 21
0.2277578011663825
 97
        0
 75
     0
 76
     1
 98
        1
 10
-0.3743130907707726
 20
-0.2500502867693841
1001
ACAD
1010
0.0
1020
0.0
1030
0.0
  0
ENDBLK
  5
8A59
330
8A4C
100
AcDbEntity
  8
0
100
AcDbBlockEnd
  0
ENDSEC
  0
SECTION
  2
ENTITIES
  0
TEXT
  5
206E
330
17
100
AcDbEntity
  8
0
  6
Continuous
 62
     7
100
AcDbText
 10
48.37774116456421
 20
5.010874714638497
 30
0.0
 40
0.375
  1
VERTICAL MULLION
 72
     1
 11
50.89581756292711
 21
5.010874714638497
 31
0.0
100
AcDbText
  0
MTEXT
  5
207A
330
17
100
AcDbEntity
  8
0
100
AcDbMText
 10
46.45461269695144
 20
18.42810404255896
 30
0.0
 40
0.375
 41
15.25
 71
     2
 72
     5
  1
ELEVATION SCALE: 1/8" = 1'-0"
 73
     1
 44
1.0
1001
ACAD
1000
MTEXTBEGIN
1070
    73
1070
     1
1070
    44
1040
1.0
1070
    74
1070
     0
1000
MTEXTEND
  0
TEXT
  5
207B
330
17
100
AcDbEntity
  8
0
  6
Continuous
100
AcDbText
 10
42.77411289253363
 20
18.8578867856469
 30
0.0
 40
0.5
  1
TYPICAL ELEVATION
 72
     1
 11
46.2870733290957
 21
18.8578867856469
 31
0.0
100
AcDbText
  0
MTEXT
  5
2082
330
17
100
AcDbEntity
  8
0
 62
     2
100
AcDbMText
 10
19.60790140209769
 20
6.884496034123785
 30
0.0
 40
0.375
 41
11.91800541288839
 71
     2
 72
     5
  1
DETAIL SCALE: 1" = 1"
 73
     1
 44
1.0
1001
ACAD
1000
MTEXTBEGIN
1070
    73
1070
     1
1070
    44
1040
1.0
1070
    74
1070
     0
1000
MTEXTEND
  0
LINE
  5
2085
330
17
100
AcDbEntity
  8
0
100
AcDbLine
 10
0.0
 20
0.0
 30
0.0
 11
0.0
 21
42.16016963571056
 31
0.0
  0
LINE
  5
2088
330
17
100
AcDbEntity
  8
0
100
AcDbLine
 10
0.0
 20
0.0
 30
0.0
 11
67.85899319401801
 21
0.0
 31
0.0
  0
MTEXT
  5
2099
330
17
100
AcDbEntity
  8
0
 62
     2
100
AcDbMText
 10
19.60790140209769
 20
9.89038798822257
 30
0.0
 40
0.5
 41
21.46993952274477
 71
     2
 72
     5
  1
TRIFAB™ VG 450 FRAMING SYSTEM 2" SIGHTLINE \PFRONT SET - VENEER - OUTSIDE GLAZED\P(1/4" INFILL)
 73
     1
 44
1.0
1001
ACAD
1000
MTEXTBEGIN
1070
    73
1070
     1
1070
    44
1040
1.0
1070
    74
1070
     0
1000
MTEXTEND
  0
MTEXT
  5
2FFF
330
17
100
AcDbEntity
  8
0
 62
     7
100
AcDbMText
 10
5.146880908301227
 20
24.46744133923058
 30
0.0
 40
0.375
 41
7.34375
 71
     2
 72
     5
  1
HORIZONTAL
 73
     1
 44
1.0
1001
ACAD
1000
MTEXTBEGIN
1070
    73
1070
     1
1070
    44
1040
1.0
1070
    74
1070
     0
1000
MTEXTEND
  0
TEXT
  5
4558
330
17
100
AcDbEntity
  8
0
  6
Continuous
 62
     2
100
AcDbText
 10
3.888453724269251
 20
24.94990741864466
 30
0.0
 40
0.375
  1
DETAIL 2
 72
     1
 11
5.023941445960929
 21
24.94990741864466
 31
0.0
100
AcDbText
  0
TEXT
  5
455C
330
17
100
AcDbEntity
  8
0
  6
Continuous
 62
     2
100
AcDbText
 10
3.888453724269251
 20
33.21880744509036
 30
0.0
 40
0.375
  1
DETAIL 1
 72
     1
 11
5.023941445960929
 21
33.21880744509036
 31
0.0
100
AcDbText
  0
LINE
  5
4562
330
17
100
AcDbEntity
  8
0
 62
     2
100
AcDbLine
 10
43.25057492896038
 20
22.86486771112079
 30
0.0
 11
43.25057492896038
 21
21.2024371020867
 31
0.0
  0
TEXT
  5
4565
330
17
100
AcDbEntity
  8
0
  6
Continuous
 62
     2
100
AcDbText
 10
29.5448957239636
 20
32.3019991782549
 30
0.0
 40
0.375
  1
DETAIL 4
 72
     1
 11
30.68038344565528
 21
32.3019991782549
 31
0.0
100
AcDbText
  0
TEXT
  5
4567
330
17
100
AcDbEntity
  8
0
  6
Continuous
 62
     2
100
AcDbText
 10
41.95505914596938
 20
32.3019991782549
 30
0.0
 40
0.375
  1
DETAIL 5
 72
     1
 11
43.09054686766105
 21
32.3019991782549
 31
0.0
100
AcDbText
  0
LINE
  5
4569
330
17
100
AcDbEntity
  8
0
 62
     2
100
AcDbLine
 10
34.92640534673061
 20
32.57550013853423
 30
0.0
 11
33.09662683951061
 21
32.57550013853423
 31
0.0
  0
LINE
  5
456B
330
17
100
AcDbEntity
  8
0
 62
     2
100
AcDbLine
 10
47.36268232945903
 20
32.57550013853423
 30
0.0
 11
45.53290382223903
 21
32.57550013853423
 31
0.0
  0
TEXT
  5
456F
330
17
100
AcDbEntity
  8
0
  6
Continuous
 62
     2
100
AcDbText
 10
42.13197603563722
 20
27.87361239128761
 30
0.0
 40
0.375
  1
DETAIL 2
 72
     1
 11
43.2674637573289
 21
27.87361239128761
 31
0.0
100
AcDbText
  0
LINE
  5
4570
330
17
100
AcDbEntity
  8
0
 62
     2
100
AcDbLine
 10
43.25057492896033
 20
27.57966008881208
 30
0.0
 11
43.25057492896033
 21
25.91722947977799
 31
0.0
  0
TEXT
  5
4571
330
17
100
AcDbEntity
  8
0
  6
Continuous
 62
     2
100
AcDbText
 10
42.15507373357801
 20
38.21345805181504
 30
0.0
 40
0.375
  1
DETAIL 1
 72
     1
 11
43.29056145526968
 21
38.21345805181504
 31
0.0
100
AcDbText
  0
LINE
  5
4572
330
17
100
AcDbEntity
  8
0
 62
     2
100
AcDbLine
 10
43.25057492896033
 20
37.83161635235375
 30
0.0
 11
43.25057492896033
 21
36.16918574331966
 31
0.0
  0
TEXT
  5
457D
330
17
100
AcDbEntity
  8
0
  6
Continuous
 62
     2
100
AcDbText
 10
49.77547253608475
 20
5.810610442187048
 30
0.0
 40
0.375
  1
DETAIL 5
 72
     1
 11
50.91096025777642
 21
5.810610442187048
 31
0.0
100
AcDbText
  0
TEXT
  5
4582
330
17
100
AcDbEntity
  8
0
  6
Continuous
 62
     2
100
AcDbText
 10
3.888453724269251
 20
18.26981225337612
 30
0.0
 40
0.375
  1
DETAIL 3
 72
     1
 11
5.023941445960929
 21
18.26981225337612
 31
0.0
100
AcDbText
  0
TEXT
  5
47E4
330
17
100
AcDbEntity
  8
0
  6
Continuous
 62
     2
100
AcDbText
 10
42.15507403658981
 20
20.38988575338219
 30
0.0
 40
0.375
  1
DETAIL 3
 72
     1
 11
43.29056175828148
 21
20.38988575338219
 31
0.0
100
AcDbText
  0
LINE
  5
4AC6
330
17
100
AcDbEntity
  8
0
100
AcDbLine
 10
33.87382872072834
 20
37.06192812137428
 30
0.0
 11
58.70582872072833
 21
37.06192812137427
 31
0.0
  0
LINE
  5
4AC7
330
17
100
AcDbEntity
  8
0
100
AcDbLine
 10
58.70582872072833
 20
22.21392812137427
 30
0.0
 11
33.87382872072834
 21
22.21392812137428
 31
0.0
  0
LINE
  5
4AC8
330
17
100
AcDbEntity
  8
0
100
AcDbLine
 10
40.01782872072834
 20
26.82192812137428
 30
0.0
 11
34.12982872072834
 21
26.82192812137428
 31
0.0
  0
LINE
  5
4AC9
330
17
100
AcDbEntity
  8
0
100
AcDbLine
 10
40.01782872072834
 20
26.56592812137429
 30
0.0
 11
34.12982872072834
 21
26.56592812137429
 31
0.0
  0
LINE
  5
4ACA
330
17
100
AcDbEntity
  8
0
100
AcDbLine
 10
33.87382872072834
 20
37.31792812137428
 30
0.0
 11
58.70582872072834
 21
37.31792812137428
 31
0.0
  0
LINE
  5
4ACB
330
17
100
AcDbEntity
  8
0
100
AcDbLine
 10
58.70582872072834
 20
21.95792812137428
 30
0.0
 11
33.87382872072834
 21
21.95792812137428
 31
0.0
  0
LINE
  5
4ACC
330
17
100
AcDbEntity
  8
0
100
AcDbLine
 10
33.87382872072834
 20
21.95792812137428
 30
0.0
 11
33.87382872072834
 21
37.31792812137428
 31
0.0
  0
LINE
  5
4ACD
330
17
100
AcDbEntity
  8
0
100
AcDbLine
 10
34.12982872072834
 20
22.21392812137428
 30
0.0
 11
34.12982872072834
 21
37.06192812137428
 31
0.0
  0
LINE
  5
4ACE
330
17
100
AcDbEntity
  8
0
100
AcDbLine
 10
46.41782872072833
 20
22.21392812137428
 30
0.0
 11
46.41782872072833
 21
37.06192812137427
 31
0.0
  0
LINE
  5
4ACF
330
17
100
AcDbEntity
  8
0
100
AcDbLine
 10
52.56182872072834
 20
22.21392812137427
 30
0.0
 11
52.56182872072834
 21
37.06192812137428
 31
0.0
  0
LINE
  5
4AD0
330
17
100
AcDbEntity
  8
0
100
AcDbLine
 10
52.30582872072833
 20
22.21392812137427
 30
0.0
 11
52.30582872072834
 21
37.06192812137428
 31
0.0
  0
LINE
  5
4AD1
330
17
100
AcDbEntity
  8
0
100
AcDbLine
 10
58.44982872072833
 20
22.21392812137427
 30
0.0
 11
58.44982872072833
 21
37.06192812137428
 31
0.0
  0
LINE
  5
4AD2
330
17
100
AcDbEntity
  8
0
100
AcDbLine
 10
58.70582872072834
 20
21.95792812137428
 30
0.0
 11
58.70582872072834
 21
37.31792812137428
 31
0.0
  0
LINE
  5
4AD3
330
17
100
AcDbEntity
  8
0
100
AcDbLine
 10
46.16182872072834
 20
22.21392812137428
 30
0.0
 11
46.16182872072833
 21
37.06192812137427
 31
0.0
  0
LINE
  5
4AD4
330
17
100
AcDbEntity
  8
0
100
AcDbLine
 10
40.27382872072834
 20
22.21392812137428
 30
0.0
 11
40.27382872072834
 21
37.06192812137428
 31
0.0
  0
LINE
  5
4AD5
330
17
100
AcDbEntity
  8
0
100
AcDbLine
 10
40.01782872072833
 20
22.21392812137428
 30
0.0
 11
40.01782872072834
 21
37.06192812137428
 31
0.0
  0
LINE
  5
4ADA
330
17
100
AcDbEntity
  8
0
100
AcDbLine
 10
58.44982872072833
 20
26.82192812137428
 30
0.0
 11
52.56182872072833
 21
26.82192812137428
 31
0.0
  0
LINE
  5
4ADB
330
17
100
AcDbEntity
  8
0
100
AcDbLine
 10
58.44982872072833
 20
26.56592812137429
 30
0.0
 11
52.56182872072833
 21
26.56592812137429
 31
0.0
  0
LINE
  5
4ADC
330
17
100
AcDbEntity
  8
0
100
AcDbLine
 10
52.30582872072833
 20
26.82192812137428
 30
0.0
 11
46.41782872072835
 21
26.82192812137428
 31
0.0
  0
LINE
  5
4ADD
330
17
100
AcDbEntity
  8
0
100
AcDbLine
 10
52.30582872072833
 20
26.56592812137429
 30
0.0
 11
46.41782872072835
 21
26.56592812137429
 31
0.0
  0
LINE
  5
4ADE
330
17
100
AcDbEntity
  8
0
100
AcDbLine
 10
46.16182872072833
 20
26.82192812137428
 30
0.0
 11
40.27382872072834
 21
26.82192812137428
 31
0.0
  0
LINE
  5
4ADF
330
17
100
AcDbEntity
  8
0
100
AcDbLine
 10
46.16182872072833
 20
26.56592812137429
 30
0.0
 11
40.27382872072834
 21
26.56592812137429
 31
0.0
  0
TEXT
  5
4AEA
330
17
100
AcDbEntity
  8
0
  6
Continuous
 62
     2
100
AcDbText
 10
61.13065077829052
 20
32.3019991782549
 30
0.0
 40
0.375
  1
DETAIL 4 OPP.
 72
     1
 11
62.96485098292899
 21
32.3019991782549
 31
0.0
100
AcDbText
  0
LINE
  5
4AEB
330
17
100
AcDbEntity
  8
0
 62
     2
100
AcDbLine
 10
59.59106230949257
 20
32.57550013853423
 30
0.0
 11
57.76128380227257
 21
32.57550013853423
 31
0.0
  0
TEXT
  5
4E5C
330
17
100
AcDbEntity
  8
0
  6
Continuous
 62
     2
100
AcDbText
 10
40.43320803379339
 20
5.804567590763774
 30
0.0
 40
0.375
  1
DETAIL 4
 72
     1
 11
41.56869575548507
 21
5.804567590763774
 31
0.0
100
AcDbText
  0
TEXT
  5
4E5D
330
17
100
AcDbEntity
  8
0
  6
Continuous
 62
     7
100
AcDbText
 10
40.85496847673397
 20
5.015190477163137
 30
0.0
 40
0.375
  1
JAMB
 72
     1
 11
41.55355306063575
 21
5.015190477163137
 31
0.0
100
AcDbText
  0
MTEXT
  5
51E8
330
17
100
AcDbEntity
  8
0
 62
     7
100
AcDbMText
 10
5.146880908301227
 20
17.88826439413763
 30
0.0
 40
0.375
 41
7.34375
 71
     2
 72
     5
  1
SILL
 73
     1
 44
1.0
1001
ACAD
1000
MTEXTBEGIN
1070
    73
1070
     1
1070
    44
1040
1.0
1070
    74
1070
     0
1000
MTEXTEND
  0
MTEXT
  5
51EC
330
17
100
AcDbEntity
  8
0
 62
     7
100
AcDbMText
 10
5.146880908301227
 20
32.84324287890876
 30
0.0
 40
0.375
 41
7.34375
 71
     2
 72
     5
  1
HEAD
 73
     1
 44
1.0
1001
ACAD
1000
MTEXTBEGIN
1070
    73
1070
     1
1070
    44
1040
1.0
1070
    74
1070
     0
1000
MTEXTEND
  0
TEXT
  5
66C5
330
17
100
AcDbEntity
  8
PART_NUMBERS
100
AcDbText
 10
15.02823188974032
 20
17.33443743733054
 30
0.0
 40
0.25
  1
132WC008 INSERT
100
AcDbText
  0
TEXT
  5
66C6
330
17
100
AcDbEntity
  8
PART_NUMBERS
100
AcDbText
 10
15.02823188974032
 20
17.83443743733054
 30
0.0
 40
0.25
  1
450VG004 GLASS STOP
100
AcDbText
  0
TEXT
  5
6703
330
17
100
AcDbEntity
  8
PART_NUMBERS
100
AcDbText
 10
14.83369671217847
 20
32.61152240814925
 30
0.0
 40
0.25
  1
132WC007 INSERT 
100
AcDbText
  0
TEXT
  5
6704
330
17
100
AcDbEntity
  8
PART_NUMBERS
100
AcDbText
 10
14.83369671217847
 20
33.11152240814925
 30
0.0
 40
0.25
  1
132WC106 EQUAL LEG RECEPTOR
100
AcDbText
  0
TEXT
  5
674C
330
17
100
AcDbEntity
  8
PART_NUMBERS
100
AcDbText
 10
14.67823697855436
 20
25.04334398492777
 30
0.0
 40
0.25
  1
132WC329 VENEER ANCHOR
100
AcDbText
  0
TEXT
  5
674E
330
17
100
AcDbEntity
  8
PART_NUMBERS
100
AcDbText
 10
14.67823697855436
 20
24.03806534749736
 30
0.0
 40
0.25
  1
450VG004 GLASS STOP
100
AcDbText
  0
TEXT
  5
674F
330
17
100
AcDbEntity
  8
PART_NUMBERS
100
AcDbText
 10
14.67823697855436
 20
24.53806534749736
 30
0.0
 40
0.25
  1
132WC011 HORIZONTAL
100
AcDbText
  0
TEXT
  5
68E3
330
17
100
AcDbEntity
  8
PART_NUMBERS
100
AcDbText
 10
39.52664329270437
 20
14.03638650735606
 30
0.0
 40
0.25
  1
132WC005 MULLION
100
AcDbText
  0
TEXT
  5
68E4
330
17
100
AcDbEntity
  8
PART_NUMBERS
100
AcDbText
 10
39.52664329270437
 20
13.54325365686739
 30
0.0
 40
0.25
  1
450087 SNAP-IN FLAT FILLER
100
AcDbText
  0
TEXT
  5
7491
330
17
100
AcDbEntity
  8
PART_NUMBERS
100
AcDbText
 10
15.02823188974032
 20
16.79844716354853
 30
0.0
 40
0.25
  1
132WC006 UNEQUAL LEG RECEPTOR
100
AcDbText
  0
DIMENSION
  5
77AE
330
17
100
AcDbEntity
  8
R-ANNO-DIMS
100
AcDbDimension
  2
*D0
 10
11.22861109660436
 20
29.53648590984579
 30
0.0
 11
12.35351109660436
 21
29.53648590984579
 31
0.0
 70
   160
 71
     5
 42
-1.0
  3
SHOP_DETAILS_NORCROSS
100
AcDbAlignedDimension
 13
13.47841109660436
 23
33.10041345052343
 33
0.0
 14
11.22861109660436
 24
33.10141345052723
 34
0.0
100
AcDbRotatedDimension
1001
ACAD
1000
DSTYLE
1002
{
1070
    76
1070
     0
1002
}
  0
DIMENSION
  5
77AF
330
17
100
AcDbEntity
  8
R-ANNO-DIMS
100
AcDbDimension
  2
*D1
 10
13.35361109660439
 20
30.20473237532328
 30
0.0
 11
12.35361109660438
 21
30.20473237532328
 31
0.0
 70
   160
 71
     5
 42
-1.0
  3
SHOP_DETAILS_NORCROSS
100
AcDbAlignedDimension
 13
11.35361109660438
 23
31.08264914940202
 33
0.0
 14
13.35361109660439
 24
31.08232895181235
 34
0.0
100
AcDbRotatedDimension
1001
ACAD
1000
DSTYLE
1002
{
1070
    76
1070
     0
1002
}
  0
LWPOLYLINE
  5
77B0
330
17
100
AcDbEntity
  8
R-SWTS-DET1
100
AcDbPolyline
 90
        6
 70
     0
 43
0.0
 10
13.60236378819043
 20
31.08264914940202
 10
12.45824453462806
 20
31.08232895181235
 10
12.40532411996563
 20
30.87007676168948
 10
12.29940345641523
 20
31.29490133952489
 10
12.2464830417528
 20
31.08264914940202
 10
11.10420229531515
 20
31.08264914940202
  0
LINE
  5
77B1
330
17
100
AcDbEntity
  8
R-SWTS-DET3
100
AcDbLine
 10
13.86413109660538
 20
35.34041345052342
 30
0.0
 11
10.82259114190934
 21
35.34041345052342
 31
0.0
  0
LINE
  5
77B2
330
17
100
AcDbEntity
  8
R-SWTS-DET3
100
AcDbLine
 10
13.12864090735445
 20
35.34041345052342
 30
0.0
 11
11.55808133116028
 21
35.09041345052342
 31
0.0
  0
LINE
  5
77B3
330
17
100
AcDbEntity
  8
R-SWTS-DET3
100
AcDbLine
 10
11.55808133116028
 20
35.09041345052342
 30
0.0
 11
13.12864090735445
 21
35.09041345052342
 31
0.0
  0
LINE
  5
77B4
330
17
100
AcDbEntity
  8
R-SWTS-DET3
100
AcDbLine
 10
11.55808133116028
 20
35.34041345052342
 30
0.0
 11
13.12864090735445
 21
35.09041345052342
 31
0.0
  0
LINE
  5
77B5
330
17
100
AcDbEntity
  8
R-SWTS-DET1
100
AcDbLine
 10
12.4301660739508
 20
34.65291345052337
 30
0.0
 11
11.35361109660438
 21
34.65291345052336
 31
0.0
  0
DIMENSION
  5
77B9
330
17
100
AcDbEntity
  8
R-ANNO-DIMS
100
AcDbDimension
  2
*D2
 10
8.351191096604312
 20
31.08264914940202
 30
0.0
 11
8.164191096604307
 21
33.08653129996272
 31
0.0
 70
    32
  1
FH
 71
     5
 42
-1.0
  3
SHOP_DETAILS_NORCROSS
100
AcDbAlignedDimension
 13
11.22861109660436
 23
35.09041345052342
 33
0.0
 14
11.10420229531515
 24
31.08264914940202
 34
0.0
 50
90.0
100
AcDbRotatedDimension
1001
ACAD
1000
DSTYLE
1002
{
1002
}
  0
DIMENSION
  5
77BA
330
17
100
AcDbEntity
  8
R-ANNO-DIMS
100
AcDbDimension
  2
*D3
 10
7.726191096604312
 20
31.08264914940203
 30
0.0
 11
7.539191096604306
 21
33.21153129996272
 31
0.0
 70
    32
  1
OD
 71
     5
 42
-1.0
  3
SHOP_DETAILS_NORCROSS
100
AcDbAlignedDimension
 13
8.789393948408701
 23
35.34041345052342
 33
0.0
 14
11.10420229531515
 24
31.08264914940202
 34
0.0
 50
90.0
100
AcDbRotatedDimension
1001
ACAD
1000
DSTYLE
1002
{
1002
}
  0
DIMENSION
  5
77BB
330
17
100
AcDbEntity
  8
R-ANNO-DIMS
100
AcDbDimension
  2
*D4
 10
8.976191096604312
 20
31.08264914940202
 30
0.0
 11
8.789191096604307
 21
32.8677812999627
 31
0.0
 70
    32
  1
MH
 71
     5
 42
-1.0
  3
SHOP_DETAILS_NORCROSS
100
AcDbAlignedDimension
 13
11.35361109660438
 23
34.65291345052337
 33
0.0
 14
11.10420229531515
 24
31.08264914940202
 34
0.0
 50
90.0
100
AcDbRotatedDimension
1001
ACAD
1000
DSTYLE
1002
{
1002
}
  0
DIMENSION
  5
77BC
330
17
100
AcDbEntity
  8
R-ANNO-DIMS
100
AcDbDimension
  2
*D5
 10
9.601191096604312
 20
31.08264914940202
 30
0.0
 11
9.414191096604307
 21
32.08703129996463
 31
0.0
 70
    32
  1
DLO
 71
     5
 42
-1.0
  3
SHOP_DETAILS_NORCROSS
100
AcDbAlignedDimension
 13
11.23861109660434
 23
33.09141345052724
 33
0.0
 14
11.10420229531515
 24
31.08264914940202
 34
0.0
 50
90.0
100
AcDbRotatedDimension
1001
ACAD
1000
DSTYLE
1002
{
1002
}
  0
LINE
  5
77BD
330
17
100
AcDbEntity
  8
R-SWTS-DET1
100
AcDbLine
 10
11.35361109660438
 20
31.08264914940202
 30
0.0
 11
11.35361109660438
 21
33.09798133864518
 31
0.0
  0
DIMENSION
  5
77C0
330
17
100
AcDbEntity
  8
R-ANNO-DIMS
100
AcDbDimension
  2
*D6
 10
8.351191096604317
 20
35.34041345052342
 30
0.0
 11
8.351191096604312
 21
37.01074678385675
 31
0.0
 70
   160
  1
SHIM SPACE
 71
     5
 42
-1.0
  3
SHOP_DETAILS_NORCROSS
100
AcDbAlignedDimension
 13
11.22861109660436
 23
35.09041345052342
 33
0.0
 14
10.82259114190934
 24
35.34041345052342
 34
0.0
 50
90.0
100
AcDbRotatedDimension
1001
ACAD
1000
DSTYLE
1002
{
1002
}
  0
DIMENSION
  5
77C1
330
17
100
AcDbEntity
  8
R-ANNO-DIMS
100
AcDbDimension
  2
*D7
 10
8.976191096604317
 20
35.09041345052342
 30
0.0
 11
8.976191096604312
 21
36.09408011719009
 31
0.0
 70
   160
 71
     5
 42
-1.0
  3
SHOP_DETAILS_NORCROSS
100
AcDbAlignedDimension
 13
9.601191096604312
 23
34.65291345052337
 33
0.0
 14
11.22861109660436
 24
35.09041345052342
 34
0.0
 50
90.0
100
AcDbRotatedDimension
1001
ACAD
1000
DSTYLE
1002
{
1002
}
  0
LINE
  5
77C4
330
17
100
AcDbEntity
  8
R-SWTS-DET1
100
AcDbLine
 10
11.35361109660438
 20
34.65291345052337
 30
0.0
 11
11.35361109660439
 21
33.28641345052723
 31
0.0
  0
ARC
  5
77C7
330
17
100
AcDbEntity
  8
R-SWTS-DET3
100
AcDbCircle
 10
10.97977203601153
 20
35.11856771844098
 30
0.0
 40
0.2504267175816111
100
AcDbArc
 50
353.5448646659804
 51
62.35888106505984
  0
LINE
  5
77C8
330
17
100
AcDbEntity
  8
R-SWTS-DET3
100
AcDbLine
 10
11.55808133116028
 20
35.09041345052342
 30
0.0
 11
11.55808133116028
 21
35.34041345052342
 31
0.0
  0
CIRCLE
  5
77CA
330
17
100
AcDbEntity
  8
R-SWTS-DET3
100
AcDbCircle
 10
11.51778758409501
 20
35.19192993624744
 30
0.0
 40
0.1460250000000009
  0
LINE
  5
77CB
330
17
100
AcDbEntity
  8
R-SWTS-DET1
100
AcDbLine
 10
13.35361109660439
 20
33.10141345052721
 30
0.0
 11
13.35361109660439
 21
31.08232895181235
 31
0.0
  0
LINE
  5
77CF
330
17
100
AcDbEntity
  8
R-SWTS-DET3
  6
CENTER
100
AcDbLine
 10
12.92572566114234
 20
35.93707411372692
 30
0.0
 11
12.92572566114234
 21
34.18132211372703
 31
0.0
  0
LINE
  5
77D0
330
17
100
AcDbEntity
  8
R-SWTS-DET1
100
AcDbLine
 10
13.35005849311875
 20
34.65291345052337
 30
0.0
 11
13.35005849311875
 21
33.27641345052722
 31
0.0
  0
LINE
  5
77D2
330
17
100
AcDbEntity
  8
R-SWTS-DET1
100
AcDbLine
 10
13.35005849311875
 20
34.65291345052337
 30
0.0
 11
12.5001660739508
 21
34.65291345052337
 31
0.0
  0
LINE
  5
77D3
330
17
100
AcDbEntity
  8
R-SWTS-DET3
100
AcDbLine
 10
13.12864090735445
 20
35.09041345052342
 30
0.0
 11
13.12864090735445
 21
35.34041345052342
 31
0.0
  0
LINE
  5
77D4
330
17
100
AcDbEntity
  8
R-SWTS-DET1
  6
Continuous
100
AcDbLine
 10
11.35416943578384
 20
27.7388868001414
 30
0.0
 11
11.35416943578384
 21
21.7388868001414
 31
0.0
  0
DIMENSION
  5
77D6
330
17
100
AcDbEntity
  8
R-ANNO-DIMS
100
AcDbDimension
  2
*D8
 10
9.641669435783853
 20
27.7388868001414
 30
0.0
 11
9.45466943578385
 21
26.73872670134657
 31
0.0
 70
    32
  1
DLO
 71
     5
 42
-1.0
  3
SHOP_DETAILS_NORCROSS
100
AcDbAlignedDimension
 13
11.41150794290858
 23
25.73856660255173
 33
0.0
 14
11.13750794290857
 24
27.7388868001414
 34
0.0
 50
270.0
100
AcDbRotatedDimension
1001
ACAD
1000
DSTYLE
1002
{
1070
    78
1070
     1
1070
   270
1070
     7
1070
   284
1070
     1
1070
   140
1040
0.25
1070
    74
1070
     0
1070
    73
1070
     0
1070
    77
1070
     1
1070
    76
1070
     1
1070
     3
1000
"
1070
   147
1040
0.062
1070
    42
1040
0.125
1070
    44
1040
0.125
1070
    43
1040
0.375
1070
   178
1070
   256
1070
   177
1070
   256
1070
   176
1070
   256
1070
   141
1040
0.0
1070
    41
1040
0.2
1002
}
  0
LWPOLYLINE
  5
77DA
330
17
100
AcDbEntity
  8
R-SWTS-DET1
100
AcDbPolyline
 90
        6
 70
     0
 43
0.0
 10
13.60366943578387
 20
21.7388868001414
 10
12.4595501822215
 20
21.73856660255173
 10
12.40662976755906
 20
21.52631441242886
 10
12.30070910400867
 20
21.95113899026427
 10
12.24778868934623
 20
21.7388868001414
 10
11.10550794290859
 20
21.7388868001414
  0
DIMENSION
  5
77DD
330
17
100
AcDbEntity
  8
R-ANNO-DIMS
100
AcDbDimension
  2
*D9
 10
9.641669435783853
 20
21.7388868001414
 30
0.0
 11
9.45466943578385
 21
22.73872670134657
 31
0.0
 70
    32
  1
DLO
 71
     5
 42
-1.0
  3
SHOP_DETAILS_NORCROSS
100
AcDbAlignedDimension
 13
11.37766943578386
 23
23.73856660255173
 33
0.0
 14
11.13750794290857
 24
21.7388868001414
 34
0.0
 50
270.0
100
AcDbRotatedDimension
1001
ACAD
1000
DSTYLE
1002
{
1070
    78
1070
     1
1070
   270
1070
     7
1070
   284
1070
     1
1070
   140
1040
0.25
1070
    74
1070
     0
1070
    73
1070
     0
1070
    77
1070
     1
1070
    76
1070
     1
1070
     3
1000
"
1070
   147
1040
0.062
1070
    42
1040
0.125
1070
    44
1040
0.125
1070
    43
1040
0.375
1070
   178
1070
   256
1070
   177
1070
   256
1070
   176
1070
   256
1070
   141
1040
0.0
1070
    41
1040
0.2
1002
}
  0
DIMENSION
  5
77DE
330
17
100
AcDbEntity
  8
R-ANNO-DIMS
100
AcDbDimension
  2
*D10
 10
9.641669435783853
 20
23.73856660255173
 30
0.0
 11
9.45466943578385
 21
24.73856660255173
 31
0.0
 70
    32
 71
     5
 42
-1.0
  3
SHOP_DETAILS_NORCROSS
100
AcDbAlignedDimension
 13
11.41150794290858
 23
25.73856660255173
 33
0.0
 14
11.37766943578386
 24
23.73856660255173
 34
0.0
 50
270.0
100
AcDbRotatedDimension
1001
ACAD
1000
DSTYLE
1002
{
1070
    78
1070
     1
1070
   270
1070
     7
1070
   284
1070
     1
1070
   140
1040
0.25
1070
    74
1070
     0
1070
    73
1070
     0
1070
    77
1070
     1
1070
    76
1070
     1
1070
     3
1000
"
1070
   147
1040
0.062
1070
    42
1040
0.125
1070
    44
1040
0.125
1070
    43
1040
0.375
1070
   178
1070
   256
1070
   177
1070
   256
1070
   176
1070
   256
1070
   141
1040
0.0
1070
    41
1040
0.2
1002
}
  0
LINE
  5
77E2
330
17
100
AcDbEntity
  8
R-SWTS-DET1
  6
Continuous
100
AcDbLine
 10
13.35416943578383
 20
23.73856660255173
 30
0.0
 11
13.35472909519828
 21
21.7388104140139
 31
0.0
  0
LINE
  5
77E3
330
17
100
AcDbEntity
  8
R-SWTS-DET3
  6
CENTER
100
AcDbLine
 10
14.38093523421492
 20
23.22595057366561
 30
0.0
 11
12.62518323421503
 21
23.22595057366562
 31
0.0
  0
LWPOLYLINE
  5
77E5
330
17
100
AcDbEntity
  8
R-SWTS-DET1
100
AcDbPolyline
 90
        6
 70
     0
 43
0.0
 10
13.60366943578387
 20
27.7388868001414
 10
12.4595501822215
 20
27.73856660255173
 10
12.40662976755906
 20
27.52631441242886
 10
12.30070910400867
 20
27.95113899026427
 10
12.24778868934623
 20
27.7388868001414
 10
11.10550794290859
 20
27.7388868001414
  0
LINE
  5
77EB
330
17
100
AcDbEntity
  8
R-SWTS-DET3
  6
CENTER
100
AcDbLine
 10
14.25100234818288
 20
26.22803256779906
 30
0.0
 11
12.49525034818299
 21
26.22803256779907
 31
0.0
  0
LINE
  5
77EC
330
17
100
AcDbEntity
  8
R-SWTS-DET1
  6
Continuous
100
AcDbLine
 10
13.35416943578386
 20
26.53611460255174
 30
0.0
 11
13.35405284077674
 21
27.73881022475475
 31
0.0
  0
LINE
  5
77F2
330
17
100
AcDbEntity
  8
R-SWTS-DET3
100
AcDbLine
 10
13.8866839094585
 20
15.92778726021841
 30
0.0
 11
10.83129139658397
 21
15.92778726021831
 31
0.0
  0
LINE
  5
77F3
330
17
100
AcDbEntity
  8
R-SWTS-DET1
100
AcDbLine
 10
13.35516395476436
 20
16.30278726021843
 30
0.0
 11
11.35586395476349
 21
16.30278726021843
 31
0.0
  0
LINE
  5
77F4
330
17
100
AcDbEntity
  8
R-SWTS-DET3
100
AcDbLine
 10
11.58063414401339
 20
15.92778726021841
 30
0.0
 11
13.15119372020756
 21
16.17778726021841
 31
0.0
  0
LINE
  5
77F5
330
17
100
AcDbEntity
  8
R-SWTS-DET3
100
AcDbLine
 10
11.58063414401339
 20
16.17778726021841
 30
0.0
 11
13.15119372020756
 21
16.17778726021841
 31
0.0
  0
LINE
  5
77F6
330
17
100
AcDbEntity
  8
R-SWTS-DET3
100
AcDbLine
 10
13.15119372020756
 20
15.92778726021841
 30
0.0
 11
11.58063414401339
 21
16.17778726021841
 31
0.0
  0
LWPOLYLINE
  5
77F7
330
17
100
AcDbEntity
  8
R-SWTS-DET1
100
AcDbPolyline
 90
        6
 70
     0
 43
0.0
 10
13.60306824011048
 20
20.18587175892948
 10
12.45894898654811
 20
20.18555156133981
 10
12.40602857188568
 20
19.97329937121694
 10
12.30010790833528
 20
20.39812394905235
 10
12.24718749367285
 20
20.18587175892948
 10
11.1049067472352
 20
20.18587175892948
  0
DIMENSION
  5
77FF
330
17
100
AcDbEntity
  8
R-ANNO-DIMS
100
AcDbDimension
  2
*D11
 10
8.984891351278939
 20
20.18587175892948
 30
0.0
 11
8.797891351278936
 21
18.24432950957396
 31
0.0
 70
    32
  1
MH
 71
     5
 42
-1.0
  3
SHOP_DETAILS_NORCROSS
100
AcDbAlignedDimension
 13
9.431509070180197
 23
16.30278726021843
 33
0.0
 14
11.1049067472352
 24
20.18587175892948
 34
0.0
 50
90.0
100
AcDbRotatedDimension
1001
ACAD
1000
DSTYLE
1002
{
1002
}
  0
DIMENSION
  5
7800
330
17
100
AcDbEntity
  8
R-ANNO-DIMS
100
AcDbDimension
  2
*D12
 10
8.359891351278939
 20
20.18587175892948
 30
0.0
 11
8.172891351278936
 21
18.18182950957394
 31
0.0
 70
    32
  1
FH
 71
     5
 42
-1.0
  3
SHOP_DETAILS_NORCROSS
100
AcDbAlignedDimension
 13
11.23086395476348
 23
16.1777872602184
 33
0.0
 14
11.1049067472352
 24
20.18587175892948
 34
0.0
 50
90.0
100
AcDbRotatedDimension
1001
ACAD
1000
DSTYLE
1002
{
1002
}
  0
DIMENSION
  5
7801
330
17
100
AcDbEntity
  8
R-ANNO-DIMS
100
AcDbDimension
  2
*D13
 10
7.734891351278939
 20
20.18587175892949
 30
0.0
 11
7.547891351278935
 21
18.0568295095739
 31
0.0
 70
    32
  1
OD
 71
     5
 42
-1.0
  3
SHOP_DETAILS_NORCROSS
100
AcDbAlignedDimension
 13
8.820716674116482
 23
15.92778726021831
 33
0.0
 14
11.1049067472352
 24
20.18587175892948
 34
0.0
 50
90.0
100
AcDbRotatedDimension
1001
ACAD
1000
DSTYLE
1002
{
1002
}
  0
DIMENSION
  5
7802
330
17
100
AcDbEntity
  8
R-ANNO-DIMS
100
AcDbDimension
  2
*D14
 10
9.609891351278941
 20
18.17678726021459
 30
0.0
 11
9.609891351278939
 21
17.27307822518316
 31
0.0
 70
   160
 71
     5
 42
-1.0
  3
SHOP_DETAILS_NORCROSS
100
AcDbAlignedDimension
 13
11.23086395476348
 23
16.1777872602184
 33
0.0
 14
11.37986395476348
 24
18.17678726021459
 34
0.0
 50
90.0
100
AcDbRotatedDimension
1001
ACAD
1000
DSTYLE
1002
{
1002
}
  0
LINE
  5
7804
330
17
100
AcDbEntity
  8
R-SWTS-DET1
100
AcDbLine
 10
11.35586395476349
 20
16.30378726022407
 30
0.0
 11
11.35586395476349
 21
16.92883526021461
 31
0.0
  0
DIMENSION
  5
7805
330
17
100
AcDbEntity
  8
R-ANNO-DIMS
100
AcDbDimension
  2
*D15
 10
8.359891351278941
 20
15.92778726021831
 30
0.0
 11
8.359891351278937
 21
14.25745392688498
 31
0.0
 70
   160
  1
SHIM SPACE
 71
     5
 42
-1.0
  3
SHOP_DETAILS_NORCROSS
100
AcDbAlignedDimension
 13
11.23086395476348
 23
16.1777872602184
 33
0.0
 14
10.83129139658397
 24
15.92778726021831
 34
0.0
 50
90.0
100
AcDbRotatedDimension
1001
ACAD
1000
DSTYLE
1002
{
1002
}
  0
DIMENSION
  5
7806
330
17
100
AcDbEntity
  8
R-ANNO-DIMS
100
AcDbDimension
  2
*D16
 10
8.984891351278941
 20
16.1777872602184
 30
0.0
 11
8.984891351278939
 21
15.23764459813003
 31
0.0
 70
   160
 71
     5
 42
-1.0
  3
SHOP_DETAILS_NORCROSS
100
AcDbAlignedDimension
 13
9.431509070180197
 23
16.30278726021843
 33
0.0
 14
11.23086395476348
 24
16.1777872602184
 34
0.0
 50
90.0
100
AcDbRotatedDimension
1001
ACAD
1000
DSTYLE
1002
{
1002
}
  0
ARC
  5
7807
330
17
100
AcDbEntity
  8
R-SWTS-DET3
100
AcDbCircle
 10
10.98202489417064
 20
16.14963299230085
 30
0.0
 40
0.2504267175816111
100
AcDbArc
 50
297.6411189349402
 51
6.455135334019569
  0
LINE
  5
7808
330
17
100
AcDbEntity
  8
R-SWTS-DET3
100
AcDbLine
 10
11.58063414401339
 20
16.17778726021841
 30
0.0
 11
11.58063414401339
 21
15.92778726021841
 31
0.0
  0
CIRCLE
  5
7809
330
17
100
AcDbEntity
  8
R-SWTS-DET3
100
AcDbCircle
 10
11.54443701823907
 20
16.07458959205837
 30
0.0
 40
0.1460250000000009
  0
HATCH
  5
780A
330
17
100
AcDbEntity
  8
0
  6
Continuous
100
AcDbHatch
 10
0.0
 20
0.0
 30
0.0
210
0.0
220
0.0
230
1.0
  2
SOLID
 70
     1
 71
     0
 91
        1
 92
        7
 72
     0
 73
     1
 93
        4
 10
11.33594675366659
 20
16.61528726021843
 10
11.2308639547635
 20
16.61528726021844
 10
11.23086395476349
 20
16.30278726021844
 10
11.35586395476348
 20
16.30278726021843
 97
        0
 75
     0
 76
     1
 47
0.0044544669344257
 98
        1
 10
11.29505916084422
 20
16.4392894285304
  0
LINE
  5
780B
330
17
100
AcDbEntity
  8
0
  6
Continuous
100
AcDbLine
 10
11.33594675366659
 20
16.61528726021843
 30
0.0
 11
11.2308639547635
 21
16.61528726021844
 31
0.0
  0
LINE
  5
780C
330
17
100
AcDbEntity
  8
0
  6
Continuous
100
AcDbLine
 10
11.35586395476349
 20
16.30278726021843
 30
0.0
 11
11.23086395476349
 21
16.30278726021844
 31
0.0
  0
DIMENSION
  5
780E
330
17
100
AcDbEntity
  8
R-ANNO-DIMS
100
AcDbDimension
  2
*D17
 10
9.609891351278939
 20
20.18587175892948
 30
0.0
 11
9.422891351278936
 21
19.18132950957204
 31
0.0
 70
    32
  1
DLO
 71
     5
 42
-1.0
  3
SHOP_DETAILS_NORCROSS
100
AcDbAlignedDimension
 13
11.37986395476348
 23
18.17678726021459
 33
0.0
 14
11.1049067472352
 24
20.18587175892948
 34
0.0
 50
90.0
100
AcDbRotatedDimension
1001
ACAD
1000
DSTYLE
1002
{
1002
}
  0
LINE
  5
780F
330
17
100
AcDbEntity
  8
R-SWTS-DET1
100
AcDbLine
 10
11.35586395476348
 20
17.1038352602146
 30
0.0
 11
11.35586395476342
 21
20.18587175892948
 31
0.0
  0
LINE
  5
7816
330
17
100
AcDbEntity
  8
R-SWTS-DET3
  6
CENTER
100
AcDbLine
 10
12.9015827791735
 20
15.06829496376196
 30
0.0
 11
12.90158277917351
 21
17.06829496376196
 31
0.0
  0
LINE
  5
7817
330
17
100
AcDbEntity
  8
R-SWTS-DET1
100
AcDbLine
 10
13.35586395476348
 20
16.30378726022407
 30
0.0
 11
13.35616395476349
 21
17.98178726021461
 31
0.0
  0
LINE
  5
7818
330
17
100
AcDbEntity
  8
R-SWTS-DET3
100
AcDbLine
 10
13.15119372020756
 20
16.17778726021841
 30
0.0
 11
13.15119372020756
 21
15.92778726021841
 31
0.0
  0
LINE
  5
7819
330
17
100
AcDbEntity
  8
R-SWTS-DET1
100
AcDbLine
 10
13.35586395476348
 20
18.16678726021461
 30
0.0
 11
13.35586395476348
 21
20.18587175892948
 31
0.0
  0
LWPOLYLINE
  5
781D
330
17
100
AcDbEntity
  8
R-SWTS-DET1
100
AcDbPolyline
 90
        6
 70
     0
 43
0.0
 10
47.99767065984466
 20
12.39208753924664
 10
47.99767065984466
 20
11.24796828568428
 10
48.20992284996753
 20
11.19504787102185
 10
47.78509827213212
 20
11.08912720747145
 10
47.99735046225499
 20
11.03620679280901
 10
47.99735046225499
 20
9.643926046371376
  0
LWPOLYLINE
  5
7820
330
17
100
AcDbEntity
  8
R-SWTS-DET1
100
AcDbPolyline
 90
        6
 70
     0
 43
0.0
 10
53.99703026466532
 20
12.39208753924664
 10
53.99703026466532
 20
11.24796828568429
 10
54.20928245478819
 20
11.19504787102187
 10
53.78445787695278
 20
11.08912720747146
 10
53.99671006707564
 20
11.03620679280902
 10
53.99671006707564
 20
9.64392604637139
  0
LINE
  5
7824
330
17
100
AcDbEntity
  8
R-SWTS-DET1
  6
Continuous
100
AcDbLine
 10
53.99735046225498
 20
9.892087539246645
 30
0.0
 11
47.99799085743432
 21
9.892087539246631
 31
0.0
  0
LINE
  5
7825
330
17
100
AcDbEntity
  8
R-SWTS-DET1
  6
Continuous
100
AcDbLine
 10
53.99735046225498
 20
10.01708753924664
 30
0.0
 11
47.99799085743432
 21
10.01708753924663
 31
0.0
  0
DIMENSION
  5
7826
330
17
100
AcDbEntity
  8
R-ANNO-DIMS
100
AcDbDimension
  2
*D18
 10
47.99735046225499
 20
8.430087539246642
 30
0.0
 11
48.99751056104982
 21
8.617087539246641
 31
0.0
 70
    32
  1
DLO
 71
     5
 42
-1.0
  3
SHOP_DETAILS_NORCROSS
100
AcDbAlignedDimension
 13
49.99767065984466
 23
10.01708753924664
 33
0.0
 14
47.99735046225499
 24
9.675926046371372
 34
0.0
100
AcDbRotatedDimension
1001
ACAD
1000
DSTYLE
1002
{
1070
    78
1070
     1
1070
   270
1070
     7
1070
   284
1070
     1
1070
   140
1040
0.25
1070
    74
1070
     0
1070
    73
1070
     0
1070
    77
1070
     1
1070
    76
1070
     1
1070
     3
1000
"
1070
   147
1040
0.062
1070
    42
1040
0.125
1070
    44
1040
0.125
1070
    43
1040
0.375
1070
   178
1070
   256
1070
   177
1070
   256
1070
   176
1070
   256
1070
   141
1040
0.0
1070
    41
1040
0.2
1002
}
  0
DIMENSION
  5
7827
330
17
100
AcDbEntity
  8
R-ANNO-DIMS
100
AcDbDimension
  2
*D19
 10
53.99735046225498
 20
8.430087539246642
 30
0.0
 11
52.99753456104983
 21
8.617087539246641
 31
0.0
 70
    32
  1
DLO
 71
     5
 42
-1.0
  3
SHOP_DETAILS_NORCROSS
100
AcDbAlignedDimension
 13
51.99771865984466
 23
10.01708753924664
 33
0.0
 14
53.99735046225498
 24
9.675926046371372
 34
0.0
100
AcDbRotatedDimension
1001
ACAD
1000
DSTYLE
1002
{
1070
    78
1070
     1
1070
   270
1070
     7
1070
   284
1070
     1
1070
   140
1040
0.25
1070
    74
1070
     0
1070
    73
1070
     0
1070
    77
1070
     1
1070
    76
1070
     1
1070
     3
1000
"
1070
   147
1040
0.062
1070
    42
1040
0.125
1070
    44
1040
0.125
1070
    43
1040
0.375
1070
   178
1070
   256
1070
   177
1070
   256
1070
   176
1070
   256
1070
   141
1040
0.0
1070
    41
1040
0.2
1002
}
  0
DIMENSION
  5
7828
330
17
100
AcDbEntity
  8
R-ANNO-DIMS
100
AcDbDimension
  2
*D20
 10
51.99771865984466
 20
8.430087539246642
 30
0.0
 11
50.99767065984465
 21
8.617087539246641
 31
0.0
 70
    32
 71
     5
 42
-1.0
  3
SHOP_DETAILS_NORCROSS
100
AcDbAlignedDimension
 13
49.99762265984464
 23
10.01708753924664
 33
0.0
 14
51.99771865984466
 24
10.01708753924664
 34
0.0
100
AcDbRotatedDimension
1001
ACAD
1000
DSTYLE
1002
{
1070
    78
1070
     1
1070
   270
1070
     7
1070
   284
1070
     1
1070
   140
1040
0.25
1070
    74
1070
     0
1070
    73
1070
     0
1070
    77
1070
     1
1070
    76
1070
     1
1070
     3
1000
"
1070
   147
1040
0.062
1070
    42
1040
0.125
1070
    44
1040
0.125
1070
    43
1040
0.375
1070
   178
1070
   256
1070
   177
1070
   256
1070
   176
1070
   256
1070
   141
1040
0.0
1070
    41
1040
0.2
1002
}
  0
LINE
  5
7829
330
17
100
AcDbEntity
  8
R-SWTS-DET1
  6
Continuous
100
AcDbLine
 10
49.99762265984464
 20
12.14208753924664
 30
0.0
 11
47.99767065984466
 21
12.14208753924664
 31
0.0
  0
LINE
  5
782B
330
17
100
AcDbEntity
  8
R-SWTS-DET1
  6
Continuous
100
AcDbLine
 10
49.99762265984464
 20
12.01708753924664
 30
0.0
 11
47.99767065984466
 21
12.01708753924664
 31
0.0
  0
LINE
  5
782C
330
17
100
AcDbEntity
  8
R-SWTS-DET3
  6
CENTER
100
AcDbLine
 10
49.49485212958355
 20
13.19081980292435
 30
0.0
 11
49.49485212958356
 21
11.43506780292446
 31
0.0
  0
LINE
  5
782D
330
17
100
AcDbEntity
  8
R-SWTS-DET1
  6
Continuous
100
AcDbLine
 10
51.99771865984466
 20
12.14208753924664
 30
0.0
 11
53.99703026466532
 21
12.14208753924664
 31
0.0
  0
LINE
  5
7830
330
17
100
AcDbEntity
  8
R-SWTS-DET1
  6
Continuous
100
AcDbLine
 10
51.99771865984466
 20
12.01708753924664
 30
0.0
 11
53.99703026466532
 21
12.01708753924664
 31
0.0
  0
LINE
  5
7831
330
17
100
AcDbEntity
  8
R-SWTS-DET1
  6
Continuous
100
AcDbLine
 10
50.52632159649591
 20
12.01708753924666
 30
0.0
 11
51.46901972319342
 21
12.01708753924666
 31
0.0
  0
LINE
  5
7832
330
17
100
AcDbEntity
  8
R-SWTS-DET1
  6
Continuous
100
AcDbLine
 10
50.39767065984467
 20
12.14208753924666
 30
0.0
 11
51.59767065984467
 21
12.14208753924666
 31
0.0
  0
LINE
  5
7835
330
17
100
AcDbEntity
  8
R-SWTS-DET3
  6
CENTER
100
AcDbLine
 10
52.50048919010577
 20
13.19081980292435
 30
0.0
 11
52.50048919010577
 21
11.43506780292446
 31
0.0
  0
LWPOLYLINE
  5
7839
330
17
100
AcDbEntity
  8
R-SWTS-DET2
100
AcDbPolyline
 90
       28
 70
     1
 43
0.0
 10
39.62935537310914
 20
11.06258427453483
 10
39.62935537310914
 20
11.30862848466513
 42
-0.4686607930141859
 10
39.65298037310914
 20
11.32829722572806
 42
0.3667957117022638
 10
39.72028288552449
 20
11.36690894371035
 42
0.5198534925126158
 10
39.69677142201808
 20
11.40040665421304
 10
39.67985537310914
 20
11.40040665421304
 42
0.4142135623730951
 10
39.67385537310914
 20
11.39440665421304
 10
39.67385537310914
 20
11.38730344891681
 42
-0.5170635500108248
 10
39.66053913768742
 20
11.37786933090675
 10
39.59267160853086
 20
11.40172579570118
 42
0.5170635500106123
 10
39.57935537310914
 20
11.39229167769112
 10
39.57935537310914
 20
10.40902754006632
 42
0.5170635500105867
 10
39.59267160853086
 20
10.39959342205627
 10
39.62267160853085
 20
10.41013887660172
 42
0.3183363346813847
 10
39.62935537310914
 20
10.41957299461178
 10
39.62935537310914
 20
10.99258427453483
 42
-0.414213562372887
 10
39.63935537310914
 20
11.00258427453482
 10
39.71776440648972
 20
11.00258427453482
 42
-0.4142135623730951
 10
39.84276440648971
 20
10.87758427453482
 10
39.84276440648971
 20
10.59605165363915
 42
0.1374618384367904
 10
39.85150107837844
 20
10.56487359739833
 10
39.90328769739081
 20
10.50933924757149
 42
0.5499676122637228
 10
39.92335537310914
 20
10.52480389612705
 10
39.89361965981475
 20
10.59200522209387
 42
-0.1045253338067179
 10
39.89276440648971
 20
10.59605165363915
 10
39.89276440648972
 20
10.87758427453482
 42
0.414213562373107
 10
39.71776440648972
 20
11.05258427453482
 10
39.63935537310914
 20
11.05258427453484
 42
-0.414213562372887
  0
LINE
  5
783A
330
17
100
AcDbEntity
  8
R-SWTS-DET3
100
AcDbLine
 10
39.30967408409223
 20
12.61862921247184
 30
0.0
 11
39.30977008409225
 21
9.868629212471844
 31
0.0
  0
CIRCLE
  5
783B
330
17
100
AcDbEntity
  8
R-SWTS-DET3
100
AcDbCircle
 10
39.43502008409226
 20
10.4576039870055
 30
0.0
 40
0.125
  0
LWPOLYLINE
  5
783C
330
17
100
AcDbEntity
  8
R-SWTS-DET1
100
AcDbPolyline
 90
        6
 70
     0
 43
0.0
 10
43.55908168891292
 20
12.61424171759275
 10
43.56009028168194
 20
11.47012246403037
 10
43.77234247180481
 20
11.41720204936794
 10
43.34751789396939
 20
11.31128138581753
 10
43.55977008409226
 20
11.2583609711551
 10
43.55977008409226
 20
9.866080224717464
  0
DIMENSION
  5
7840
330
17
100
AcDbEntity
  8
R-ANNO-DIMS
100
AcDbDimension
  2
*D21
 10
39.30977008409225
 20
8.059693542319593
 30
0.0
 11
37.63943675075892
 21
8.246693542319592
 31
0.0
 70
    32
  1
SHIM SPACE
 71
     5
 42
-1.0
  3
SHOP_DETAILS_NORCROSS
100
AcDbAlignedDimension
 13
39.55977008409225
 23
10.23924171759275
 33
0.0
 14
39.30977008409225
 24
9.86862921247183
 34
0.0
100
AcDbRotatedDimension
1001
ACAD
1000
DSTYLE
1002
{
1070
    78
1070
     1
1070
   270
1070
     7
1070
   284
1070
     1
1070
   140
1040
0.25
1070
    74
1070
     0
1070
    73
1070
     0
1070
    77
1070
     1
1070
    76
1070
     1
1070
     3
1000
"
1070
   147
1040
0.062
1070
   287
1070
     3
1070
    42
1040
0.125
1070
    44
1040
0.125
1070
    43
1040
0.375
1070
   271
1070
     4
1070
   178
1070
   256
1070
   177
1070
   256
1070
   176
1070
   256
1070
   141
1040
0.0
1070
    41
1040
0.2
1002
}
  0
LINE
  5
7841
330
17
100
AcDbEntity
  8
R-SWTS-DET1
  6
Continuous
100
AcDbLine
 10
43.55940188650258
 20
10.11424171759275
 30
0.0
 11
39.55967408409224
 21
10.11424171759275
 31
0.0
  0
DIMENSION
  5
7842
330
17
100
AcDbEntity
  8
R-ANNO-DIMS
100
AcDbDimension
  2
*D22
 10
43.56041047927161
 20
7.497193542319593
 30
0.0
 11
41.43509028168192
 21
7.684193542319593
 31
0.0
 70
    32
  1
OD  
 71
     5
 42
-1.0
  3
SHOP_DETAILS_NORCROSS
100
AcDbAlignedDimension
 13
39.30977008409225
 23
9.86862921247183
 33
0.0
 14
43.56041047927161
 24
10.11424171759272
 34
0.0
100
AcDbRotatedDimension
1001
ACAD
1000
DSTYLE
1002
{
1070
    78
1070
     1
1070
   270
1070
     7
1070
   284
1070
     1
1070
   140
1040
0.25
1070
    74
1070
     0
1070
    73
1070
     0
1070
    77
1070
     1
1070
    76
1070
     1
1070
     3
1000
"
1070
   147
1040
0.062
1070
   287
1070
     3
1070
    42
1040
0.125
1070
    44
1040
0.125
1070
    43
1040
0.375
1070
   271
1070
     4
1070
   178
1070
   256
1070
   177
1070
   256
1070
   176
1070
   256
1070
   141
1040
0.0
1070
    41
1040
0.2
1002
}
  0
DIMENSION
  5
7843
330
17
100
AcDbEntity
  8
R-ANNO-DIMS
100
AcDbDimension
  2
*D23
 10
43.56041047927161
 20
8.059693542319593
 30
0.0
 11
41.56009028168193
 21
8.246693542319592
 31
0.0
 70
    32
  1
FW  
 71
     5
 42
-1.0
  3
SHOP_DETAILS_NORCROSS
100
AcDbAlignedDimension
 13
39.55977008409225
 23
10.23924171759275
 33
0.0
 14
43.56041047927161
 24
10.11424171759272
 34
0.0
100
AcDbRotatedDimension
1001
ACAD
1000
DSTYLE
1002
{
1070
    78
1070
     1
1070
   270
1070
     7
1070
   284
1070
     1
1070
   140
1040
0.25
1070
    74
1070
     0
1070
    73
1070
     0
1070
    77
1070
     1
1070
    76
1070
     1
1070
     3
1000
"
1070
   147
1040
0.062
1070
   287
1070
     3
1070
    42
1040
0.125
1070
    44
1040
0.125
1070
    43
1040
0.375
1070
   271
1070
     4
1070
   178
1070
   256
1070
   177
1070
   256
1070
   176
1070
   256
1070
   141
1040
0.0
1070
    41
1040
0.2
1002
}
  0
DIMENSION
  5
7844
330
17
100
AcDbEntity
  8
R-ANNO-DIMS
100
AcDbDimension
  2
*D24
 10
43.55977008409226
 20
8.622193542319593
 30
0.0
 11
42.55977008409226
 21
8.809193542319592
 31
0.0
 70
    32
  1
DLO
 71
     5
 42
-1.0
  3
SHOP_DETAILS_NORCROSS
100
AcDbAlignedDimension
 13
41.55977008409226
 23
10.23924171759275
 33
0.0
 14
43.55977008409226
 24
9.866080224717464
 34
0.0
100
AcDbRotatedDimension
1001
ACAD
1000
DSTYLE
1002
{
1070
    78
1070
     1
1070
   270
1070
     7
1070
   284
1070
     1
1070
   140
1040
0.25
1070
    74
1070
     0
1070
    73
1070
     0
1070
    77
1070
     1
1070
    76
1070
     1
1070
     3
1000
"
1070
   147
1040
0.062
1070
   287
1070
     3
1070
    42
1040
0.125
1070
    44
1040
0.125
1070
    43
1040
0.375
1070
   271
1070
     4
1070
   178
1070
   256
1070
   177
1070
   256
1070
   176
1070
   256
1070
   141
1040
0.0
1070
    41
1040
0.2
1002
}
  0
LINE
  5
7845
330
17
100
AcDbEntity
  8
R-SWTS-DET1
  6
Continuous
100
AcDbLine
 10
43.55940188650258
 20
10.23924171759275
 30
0.0
 11
41.55977008409226
 21
10.23924171759275
 31
0.0
  0
DIMENSION
  5
7846
330
17
100
AcDbEntity
  8
R-ANNO-DIMS
100
AcDbDimension
  2
*D25
 10
41.55977008409226
 20
8.622193542319593
 30
0.0
 11
40.55977008409225
 21
8.809193542319592
 31
0.0
 70
    32
 71
     5
 42
-1.0
  3
SHOP_DETAILS_NORCROSS
100
AcDbAlignedDimension
 13
39.55977008409225
 23
10.23924171759275
 33
0.0
 14
41.55977008409226
 24
10.23924171759275
 34
0.0
100
AcDbRotatedDimension
1001
ACAD
1000
DSTYLE
1002
{
1070
    78
1070
     1
1070
   270
1070
     7
1070
   284
1070
     1
1070
   140
1040
0.25
1070
    74
1070
     0
1070
    73
1070
     0
1070
    77
1070
     1
1070
    76
1070
     1
1070
     3
1000
"
1070
   147
1040
0.062
1070
   287
1070
     3
1070
    42
1040
0.125
1070
    44
1040
0.125
1070
    43
1040
0.375
1070
   271
1070
     4
1070
   178
1070
   256
1070
   177
1070
   256
1070
   176
1070
   256
1070
   141
1040
0.0
1070
    41
1040
0.2
1002
}
  0
ARC
  5
7847
330
17
100
AcDbEntity
  8
R-SWTS-DET3
100
AcDbCircle
 10
39.49847467304756
 20
9.9308606499849
 30
0.0
 40
0.1933235212518425
100
AcDbArc
 50
71.54469815849257
 51
167.4502642365828
  0
ARC
  5
7848
330
17
100
AcDbEntity
  8
R-SWTS-DET3
100
AcDbCircle
 10
39.49847467304756
 20
10.05586064998489
 30
0.0
 40
0.1933235212518425
100
AcDbArc
 50
71.54469815849257
 51
167.4502642365828
  0
LINE
  5
784A
330
17
100
AcDbEntity
  8
R-SWTS-DET1
  6
Continuous
100
AcDbLine
 10
39.55967408409224
 20
10.11424171759275
 30
0.0
 11
39.55967408409224
 21
10.23924171759275
 31
0.0
  0
LINE
  5
784C
330
17
100
AcDbEntity
  8
R-SWTS-DET1
  6
Continuous
100
AcDbLine
 10
39.55967408409224
 20
12.36424171759275
 30
0.0
 11
43.55908168891292
 21
12.36424171759274
 31
0.0
  0
LINE
  5
784E
330
17
100
AcDbEntity
  8
R-SWTS-DET1
  6
Continuous
100
AcDbLine
 10
39.55967408409224
 20
12.23924171759275
 30
0.0
 11
43.55908168891292
 21
12.23924171759275
 31
0.0
  0
LINE
  5
784F
330
17
100
AcDbEntity
  8
R-SWTS-DET3
  6
CENTER
100
AcDbLine
 10
38.73606595511862
 20
10.84792176381704
 30
0.0
 11
40.90597816197601
 21
10.84792176381705
 31
0.0
  0
LINE
  5
7850
330
17
100
AcDbEntity
  8
R-SWTS-DET1
  6
Continuous
100
AcDbLine
 10
39.55967408409224
 20
12.23924171759275
 30
0.0
 11
39.55967408409224
 21
12.36424171759277
 31
0.0
  0
LINE
  5
7851
330
17
100
AcDbEntity
  8
R-SWTS-DET3
100
AcDbLine
 10
39.55977008409225
 20
10.58260397494773
 30
0.0
 11
39.30967408409223
 21
11.91061833607084
 31
0.0
  0
LINE
  5
7852
330
17
100
AcDbEntity
  8
R-SWTS-DET3
100
AcDbLine
 10
39.30977008409225
 20
10.58260397494773
 30
0.0
 11
39.55917408409224
 21
11.91061833607084
 31
0.0
  0
LINE
  5
7853
330
17
100
AcDbEntity
  8
R-SWTS-DET3
100
AcDbLine
 10
39.30977008409225
 20
10.58260397494773
 30
0.0
 11
39.55927008409226
 21
10.58260397494773
 31
0.0
  0
LINE
  5
7854
330
17
100
AcDbEntity
  8
R-SWTS-DET3
100
AcDbLine
 10
39.30967408409223
 20
11.91061833607084
 30
0.0
 11
39.55917408409224
 21
11.91061833607084
 31
0.0
  0
LINE
  5
7855
330
17
100
AcDbEntity
  8
0
100
AcDbLine
 10
39.55977008409225
 20
11.95427769863157
 30
0.0
 11
39.55977008409225
 21
10.62294789313235
 31
0.0
  0
LINE
  5
7856
330
17
100
AcDbEntity
  8
R-SWTS-DET3
100
AcDbLine
 10
39.55977008409225
 20
10.58260397494773
 30
0.0
 11
39.55967408409223
 21
11.91061833607084
 31
0.0
  0
LINE
  5
7D97
330
17
100
AcDbEntity
  8
0
100
AcDbLine
 10
13.35416943578386
 20
26.36101345908809
 30
0.0
 11
13.47916943578386
 21
26.36101345908809
 31
0.0
  0
LINE
  5
7D98
330
17
100
AcDbEntity
  8
0
100
AcDbLine
 10
13.35416943578386
 20
26.09601345908809
 30
0.0
 11
13.47916943578386
 21
26.09601345908809
 31
0.0
  0
LINE
  5
7D9A
330
17
100
AcDbEntity
  8
0
100
AcDbLine
 10
13.35416943578386
 20
23.38121574601539
 30
0.0
 11
13.47916943578386
 21
23.38121574601539
 31
0.0
  0
LINE
  5
7D9B
330
17
100
AcDbEntity
  8
0
100
AcDbLine
 10
13.35416943578386
 20
23.11621574601539
 30
0.0
 11
13.47916943578386
 21
23.11621574601539
 31
0.0
  0
LWPOLYLINE
  5
7D9C
330
17
100
AcDbEntity
  8
R-SWTS-DET1
100
AcDbPolyline
 90
       22
 70
     1
 43
0.0
 10
13.25416943578386
 20
25.58949252824828
 10
13.25416943578386
 20
25.33861460255174
 10
13.35416943578386
 20
25.33861460255174
 10
13.35416943578386
 20
26.53611460255174
 42
-0.4142135623730951
 10
13.36916943578386
 20
26.55111460255174
 10
13.46416943578387
 20
26.55111460255174
 42
-0.4142135623730951
 10
13.47916943578386
 20
26.53611460255174
 10
13.47916943578385
 20
25.33861460255174
 42
-0.3659852195961352
 10
13.37499936148039
 20
25.21536236445654
 42
0.3659852195961381
 10
13.27082928717692
 20
25.09211012636133
 10
13.27082928717692
 20
24.38511907874215
 42
0.3659852195961362
 10
13.37499936148039
 20
24.26186684064695
 42
-0.3659852195961371
 10
13.47916943578385
 20
24.13861460255175
 10
13.47916943578386
 20
22.94111460255174
 42
-0.4142135623730951
 10
13.46416943578386
 20
22.92611460255175
 10
13.36916943578386
 20
22.92611460255174
 42
-0.4142135623730951
 10
13.35416943578386
 20
22.94111460255174
 10
13.35416943578386
 20
24.13861460255174
 10
13.25416943578386
 20
24.13861460255174
 10
13.25416943578386
 20
23.88773667685521
 42
-0.9999999999999998
 10
13.14582928717692
 20
23.88773667685521
 10
13.14582928717692
 20
25.58949252824828
 42
-0.9999999999999998
  0
LWPOLYLINE
  5
7D9D
330
17
100
AcDbEntity
  8
R-SWTS-DET1
100
AcDbPolyline
 90
      119
 70
     1
 43
0.0
 10
11.68416943578384
 20
23.80916260255176
 10
11.65516943578384
 20
23.80916260255176
 42
-0.4142135623730951
 10
11.63516943578384
 20
23.82916260255176
 10
11.63516943578384
 20
23.84116260255176
 10
11.66416943578384
 20
23.84116260255176
 10
11.66416943578384
 20
23.87916260255176
 10
11.64173238779852
 20
23.98132083636811
 42
0.3541185725307034
 10
11.62216943578385
 20
23.99716260255175
 10
11.58021943578384
 20
23.99716260255176
 10
11.51354176625418
 20
23.93054027208142
 42
0.1989123673796776
 10
11.50621943578384
 20
23.91286260255176
 10
11.50621943578384
 20
23.84116260255176
 10
11.53521943578384
 20
23.84116260255176
 10
11.50621943578384
 20
23.75866260255176
 10
11.45322031074992
 20
23.76866260255176
 10
11.44267485620447
 20
23.73866260255176
 10
11.37816943578384
 20
23.73866260255176
 10
11.37816943578384
 20
24.86366260255175
 10
11.4680957314703
 20
24.86366260255175
 10
11.48665157707485
 20
24.83170531289948
 42
-0.5881107555336708
 10
11.46876261696324
 20
24.80167140108476
 42
0.4229287041880653
 10
11.44816943578384
 20
24.78168019961791
 10
11.44816943578384
 20
24.69616260255175
 42
0.4142135623731081
 10
11.46816943578384
 20
24.67616260255175
 10
11.77516943578384
 20
24.67616260255175
 10
11.77516943578384
 20
24.73866260255175
 10
11.67740926160536
 20
24.73866260255175
 10
11.64859914940825
 20
24.78868015844951
 42
-0.5770125539080642
 10
11.66592978153018
 20
24.81866260255175
 10
11.77516943578384
 20
24.81866260255175
 10
11.77516943578384
 20
24.84366260255175
 42
-0.4142135623730819
 10
11.79516943578384
 20
24.86366260255175
 10
12.37017443578384
 20
24.86366260255175
 42
0.4142135623730907
 10
12.43017443578384
 20
24.92366260255175
 10
12.43017443578384
 20
25.40516260255174
 42
0.4142135623731054
 10
12.40517443578384
 20
25.43016260255174
 10
12.36817443578384
 20
25.43016260255174
 10
12.36817443578384
 20
25.40816260255174
 42
-0.4142135623730951
 10
12.33016943578384
 20
25.44616760255174
 10
12.33016943578384
 20
25.64816260255174
 42
-0.4142135623730819
 10
12.35016943578384
 20
25.66816260255174
 10
12.37916943578384
 20
25.66816260255174
 42
-0.4142135623731082
 10
12.39916943578384
 20
25.64816260255174
 10
12.39916943578384
 20
25.63616260255174
 10
12.37016943578384
 20
25.63616260255174
 10
12.37016943578384
 20
25.59816260255174
 10
12.39260648376916
 20
25.49600436873539
 42
0.3541185725307387
 10
12.41216943578384
 20
25.48016260255175
 10
12.45411943578384
 20
25.48016260255174
 10
12.5207971053135
 20
25.54678493302208
 42
0.1989123673796841
 10
12.52811943578384
 20
25.56446260255174
 10
12.52811943578384
 20
25.63616260255174
 10
12.49911943578384
 20
25.63616260255175
 10
12.52811943578384
 20
25.71866260255174
 10
12.58111856081776
 20
25.70866260255174
 10
12.59166401536322
 20
25.73866260255175
 10
13.35416943578384
 20
25.73866260255175
 10
13.35416943578386
 20
25.36366260255175
 10
13.28416943578386
 20
25.36366260255175
 10
13.28416943578384
 20
25.59866260255176
 42
0.41421356237313
 10
13.22416943578385
 20
25.65866260255175
 10
12.66811943578384
 20
25.65866260255176
 42
0.4142135623730863
 10
12.60811943578384
 20
25.59866260255175
 10
12.60811943578384
 20
25.56239032174418
 42
-0.199020262721565
 10
12.57880075250473
 20
25.49165029441453
 10
12.51597817243966
 20
25.42887985388146
 42
0.199020262721565
 10
12.51011443578384
 20
25.41473184841553
 10
12.51011443578384
 20
24.06249735668795
 42
0.199020262721565
 10
12.51597817243966
 20
24.04834935122202
 10
12.57880075250473
 20
23.98557891068896
 42
-0.199020262721565
 10
12.60811943578384
 20
23.9148388833593
 10
12.60811943578384
 20
23.87856660255173
 42
0.4142135623730735
 10
12.66811943578384
 20
23.81856660255173
 10
13.22416943578384
 20
23.81856660255173
 42
0.4142135623730951
 10
13.28416943578384
 20
23.87856660255172
 10
13.28416943578386
 20
24.11356660255173
 10
13.35416943578386
 20
24.11356660255173
 10
13.35416943578384
 20
23.73856660255173
 10
12.59166401536321
 20
23.73856660255173
 10
12.58111856081776
 20
23.76856660255174
 10
12.52811943578383
 20
23.75856660255174
 10
12.49911943578384
 20
23.84106660255174
 10
12.52811943578383
 20
23.84106660255174
 10
12.52811943578383
 20
23.91276660255174
 42
0.1989123673796852
 10
12.5207971053135
 20
23.9304442720814
 10
12.45411943578384
 20
23.99706660255174
 10
12.41216943578384
 20
23.99706660255174
 42
0.3541185725307359
 10
12.39260648376916
 20
23.98122483636809
 10
12.37016943578384
 20
23.87906660255174
 10
12.37016943578384
 20
23.84106660255174
 10
12.39916943578384
 20
23.84106660255174
 10
12.39916943578384
 20
23.82906660255174
 42
-0.4142135623730951
 10
12.37916943578384
 20
23.80906660255174
 10
12.35016943578384
 20
23.80906660255174
 42
-0.4142135623730821
 10
12.33016943578384
 20
23.82906660255174
 10
12.33016943578384
 20
24.03106160255175
 42
-0.4142135623730951
 10
12.36817443578384
 20
24.06906660255174
 10
12.36817443578384
 20
24.04706660255174
 10
12.40517443578383
 20
24.04706660255174
 42
0.4142135623731054
 10
12.43017443578384
 20
24.07206660255174
 10
12.43017443578383
 20
24.07216260255176
 10
12.43017443578384
 20
24.73366260255175
 42
0.4142135623730908
 10
12.37017443578384
 20
24.79366260255175
 10
11.86516943578385
 20
24.79366260255175
 42
0.4142135623730951
 10
11.84516943578385
 20
24.77366260255176
 10
11.84516943578384
 20
24.67616260255175
 42
-0.4142135623730951
 10
11.77516943578384
 20
24.60616260255175
 10
11.46816943578384
 20
24.60616260255175
 42
0.4142135623731081
 10
11.44816943578384
 20
24.58616260255175
 10
11.44816943578384
 20
24.02658725389811
 42
0.6681640521693089
 10
11.4823110009699
 20
24.01244454785971
 10
11.53171142320317
 20
24.06184098509977
 42
-0.1989018846181318
 10
11.54938837968574
 20
24.06916260255176
 10
11.60416443578384
 20
24.06916260255176
 10
11.60416443578384
 20
24.04716260255176
 10
11.66616443578385
 20
24.04716260255176
 10
11.66616443578385
 20
24.06916260255176
 42
-0.4142135623730951
 10
11.70416943578384
 20
24.03115760255177
 10
11.70416943578384
 20
23.82916260255176
 42
-0.4142135623730951
  0
LINE
  5
7D9E
330
17
100
AcDbEntity
  8
R-SWTS-DET2
100
AcDbLine
 10
11.79619308999082
 20
24.86356660255173
 30
0.0
 11
11.79619308999082
 21
25.36356660255173
 31
0.0
  0
LINE
  5
7D9F
330
17
100
AcDbEntity
  8
R-SWTS-DET2
100
AcDbLine
 10
11.79619308999082
 20
25.36356660255173
 30
0.0
 11
12.23369308999082
 21
25.36356660255173
 31
0.0
  0
LINE
  5
7DA0
330
17
100
AcDbEntity
  8
R-SWTS-DET2
100
AcDbLine
 10
11.79619308999082
 20
24.86356660255173
 30
0.0
 11
12.23369308999082
 21
24.86356660255173
 31
0.0
  0
LINE
  5
7DA1
330
17
100
AcDbEntity
  8
R-SWTS-DET2
100
AcDbLine
 10
12.23369308999082
 20
24.86356660255173
 30
0.0
 11
12.23369308999082
 21
25.36356660255173
 31
0.0
  0
LINE
  5
7DA2
330
17
100
AcDbEntity
  8
R-SWTS-DET2
100
AcDbLine
 10
11.38615626288732
 20
25.73856660255172
 30
0.0
 11
11.38615626288732
 21
27.73856660255173
 31
0.0
  0
LINE
  5
7DA3
330
17
100
AcDbEntity
  8
R-SWTS-DET2
100
AcDbLine
 10
12.64835626288733
 20
25.73856660255172
 30
0.0
 11
12.64835626288733
 21
27.73856660255173
 31
0.0
  0
LINE
  5
7DA4
330
17
100
AcDbEntity
  8
R-SWTS-DET3
100
AcDbLine
 10
12.14165626288733
 20
25.36356660255173
 30
0.0
 11
12.14165626288733
 21
27.73856660255173
 31
0.0
  0
LINE
  5
7DA5
330
17
100
AcDbEntity
  8
R-SWTS-DET3
100
AcDbLine
 10
11.89165626288732
 20
25.36356660255173
 30
0.0
 11
11.89165626288732
 21
27.73856660255173
 31
0.0
  0
LINE
  5
7DA6
330
17
100
AcDbEntity
  8
R-SWTS-DET2
100
AcDbLine
 10
11.8904430899908
 20
25.92528170733179
 30
0.0
 11
11.64402603963187
 21
25.81783038959493
 31
0.0
  0
LINE
  5
7DA7
330
17
100
AcDbEntity
  8
R-SWTS-DET2
100
AcDbLine
 10
11.64402603963187
 20
25.81783038959493
 30
0.0
 11
11.38495626288732
 21
25.76843555944988
 31
0.0
  0
LINE
  5
7DA8
330
17
100
AcDbEntity
  8
R-SWTS-DET2
100
AcDbLine
 10
12.14286943578384
 20
25.92528170733179
 30
0.0
 11
12.38928648614278
 21
25.81783038959493
 31
0.0
  0
LINE
  5
7DA9
330
17
100
AcDbEntity
  8
R-SWTS-DET3
100
AcDbLine
 10
12.14165626288733
 20
25.36356660255173
 30
0.0
 11
11.89165626288732
 21
25.36356660255173
 31
0.0
  0
LINE
  5
7DAA
330
17
100
AcDbEntity
  8
R-SWTS-DET2
100
AcDbLine
 10
11.84883871057608
 20
25.41501086522032
 30
0.0
 11
11.89216943578385
 21
25.59531225500272
 31
0.0
  0
ARC
  5
7DAB
330
17
100
AcDbEntity
  8
R-SWTS-DET2
100
AcDbCircle
 10
11.79670626288733
 20
25.42698815993258
 30
0.0
 40
0.0534906318026363
100
AcDbArc
 50
192.5775302134595
 51
347.0609815902198
  0
LINE
  5
7DAC
330
17
100
AcDbEntity
  8
R-SWTS-DET2
100
AcDbLine
 10
11.74449928661575
 20
25.41534001333218
 30
0.0
 11
11.70416943578385
 21
25.59609834662309
 31
0.0
  0
LINE
  5
7DAD
330
17
100
AcDbEntity
  8
R-SWTS-DET2
100
AcDbLine
 10
12.18447381519857
 20
25.41501086522032
 30
0.0
 11
12.14114308999081
 21
25.59531225500272
 31
0.0
  0
ARC
  5
7DAE
330
17
100
AcDbEntity
  8
R-SWTS-DET2
100
AcDbCircle
 10
12.23660626288732
 20
25.42698815993258
 30
0.0
 40
0.0534906318026363
100
AcDbArc
 50
192.9390184097802
 51
347.4224697865404
  0
LINE
  5
7DAF
330
17
100
AcDbEntity
  8
R-SWTS-DET2
100
AcDbLine
 10
12.2888132391589
 20
25.41534001333218
 30
0.0
 11
12.3291430899908
 21
25.59609834662309
 31
0.0
  0
LINE
  5
7DB0
330
17
100
AcDbEntity
  8
R-SWTS-DET2
100
AcDbLine
 10
12.38928648614278
 20
25.81783038959493
 30
0.0
 11
12.64835626288733
 21
25.76843555944988
 31
0.0
  0
LINE
  5
7DB1
330
17
100
AcDbEntity
  8
R-SWTS-DET2
100
AcDbLine
 10
11.38615626288732
 20
23.73856660255173
 30
0.0
 11
11.38615626288732
 21
21.73856660255173
 31
0.0
  0
LINE
  5
7DB2
330
17
100
AcDbEntity
  8
R-SWTS-DET2
100
AcDbLine
 10
12.64835626288733
 20
23.73856660255173
 30
0.0
 11
12.64835626288733
 21
21.73856660255173
 31
0.0
  0
LINE
  5
7DB3
330
17
100
AcDbEntity
  8
R-SWTS-DET3
100
AcDbLine
 10
12.14165626288733
 20
24.11356660255173
 30
0.0
 11
12.14165626288733
 21
21.73856660255173
 31
0.0
  0
LINE
  5
7DB4
330
17
100
AcDbEntity
  8
R-SWTS-DET3
100
AcDbLine
 10
11.89165626288732
 20
24.11356660255173
 30
0.0
 11
11.89165626288732
 21
21.73856660255173
 31
0.0
  0
LINE
  5
7DB5
330
17
100
AcDbEntity
  8
R-SWTS-DET2
100
AcDbLine
 10
11.8904430899908
 20
23.55185149777167
 30
0.0
 11
11.64402603963187
 21
23.65930281550852
 31
0.0
  0
LINE
  5
7DB6
330
17
100
AcDbEntity
  8
R-SWTS-DET2
100
AcDbLine
 10
11.64402603963187
 20
23.65930281550852
 30
0.0
 11
11.38495626288732
 21
23.70869764565357
 31
0.0
  0
LINE
  5
7DB7
330
17
100
AcDbEntity
  8
R-SWTS-DET2
100
AcDbLine
 10
12.14286943578384
 20
23.55185149777167
 30
0.0
 11
12.38928648614278
 21
23.65930281550852
 31
0.0
  0
LINE
  5
7DB8
330
17
100
AcDbEntity
  8
R-SWTS-DET3
100
AcDbLine
 10
12.14165626288733
 20
24.11356660255173
 30
0.0
 11
11.89165626288732
 21
24.11356660255173
 31
0.0
  0
LINE
  5
7DB9
330
17
100
AcDbEntity
  8
R-SWTS-DET2
100
AcDbLine
 10
11.84883871057608
 20
24.06212233988313
 30
0.0
 11
11.89216943578384
 21
23.88182095010073
 31
0.0
  0
ARC
  5
7DBA
330
17
100
AcDbEntity
  8
R-SWTS-DET2
100
AcDbCircle
 10
11.79670626288732
 20
24.05014504517087
 30
0.0
 40
0.0534906318026363
100
AcDbArc
 50
12.93901840978022
 51
167.4224697865404
  0
LINE
  5
7DBB
330
17
100
AcDbEntity
  8
R-SWTS-DET2
100
AcDbLine
 10
11.74449928661575
 20
24.06179319177128
 30
0.0
 11
11.70416943578384
 21
23.88103485848037
 31
0.0
  0
LINE
  5
7DBC
330
17
100
AcDbEntity
  8
R-SWTS-DET2
100
AcDbLine
 10
12.18447381519857
 20
24.06212233988313
 30
0.0
 11
12.14114308999081
 21
23.88182095010073
 31
0.0
  0
ARC
  5
7DBD
330
17
100
AcDbEntity
  8
R-SWTS-DET2
100
AcDbCircle
 10
12.23660626288732
 20
24.05014504517087
 30
0.0
 40
0.0534906318026363
100
AcDbArc
 50
12.57753021345956
 51
167.0609815902198
  0
LINE
  5
7DBE
330
17
100
AcDbEntity
  8
R-SWTS-DET2
100
AcDbLine
 10
12.2888132391589
 20
24.06179319177128
 30
0.0
 11
12.3291430899908
 21
23.88103485848037
 31
0.0
  0
LINE
  5
7DBF
330
17
100
AcDbEntity
  8
R-SWTS-DET2
100
AcDbLine
 10
12.38928648614278
 20
23.65930281550852
 30
0.0
 11
12.64835626288733
 21
23.70869764565357
 31
0.0
  0
LWPOLYLINE
  5
7DC0
330
17
100
AcDbEntity
  8
R-SWTS-DET1
100
AcDbPolyline
 90
       38
 70
     1
 43
0.0
 10
11.45766943578386
 20
25.0071370972304
 10
11.45766943578386
 20
25.44059475787726
 42
-0.6681640521692748
 10
11.49181100096991
 20
25.45473746391567
 10
11.53121142320319
 20
25.41534022000372
 42
0.1989018846181243
 10
11.54888837968575
 20
25.40801860255172
 10
11.60366443578386
 20
25.40801860255172
 10
11.60366443578386
 20
25.43001860255172
 10
11.66566443578386
 20
25.43001860255172
 10
11.66566443578386
 20
25.40801860255172
 42
0.4142135623731018
 10
11.70366943578386
 20
25.44602360255171
 10
11.70366943578386
 20
25.64801860255172
 42
0.4142135623730951
 10
11.68366943578386
 20
25.66801860255172
 10
11.65466943578386
 20
25.66801860255172
 42
0.4142135623730951
 10
11.63466943578386
 20
25.64801860255172
 10
11.63466943578386
 20
25.63601860255172
 10
11.66366943578386
 20
25.63601860255172
 10
11.66366943578386
 20
25.59801860255172
 10
11.64123238779853
 20
25.49586036873537
 42
-0.3541185725306984
 10
11.62166943578386
 20
25.48001860255172
 10
11.57971943578386
 20
25.48001860255172
 10
11.51304176625419
 20
25.54664093302206
 42
-0.1989123673796526
 10
11.50571943578386
 20
25.56431860255172
 10
11.50571943578386
 20
25.63601860255172
 10
11.53471943578386
 20
25.63601860255172
 10
11.50571943578386
 20
25.71851860255172
 10
11.45272031074994
 20
25.70851860255172
 10
11.44217485620448
 20
25.73851860255172
 10
11.37766943578386
 20
25.73851860255172
 10
11.37766943578386
 20
24.86356660255172
 10
11.46759573147032
 20
24.86356660255172
 10
11.60591809566517
 20
24.69871318196588
 42
0.2217003395847705
 10
11.62123926277348
 20
24.69156860255172
 10
11.71697100848386
 20
24.69156860255172
 42
0.4142135623731211
 10
11.72697100848386
 20
24.70156860255173
 10
11.72697100848386
 20
24.72856660255172
 42
0.4142135623730951
 10
11.71697100848386
 20
24.73856660255172
 10
11.67690926160538
 20
24.73856660255173
 10
11.46234826867554
 20
24.99428167664455
 42
-0.1763214014867929
  0
LWPOLYLINE
  5
7DC1
330
17
100
AcDbEntity
  8
R-SWTS-DET1
100
AcDbPolyline
 90
       73
 70
     1
 43
0.0
 10
11.77686395476347
 20
17.1768352602146
 10
11.679103780585
 20
17.1768352602146
 10
11.6502936683879
 20
17.22685281611236
 42
-0.577012553908249
 10
11.66762430050982
 20
17.25683526021458
 10
11.77686395476347
 20
17.25683526021458
 42
-0.4142135623730951
 10
11.82181595476348
 20
17.30178726021459
 10
12.37186895476346
 20
17.30178726021459
 42
0.4142135623731645
 10
12.43186895476346
 20
17.36178726021458
 10
12.43186895476349
 20
17.84328726021455
 42
0.4142135623730951
 10
12.40686895476348
 20
17.86828726021455
 10
12.36986895476348
 20
17.86828726021455
 10
12.36986895476348
 20
17.84628726021456
 42
-0.4142135623730951
 10
12.33186395476348
 20
17.88429226021456
 10
12.33186395476348
 20
18.08628726021456
 42
-0.414213562373095
 10
12.35186395476348
 20
18.10628726021458
 10
12.38086395476346
 20
18.10628726021457
 42
-0.4142135623733033
 10
12.40086395476347
 20
18.08628726021457
 10
12.40086395476347
 20
18.07428726021457
 10
12.37186395476347
 20
18.07428726021457
 10
12.37186395476347
 20
18.03628726021456
 10
12.39430100274878
 20
17.93412902639822
 42
0.3541185725306986
 10
12.41386395476347
 20
17.91828726021458
 10
12.45581395476346
 20
17.91828726021456
 10
12.52249162429313
 20
17.9849095906849
 42
0.1989123673795841
 10
12.52981395476347
 20
18.00258726021458
 10
12.52981395476347
 20
18.07428726021457
 10
12.50081395476347
 20
18.07428726021457
 10
12.52981395476348
 20
18.15678726021457
 10
12.58281307979739
 20
18.14678726021456
 10
12.59335853434285
 20
18.17678726021459
 10
13.34556395476348
 20
18.17678726021458
 42
-0.4142135623730951
 10
13.35556395476347
 20
18.16678726021459
 10
13.35556395476345
 20
18.08178726021461
 42
0.4142135623733032
 10
13.36556395476345
 20
18.07178726021462
 10
13.39050497091483
 20
18.07178726021461
 42
-0.5773502691905924
 10
13.39916522495268
 20
18.0567872602146
 10
13.30161266606941
 20
17.88782127182045
 42
-0.7673269879788692
 10
13.28282547899055
 20
17.89285528342629
 10
13.28282547899055
 20
18.02678726021456
 42
0.4142135623730951
 10
13.20282547899055
 20
18.10678726021456
 10
12.66981395476349
 20
18.10678726021457
 42
0.4142135623730951
 10
12.59981395476349
 20
18.03678726021457
 10
12.59981395476348
 20
18.00673183096596
 42
-0.1990202627214415
 10
12.56902933732043
 20
17.93245480226987
 10
12.50773269141932
 20
17.87120902945333
 42
0.1990202627216266
 10
12.50186895476348
 20
17.85706102398739
 10
12.50186895476345
 20
16.33678726021459
 42
-0.9999999999999998
 10
12.43186895476346
 20
16.33678726021459
 10
12.43186895476346
 20
17.17178726021458
 42
0.4142135623730951
 10
12.37186895476346
 20
17.23178726021458
 10
11.86686395476346
 20
17.2317872602146
 42
0.414213562373095
 10
11.8468639547635
 20
17.2117872602146
 10
11.84686395476346
 20
17.1143352602146
 42
-0.4142135623730319
 10
11.77686395476347
 20
17.04433526021462
 10
11.47017095705866
 20
17.0443352602146
 42
0.3611884113881976
 10
11.45050990848149
 20
17.02800175293232
 10
11.4505099084815
 20
16.99883526021461
 42
-0.4142135623730728
 10
11.3805099084815
 20
16.92883526021461
 10
11.33386395476352
 20
16.92883526021461
 42
-0.4142135623730035
 10
11.29386395476352
 20
16.96883526021459
 10
11.2938639547635
 20
17.00883526021461
 10
11.35586395476352
 20
17.00883526021461
 10
11.35586395476348
 20
17.10383526021462
 42
-0.4142135623726789
 10
11.36586395476348
 20
17.11383526021461
 10
11.37986395476348
 20
17.11383526021461
 10
11.37986395476348
 20
17.3018352602146
 10
11.46979025044994
 20
17.30183526021458
 10
11.48834609605449
 20
17.26987797056233
 42
-0.5881107555335757
 10
11.47045713594287
 20
17.2398440587476
 42
0.4229287041884656
 10
11.44986395476347
 20
17.21985285728075
 10
11.44986395476347
 20
17.13433526021461
 42
0.4142135623733032
 10
11.46986395476347
 20
17.1143352602146
 10
11.77686395476347
 20
17.1143352602146
1001
MCAD_NO_VIS
1070
     1
  0
LWPOLYLINE
  5
7DC2
330
17
100
AcDbEntity
  8
R-SWTS-DET1
100
AcDbPolyline
 90
       49
 70
     1
 43
0.0
 10
11.32050361869437
 20
16.85758936157004
 10
11.35586395476348
 20
16.30278726021843
 10
12.40336508386874
 20
16.30278726021843
 42
-0.4142135623730951
 10
12.41336508386874
 20
16.29278726021843
 10
12.41336508386874
 20
16.24386157819582
 42
0.4142135623727309
 10
12.42336508386872
 20
16.23386157819582
 10
12.50274784176351
 20
16.23386157819582
 42
0.3152987888785128
 10
12.51214476797134
 20
16.24044137676255
 10
12.53244196295261
 20
16.29620746165169
 42
-0.3152987888789008
 10
12.54183888916045
 20
16.30278726021843
 10
13.35586395476348
 20
16.3027872602184
 10
13.4008639547635
 20
17.00883526021463
 10
13.35586395476349
 20
17.00883525224968
 10
13.35586395476349
 20
17.11383525224965
 10
13.4008639547635
 20
17.11383526021461
 10
13.40086395476349
 20
17.90116548194964
 42
0.1316524975872395
 10
13.39952420880134
 20
17.90616548194962
 10
13.35586395476348
 20
17.98178726021461
 10
13.40786395476351
 20
17.98178726021461
 42
0.4142135623730951
 10
13.4178639547635
 20
17.9917872602146
 10
13.4178639547635
 20
18.06178726021462
 42
0.4142135623730951
 10
13.40786395476351
 20
18.07178726021462
 10
13.36586395476349
 20
18.07178726021462
 42
-0.4142135623733032
 10
13.35586395476349
 20
18.08178726021463
 10
13.35586395476348
 20
18.1667872602146
 42
-0.4142135623730951
 10
13.36586395476349
 20
18.1767872602146
 10
13.47086395476354
 20
18.1767872602146
 42
-0.4142135623735113
 10
13.48086395476351
 20
18.16678726021461
 10
13.48086395476351
 20
16.1777872602184
 10
13.35586395476348
 20
16.1777872602184
 10
13.35586395476348
 20
16.22278726021842
 10
12.58336508386874
 20
16.22278726021838
 10
12.58336508386873
 20
16.17778726021838
 10
12.33336508386873
 20
16.17778726021842
 10
12.33336508386874
 20
16.22278726021842
 10
11.35586395476348
 20
16.22278726021842
 10
11.35586395476354
 20
16.1777872602184
 10
11.23086395476348
 20
16.1777872602184
 10
11.23086395476351
 20
17.10383526021463
 42
-0.4142135623730951
 10
11.24086395476351
 20
17.11383526021462
 10
11.34586395476352
 20
17.11383526021462
 42
-0.4142135623730951
 10
11.35586395476348
 20
17.1038352602146
 10
11.35586395476351
 20
17.01883526021462
 42
-0.4142135623726789
 10
11.34586395476351
 20
17.00883526021461
 10
11.30386395476352
 20
17.00883526021461
 42
0.4142135623730951
 10
11.29386395476353
 20
16.99883526021461
 10
11.29386395476353
 20
16.92883526021459
 42
0.4142135623730951
 10
11.30386395476352
 20
16.9188352602146
 10
11.35586395476354
 20
16.9188352602146
  0
LWPOLYLINE
  5
7DC3
330
17
100
AcDbEntity
  8
R-SWTS-DET1
100
AcDbPolyline
 90
       38
 70
     1
 43
0.0
 10
11.45986395476349
 20
17.44540575489327
 10
11.45986395476349
 20
17.87886341554014
 42
-0.6681640521692748
 10
11.49400551994954
 20
17.89300612157854
 10
11.53340594218281
 20
17.85360887766659
 42
0.1989018846181243
 10
11.55108289866538
 20
17.84628726021459
 10
11.60585895476349
 20
17.84628726021459
 10
11.60585895476349
 20
17.86828726021459
 10
11.66785895476349
 20
17.86828726021459
 10
11.66785895476349
 20
17.84628726021459
 42
0.4142135623731018
 10
11.70586395476349
 20
17.88429226021459
 10
11.70586395476349
 20
18.08628726021459
 42
0.4142135623730951
 10
11.68586395476349
 20
18.10628726021459
 10
11.65686395476349
 20
18.10628726021459
 42
0.4142135623730951
 10
11.63686395476349
 20
18.08628726021459
 10
11.63686395476349
 20
18.07428726021459
 10
11.66586395476349
 20
18.07428726021459
 10
11.66586395476349
 20
18.03628726021459
 10
11.64342690677816
 20
17.93412902639824
 42
-0.3541185725306984
 10
11.62386395476349
 20
17.91828726021459
 10
11.58191395476349
 20
17.91828726021459
 10
11.51523628523382
 20
17.98490959068493
 42
-0.1989123673796526
 10
11.50791395476349
 20
18.00258726021459
 10
11.50791395476349
 20
18.07428726021459
 10
11.53691395476349
 20
18.07428726021459
 10
11.50791395476349
 20
18.15678726021459
 10
11.45491482972957
 20
18.14678726021459
 10
11.44436937518411
 20
18.17678726021459
 10
11.37986395476349
 20
18.17678726021459
 10
11.37986395476348
 20
17.3018352602146
 10
11.46979025044995
 20
17.3018352602146
 10
11.6081126146448
 20
17.13698183962875
 42
0.2217003395847705
 10
11.62343378175311
 20
17.1298372602146
 10
11.71916552746349
 20
17.1298372602146
 42
0.4142135623731211
 10
11.72916552746349
 20
17.1398372602146
 10
11.72916552746349
 20
17.1668352602146
 42
0.4142135623730951
 10
11.71916552746349
 20
17.17683526021459
 10
11.67910378058501
 20
17.1768352602146
 10
11.46454278765517
 20
17.43255033430742
 42
-0.1763214014867929
  0
LINE
  5
7DC4
330
17
100
AcDbEntity
  8
R-SWTS-DET2
100
AcDbLine
 10
11.388150781867
 20
18.17678726021459
 30
0.0
 11
11.388150781867
 21
20.17678726021459
 31
0.0
  0
LINE
  5
7DC5
330
17
100
AcDbEntity
  8
R-SWTS-DET2
100
AcDbLine
 10
12.65035078186701
 20
18.17678726021459
 30
0.0
 11
12.65035078186701
 21
20.17678726021459
 31
0.0
  0
LINE
  5
7DC6
330
17
100
AcDbEntity
  8
R-SWTS-DET3
100
AcDbLine
 10
12.143650781867
 20
17.80178726021459
 30
0.0
 11
12.143650781867
 21
20.17678726021459
 31
0.0
  0
LINE
  5
7DC7
330
17
100
AcDbEntity
  8
R-SWTS-DET3
100
AcDbLine
 10
11.893650781867
 20
17.80178726021459
 30
0.0
 11
11.893650781867
 21
20.17678726021459
 31
0.0
  0
LINE
  5
7DC8
330
17
100
AcDbEntity
  8
R-SWTS-DET2
100
AcDbLine
 10
11.89243760897048
 20
18.36350236499465
 30
0.0
 11
11.64602055861155
 21
18.25605104725779
 31
0.0
  0
LINE
  5
7DC9
330
17
100
AcDbEntity
  8
R-SWTS-DET2
100
AcDbLine
 10
11.64602055861155
 20
18.25605104725779
 30
0.0
 11
11.386950781867
 21
18.20665621711275
 31
0.0
  0
LINE
  5
7DCA
330
17
100
AcDbEntity
  8
R-SWTS-DET2
100
AcDbLine
 10
12.14486395476352
 20
18.36350236499465
 30
0.0
 11
12.39128100512246
 21
18.25605104725779
 31
0.0
  0
LINE
  5
7DCB
330
17
100
AcDbEntity
  8
R-SWTS-DET3
100
AcDbLine
 10
12.143650781867
 20
17.80178726021459
 30
0.0
 11
11.893650781867
 21
17.80178726021459
 31
0.0
  0
LINE
  5
7DCC
330
17
100
AcDbEntity
  8
R-SWTS-DET2
100
AcDbLine
 10
11.85083322955576
 20
17.85323152288319
 30
0.0
 11
11.89416395476352
 21
18.03353291266559
 31
0.0
  0
ARC
  5
7DCD
330
17
100
AcDbEntity
  8
R-SWTS-DET2
100
AcDbCircle
 10
11.798700781867
 20
17.86520881759545
 30
0.0
 40
0.0534906318026363
100
AcDbArc
 50
192.5775302134595
 51
347.0609815902198
  0
LINE
  5
7DCE
330
17
100
AcDbEntity
  8
R-SWTS-DET2
100
AcDbLine
 10
11.74649380559543
 20
17.85356067099504
 30
0.0
 11
11.70616395476352
 21
18.03431900428595
 31
0.0
  0
LINE
  5
7DCF
330
17
100
AcDbEntity
  8
R-SWTS-DET2
100
AcDbLine
 10
12.18646833417825
 20
17.85323152288319
 30
0.0
 11
12.14313760897048
 21
18.03353291266559
 31
0.0
  0
ARC
  5
7DD0
330
17
100
AcDbEntity
  8
R-SWTS-DET2
100
AcDbCircle
 10
12.238600781867
 20
17.86520881759545
 30
0.0
 40
0.0534906318026363
100
AcDbArc
 50
192.9390184097802
 51
347.4224697865404
  0
LINE
  5
7DD1
330
17
100
AcDbEntity
  8
R-SWTS-DET2
100
AcDbLine
 10
12.29080775813858
 20
17.85356067099504
 30
0.0
 11
12.33113760897048
 21
18.03431900428595
 31
0.0
  0
LINE
  5
7DD2
330
17
100
AcDbEntity
  8
R-SWTS-DET2
100
AcDbLine
 10
12.39128100512246
 20
18.25605104725779
 30
0.0
 11
12.65035078186701
 21
18.20665621711275
 31
0.0
  0
LINE
  5
7DD3
330
17
100
AcDbEntity
  8
R-SWTS-DET2
100
AcDbLine
 10
11.79714030055653
 20
17.3017872602146
 30
0.0
 11
11.79714030055653
 21
17.8017872602146
 31
0.0
  0
LINE
  5
7DD4
330
17
100
AcDbEntity
  8
R-SWTS-DET2
100
AcDbLine
 10
11.79714030055653
 20
17.8017872602146
 30
0.0
 11
12.23464030055653
 21
17.8017872602146
 31
0.0
  0
LINE
  5
7DD5
330
17
100
AcDbEntity
  8
R-SWTS-DET2
100
AcDbLine
 10
11.79714030055653
 20
17.3017872602146
 30
0.0
 11
12.23464030055653
 21
17.3017872602146
 31
0.0
  0
LINE
  5
7DD6
330
17
100
AcDbEntity
  8
R-SWTS-DET2
100
AcDbLine
 10
12.23464030055653
 20
17.3017872602146
 30
0.0
 11
12.23464030055653
 21
17.8017872602146
 31
0.0
  0
LWPOLYLINE
  5
7DD7
330
17
100
AcDbEntity
  8
R-SWTS-DET1
100
AcDbPolyline
 90
       54
 70
     1
 43
0.0
 10
13.35361109660439
 20
33.28641345052722
 10
13.39727135064225
 20
33.36203522879221
 42
0.131652497587137
 10
13.39861109660439
 20
33.36703522879219
 10
13.3986110966044
 20
34.15436545052723
 10
13.35361109660439
 20
34.15436545052723
 10
13.35361109660439
 20
34.2593654505272
 10
13.3986110966044
 20
34.2593654505272
 10
13.35361109660439
 20
34.9654134505234
 10
12.30610996749913
 20
34.9654134505234
 42
-0.4142135623730951
 10
12.29610996749914
 20
34.9754134505234
 10
12.29610996749914
 20
35.02433913254602
 42
0.4142135623731476
 10
12.28610996749913
 20
35.03433913254602
 10
12.20672720960436
 20
35.03433913254601
 42
0.3152987888785061
 10
12.19733028339652
 20
35.02775933397928
 10
12.17703308841526
 20
34.97199324909015
 42
-0.3152987888788812
 10
12.16763616220745
 20
34.9654134505234
 10
11.35361109660439
 20
34.96541345052344
 10
11.30861109660437
 20
34.25936545052721
 10
11.35361109660438
 20
34.25936545849217
 10
11.35361109660438
 20
34.15436545849219
 10
11.30861109660437
 20
34.15436545052723
 10
11.30861109660439
 20
33.3670352287922
 42
0.1316524975872394
 10
11.30995084256653
 20
33.36203522879222
 10
11.35361109660439
 20
33.28641345052723
 10
11.30161109660437
 20
33.28641345052723
 42
0.4142135623730951
 10
11.29161109660438
 20
33.27641345052724
 10
11.29161109660438
 20
33.20641345052722
 42
0.4142135623730951
 10
11.30161109660437
 20
33.19641345052723
 10
11.34361109660438
 20
33.19641345052723
 42
-0.4142135623733032
 10
11.35361109660438
 20
33.18641345052721
 10
11.35361109660439
 20
33.10141345052723
 42
-0.4142135623730951
 10
11.34361109660439
 20
33.09141345052724
 10
11.23861109660434
 20
33.09141345052724
 42
-0.4142135623735113
 10
11.22861109660436
 20
33.10141345052723
 10
11.22861109660436
 20
35.09041345052344
 10
11.35361109660439
 20
35.09041345052344
 10
11.35361109660439
 20
35.04541345052342
 10
12.12610996749913
 20
35.04541345052341
 10
12.12610996749913
 20
35.09041345052344
 10
12.37610996749914
 20
35.09041345052342
 10
12.37610996749914
 20
35.04541345052341
 10
13.35361109660439
 20
35.04541345052341
 10
13.35361109660439
 20
35.09041345052343
 10
13.47861109660442
 20
35.09041345052343
 10
13.47861109660443
 20
33.10141345052722
 42
-0.4142135623739275
 10
13.46861109660444
 20
33.09141345052723
 10
13.36361109660438
 20
33.09141345052723
 42
-0.4142135623735113
 10
13.35361109660439
 20
33.10141345052722
 10
13.3536110966044
 20
33.1864134505272
 42
-0.4142135623730951
 10
13.36361109660439
 20
33.19641345052722
 10
13.40561109660441
 20
33.19641345052722
 42
0.4142135623730951
 10
13.4156110966044
 20
33.20641345052721
 10
13.4156110966044
 20
33.27641345052723
 42
0.4142135623730951
 10
13.40561109660441
 20
33.28641345052722
  0
LWPOLYLINE
  5
7DD8
330
17
100
AcDbEntity
  8
R-SWTS-DET1
100
AcDbPolyline
 90
       79
 70
     1
 43
0.0
 10
11.5009610966044
 20
33.26561345052722
 10
11.5009610966044
 20
33.19391345052721
 10
11.5299610966044
 20
33.19391345052721
 10
11.5009610966044
 20
33.11141345052722
 10
11.44796197157048
 20
33.12141345052721
 10
11.43741651702503
 20
33.09141345052721
 10
11.36361109660442
 20
33.09141345052721
 42
-0.4142135623733032
 10
11.35361109660439
 20
33.10141345052723
 10
11.35361109660442
 20
33.18641345052721
 42
0.4142135623733032
 10
11.34361109660442
 20
33.1964134505272
 10
11.31867008045304
 20
33.1964134505272
 42
-0.5773502691905536
 10
11.31000982641519
 20
33.21141345052721
 10
11.40756238529845
 20
33.38037943892136
 42
-0.2679491924309027
 10
11.41628154916565
 20
33.38541345052719
 10
11.46890609660442
 20
33.38541345052719
 42
0.4142135623730951
 10
11.52890609660442
 20
33.44541345052719
 10
11.52890609660442
 20
33.86641345052723
 42
-0.4142135623730951
 10
11.69890609660441
 20
34.03641345052723
 10
12.36501609660437
 20
34.03641345052724
 42
0.4142135623730257
 10
12.42501609660438
 20
34.09641345052725
 10
12.42501609660439
 20
34.91141345052721
 42
-0.9999999999999998
 10
12.49501609660438
 20
34.91141345052721
 10
12.49501609660439
 20
33.41113968675443
 42
0.1990202627215353
 10
12.50087983326023
 20
33.39699168128848
 10
12.56217647916135
 20
33.33574590847197
 42
-0.1990202627214278
 10
12.59296109660439
 20
33.26146887977586
 10
12.59296109660442
 20
33.23141345052724
 42
0.4142135623730951
 10
12.66296109660441
 20
33.16141345052724
 10
13.20586132346286
 20
33.16141345052724
 42
0.362554880954596
 10
13.27473621003266
 20
33.2189134505274
 42
-0.3625548809546137
 10
13.34361109660436
 20
33.27641345052722
 10
13.37561109660436
 20
33.27641345052722
 42
-0.4142135623729794
 10
13.41561109660436
 20
33.23641345052724
 10
13.41561109660438
 20
33.19641345052723
 10
13.35361109660436
 20
33.19641345052723
 10
13.3536110966044
 20
33.10141345052721
 42
-0.4142135623726789
 10
13.34361109660439
 20
33.09141345052722
 10
12.58650567618377
 20
33.09141345052722
 10
12.57596022163832
 20
33.12141345052725
 10
12.5229610966044
 20
33.11141345052726
 10
12.4939610966044
 20
33.19391345052724
 10
12.52296109660439
 20
33.19391345052724
 10
12.52296109660439
 20
33.26561345052724
 42
0.1989123673795612
 10
12.51563876613405
 20
33.28329112005692
 10
12.44896109660438
 20
33.34991345052725
 10
12.4070110966044
 20
33.34991345052725
 42
0.3541185725306532
 10
12.3874481445897
 20
33.33407168434359
 10
12.36501109660439
 20
33.23191345052725
 10
12.36501109660439
 20
33.19391345052724
 10
12.39401109660439
 20
33.19391345052724
 10
12.39401109660439
 20
33.18191345052724
 42
-0.4142135623730951
 10
12.37401109660438
 20
33.16191345052726
 10
12.34501109660439
 20
33.16191345052723
 42
-0.4142135623730951
 10
12.32501109660439
 20
33.18191345052727
 10
12.32501109660439
 20
33.38390845052725
 42
-0.4142135623730951
 10
12.36301609660439
 20
33.42191345052725
 10
12.36301609660439
 20
33.39991345052726
 10
12.40001609660439
 20
33.39991345052726
 42
0.4142135623730951
 10
12.4250160966044
 20
33.42491345052727
 10
12.42501609660438
 20
33.90641345052725
 42
0.4142135623731645
 10
12.36501609660438
 20
33.96641345052723
 10
11.69890609660441
 20
33.96641345052722
 42
0.4142135623730951
 10
11.59890609660441
 20
33.86641345052723
 10
11.59890609660441
 20
33.42491345052722
 42
0.4142135623730951
 10
11.62390609660442
 20
33.39991345052722
 10
11.66090609660443
 20
33.39991345052723
 10
11.66090609660443
 20
33.42191345052724
 42
-0.4142135623730951
 10
11.69891109660442
 20
33.38390845052724
 10
11.69891109660442
 20
33.18191345052723
 42
-0.4142135623730951
 10
11.67891109660441
 20
33.1619134505272
 10
11.64991109660443
 20
33.16191345052722
 42
-0.414213562372991
 10
11.62991109660441
 20
33.18191345052721
 10
11.62991109660441
 20
33.19391345052721
 10
11.6589110966044
 20
33.19391345052721
 10
11.6589110966044
 20
33.23191345052721
 10
11.63647404861911
 20
33.33407168434358
 42
0.3541185725307327
 10
11.6169110966044
 20
33.34991345052721
 10
11.57496109660442
 20
33.34991345052721
 10
11.50828342707476
 20
33.28329112005688
 42
0.1989123673796441
  0
LINE
  5
7DD9
330
17
100
AcDbEntity
  8
R-SWTS-DET2
100
AcDbLine
 10
11.38202426950091
 20
33.09041345052343
 30
0.0
 11
11.38202426950091
 21
31.09041345052343
 31
0.0
  0
LINE
  5
7DDA
330
17
100
AcDbEntity
  8
R-SWTS-DET2
100
AcDbLine
 10
12.64422426950091
 20
33.09041345052343
 30
0.0
 11
12.64422426950091
 21
31.09041345052343
 31
0.0
  0
LINE
  5
7DDB
330
17
100
AcDbEntity
  8
R-SWTS-DET3
100
AcDbLine
 10
12.13752426950091
 20
33.46541345052343
 30
0.0
 11
12.13752426950091
 21
31.09041345052343
 31
0.0
  0
LINE
  5
7DDC
330
17
100
AcDbEntity
  8
R-SWTS-DET3
100
AcDbLine
 10
11.88752426950091
 20
33.46541345052343
 30
0.0
 11
11.88752426950091
 21
31.09041345052343
 31
0.0
  0
LINE
  5
7DDD
330
17
100
AcDbEntity
  8
R-SWTS-DET2
100
AcDbLine
 10
11.88631109660439
 20
32.90369834574337
 30
0.0
 11
11.63989404624545
 21
33.01114966348023
 31
0.0
  0
LINE
  5
7DDE
330
17
100
AcDbEntity
  8
R-SWTS-DET2
100
AcDbLine
 10
11.63989404624545
 20
33.01114966348023
 30
0.0
 11
11.38082426950091
 21
33.06054449362527
 31
0.0
  0
LINE
  5
7DDF
330
17
100
AcDbEntity
  8
R-SWTS-DET2
100
AcDbLine
 10
12.13873744239743
 20
32.90369834574337
 30
0.0
 11
12.38515449275637
 21
33.01114966348023
 31
0.0
  0
LINE
  5
7DE0
330
17
100
AcDbEntity
  8
R-SWTS-DET3
100
AcDbLine
 10
12.13752426950091
 20
33.46541345052343
 30
0.0
 11
11.88752426950091
 21
33.46541345052343
 31
0.0
  0
LINE
  5
7DE1
330
17
100
AcDbEntity
  8
R-SWTS-DET2
100
AcDbLine
 10
11.84470671718967
 20
33.41396918785483
 30
0.0
 11
11.88803744239743
 21
33.23366779807243
 31
0.0
  0
ARC
  5
7DE2
330
17
100
AcDbEntity
  8
R-SWTS-DET2
100
AcDbCircle
 10
11.79257426950091
 20
33.40199189314257
 30
0.0
 40
0.0534906318026363
100
AcDbArc
 50
12.93901840978042
 51
167.4224697865404
  0
LINE
  5
7DE3
330
17
100
AcDbEntity
  8
R-SWTS-DET2
100
AcDbLine
 10
11.74036729322934
 20
33.41364003974298
 30
0.0
 11
11.70003744239743
 21
33.23288170645207
 31
0.0
  0
LINE
  5
7DE4
330
17
100
AcDbEntity
  8
R-SWTS-DET2
100
AcDbLine
 10
12.18034182181215
 20
33.41396918785483
 30
0.0
 11
12.13701109660439
 21
33.23366779807243
 31
0.0
  0
ARC
  5
7DE5
330
17
100
AcDbEntity
  8
R-SWTS-DET2
100
AcDbCircle
 10
12.23247426950091
 20
33.40199189314257
 30
0.0
 40
0.0534906318026363
100
AcDbArc
 50
12.57753021345956
 51
167.0609815902196
  0
LINE
  5
7DE6
330
17
100
AcDbEntity
  8
R-SWTS-DET2
100
AcDbLine
 10
12.28468124577248
 20
33.41364003974298
 30
0.0
 11
12.32501109660439
 21
33.23288170645207
 31
0.0
  0
LINE
  5
7DE7
330
17
100
AcDbEntity
  8
R-SWTS-DET2
100
AcDbLine
 10
12.38515449275637
 20
33.01114966348023
 30
0.0
 11
12.64422426950092
 21
33.06054449362527
 31
0.0
  0
TEXT
  5
7FAC
330
17
100
AcDbEntity
  8
PART_NUMBERS
100
AcDbText
 10
48.25973315726944
 20
13.54325365686739
 30
0.0
 40
0.25
  1
132WC005 MULLION
100
AcDbText
  0
TEXT
  5
7FAD
330
17
100
AcDbEntity
  8
PART_NUMBERS
100
AcDbText
 10
48.25973315726944
 20
14.03638650735606
 30
0.0
 40
0.25
  1
132WC329 VENEER ANCHOR
100
AcDbText
  0
LWPOLYLINE
  5
7FAE
330
17
100
AcDbEntity
  8
R-SWTS-DET1
100
AcDbPolyline
 90
      128
 70
     1
 43
0.0
 10
41.46927008409226
 20
11.28424171759275
 42
-0.4142135623730951
 10
41.48927008409226
 20
11.26424171759275
 10
41.48927008409226
 20
11.23524171759275
 42
-0.4142135623730951
 10
41.46927008409226
 20
11.21524171759275
 10
41.26727508409225
 20
11.21524171759275
 42
-0.4142135623730951
 10
41.22927008409225
 20
11.25324671759275
 10
41.25127008409226
 20
11.25324671759275
 10
41.25127008409226
 20
11.29024671759275
 42
0.4142135623731054
 10
41.22627008409226
 20
11.31524671759275
 10
40.69972208409222
 20
11.31524671759275
 42
0.4142135623730977
 10
40.59972208409222
 20
11.21524671759275
 10
40.59972208409223
 20
10.40924171759274
 42
0.4142135623730938
 10
40.69972208409223
 20
10.30924171759274
 10
41.29584349673336
 20
10.30924171759275
 42
0.6681640521692635
 10
41.30998620277177
 20
10.3433832827788
 10
41.23659170154425
 20
10.41678370501208
 42
-0.1989018846181244
 10
41.22927008409225
 20
10.43446066149465
 10
41.22927008409225
 20
10.48923671759276
 10
41.25127008409226
 20
10.48923671759276
 10
41.25127008409226
 20
10.55123671759276
 10
41.22927008409225
 20
10.55123671759276
 42
-0.4142135623730882
 10
41.26727508409225
 20
10.58924171759276
 10
41.46927008409226
 20
10.58924171759276
 42
-0.4142135623730951
 10
41.48927008409226
 20
10.56924171759276
 10
41.48927008409226
 20
10.54024171759276
 42
-0.4142135623730951
 10
41.46927008409226
 20
10.52024171759276
 10
41.45727008409226
 20
10.52024171759276
 10
41.45727008409226
 20
10.54924171759276
 10
41.41927008409226
 20
10.54924171759276
 10
41.3171118502759
 20
10.52680466960743
 42
0.3541185725306985
 10
41.30127008409226
 20
10.50724171759275
 10
41.30127008409226
 20
10.46529171759275
 10
41.36789241456259
 20
10.39861404806309
 42
0.1989123673796433
 10
41.38557008409225
 20
10.39129171759275
 10
41.45727008409226
 20
10.39129171759275
 10
41.45727008409226
 20
10.42029171759275
 10
41.53977008409226
 20
10.39129171759275
 10
41.52977008409226
 20
10.33829259255884
 10
41.55977008409226
 20
10.32774713801338
 10
41.55977008409226
 20
10.23924171759275
 10
39.55967408409224
 20
10.23924171759275
 10
39.55967408409224
 20
10.32774713801338
 10
39.58967408409224
 20
10.33829259255884
 10
39.57967408409224
 20
10.39129171759275
 10
39.66217408409224
 20
10.42029171759275
 10
39.66217408409224
 20
10.39129171759275
 10
39.73387408409224
 20
10.39129171759276
 42
0.1989123673796435
 10
39.75155175362191
 20
10.39861404806309
 10
39.81817408409224
 20
10.46529171759275
 10
39.81817408409224
 20
10.50724171759275
 42
0.3541185725306985
 10
39.8023323179086
 20
10.52680466960743
 10
39.70017408409224
 20
10.54924171759276
 10
39.66217408409224
 20
10.54924171759276
 10
39.66217408409224
 20
10.52024171759276
 10
39.65017408409224
 20
10.52024171759276
 42
-0.4142135623730951
 10
39.63017408409224
 20
10.54024171759276
 10
39.63017408409224
 20
10.56924171759276
 42
-0.4142135623730951
 10
39.65017408409224
 20
10.58924171759276
 10
39.85216908409224
 20
10.58924171759276
 42
-0.4142135623730881
 10
39.89017408409225
 20
10.55123671759276
 10
39.86817408409224
 20
10.55123671759276
 10
39.86817408409224
 20
10.48923671759276
 10
39.89017408409225
 20
10.48923671759276
 10
39.89017408409225
 20
10.43446066149465
 42
-0.1989018846181243
 10
39.88285246664025
 20
10.41678370501208
 10
39.80945796541274
 20
10.3433832827788
 42
0.6681640521692636
 10
39.82360067145113
 20
10.30924171759275
 10
40.41972208409227
 20
10.30924171759275
 42
0.4142135623731149
 10
40.51972208409227
 20
10.40924171759275
 10
40.51972208409222
 20
11.21524671759276
 42
0.4142135623730753
 10
40.41972208409222
 20
11.31524671759275
 10
39.89317408409224
 20
11.31524671759275
 42
0.4142135623731057
 10
39.86817408409224
 20
11.29024671759275
 10
39.86817408409224
 20
11.25324671759275
 10
39.89017408409225
 20
11.25324671759275
 42
-0.4142135623730951
 10
39.85216908409224
 20
11.21524171759275
 10
39.65017408409224
 20
11.21524171759275
 42
-0.4142135623730951
 10
39.63017408409224
 20
11.23524171759275
 10
39.63017408409224
 20
11.26424171759275
 42
-0.4142135623730951
 10
39.65017408409224
 20
11.28424171759275
 10
39.66217408409224
 20
11.28424171759275
 10
39.66217408409224
 20
11.25524171759275
 10
39.70017408409224
 20
11.25524171759275
 10
39.8023323179086
 20
11.27767876557808
 42
0.3541185725306917
 10
39.81817408409224
 20
11.29724171759276
 10
39.81817408409224
 20
11.33919171759275
 10
39.75155175362191
 20
11.40586938712242
 42
0.1989123673796472
 10
39.73387408409224
 20
11.41319171759275
 10
39.66217408409224
 20
11.41319171759275
 10
39.66217408409224
 20
11.38419171759275
 10
39.57967408409224
 20
11.41319171759275
 10
39.58967408409224
 20
11.46619084262668
 10
39.55967408409224
 20
11.47673629717213
 10
39.55967408409224
 20
12.23924171759275
 10
39.93467408409224
 20
12.23924171759277
 10
39.93467408409224
 20
12.16924171759277
 10
39.68967408409224
 20
12.16924171759276
 42
0.4142135623730747
 10
39.62967408409225
 20
12.10924171759276
 10
39.62967408409225
 20
11.56319171759276
 42
0.4142135623730951
 10
39.69967408409224
 20
11.49319171759275
 10
39.73387408409224
 20
11.49319171759275
 42
-0.1989123673796583
 10
39.80812029611683
 20
11.46243792961734
 10
39.86804287902867
 20
11.40251051252918
 42
0.1989123673796514
 10
39.88572408409224
 20
11.39518671759275
 10
41.23372008409226
 20
11.39518671759275
 42
0.1989123673796515
 10
41.25140128915583
 20
11.40251051252918
 10
41.31132387206768
 20
11.46243792961734
 42
-0.1989123673796583
 10
41.38557008409225
 20
11.49319171759276
 10
41.41977008409226
 20
11.49319171759275
 42
0.4142135623730951
 10
41.48977008409225
 20
11.56319171759276
 10
41.48977008409225
 20
12.10924171759276
 42
0.4142135623730792
 10
41.42977008409226
 20
12.16924171759276
 10
41.18477008409226
 20
12.16924171759277
 10
41.18477008409226
 20
12.23924171759277
 10
41.55977008409226
 20
12.23924171759275
 10
41.55977008409226
 20
11.47673629717213
 10
41.52977008409226
 20
11.46619084262668
 10
41.53977008409226
 20
11.41319171759275
 10
41.45727008409226
 20
11.38419171759275
 10
41.45727008409226
 20
11.41319171759275
 10
41.38557008409225
 20
11.41319171759275
 42
0.1989123673796472
 10
41.36789241456259
 20
11.40586938712242
 10
41.30127008409226
 20
11.33919171759275
 10
41.30127008409226
 20
11.29724171759275
 42
0.3541185725306917
 10
41.3171118502759
 20
11.27767876557808
 10
41.41927008409226
 20
11.25524171759275
 10
41.45727008409226
 20
11.25524171759275
 10
41.45727008409226
 20
11.28424171759275
  0
LINE
  5
7FAF
330
17
100
AcDbEntity
  8
R-SWTS-DET2
100
AcDbLine
 10
41.55972208409226
 20
10.27225489048929
 30
0.0
 11
43.55972208409226
 21
10.27225489048928
 31
0.0
  0
LINE
  5
7FB0
330
17
100
AcDbEntity
  8
R-SWTS-DET2
100
AcDbLine
 10
41.55972208409226
 20
11.53445489048929
 30
0.0
 11
43.55972208409226
 21
11.53445489048929
 31
0.0
  0
LINE
  5
7FB1
330
17
100
AcDbEntity
  8
R-SWTS-DET3
100
AcDbLine
 10
41.18472208409225
 20
11.02775489048929
 30
0.0
 11
43.55972208409226
 21
11.02775489048929
 31
0.0
  0
LINE
  5
7FB2
330
17
100
AcDbEntity
  8
R-SWTS-DET3
100
AcDbLine
 10
41.18472208409225
 20
10.77775489048929
 30
0.0
 11
43.55972208409226
 21
10.77775489048929
 31
0.0
  0
LINE
  5
7FB3
330
17
100
AcDbEntity
  8
R-SWTS-DET2
100
AcDbLine
 10
41.74643718887231
 20
10.77654171759277
 30
0.0
 11
41.63898587113545
 21
10.53012466723383
 31
0.0
  0
LINE
  5
7FB4
330
17
100
AcDbEntity
  8
R-SWTS-DET2
100
AcDbLine
 10
41.63898587113545
 20
10.53012466723383
 30
0.0
 11
41.58959104099041
 21
10.27105489048928
 31
0.0
  0
LINE
  5
7FB5
330
17
100
AcDbEntity
  8
R-SWTS-DET2
100
AcDbLine
 10
41.74643718887231
 20
11.02896806338581
 30
0.0
 11
41.63898587113545
 21
11.27538511374474
 31
0.0
  0
LINE
  5
7FB6
330
17
100
AcDbEntity
  8
R-SWTS-DET3
100
AcDbLine
 10
41.18472208409225
 20
11.02775489048929
 30
0.0
 11
41.18472208409225
 21
10.77775489048929
 31
0.0
  0
LINE
  5
7FB7
330
17
100
AcDbEntity
  8
R-SWTS-DET2
100
AcDbLine
 10
41.23616634676085
 20
10.73493733817804
 30
0.0
 11
41.41646773654325
 21
10.77826806338581
 31
0.0
  0
ARC
  5
7FB8
330
17
100
AcDbEntity
  8
R-SWTS-DET2
100
AcDbCircle
 10
41.24814364147311
 20
10.68280489048929
 30
0.0
 40
0.0534906318026363
100
AcDbArc
 50
102.9390184097804
 51
257.4224697865404
  0
LINE
  5
7FB9
330
17
100
AcDbEntity
  8
R-SWTS-DET2
100
AcDbLine
 10
41.23649549487271
 20
10.63059791421771
 30
0.0
 11
41.41725382816361
 21
10.59026806338581
 31
0.0
  0
LINE
  5
7FBA
330
17
100
AcDbEntity
  8
R-SWTS-DET2
100
AcDbLine
 10
41.23616634676085
 20
11.07057244280053
 30
0.0
 11
41.41646773654325
 21
11.02724171759277
 31
0.0
  0
ARC
  5
7FBB
330
17
100
AcDbEntity
  8
R-SWTS-DET2
100
AcDbCircle
 10
41.24814364147311
 20
11.12270489048929
 30
0.0
 40
0.0534906318026363
100
AcDbArc
 50
102.5775302134595
 51
257.0609815902196
  0
LINE
  5
7FBC
330
17
100
AcDbEntity
  8
R-SWTS-DET2
100
AcDbLine
 10
41.23649549487271
 20
11.17491186676086
 30
0.0
 11
41.41725382816361
 21
11.21524171759277
 31
0.0
  0
LINE
  5
7FBD
330
17
100
AcDbEntity
  8
R-SWTS-DET2
100
AcDbLine
 10
41.63898587113545
 20
11.27538511374474
 30
0.0
 11
41.58959104099041
 21
11.53445489048929
 31
0.0
  0
LINE
  5
7FBE
330
17
100
AcDbEntity
  8
0
100
AcDbLine
 10
52.62006951638102
 20
12.01708753924667
 30
0.0
 11
52.62006951638102
 21
12.14208753924667
 31
0.0
  0
LINE
  5
7FBF
330
17
100
AcDbEntity
  8
0
100
AcDbLine
 10
52.35506951638101
 20
12.01708753924667
 30
0.0
 11
52.35506951638101
 21
12.14208753924667
 31
0.0
  0
LINE
  5
7FC1
330
17
100
AcDbEntity
  8
0
100
AcDbLine
 10
49.64027180330831
 20
12.01708753924667
 30
0.0
 11
49.64027180330831
 21
12.14208753924667
 31
0.0
  0
LINE
  5
7FC2
330
17
100
AcDbEntity
  8
0
100
AcDbLine
 10
49.37527180330832
 20
12.01708753924667
 30
0.0
 11
49.37527180330832
 21
12.14208753924667
 31
0.0
  0
LWPOLYLINE
  5
7FC3
330
17
100
AcDbEntity
  8
R-SWTS-DET1
100
AcDbPolyline
 90
       22
 70
     1
 43
0.0
 10
51.8485485855412
 20
11.91708753924666
 10
51.59767065984467
 20
11.91708753924666
 10
51.59767065984467
 20
12.01708753924666
 10
52.79517065984467
 20
12.01708753924667
 42
0.4142135623730951
 10
52.81017065984467
 20
12.03208753924667
 10
52.81017065984467
 20
12.12708753924667
 42
0.4142135623730951
 10
52.79517065984467
 20
12.14208753924667
 10
51.59767065984467
 20
12.14208753924666
 42
0.3659852195961352
 10
51.47441842174946
 20
12.03791746494319
 42
-0.3659852195961381
 10
51.35116618365426
 20
11.93374739063973
 10
50.64417513603507
 20
11.93374739063973
 42
-0.3659852195961362
 10
50.52092289793987
 20
12.03791746494319
 42
0.3659852195961371
 10
50.39767065984467
 20
12.14208753924666
 10
49.20017065984467
 20
12.14208753924667
 42
0.4142135623730951
 10
49.18517065984467
 20
12.12708753924667
 10
49.18517065984467
 20
12.03208753924667
 42
0.4142135623730951
 10
49.20017065984467
 20
12.01708753924667
 10
50.39767065984467
 20
12.01708753924666
 10
50.39767065984467
 20
11.91708753924666
 10
50.14679273414813
 20
11.91708753924666
 42
0.9999999999999998
 10
50.14679273414813
 20
11.80874739063972
 10
51.8485485855412
 20
11.80874739063972
 42
0.9999999999999998
  0
LWPOLYLINE
  5
7FC4
330
17
100
AcDbEntity
  8
R-SWTS-DET1
100
AcDbPolyline
 90
      128
 70
     1
 43
0.0
 10
51.90721865984466
 20
11.06208753924664
 42
-0.4142135623730951
 10
51.92721865984466
 20
11.04208753924664
 10
51.92721865984466
 20
11.01308753924664
 42
-0.4142135623730951
 10
51.90721865984466
 20
10.99308753924664
 10
51.70522365984465
 20
10.99308753924664
 42
-0.4142135623730951
 10
51.66721865984466
 20
11.03109253924664
 10
51.68921865984466
 20
11.03109253924664
 10
51.68921865984466
 20
11.06809253924664
 42
0.4142135623731054
 10
51.66421865984466
 20
11.09309253924664
 10
51.13767065984462
 20
11.09309253924664
 42
0.4142135623730977
 10
51.03767065984462
 20
10.99309253924664
 10
51.03767065984463
 20
10.18708753924664
 42
0.4142135623730938
 10
51.13767065984463
 20
10.08708753924664
 10
51.73379207248577
 20
10.08708753924664
 42
0.6681640521692635
 10
51.74793477852417
 20
10.12122910443269
 10
51.67454027729665
 20
10.19462952666597
 42
-0.1989018846181244
 10
51.66721865984466
 20
10.21230648314854
 10
51.66721865984466
 20
10.26708253924665
 10
51.68921865984466
 20
10.26708253924665
 10
51.68921865984466
 20
10.32908253924665
 10
51.66721865984466
 20
10.32908253924665
 42
-0.4142135623730882
 10
51.70522365984465
 20
10.36708753924665
 10
51.90721865984466
 20
10.36708753924665
 42
-0.4142135623730951
 10
51.92721865984466
 20
10.34708753924665
 10
51.92721865984466
 20
10.31808753924665
 42
-0.4142135623730951
 10
51.90721865984466
 20
10.29808753924665
 10
51.89521865984466
 20
10.29808753924665
 10
51.89521865984466
 20
10.32708753924665
 10
51.85721865984466
 20
10.32708753924665
 10
51.7550604260283
 20
10.30465049126132
 42
0.3541185725306985
 10
51.73921865984466
 20
10.28508753924665
 10
51.73921865984466
 20
10.24313753924665
 10
51.80584099031499
 20
10.17645986971698
 42
0.1989123673796433
 10
51.82351865984466
 20
10.16913753924664
 10
51.89521865984466
 20
10.16913753924664
 10
51.89521865984466
 20
10.19813753924665
 10
51.97771865984466
 20
10.16913753924664
 10
51.96771865984466
 20
10.11613841421273
 10
51.99771865984466
 20
10.10559295966727
 10
51.99771865984466
 20
10.01708753924664
 10
49.99762265984464
 20
10.01708753924664
 10
49.99762265984464
 20
10.10559295966727
 10
50.02762265984464
 20
10.11613841421273
 10
50.01762265984464
 20
10.16913753924664
 10
50.10012265984464
 20
10.19813753924665
 10
50.10012265984464
 20
10.16913753924664
 10
50.17182265984464
 20
10.16913753924665
 42
0.1989123673796435
 10
50.1895003293743
 20
10.17645986971698
 10
50.25612265984464
 20
10.24313753924665
 10
50.25612265984464
 20
10.28508753924665
 42
0.3541185725306985
 10
50.24028089366099
 20
10.30465049126132
 10
50.13812265984464
 20
10.32708753924665
 10
50.10012265984464
 20
10.32708753924665
 10
50.10012265984464
 20
10.29808753924665
 10
50.08812265984464
 20
10.29808753924665
 42
-0.4142135623730951
 10
50.06812265984464
 20
10.31808753924665
 10
50.06812265984464
 20
10.34708753924665
 42
-0.4142135623730951
 10
50.08812265984464
 20
10.36708753924665
 10
50.29011765984464
 20
10.36708753924665
 42
-0.4142135623730881
 10
50.32812265984464
 20
10.32908253924665
 10
50.30612265984464
 20
10.32908253924665
 10
50.30612265984464
 20
10.26708253924665
 10
50.32812265984464
 20
10.26708253924665
 10
50.32812265984464
 20
10.21230648314854
 42
-0.1989018846181243
 10
50.32080104239264
 20
10.19462952666597
 10
50.24740654116513
 20
10.12122910443269
 42
0.6681640521692636
 10
50.26154924720353
 20
10.08708753924664
 10
50.85767065984467
 20
10.08708753924664
 42
0.4142135623731149
 10
50.95767065984468
 20
10.18708753924665
 10
50.95767065984462
 20
10.99309253924665
 42
0.4142135623730753
 10
50.85767065984462
 20
11.09309253924664
 10
50.33112265984463
 20
11.09309253924664
 42
0.4142135623731057
 10
50.30612265984464
 20
11.06809253924664
 10
50.30612265984464
 20
11.03109253924664
 10
50.32812265984464
 20
11.03109253924664
 42
-0.4142135623730951
 10
50.29011765984464
 20
10.99308753924664
 10
50.08812265984464
 20
10.99308753924664
 42
-0.4142135623730951
 10
50.06812265984464
 20
11.01308753924664
 10
50.06812265984464
 20
11.04208753924664
 42
-0.4142135623730951
 10
50.08812265984464
 20
11.06208753924664
 10
50.10012265984464
 20
11.06208753924664
 10
50.10012265984464
 20
11.03308753924664
 10
50.13812265984464
 20
11.03308753924664
 10
50.24028089366099
 20
11.05552458723197
 42
0.3541185725306917
 10
50.25612265984464
 20
11.07508753924665
 10
50.25612265984464
 20
11.11703753924665
 10
50.1895003293743
 20
11.18371520877631
 42
0.1989123673796472
 10
50.17182265984464
 20
11.19103753924664
 10
50.10012265984464
 20
11.19103753924664
 10
50.10012265984464
 20
11.16203753924665
 10
50.01762265984464
 20
11.19103753924664
 10
50.02762265984464
 20
11.24403666428057
 10
49.99762265984464
 20
11.25458211882602
 10
49.99762265984464
 20
12.01708753924664
 10
50.37262265984463
 20
12.01708753924666
 10
50.37262265984463
 20
11.94708753924666
 10
50.12762265984464
 20
11.94708753924665
 42
0.4142135623730747
 10
50.06762265984464
 20
11.88708753924665
 10
50.06762265984464
 20
11.34103753924665
 42
0.4142135623730951
 10
50.13762265984464
 20
11.27103753924664
 10
50.17182265984464
 20
11.27103753924664
 42
-0.1989123673796583
 10
50.24606887186923
 20
11.24028375127123
 10
50.30599145478107
 20
11.18035633418307
 42
0.1989123673796514
 10
50.32367265984464
 20
11.17303253924665
 10
51.67166865984466
 20
11.17303253924665
 42
0.1989123673796515
 10
51.68934986490823
 20
11.18035633418307
 10
51.74927244782008
 20
11.24028375127123
 42
-0.1989123673796583
 10
51.82351865984466
 20
11.27103753924665
 10
51.85771865984467
 20
11.27103753924664
 42
0.4142135623730951
 10
51.92771865984465
 20
11.34103753924665
 10
51.92771865984465
 20
11.88708753924665
 42
0.4142135623730792
 10
51.86771865984466
 20
11.94708753924665
 10
51.62271865984466
 20
11.94708753924666
 10
51.62271865984466
 20
12.01708753924666
 10
51.99771865984466
 20
12.01708753924664
 10
51.99771865984466
 20
11.25458211882602
 10
51.96771865984466
 20
11.24403666428057
 10
51.97771865984466
 20
11.19103753924664
 10
51.89521865984466
 20
11.16203753924665
 10
51.89521865984466
 20
11.19103753924664
 10
51.82351865984466
 20
11.19103753924664
 42
0.1989123673796472
 10
51.80584099031499
 20
11.18371520877631
 10
51.73921865984466
 20
11.11703753924665
 10
51.73921865984466
 20
11.07508753924665
 42
0.3541185725306917
 10
51.7550604260283
 20
11.05552458723197
 10
51.85721865984466
 20
11.03308753924664
 10
51.89521865984466
 20
11.03308753924664
 10
51.89521865984466
 20
11.06208753924664
  0
LINE
  5
7FC5
330
17
100
AcDbEntity
  8
R-SWTS-DET2
100
AcDbLine
 10
51.99767065984466
 20
10.05010071214318
 30
0.0
 11
53.99767065984466
 21
10.05010071214318
 31
0.0
  0
LINE
  5
7FC6
330
17
100
AcDbEntity
  8
R-SWTS-DET2
100
AcDbLine
 10
51.99767065984466
 20
11.31230071214318
 30
0.0
 11
53.99767065984466
 21
11.31230071214318
 31
0.0
  0
LINE
  5
7FC7
330
17
100
AcDbEntity
  8
R-SWTS-DET3
100
AcDbLine
 10
51.62267065984465
 20
10.80560071214318
 30
0.0
 11
53.99767065984466
 21
10.80560071214318
 31
0.0
  0
LINE
  5
7FC8
330
17
100
AcDbEntity
  8
R-SWTS-DET3
100
AcDbLine
 10
51.62267065984465
 20
10.55560071214318
 30
0.0
 11
53.99767065984466
 21
10.55560071214318
 31
0.0
  0
LINE
  5
7FC9
330
17
100
AcDbEntity
  8
R-SWTS-DET2
100
AcDbLine
 10
52.18438576462471
 20
10.55438753924666
 30
0.0
 11
52.07693444688786
 21
10.30797048888772
 31
0.0
  0
LINE
  5
7FCA
330
17
100
AcDbEntity
  8
R-SWTS-DET2
100
AcDbLine
 10
52.07693444688786
 20
10.30797048888772
 30
0.0
 11
52.02753961674281
 21
10.04890071214317
 31
0.0
  0
LINE
  5
7FCB
330
17
100
AcDbEntity
  8
R-SWTS-DET2
100
AcDbLine
 10
52.18438576462471
 20
10.8068138850397
 30
0.0
 11
52.07693444688786
 21
11.05323093539864
 31
0.0
  0
LINE
  5
7FCC
330
17
100
AcDbEntity
  8
R-SWTS-DET3
100
AcDbLine
 10
51.62267065984465
 20
10.80560071214318
 30
0.0
 11
51.62267065984465
 21
10.55560071214318
 31
0.0
  0
LINE
  5
7FCD
330
17
100
AcDbEntity
  8
R-SWTS-DET2
100
AcDbLine
 10
51.67411492251325
 20
10.51278315983194
 30
0.0
 11
51.85441631229565
 21
10.5561138850397
 31
0.0
  0
ARC
  5
7FCE
330
17
100
AcDbEntity
  8
R-SWTS-DET2
100
AcDbCircle
 10
51.68609221722551
 20
10.46065071214318
 30
0.0
 40
0.0534906318026363
100
AcDbArc
 50
102.9390184097804
 51
257.4224697865404
  0
LINE
  5
7FCF
330
17
100
AcDbEntity
  8
R-SWTS-DET2
100
AcDbLine
 10
51.67444407062511
 20
10.40844373587161
 30
0.0
 11
51.85520240391602
 21
10.3681138850397
 31
0.0
  0
LINE
  5
7FD0
330
17
100
AcDbEntity
  8
R-SWTS-DET2
100
AcDbLine
 10
51.67411492251325
 20
10.84841826445442
 30
0.0
 11
51.85441631229565
 21
10.80508753924666
 31
0.0
  0
ARC
  5
7FD1
330
17
100
AcDbEntity
  8
R-SWTS-DET2
100
AcDbCircle
 10
51.68609221722551
 20
10.90055071214318
 30
0.0
 40
0.0534906318026363
100
AcDbArc
 50
102.5775302134595
 51
257.0609815902196
  0
LINE
  5
7FD2
330
17
100
AcDbEntity
  8
R-SWTS-DET2
100
AcDbLine
 10
51.67444407062511
 20
10.95275768841475
 30
0.0
 11
51.85520240391602
 21
10.99308753924666
 31
0.0
  0
LINE
  5
7FD3
330
17
100
AcDbEntity
  8
R-SWTS-DET2
100
AcDbLine
 10
52.07693444688786
 20
11.05323093539864
 30
0.0
 11
52.02753961674281
 21
11.31230071214318
 31
0.0
  0
LINE
  5
7FD4
330
17
100
AcDbEntity
  8
R-SWTS-DET2
100
AcDbLine
 10
49.99767065984464
 20
10.05010071214318
 30
0.0
 11
47.99767065984464
 21
10.05010071214318
 31
0.0
  0
LINE
  5
7FD5
330
17
100
AcDbEntity
  8
R-SWTS-DET2
100
AcDbLine
 10
49.99767065984464
 20
11.31230071214318
 30
0.0
 11
47.99767065984464
 21
11.31230071214318
 31
0.0
  0
LINE
  5
7FD6
330
17
100
AcDbEntity
  8
R-SWTS-DET3
100
AcDbLine
 10
50.37267065984464
 20
10.80560071214318
 30
0.0
 11
47.99767065984464
 21
10.80560071214318
 31
0.0
  0
LINE
  5
7FD7
330
17
100
AcDbEntity
  8
R-SWTS-DET3
100
AcDbLine
 10
50.37267065984464
 20
10.55560071214318
 30
0.0
 11
47.99767065984464
 21
10.55560071214318
 31
0.0
  0
LINE
  5
7FD8
330
17
100
AcDbEntity
  8
R-SWTS-DET2
100
AcDbLine
 10
49.81095555506459
 20
10.55438753924666
 30
0.0
 11
49.91840687280144
 21
10.30797048888772
 31
0.0
  0
LINE
  5
7FD9
330
17
100
AcDbEntity
  8
R-SWTS-DET2
100
AcDbLine
 10
49.91840687280144
 20
10.30797048888772
 30
0.0
 11
49.96780170294648
 21
10.04890071214318
 31
0.0
  0
LINE
  5
7FDA
330
17
100
AcDbEntity
  8
R-SWTS-DET2
100
AcDbLine
 10
49.81095555506459
 20
10.8068138850397
 30
0.0
 11
49.91840687280144
 21
11.05323093539864
 31
0.0
  0
LINE
  5
7FDB
330
17
100
AcDbEntity
  8
R-SWTS-DET3
100
AcDbLine
 10
50.37267065984464
 20
10.80560071214318
 30
0.0
 11
50.37267065984464
 21
10.55560071214318
 31
0.0
  0
LINE
  5
7FDC
330
17
100
AcDbEntity
  8
R-SWTS-DET2
100
AcDbLine
 10
50.32122639717605
 20
10.51278315983194
 30
0.0
 11
50.14092500739365
 21
10.5561138850397
 31
0.0
  0
ARC
  5
7FDD
330
17
100
AcDbEntity
  8
R-SWTS-DET2
100
AcDbCircle
 10
50.30924910246379
 20
10.46065071214318
 30
0.0
 40
0.0534906318026363
100
AcDbArc
 50
282.5775302134596
 51
77.06098159021959
  0
LINE
  5
7FDE
330
17
100
AcDbEntity
  8
R-SWTS-DET2
100
AcDbLine
 10
50.3208972490642
 20
10.40844373587161
 30
0.0
 11
50.14013891577328
 21
10.3681138850397
 31
0.0
  0
LINE
  5
7FDF
330
17
100
AcDbEntity
  8
R-SWTS-DET2
100
AcDbLine
 10
50.32122639717605
 20
10.84841826445442
 30
0.0
 11
50.14092500739365
 21
10.80508753924666
 31
0.0
  0
ARC
  5
7FE0
330
17
100
AcDbEntity
  8
R-SWTS-DET2
100
AcDbCircle
 10
50.30924910246379
 20
10.90055071214318
 30
0.0
 40
0.0534906318026363
100
AcDbArc
 50
282.9390184097804
 51
77.42246978654043
  0
LINE
  5
7FE1
330
17
100
AcDbEntity
  8
R-SWTS-DET2
100
AcDbLine
 10
50.3208972490642
 20
10.95275768841475
 30
0.0
 11
50.14013891577328
 21
10.99308753924666
 31
0.0
  0
LINE
  5
7FE2
330
17
100
AcDbEntity
  8
R-SWTS-DET2
100
AcDbLine
 10
49.91840687280144
 20
11.05323093539864
 30
0.0
 11
49.96780170294648
 21
11.31230071214318
 31
0.0
  0
LINE
  5
805F
330
17
100
AcDbEntity
  8
R-ANNO-DIMS
100
AcDbLine
 10
9.82304272195077
 20
16.30278726021843
 30
0.0
 11
11.12293424443237
 21
16.30278726021843
 31
0.0
  0
MTEXT
  5
818A
102
{ACAD_XDICTIONARY
360
818B
102
}
330
17
100
AcDbEntity
  8
TEXT
100
AcDbMText
 10
1.000000084398437
 20
2.0
 30
0.0
 40
0.375
 41
15.4571868900598
 71
     1
 72
     5
  1
ENGINEERING CHANGE:  97910-094 (MARCH 2017)\PFILE NAME:  KCDC031 SHEET 05 OF 08.DWG
 73
     1
 44
1.0
1001
ACAD
1000
ACAD_MTEXT_COLUMN_INFO_BEGIN
1070
    75
1070
     2
1070
    79
1070
     0
1070
    76
1070
     1
1070
    78
1070
     0
1070
    48
1040
15.4571868900598
1070
    49
1040
1.25
1070
    50
1070
     1
1040
0.0
1000
ACAD_MTEXT_COLUMN_INFO_END
1000
MTEXTBEGIN
1070
    73
1070
     1
1070
    44
1040
1.0
1070
    74
1070
     0
1000
MTEXTEND
  0
INSERT
  5
8A5A
330
17
100
AcDbEntity
  8
0
100
AcDbBlockReference
  2
Kawneer Logo English
 10
1.000000084398437
 20
2.5
 30
0.0
 41
5.337
 42
5.337
 43
5.337
  0
ENDSEC
  0
SECTION
  2
OBJECTS
  0
DICTIONARY
  5
C
330
0
100
AcDbDictionary
281
     1
  3
ACAD_CIP_PREVIOUS_PRODUCT_INFO
350
8164
  3
ACAD_COLOR
350
80CA
  3
ACAD_FIELDLIST
350
8188
  3
ACAD_GROUP
350
D
  3
ACAD_LAYOUT
350
485C
  3
ACAD_MATERIAL
350
8098
  3
ACAD_MLEADERSTYLE
350
80DF
  3
ACAD_MLINESTYLE
350
1A
  3
ACAD_PLOTSETTINGS
350
485D
  3
ACAD_PLOTSTYLENAME
350
485A
  3
ACAD_SCALELIST
350
80CD
  3
ACAD_TABLESTYLE
350
80CB
  3
ACAD_VISUALSTYLE
350
80B1
  3
ACDB_RECOMPOSE_DATA
350
8AED
  3
ACDBVARIABLEDICTIONARY
350
3E
  3
DWGPROPS
350
8AEE
  0
DICTIONARY
  5
811F
330
8
100
AcDbDictionary
280
     1
281
     1
  0
DICTIONARY
  5
80FE
330
2
100
AcDbDictionary
280
     1
281
     1
  3
ACAD_LAYERSTATES
360
80FF
  0
DICTIONARY
  5
810E
330
E
100
AcDbDictionary
280
     1
281
     1
  3
ADSK_XREC_LAYER_RECONCILED
360
810F
  0
DICTIONARY
  5
8110
330
65A3
100
AcDbDictionary
280
     1
281
     1
  3
ADSK_XREC_LAYER_RECONCILED
360
8111
  0
DICTIONARY
  5
8112
330
65A4
100
AcDbDictionary
280
     1
281
     1
  3
ADSK_XREC_LAYER_RECONCILED
360
8113
  0
DICTIONARY
  5
8114
330
65A5
100
AcDbDictionary
280
     1
281
     1
  3
ADSK_XREC_LAYER_RECONCILED
360
8115
  0
DICTIONARY
  5
8116
330
65A6
100
AcDbDictionary
280
     1
281
     1
  3
ADSK_XREC_LAYER_RECONCILED
360
8117
  0
DICTIONARY
  5
8118
330
65A7
100
AcDbDictionary
280
     1
281
     1
  3
ADSK_XREC_LAYER_RECONCILED
360
8119
  0
DICTIONARY
  5
8179
330
8178
100
AcDbDictionary
280
     1
281
     1
  0
DICTIONARY
  5
4A11
330
17
100
AcDbDictionary
280
     1
281
     1
  3
ACAD_LAYOUTSELFREF
360
8090
  0
DICTIONARY
  5
4A0F
330
14
100
AcDbDictionary
280
     1
281
     1
  3
ACAD_LAYOUTSELFREF
360
808F
  0
DICTIONARY
  5
8A56
330
8A4C
100
AcDbDictionary
280
     1
281
     1
  3
ACAD_SORTENTS
360
8A57
  0
DICTIONARY
  5
8AEB
330
8A4D
100
AcDbDictionary
280
     1
281
     1
  3
ACAD_MTEXT_2008_RT
360
8AEC
  0
DICTIONARY
  5
818B
330
818A
100
AcDbDictionary
280
     1
281
     1
  0
XRECORD
  5
8164
102
{ACAD_REACTORS
330
C
102
}
330
C
100
AcDbXrecord
280
     1
300
ACD
300
2012
300
85730ACD_2012_0F
  0
DICTIONARY
  5
80CA
102
{ACAD_REACTORS
330
C
102
}
330
C
100
AcDbDictionary
281
     1
  0
FIELDLIST
  5
8188
102
{ACAD_REACTORS
330
C
102
}
330
C
100
AcDbIdSet
 90
        0
100
AcDbFieldList
  0
DICTIONARY
  5
D
102
{ACAD_REACTORS
330
C
102
}
330
C
100
AcDbDictionary
281
     1
  0
DICTIONARY
  5
485C
102
{ACAD_REACTORS
330
C
102
}
330
C
100
AcDbDictionary
281
     1
  3
Layout1
350
485F
  3
Model
350
485E
  0
DICTIONARY
  5
8098
102
{ACAD_REACTORS
330
C
102
}
330
C
100
AcDbDictionary
281
     1
  3
ByBlock
350
80A1
  3
ByLayer
350
8099
  3
Global
350
80A9
  0
DICTIONARY
  5
80DF
102
{ACAD_REACTORS
330
C
102
}
330
C
100
AcDbDictionary
281
     1
  3
Standard
350
80E0
  0
DICTIONARY
  5
1A
102
{ACAD_REACTORS
330
C
102
}
330
C
100
AcDbDictionary
281
     1
  3
STANDARD
350
1B
  0
DICTIONARY
  5
485D
102
{ACAD_REACTORS
330
C
102
}
330
C
100
AcDbDictionary
281
     1
  0
ACDBDICTIONARYWDFLT
  5
485A
102
{ACAD_REACTORS
330
C
102
}
330
C
100
AcDbDictionary
281
     1
  3
Normal
350
485B
100
AcDbDictionaryWithDefault
340
485B
  0
DICTIONARY
  5
80CD
102
{ACAD_REACTORS
330
C
102
}
330
C
100
AcDbDictionary
281
     1
  3
A0
350
80CE
  3
A1
350
8A2A
  3
A2
350
8A2B
  3
A3
350
8A2C
  3
A4
350
8A2D
  3
A5
350
8A2E
  3
A6
350
8A2F
  3
A7
350
8A30
  3
A8
350
8A31
  3
A9
350
8A32
  3
B0
350
8A33
  3
B1
350
8A34
  3
B2
350
8A35
  3
B3
350
8A36
  3
B4
350
8A37
  3
B5
350
8A38
  3
B6
350
8A39
  0
DICTIONARY
  5
80CB
102
{ACAD_REACTORS
330
C
102
}
330
C
100
AcDbDictionary
281
     1
  3
Standard
350
80CC
  0
DICTIONARY
  5
80B1
102
{ACAD_REACTORS
330
C
102
}
330
C
100
AcDbDictionary
281
     1
  3
2dWireframe
350
80B7
  3
3D Hidden
350
8A4A
  3
3dWireframe
350
8A4B
  3
Basic
350
80B6
  3
Brighten
350
80BD
  3
ColorChange
350
80C1
  3
Conceptual
350
80BA
  3
Dim
350
80BC
  3
EdgeColorOff
350
80C9
  3
Facepattern
350
80C0
  3
Flat
350
80B2
  3
FlatWithEdges
350
80B3
  3
Gouraud
350
80B4
  3
GouraudWithEdges
350
80B5
  3
Hidden
350
80B9
  3
JitterOff
350
80C7
  3
Linepattern
350
80BF
  3
OverhangOff
350
80C8
  3
Realistic
350
80BB
  3
Shaded
350
80C6
  3
Shaded with edges
350
80C5
  3
Shades of Gray
350
80C2
  3
Sketchy
350
80C3
  3
Thicken
350
80BE
  3
Wireframe
350
80B8
  3
X-Ray
350
80C4
  0
XRECORD
  5
8AED
102
{ACAD_REACTORS
330
C
102
}
330
C
100
AcDbXrecord
280
     1
 90
        1
330
80CC
330
818A
330
8A4D
  0
DICTIONARY
  5
3E
102
{ACAD_REACTORS
330
C
102
}
330
C
100
AcDbDictionary
281
     1
  3
CANNOSCALE
350
815C
  3
CMLEADERSTYLE
350
815B
  3
CTABLESTYLE
350
815A
  3
DIMADEC
350
3F
  3
DIMASSOC
350
815F
  3
INDEXCTL
350
815E
  3
LAYEREVAL
350
8A1F
  3
LAYERNOTIFY
350
8A20
  3
LIGHTINGUNITS
350
8A1E
  3
MSLTSCALE
350
8A1D
  3
SORTENTS
350
815D
  3
XCLIPFRAME
350
8AE9
  0
XRECORD
  5
8AEE
102
{ACAD_REACTORS
330
C
102
}
330
C
100
AcDbXrecord
280
     1
  1
DWGPROPS COOKIE
  2

  3

  4

  6

  7

  8
quadiss
  9

300
=
301
=
302
=
303
=
304
=
305
=
306
=
307
=
308
=
309
=
 40
0.8042086458333333
 41
2450777.537570949
 42
2457807.53109081
  1

 90
        0
  0
DICTIONARY
  5
80FF
102
{ACAD_REACTORS
330
80FE
102
}
330
80FE
100
AcDbDictionary
281
     1
  0
XRECORD
  5
810F
102
{ACAD_REACTORS
330
810E
102
}
330
810E
100
AcDbXrecord
280
     1
290
     1
  0
XRECORD
  5
8111
102
{ACAD_REACTORS
330
8110
102
}
330
8110
100
AcDbXrecord
280
     1
290
     1
  0
XRECORD
  5
8113
102
{ACAD_REACTORS
330
8112
102
}
330
8112
100
AcDbXrecord
280
     1
290
     1
  0
XRECORD
  5
8115
102
{ACAD_REACTORS
330
8114
102
}
330
8114
100
AcDbXrecord
280
     1
290
     1
  0
XRECORD
  5
8117
102
{ACAD_REACTORS
330
8116
102
}
330
8116
100
AcDbXrecord
280
     1
290
     1
  0
XRECORD
  5
8119
102
{ACAD_REACTORS
330
8118
102
}
330
8118
100
AcDbXrecord
280
     1
290
     1
  0
XRECORD
  5
8090
102
{ACAD_REACTORS
330
4A11
102
}
330
4A11
100
AcDbXrecord
280
     1
340
17
  0
XRECORD
  5
808F
102
{ACAD_REACTORS
330
4A0F
102
}
330
4A0F
100
AcDbXrecord
280
     1
340
14
  0
SORTENTSTABLE
  5
8A57
102
{ACAD_REACTORS
330
8A56
102
}
330
8A56
100
AcDbSortentsTable
330
8A4C
  0
XRECORD
  5
8AEC
102
{ACAD_REACTORS
330
8AEB
102
}
330
8AEB
100
AcDbXrecord
280
     1
 40
102645.0
  1
\pxqr;{\fArial TUR|b0|i0|c0|p34;\T1.05;AN ARCONIC COMPANY}
  0
LAYOUT
  5
485F
102
{ACAD_XDICTIONARY
360
8AF1
102
}
102
{ACAD_REACTORS
330
485C
102
}
330
485C
100
AcDbPlotSettings
  1

  2
\\NOAKCI-SRV7\Marketing Communications - HP4550hdn
  4

  6

 40
0.0
 41
0.0
 42
0.0
 43
0.0
 44
0.0
 45
0.0
 46
0.0
 47
0.0
 48
0.0
 49
0.0
140
0.0
141
0.0
142
1.0
143
1.0
 70
   688
 72
     0
 73
     0
 74
     5
  7
monochrome.ctb
 75
    16
147
1.0
148
0.0
149
0.0
100
AcDbLayout
  1
Layout1
 70
     1
 71
     1
 10
0.0
 20
0.0
 11
12.0
 21
9.0
 12
0.0
 22
0.0
 32
0.0
 14
1.000000000000000E+20
 24
1.000000000000000E+20
 34
1.000000000000000E+20
 15
-1.000000000000000E+20
 25
-1.000000000000000E+20
 35
-1.000000000000000E+20
146
0.0
 13
0.0
 23
0.0
 33
0.0
 16
1.0
 26
0.0
 36
0.0
 17
0.0
 27
1.0
 37
0.0
 76
     0
330
14
  0
LAYOUT
  5
485E
102
{ACAD_XDICTIONARY
360
8AEF
102
}
102
{ACAD_REACTORS
330
485C
102
}
330
485C
100
AcDbPlotSettings
  1

  2
\\KWRKCI-HUB03\KCI_MKT_HP9000_PCL6
  4
11x17
  6

 40
3.174999952316284
 41
3.174999952316284
 42
3.17498779296875
 43
3.17498779296875
 44
279.3999938964844
 45
431.8000183105469
 46
0.0
 47
0.0
 48
0.0
 49
0.0
140
0.0
141
0.0
142
1.0
143
4.051530155393382
 70
 11952
 72
     0
 73
     1
 74
     1
  7
monochrome.ctb
 75
     0
147
0.2468203275418804
148
0.0525966469568914
149
0.0326778140019542
100
AcDbLayout
  1
Model
 70
     1
 71
     0
 10
0.0
 20
0.0
 11
12.0
 21
9.0
 12
0.0
 22
0.0
 32
0.0
 14
0.0
 24
0.0
 34
0.0
 15
0.0
 25
0.0
 35
0.0
146
0.0
 13
0.0
 23
0.0
 33
0.0
 16
1.0
 26
0.0
 36
0.0
 17
0.0
 27
1.0
 37
0.0
 76
     0
330
17
331
8069
  0
MATERIAL
  5
80A1
102
{ACAD_XDICTIONARY
360
80A2
102
}
102
{ACAD_REACTORS
330
8098
102
}
330
8098
100
AcDbMaterial
  1
ByBlock
 72
     0
 43
0.0208333333333333
 43
0.0
 43
0.0
 43
0.0
 43
0.0
 43
0.0208333333333333
 43
0.0
 43
0.0
 43
0.0
 43
0.0
 43
1.0
 43
0.0
 43
0.0
 43
0.0
 43
0.0
 43
1.0
 77
     0
 47
0.0208333333333333
 47
0.0
 47
0.0
 47
0.0
 47
0.0
 47
0.0208333333333333
 47
0.0
 47
0.0
 47
0.0
 47
0.0
 47
1.0
 47
0.0
 47
0.0
 47
0.0
 47
0.0
 47
1.0
171
     0
 49
0.0208333333333333
 49
0.0
 49
0.0
 49
0.0
 49
0.0
 49
0.0208333333333333
 49
0.0
 49
0.0
 49
0.0
 49
0.0
 49
1.0
 49
0.0
 49
0.0
 49
0.0
 49
0.0
 49
1.0
175
     0
142
0.0208333333333333
142
0.0
142
0.0
142
0.0
142
0.0
142
0.0208333333333333
142
0.0
142
0.0
142
0.0
142
0.0
142
1.0
142
0.0
142
0.0
142
0.0
142
0.0
142
1.0
179
     0
144
0.0208333333333333
144
0.0
144
0.0
144
0.0
144
0.0
144
0.0208333333333333
144
0.0
144
0.0
144
0.0
144
0.0
144
1.0
144
0.0
144
0.0
144
0.0
144
0.0
144
1.0
147
0.0208333333333333
147
0.0
147
0.0
147
0.0
147
0.0
147
0.0208333333333333
147
0.0
147
0.0
147
0.0
147
0.0
147
1.0
147
0.0
147
0.0
147
0.0
147
0.0
147
1.0
  0
MATERIAL
  5
8099
102
{ACAD_XDICTIONARY
360
809A
102
}
102
{ACAD_REACTORS
330
8098
102
}
330
8098
100
AcDbMaterial
  1
ByLayer
 72
     0
 43
0.0208333333333333
 43
0.0
 43
0.0
 43
0.0
 43
0.0
 43
0.0208333333333333
 43
0.0
 43
0.0
 43
0.0
 43
0.0
 43
1.0
 43
0.0
 43
0.0
 43
0.0
 43
0.0
 43
1.0
 77
     0
 47
0.0208333333333333
 47
0.0
 47
0.0
 47
0.0
 47
0.0
 47
0.0208333333333333
 47
0.0
 47
0.0
 47
0.0
 47
0.0
 47
1.0
 47
0.0
 47
0.0
 47
0.0
 47
0.0
 47
1.0
171
     0
 49
0.0208333333333333
 49
0.0
 49
0.0
 49
0.0
 49
0.0
 49
0.0208333333333333
 49
0.0
 49
0.0
 49
0.0
 49
0.0
 49
1.0
 49
0.0
 49
0.0
 49
0.0
 49
0.0
 49
1.0
175
     0
142
0.0208333333333333
142
0.0
142
0.0
142
0.0
142
0.0
142
0.0208333333333333
142
0.0
142
0.0
142
0.0
142
0.0
142
1.0
142
0.0
142
0.0
142
0.0
142
0.0
142
1.0
179
     0
144
0.0208333333333333
144
0.0
144
0.0
144
0.0
144
0.0
144
0.0208333333333333
144
0.0
144
0.0
144
0.0
144
0.0
144
1.0
144
0.0
144
0.0
144
0.0
144
0.0
144
1.0
147
0.0208333333333333
147
0.0
147
0.0
147
0.0
147
0.0
147
0.0208333333333333
147
0.0
147
0.0
147
0.0
147
0.0
147
1.0
147
0.0
147
0.0
147
0.0
147
0.0
147
1.0
  0
MATERIAL
  5
80A9
102
{ACAD_XDICTIONARY
360
80AA
102
}
102
{ACAD_REACTORS
330
8098
102
}
330
8098
100
AcDbMaterial
  1
Global
 72
     0
 43
0.0208333333333333
 43
0.0
 43
0.0
 43
0.0
 43
0.0
 43
0.0208333333333333
 43
0.0
 43
0.0
 43
0.0
 43
0.0
 43
1.0
 43
0.0
 43
0.0
 43
0.0
 43
0.0
 43
1.0
 77
     0
 47
0.0208333333333333
 47
0.0
 47
0.0
 47
0.0
 47
0.0
 47
0.0208333333333333
 47
0.0
 47
0.0
 47
0.0
 47
0.0
 47
1.0
 47
0.0
 47
0.0
 47
0.0
 47
0.0
 47
1.0
171
     0
 49
0.0208333333333333
 49
0.0
 49
0.0
 49
0.0
 49
0.0
 49
0.0208333333333333
 49
0.0
 49
0.0
 49
0.0
 49
0.0
 49
1.0
 49
0.0
 49
0.0
 49
0.0
 49
0.0
 49
1.0
175
     0
142
0.0208333333333333
142
0.0
142
0.0
142
0.0
142
0.0
142
0.0208333333333333
142
0.0
142
0.0
142
0.0
142
0.0
142
1.0
142
0.0
142
0.0
142
0.0
142
0.0
142
1.0
179
     0
144
0.0208333333333333
144
0.0
144
0.0
144
0.0
144
0.0
144
0.0208333333333333
144
0.0
144
0.0
144
0.0
144
0.0
144
1.0
144
0.0
144
0.0
144
0.0
144
0.0
144
1.0
147
0.0208333333333333
147
0.0
147
0.0
147
0.0
147
0.0
147
0.0208333333333333
147
0.0
147
0.0
147
0.0
147
0.0
147
1.0
147
0.0
147
0.0
147
0.0
147
0.0
147
1.0
  0
MLEADERSTYLE
  5
80E0
102
{ACAD_REACTORS
330
80DF
102
}
330
80DF
100
AcDbMLeaderStyle
170
     2
171
     1
172
     0
 90
        2
 40
0.0
 41
0.0
173
     1
 91
-1056964608
340
11
 92
       -2
290
     1
 42
0.09
291
     1
 43
0.36
  3
Standard
 44
0.18
300

342
F
174
     1
178
     6
175
     1
176
     0
 93
-1056964608
 45
0.18
292
     0
297
     0
 46
0.18
 94
-1056964608
 47
1.0
 49
1.0
140
1.0
293
     1
141
0.0
294
     1
177
     0
142
1.0
295
     0
296
     0
143
0.125
1001
ACAD_MLEADERVER
1070
     2
  0
MLINESTYLE
  5
1B
102
{ACAD_REACTORS
330
1A
102
}
330
1A
100
AcDbMlineStyle
  2
STANDARD
 70
     0
  3

 62
   256
 51
90.0
 52
90.0
 71
     2
 49
0.5
 62
   256
  6
BYLAYER
 49
-0.5
 62
   256
  6
BYLAYER
  0
ACDBPLACEHOLDER
  5
485B
102
{ACAD_REACTORS
330
485A
102
}
330
485A
  0
SCALE
  5
80CE
102
{ACAD_REACTORS
330
80CD
102
}
330
80CD
100
AcDbScale
 70
     0
300
1:1
140
1.0
141
1.0
290
     1
  0
SCALE
  5
8A2A
102
{ACAD_REACTORS
330
80CD
102
}
330
80CD
100
AcDbScale
 70
     0
300
1/128" = 1'-0"
140
0.0078125
141
12.0
290
     0
  0
SCALE
  5
8A2B
102
{ACAD_REACTORS
330
80CD
102
}
330
80CD
100
AcDbScale
 70
     0
300
1/64" = 1'-0"
140
0.015625
141
12.0
290
     0
  0
SCALE
  5
8A2C
102
{ACAD_REACTORS
330
80CD
102
}
330
80CD
100
AcDbScale
 70
     0
300
1/32" = 1'-0"
140
0.03125
141
12.0
290
     0
  0
SCALE
  5
8A2D
102
{ACAD_REACTORS
330
80CD
102
}
330
80CD
100
AcDbScale
 70
     0
300
1/16" = 1'-0"
140
0.0625
141
12.0
290
     0
  0
SCALE
  5
8A2E
102
{ACAD_REACTORS
330
80CD
102
}
330
80CD
100
AcDbScale
 70
     0
300
3/32" = 1'-0"
140
0.09375
141
12.0
290
     0
  0
SCALE
  5
8A2F
102
{ACAD_REACTORS
330
80CD
102
}
330
80CD
100
AcDbScale
 70
     0
300
1/8" = 1'-0"
140
0.125
141
12.0
290
     0
  0
SCALE
  5
8A30
102
{ACAD_REACTORS
330
80CD
102
}
330
80CD
100
AcDbScale
 70
     0
300
3/16" = 1'-0"
140
0.1875
141
12.0
290
     0
  0
SCALE
  5
8A31
102
{ACAD_REACTORS
330
80CD
102
}
330
80CD
100
AcDbScale
 70
     0
300
1/4" = 1'-0"
140
0.25
141
12.0
290
     0
  0
SCALE
  5
8A32
102
{ACAD_REACTORS
330
80CD
102
}
330
80CD
100
AcDbScale
 70
     0
300
3/8" = 1'-0"
140
0.375
141
12.0
290
     0
  0
SCALE
  5
8A33
102
{ACAD_REACTORS
330
80CD
102
}
330
80CD
100
AcDbScale
 70
     0
300
1/2" = 1'-0"
140
0.5
141
12.0
290
     0
  0
SCALE
  5
8A34
102
{ACAD_REACTORS
330
80CD
102
}
330
80CD
100
AcDbScale
 70
     0
300
3/4" = 1'-0"
140
0.75
141
12.0
290
     0
  0
SCALE
  5
8A35
102
{ACAD_REACTORS
330
80CD
102
}
330
80CD
100
AcDbScale
 70
     0
300
1" = 1'-0"
140
1.0
141
12.0
290
     0
  0
SCALE
  5
8A36
102
{ACAD_REACTORS
330
80CD
102
}
330
80CD
100
AcDbScale
 70
     0
300
1-1/2" = 1'-0"
140
1.5
141
12.0
290
     0
  0
SCALE
  5
8A37
102
{ACAD_REACTORS
330
80CD
102
}
330
80CD
100
AcDbScale
 70
     0
300
3" = 1'-0"
140
3.0
141
12.0
290
     0
  0
SCALE
  5
8A38
102
{ACAD_REACTORS
330
80CD
102
}
330
80CD
100
AcDbScale
 70
     0
300
6" = 1'-0"
140
6.0
141
12.0
290
     0
  0
SCALE
  5
8A39
102
{ACAD_REACTORS
330
80CD
102
}
330
80CD
100
AcDbScale
 70
     0
300
1'-0" = 1'-0"
140
12.0
141
12.0
290
     0
  0
TABLESTYLE
  5
80CC
102
{ACAD_XDICTIONARY
360
811B
102
}
102
{ACAD_REACTORS
330
80CB
102
}
330
80CB
100
AcDbTableStyle
  3
Standard
 70
     0
 71
     0
 40
0.06
 41
0.06
280
     0
281
     0
  7
STANDARD
140
0.18
170
     2
 62
     0
 63
     7
283
     0
274
    -2
284
     1
 64
     0
275
    -2
285
     1
 65
     0
276
    -2
286
     1
 66
     0
277
    -2
287
     1
 67
     0
278
    -2
288
     1
 68
     0
279
    -2
289
     1
 69
     0
  7
STANDARD
140
0.25
170
     5
 62
     0
 63
     7
283
     0
274
    -2
284
     1
 64
     0
275
    -2
285
     1
 65
     0
276
    -2
286
     1
 66
     0
277
    -2
287
     1
 67
     0
278
    -2
288
     1
 68
     0
279
    -2
289
     1
 69
     0
  7
STANDARD
140
0.18
170
     5
 62
     0
 63
     7
283
     0
274
    -2
284
     1
 64
     0
275
    -2
285
     1
 65
     0
276
    -2
286
     1
 66
     0
277
    -2
287
     1
 67
     0
278
    -2
288
     1
 68
     0
279
    -2
289
     1
 69
     0
  0
VISUALSTYLE
  5
80B7
102
{ACAD_XDICTIONARY
360
8B00
102
}
102
{ACAD_REACTORS
330
80B1
102
}
330
80B1
100
AcDbVisualStyle
  2
2dWireframe
 70
     4
 71
     0
 72
     2
 73
     0
 90
        0
 40
-0.6
 41
-30.0
 62
     5
 63
     7
 74
     1
 91
        4
 64
     7
 65
   257
 75
     1
175
     1
 42
1.0
 92
        0
 66
   257
 43
1.0
 76
     1
 77
     6
 78
     2
 67
     7
 79
     5
170
     0
171
     0
290
     0
174
     0
 93
        1
 44
0.0
173
     0
291
     0
 45
0.0
1001
ACAD
1000
AcDbSavedByObjectVersion
1070
     0
  0
VISUALSTYLE
  5
8A4A
102
{ACAD_XDICTIONARY
360
8B27
102
}
102
{ACAD_REACTORS
330
80B1
102
}
330
80B1
100
AcDbVisualStyle
  2
3D Hidden
 70
     6
 71
     1
 72
     2
 73
     2
 90
        0
 40
-0.6
 41
-30.0
 62
     5
 63
     7
 74
     2
 91
        2
 64
     7
 65
   257
 75
     2
175
     1
 42
40.0
 92
        0
 66
   257
 43
1.0
 76
     1
 77
     6
 78
     2
 67
     7
 79
     3
170
     0
171
     0
290
     0
174
     0
 93
        1
 44
0.0
173
     0
291
     0
 45
0.0
1001
ACAD
1000
AcDbSavedByObjectVersion
1070
     0
  0
VISUALSTYLE
  5
8A4B
102
{ACAD_XDICTIONARY
360
8B29
102
}
102
{ACAD_REACTORS
330
80B1
102
}
330
80B1
100
AcDbVisualStyle
  2
3dWireframe
 70
     5
 71
     0
 72
     2
 73
     0
 90
        0
 40
-0.6
 41
-30.0
 62
     5
 63
     7
 74
     1
 91
        4
 64
     7
 65
   257
 75
     1
175
     1
 42
1.0
 92
        0
 66
   257
 43
1.0
 76
     1
 77
     6
 78
     2
 67
     7
 79
     5
170
     0
171
     0
290
     0
174
     0
 93
        1
 44
0.0
173
     0
291
     0
 45
0.0
1001
ACAD
1000
AcDbSavedByObjectVersion
1070
     0
  0
VISUALSTYLE
  5
80B6
102
{ACAD_XDICTIONARY
360
8AFE
102
}
102
{ACAD_REACTORS
330
80B1
102
}
330
80B1
100
AcDbVisualStyle
  2
Basic
 70
     7
 71
     1
 72
     0
 73
     1
 90
        0
 40
-0.6
 41
-30.0
 62
     5
 63
     7
 74
     0
 91
        4
 64
     7
 65
   257
 75
     1
175
     1
 42
1.0
 92
        8
 66
     7
 43
1.0
 76
     1
 77
     6
 78
     2
 67
     7
 79
     5
170
     0
171
     0
290
     0
174
     0
 93
        1
 44
0.0
173
     0
291
     1
 45
0.0
1001
ACAD
1000
AcDbSavedByObjectVersion
1070
     0
  0
VISUALSTYLE
  5
80BD
102
{ACAD_XDICTIONARY
360
8B0C
102
}
102
{ACAD_REACTORS
330
80B1
102
}
330
80B1
100
AcDbVisualStyle
  2
Brighten
 70
    12
 71
     2
 72
     2
 73
     0
 90
        0
 40
-0.6
 41
-30.0
 62
     5
 63
     7
 74
     1
 91
        4
 64
     7
 65
   257
 75
     1
175
     1
 42
1.0
 92
        8
 66
     7
 43
1.0
 76
     1
 77
     6
 78
     2
 67
     7
 79
     5
170
     0
171
     0
290
     0
174
     0
 93
        1
 44
50.0
173
     0
291
     1
 45
0.0
1001
ACAD
1000
AcDbSavedByObjectVersion
1070
     0
  0
VISUALSTYLE
  5
80C1
102
{ACAD_XDICTIONARY
360
8B14
102
}
102
{ACAD_REACTORS
330
80B1
102
}
330
80B1
100
AcDbVisualStyle
  2
ColorChange
 70
    16
 71
     2
 72
     2
 73
     3
 90
        0
 40
-0.6
 41
-30.0
 62
     5
 63
     8
 74
     1
 91
        4
 64
     7
 65
   257
 75
     1
175
     1
 42
1.0
 92
        8
 66
     8
 43
1.0
 76
     1
 77
     6
 78
     2
 67
     7
 79
     5
170
     0
171
     0
290
     0
174
     0
 93
        1
 44
0.0
173
     0
291
     1
 45
0.0
1001
ACAD
1000
AcDbSavedByObjectVersion
1070
     0
  0
VISUALSTYLE
  5
80BA
102
{ACAD_XDICTIONARY
360
8B06
102
}
102
{ACAD_REACTORS
330
80B1
102
}
330
80B1
100
AcDbVisualStyle
  2
Conceptual
 70
     9
 71
     3
 72
     2
 73
     0
 90
        0
 40
-0.6
 41
-30.0
 62
     5
 63
     7
 74
     2
 91
        2
 64
     7
 65
   257
 75
     1
175
     1
 42
179.0
 92
        8
 66
     7
 43
1.0
 76
     1
 77
     6
 78
     2
 67
     7
 79
     3
170
     0
171
     0
290
     0
174
     0
 93
        1
 44
0.0
173
     0
291
     0
 45
0.0
1001
ACAD
1000
AcDbSavedByObjectVersion
1070
     0
  0
VISUALSTYLE
  5
80BC
102
{ACAD_XDICTIONARY
360
8B0A
102
}
102
{ACAD_REACTORS
330
80B1
102
}
330
80B1
100
AcDbVisualStyle
  2
Dim
 70
    11
 71
     2
 72
     2
 73
     0
 90
        0
 40
-0.6
 41
-30.0
 62
     5
 63
     7
 74
     1
 91
        4
 64
     7
 65
   257
 75
     1
175
     1
 42
1.0
 92
        8
 66
     7
 43
1.0
 76
     1
 77
     6
 78
     2
 67
     7
 79
     5
170
     0
171
     0
290
     0
174
     0
 93
        1
 44
-50.0
173
     0
291
     1
 45
0.0
1001
ACAD
1000
AcDbSavedByObjectVersion
1070
     0
  0
VISUALSTYLE
  5
80C9
102
{ACAD_XDICTIONARY
360
8B24
102
}
102
{ACAD_REACTORS
330
80B1
102
}
330
80B1
100
AcDbVisualStyle
  2
EdgeColorOff
 70
    22
 71
     2
 72
     2
 73
     0
 90
        0
 40
-0.6
 41
-30.0
 62
     5
 63
     7
 74
     1
 91
        4
 64
     7
 65
   257
 75
     1
175
     1
 42
1.0
 92
        8
 66
     7
 43
1.0
 76
     1
 77
     6
 78
     2
 67
     7
 79
     5
170
     0
171
     0
290
     0
174
     0
 93
        1
 44
0.0
173
     0
291
     1
 45
0.0
1001
ACAD
1000
AcDbSavedByObjectVersion
1070
     0
  0
VISUALSTYLE
  5
80C0
102
{ACAD_XDICTIONARY
360
8B12
102
}
102
{ACAD_REACTORS
330
80B1
102
}
330
80B1
100
AcDbVisualStyle
  2
Facepattern
 70
    15
 71
     2
 72
     2
 73
     0
 90
        0
 40
-0.6
 41
-30.0
 62
     5
 63
     7
 74
     1
 91
        4
 64
     7
 65
   257
 75
     1
175
     1
 42
1.0
 92
        8
 66
     7
 43
1.0
 76
     1
 77
     6
 78
     2
 67
     7
 79
     5
170
     0
171
     0
290
     0
174
     0
 93
        1
 44
0.0
173
     0
291
     1
 45
0.0
1001
ACAD
1000
AcDbSavedByObjectVersion
1070
     0
  0
VISUALSTYLE
  5
80B2
102
{ACAD_XDICTIONARY
360
8AF6
102
}
102
{ACAD_REACTORS
330
80B1
102
}
330
80B1
100
AcDbVisualStyle
  2
Flat
 70
     0
 71
     2
 72
     1
 73
     1
 90
        2
 40
-0.6
 41
30.0
 62
     5
 63
     7
 74
     0
 91
        0
 64
     7
 65
   257
 75
     1
175
     1
 42
1.0
 92
        8
 66
     7
 43
1.0
 76
     1
 77
     6
 78
     2
 67
     7
 79
     5
170
     0
171
     0
290
     0
174
     0
 93
       13
 44
0.0
173
     0
291
     1
 45
0.0
1001
ACAD
1000
AcDbSavedByObjectVersion
1070
     0
  0
VISUALSTYLE
  5
80B3
102
{ACAD_XDICTIONARY
360
8AF8
102
}
102
{ACAD_REACTORS
330
80B1
102
}
330
80B1
100
AcDbVisualStyle
  2
FlatWithEdges
 70
     1
 71
     2
 72
     1
 73
     1
 90
        2
 40
-0.6
 41
30.0
 62
     5
 63
     7
 74
     1
 91
        0
 64
     7
 65
   257
 75
     1
175
     1
 42
1.0
 92
        0
 66
   257
 43
1.0
 76
     1
 77
     6
 78
     2
 67
     7
 79
     5
170
     0
171
     0
290
     0
174
     0
 93
       13
 44
0.0
173
     0
291
     1
 45
0.0
1001
ACAD
1000
AcDbSavedByObjectVersion
1070
     0
  0
VISUALSTYLE
  5
80B4
102
{ACAD_XDICTIONARY
360
8AFA
102
}
102
{ACAD_REACTORS
330
80B1
102
}
330
80B1
100
AcDbVisualStyle
  2
Gouraud
 70
     2
 71
     2
 72
     2
 73
     1
 90
        2
 40
-0.6
 41
30.0
 62
     5
 63
     7
 74
     0
 91
        0
 64
     7
 65
   257
 75
     1
175
     1
 42
1.0
 92
        0
 66
     7
 43
1.0
 76
     1
 77
     6
 78
     2
 67
     7
 79
     5
170
     0
171
     0
290
     0
174
     0
 93
       13
 44
0.0
173
     0
291
     1
 45
0.0
1001
ACAD
1000
AcDbSavedByObjectVersion
1070
     0
  0
VISUALSTYLE
  5
80B5
102
{ACAD_XDICTIONARY
360
8AFC
102
}
102
{ACAD_REACTORS
330
80B1
102
}
330
80B1
100
AcDbVisualStyle
  2
GouraudWithEdges
 70
     3
 71
     2
 72
     2
 73
     1
 90
        2
 40
-0.6
 41
30.0
 62
     5
 63
     7
 74
     1
 91
        0
 64
     7
 65
   257
 75
     1
175
     1
 42
1.0
 92
        0
 66
   257
 43
1.0
 76
     1
 77
     6
 78
     2
 67
     7
 79
     5
170
     0
171
     0
290
     0
174
     0
 93
       13
 44
0.0
173
     0
291
     1
 45
0.0
1001
ACAD
1000
AcDbSavedByObjectVersion
1070
     0
  0
VISUALSTYLE
  5
80B9
102
{ACAD_XDICTIONARY
360
8B04
102
}
102
{ACAD_REACTORS
330
80B1
102
}
330
80B1
100
AcDbVisualStyle
  2
Hidden
 70
     6
 71
     1
 72
     2
 73
     2
 90
        0
 40
-0.6
 41
-30.0
 62
     5
 63
     7
 74
     2
 91
        2
 64
     7
 65
   257
 75
     2
175
     1
 42
40.0
 92
        0
 66
   257
 43
1.0
 76
     1
 77
     6
 78
     2
 67
     7
 79
     3
170
     0
171
     0
290
     0
174
     0
 93
        1
 44
0.0
173
     0
291
     0
 45
0.0
1001
ACAD
1000
AcDbSavedByObjectVersion
1070
     0
  0
VISUALSTYLE
  5
80C7
102
{ACAD_XDICTIONARY
360
8B20
102
}
102
{ACAD_REACTORS
330
80B1
102
}
330
80B1
100
AcDbVisualStyle
  2
JitterOff
 70
    20
 71
     2
 72
     2
 73
     0
 90
        0
 40
-0.6
 41
-30.0
 62
     5
 63
     7
 74
     1
 91
        4
 64
     7
 65
   257
 75
     1
175
     1
 42
1.0
 92
       10
 66
     7
 43
1.0
 76
     1
 77
     6
 78
     2
 67
     7
 79
     5
170
     0
171
     0
290
     0
174
     0
 93
        1
 44
0.0
173
     0
291
     1
 45
0.0
1001
ACAD
1000
AcDbSavedByObjectVersion
1070
     0
  0
VISUALSTYLE
  5
80BF
102
{ACAD_XDICTIONARY
360
8B10
102
}
102
{ACAD_REACTORS
330
80B1
102
}
330
80B1
100
AcDbVisualStyle
  2
Linepattern
 70
    14
 71
     2
 72
     2
 73
     0
 90
        0
 40
-0.6
 41
-30.0
 62
     5
 63
     7
 74
     1
 91
        4
 64
     7
 65
   257
 75
     7
175
     7
 42
1.0
 92
        8
 66
     7
 43
1.0
 76
     1
 77
     6
 78
     2
 67
     7
 79
     5
170
     0
171
     0
290
     0
174
     0
 93
        1
 44
0.0
173
     0
291
     1
 45
0.0
1001
ACAD
1000
AcDbSavedByObjectVersion
1070
     0
  0
VISUALSTYLE
  5
80C8
102
{ACAD_XDICTIONARY
360
8B22
102
}
102
{ACAD_REACTORS
330
80B1
102
}
330
80B1
100
AcDbVisualStyle
  2
OverhangOff
 70
    21
 71
     2
 72
     2
 73
     0
 90
        0
 40
-0.6
 41
-30.0
 62
     5
 63
     7
 74
     1
 91
        4
 64
     7
 65
   257
 75
     1
175
     1
 42
1.0
 92
        9
 66
     7
 43
1.0
 76
     1
 77
     6
 78
     2
 67
     7
 79
     5
170
     0
171
     0
290
     0
174
     0
 93
        1
 44
0.0
173
     0
291
     1
 45
0.0
1001
ACAD
1000
AcDbSavedByObjectVersion
1070
     0
  0
VISUALSTYLE
  5
80BB
102
{ACAD_XDICTIONARY
360
8B08
102
}
102
{ACAD_REACTORS
330
80B1
102
}
330
80B1
100
AcDbVisualStyle
  2
Realistic
 70
     8
 71
     2
 72
     2
 73
     0
 90
        2
 40
-0.6
 41
30.0
 62
     5
 63
     7
 74
     0
 91
        0
 64
     7
 65
   257
 75
     1
175
     1
 42
1.0
 92
        8
 66
   257
 43
1.0
 76
     1
 77
     6
 78
     2
 67
     7
 79
     3
170
     0
171
     0
290
     0
174
     0
 93
       13
 44
0.0
173
     0
291
     0
 45
0.0
1001
ACAD
1000
AcDbSavedByObjectVersion
1070
     0
  0
VISUALSTYLE
  5
80C6
102
{ACAD_XDICTIONARY
360
8B1E
102
}
102
{ACAD_REACTORS
330
80B1
102
}
330
80B1
100
AcDbVisualStyle
  2
Shaded
 70
    27
 71
     2
 72
     2
 73
     1
 90
        2
 40
-0.6
 41
30.0
 62
     5
 63
     7
 74
     0
 91
        4
 64
     7
 65
   257
 75
     1
175
     1
 42
1.0
 92
        8
 66
   257
 43
1.0
 76
     1
 77
     6
 78
     2
 67
     8
 79
     3
170
     0
171
     0
290
     0
174
     0
 93
        5
 44
0.0
173
     0
291
     0
 45
0.0
1001
ACAD
1000
AcDbSavedByObjectVersion
1070
     0
  0
VISUALSTYLE
  5
80C5
102
{ACAD_XDICTIONARY
360
8B1C
102
}
102
{ACAD_REACTORS
330
80B1
102
}
330
80B1
100
AcDbVisualStyle
  2
Shaded with edges
 70
    26
 71
     2
 72
     2
 73
     1
 90
        2
 40
-0.6
 41
30.0
 62
     5
 63
     7
 74
     1
 91
       10
 64
     7
 65
   257
 75
     2
175
     1
 42
1.0
 92
        8
 66
   257
 43
1.0
 76
     1
 77
     6
 78
     2
 67
     7
 79
     3
170
     0
171
     0
290
     0
174
     0
 93
        5
 44
0.0
173
     0
291
     0
 45
0.0
1001
ACAD
1000
AcDbSavedByObjectVersion
1070
     0
  0
VISUALSTYLE
  5
80C2
102
{ACAD_XDICTIONARY
360
8B16
102
}
102
{ACAD_REACTORS
330
80B1
102
}
330
80B1
100
AcDbVisualStyle
  2
Shades of Gray
 70
    23
 71
     2
 72
     2
 73
     3
 90
        0
 40
-0.6
 41
-30.0
 62
     5
 63
     7
 74
     2
 91
        2
 64
     7
 65
     7
 75
     1
175
     1
 42
40.0
 92
        8
 66
     7
 43
1.0
 76
     1
 77
     6
 78
     2
 67
     7
 79
     3
170
     0
171
     0
290
     0
174
     0
 93
        1
 44
0.0
173
     0
291
     0
 45
0.0
1001
ACAD
1000
AcDbSavedByObjectVersion
1070
     0
  0
VISUALSTYLE
  5
80C3
102
{ACAD_XDICTIONARY
360
8B18
102
}
102
{ACAD_REACTORS
330
80B1
102
}
330
80B1
100
AcDbVisualStyle
  2
Sketchy
 70
    24
 71
     1
 72
     2
 73
     2
 90
        0
 40
-0.6
 41
-30.0
 62
     5
 63
     7
 74
     2
 91
        2
 64
     7
 65
     7
 75
     1
175
     1
 42
40.0
 92
       11
 66
     7
 43
1.0
 76
     1
 77
     6
 78
     2
 67
     7
 79
     6
170
     0
171
     0
290
     0
174
     0
 93
        1
 44
0.0
173
     0
291
     0
 45
0.0
1001
ACAD
1000
AcDbSavedByObjectVersion
1070
     0
  0
VISUALSTYLE
  5
80BE
102
{ACAD_XDICTIONARY
360
8B0E
102
}
102
{ACAD_REACTORS
330
80B1
102
}
330
80B1
100
AcDbVisualStyle
  2
Thicken
 70
    13
 71
     2
 72
     2
 73
     0
 90
        0
 40
-0.6
 41
-30.0
 62
     5
 63
     7
 74
     1
 91
        4
 64
     7
 65
   257
 75
     1
175
     1
 42
1.0
 92
       12
 66
     7
 43
1.0
 76
     1
 77
     6
 78
     2
 67
     7
 79
     5
170
     0
171
     0
290
     0
174
     0
 93
        1
 44
0.0
173
     0
291
     1
 45
0.0
1001
ACAD
1000
AcDbSavedByObjectVersion
1070
     0
  0
VISUALSTYLE
  5
80B8
102
{ACAD_XDICTIONARY
360
8B02
102
}
102
{ACAD_REACTORS
330
80B1
102
}
330
80B1
100
AcDbVisualStyle
  2
Wireframe
 70
     5
 71
     0
 72
     2
 73
     0
 90
        0
 40
-0.6
 41
-30.0
 62
     5
 63
     7
 74
     1
 91
        4
 64
     7
 65
   257
 75
     1
175
     1
 42
1.0
 92
        0
 66
   257
 43
1.0
 76
     1
 77
     6
 78
     2
 67
     7
 79
     3
170
     0
171
     0
290
     0
174
     0
 93
        1
 44
0.0
173
     0
291
     0
 45
0.0
1001
ACAD
1000
AcDbSavedByObjectVersion
1070
     0
  0
VISUALSTYLE
  5
80C4
102
{ACAD_XDICTIONARY
360
8B1A
102
}
102
{ACAD_REACTORS
330
80B1
102
}
330
80B1
100
AcDbVisualStyle
  2
X-Ray
 70
    25
 71
     2
 72
     2
 73
     1
 90
        1
 40
0.5
 41
-30.0
 62
     5
 63
     7
 74
     1
 91
        0
 64
     7
 65
   257
 75
     1
175
     1
 42
1.0
 92
        8
 66
     7
 43
1.0
 76
     1
 77
     6
 78
     2
 67
     7
 79
     3
170
     0
171
     0
290
     0
174
     0
 93
       13
 44
0.0
173
     0
291
     0
 45
0.0
1001
ACAD
1000
AcDbSavedByObjectVersion
1070
     0
  0
DICTIONARYVAR
  5
815C
102
{ACAD_REACTORS
330
3E
102
}
330
3E
100
DictionaryVariables
280
     0
  1
1:1
  0
DICTIONARYVAR
  5
815B
102
{ACAD_REACTORS
330
3E
102
}
330
3E
100
DictionaryVariables
280
     0
  1
STANDARD
  0
DICTIONARYVAR
  5
815A
102
{ACAD_REACTORS
330
3E
102
}
330
3E
100
DictionaryVariables
280
     0
  1
STANDARD
  0
DICTIONARYVAR
  5
3F
102
{ACAD_REACTORS
330
3E
102
}
330
3E
100
DictionaryVariables
280
     0
  1
0
  0
DICTIONARYVAR
  5
815F
102
{ACAD_REACTORS
330
3E
102
}
330
3E
100
DictionaryVariables
280
     0
  1
1
  0
DICTIONARYVAR
  5
815E
102
{ACAD_REACTORS
330
3E
102
}
330
3E
100
DictionaryVariables
280
     0
  1
0
  0
DICTIONARYVAR
  5
8A1F
102
{ACAD_REACTORS
330
3E
102
}
330
3E
100
DictionaryVariables
280
     0
  1
1
  0
DICTIONARYVAR
  5
8A20
102
{ACAD_REACTORS
330
3E
102
}
330
3E
100
DictionaryVariables
280
     0
  1
15
  0
DICTIONARYVAR
  5
8A1E
102
{ACAD_REACTORS
330
3E
102
}
330
3E
100
DictionaryVariables
280
     0
  1
0
  0
DICTIONARYVAR
  5
8A1D
102
{ACAD_REACTORS
330
3E
102
}
330
3E
100
DictionaryVariables
280
     0
  1
0
  0
DICTIONARYVAR
  5
815D
102
{ACAD_REACTORS
330
3E
102
}
330
3E
100
DictionaryVariables
280
     0
  1
127
  0
DICTIONARYVAR
  5
8AE9
102
{ACAD_REACTORS
330
3E
102
}
330
3E
100
DictionaryVariables
280
     0
  1
2
  0
DICTIONARY
  5
8AF1
330
485F
100
AcDbDictionary
280
     1
281
     1
  3
ACAD_XREC_ROUNDTRIP
360
8AF2
  0
DICTIONARY
  5
8AEF
330
485E
100
AcDbDictionary
280
     1
281
     1
  3
ACAD_XREC_ROUNDTRIP
360
8AF0
  0
DICTIONARY
  5
80A2
330
80A1
100
AcDbDictionary
280
     1
281
     1
  3
ACAD_XREC_ROUNDTRIP
360
8AF4
  3
BUMPTILE
360
80A4
  3
DIFFUSETILE
360
80A3
  3
OPACITYTILE
360
80A7
  3
REFLECTIONTILE
360
80A6
  3
REFRACTIONTILE
360
80A8
  3
SPECULARTILE
360
80A5
  0
DICTIONARY
  5
809A
330
8099
100
AcDbDictionary
280
     1
281
     1
  3
ACAD_XREC_ROUNDTRIP
360
8AF3
  3
BUMPTILE
360
809C
  3
DIFFUSETILE
360
809B
  3
OPACITYTILE
360
809F
  3
REFLECTIONTILE
360
809E
  3
REFRACTIONTILE
360
80A0
  3
SPECULARTILE
360
809D
  0
DICTIONARY
  5
80AA
330
80A9
100
AcDbDictionary
280
     1
281
     1
  3
ACAD_XREC_ROUNDTRIP
360
8AF5
  3
BUMPTILE
360
80AC
  3
DIFFUSETILE
360
80AB
  3
OPACITYTILE
360
80AF
  3
REFLECTIONTILE
360
80AE
  3
REFRACTIONTILE
360
80B0
  3
SPECULARTILE
360
80AD
  0
DICTIONARY
  5
811B
330
80CC
100
AcDbDictionary
280
     1
281
     1
  3
ACAD_ROUNDTRIP_2008_TABLESTYLE_CELLSTYLEMAP
360
8AEA
  3
ACAD_XREC_ROUNDTRIP
360
8B26
  0
DICTIONARY
  5
8B00
330
80B7
100
AcDbDictionary
280
     1
281
     1
  3
ACAD_XREC_ROUNDTRIP
360
8B01
  0
DICTIONARY
  5
8B27
330
8A4A
100
AcDbDictionary
280
     1
281
     1
  3
ACAD_XREC_ROUNDTRIP
360
8B28
  0
DICTIONARY
  5
8B29
330
8A4B
100
AcDbDictionary
280
     1
281
     1
  3
ACAD_XREC_ROUNDTRIP
360
8B2A
  0
DICTIONARY
  5
8AFE
330
80B6
100
AcDbDictionary
280
     1
281
     1
  3
ACAD_XREC_ROUNDTRIP
360
8AFF
  0
DICTIONARY
  5
8B0C
330
80BD
100
AcDbDictionary
280
     1
281
     1
  3
ACAD_XREC_ROUNDTRIP
360
8B0D
  0
DICTIONARY
  5
8B14
330
80C1
100
AcDbDictionary
280
     1
281
     1
  3
ACAD_XREC_ROUNDTRIP
360
8B15
  0
DICTIONARY
  5
8B06
330
80BA
100
AcDbDictionary
280
     1
281
     1
  3
ACAD_XREC_ROUNDTRIP
360
8B07
  0
DICTIONARY
  5
8B0A
330
80BC
100
AcDbDictionary
280
     1
281
     1
  3
ACAD_XREC_ROUNDTRIP
360
8B0B
  0
DICTIONARY
  5
8B24
330
80C9
100
AcDbDictionary
280
     1
281
     1
  3
ACAD_XREC_ROUNDTRIP
360
8B25
  0
DICTIONARY
  5
8B12
330
80C0
100
AcDbDictionary
280
     1
281
     1
  3
ACAD_XREC_ROUNDTRIP
360
8B13
  0
DICTIONARY
  5
8AF6
330
80B2
100
AcDbDictionary
280
     1
281
     1
  3
ACAD_XREC_ROUNDTRIP
360
8AF7
  0
DICTIONARY
  5
8AF8
330
80B3
100
AcDbDictionary
280
     1
281
     1
  3
ACAD_XREC_ROUNDTRIP
360
8AF9
  0
DICTIONARY
  5
8AFA
330
80B4
100
AcDbDictionary
280
     1
281
     1
  3
ACAD_XREC_ROUNDTRIP
360
8AFB
  0
DICTIONARY
  5
8AFC
330
80B5
100
AcDbDictionary
280
     1
281
     1
  3
ACAD_XREC_ROUNDTRIP
360
8AFD
  0
DICTIONARY
  5
8B04
330
80B9
100
AcDbDictionary
280
     1
281
     1
  3
ACAD_XREC_ROUNDTRIP
360
8B05
  0
DICTIONARY
  5
8B20
330
80C7
100
AcDbDictionary
280
     1
281
     1
  3
ACAD_XREC_ROUNDTRIP
360
8B21
  0
DICTIONARY
  5
8B10
330
80BF
100
AcDbDictionary
280
     1
281
     1
  3
ACAD_XREC_ROUNDTRIP
360
8B11
  0
DICTIONARY
  5
8B22
330
80C8
100
AcDbDictionary
280
     1
281
     1
  3
ACAD_XREC_ROUNDTRIP
360
8B23
  0
DICTIONARY
  5
8B08
330
80BB
100
AcDbDictionary
280
     1
281
     1
  3
ACAD_XREC_ROUNDTRIP
360
8B09
  0
DICTIONARY
  5
8B1E
330
80C6
100
AcDbDictionary
280
     1
281
     1
  3
ACAD_XREC_ROUNDTRIP
360
8B1F
  0
DICTIONARY
  5
8B1C
330
80C5
100
AcDbDictionary
280
     1
281
     1
  3
ACAD_XREC_ROUNDTRIP
360
8B1D
  0
DICTIONARY
  5
8B16
330
80C2
100
AcDbDictionary
280
     1
281
     1
  3
ACAD_XREC_ROUNDTRIP
360
8B17
  0
DICTIONARY
  5
8B18
330
80C3
100
AcDbDictionary
280
     1
281
     1
  3
ACAD_XREC_ROUNDTRIP
360
8B19
  0
DICTIONARY
  5
8B0E
330
80BE
100
AcDbDictionary
280
     1
281
     1
  3
ACAD_XREC_ROUNDTRIP
360
8B0F
  0
DICTIONARY
  5
8B02
330
80B8
100
AcDbDictionary
280
     1
281
     1
  3
ACAD_XREC_ROUNDTRIP
360
8B03
  0
DICTIONARY
  5
8B1A
330
80C4
100
AcDbDictionary
280
     1
281
     1
  3
ACAD_XREC_ROUNDTRIP
360
8B1B
  0
XRECORD
  5
8AF2
102
{ACAD_REACTORS
330
8AF1
102
}
330
8AF1
100
AcDbXrecord
280
     1
102
SHADEPLOT
 70
     0
102
SHADEPLOTRESLEVEL
 70
     2
102
SHADEPLOTCUSTOMDPI
 70
   300
  0
XRECORD
  5
8AF0
102
{ACAD_REACTORS
330
8AEF
102
}
330
8AEF
100
AcDbXrecord
280
     1
102
SHADEPLOT
 70
     0
102
SHADEPLOTRESLEVEL
 70
     2
102
SHADEPLOTCUSTOMDPI
 70
   300
  0
XRECORD
  5
8AF4
102
{ACAD_REACTORS
330
80A2
102
}
330
80A2
100
AcDbXrecord
280
     1
102
MATERIAL
148
0.0
149
0.0
149
0.0
 93
        0
 94
      127
282
     0
 72
     0
 77
     0
171
     0
175
     0
179
     0
273
     0
  0
XRECORD
  5
80A4
102
{ACAD_REACTORS
330
80A2
102
}
330
80A2
100
AcDbXrecord
280
     1
270
     1
271
     1
  0
XRECORD
  5
80A3
102
{ACAD_REACTORS
330
80A2
102
}
330
80A2
100
AcDbXrecord
280
     1
270
     1
271
     1
  0
XRECORD
  5
80A7
102
{ACAD_REACTORS
330
80A2
102
}
330
80A2
100
AcDbXrecord
280
     1
270
     1
271
     1
  0
XRECORD
  5
80A6
102
{ACAD_REACTORS
330
80A2
102
}
330
80A2
100
AcDbXrecord
280
     1
270
     1
271
     1
  0
XRECORD
  5
80A8
102
{ACAD_REACTORS
330
80A2
102
}
330
80A2
100
AcDbXrecord
280
     1
270
     1
271
     1
  0
XRECORD
  5
80A5
102
{ACAD_REACTORS
330
80A2
102
}
330
80A2
100
AcDbXrecord
280
     1
270
     1
271
     1
  0
XRECORD
  5
8AF3
102
{ACAD_REACTORS
330
809A
102
}
330
809A
100
AcDbXrecord
280
     1
102
MATERIAL
148
0.0
149
0.0
149
0.0
 93
        0
 94
      127
282
     0
 72
     0
 77
     0
171
     0
175
     0
179
     0
273
     0
  0
XRECORD
  5
809C
102
{ACAD_REACTORS
330
809A
102
}
330
809A
100
AcDbXrecord
280
     1
270
     1
271
     1
  0
XRECORD
  5
809B
102
{ACAD_REACTORS
330
809A
102
}
330
809A
100
AcDbXrecord
280
     1
270
     1
271
     1
  0
XRECORD
  5
809F
102
{ACAD_REACTORS
330
809A
102
}
330
809A
100
AcDbXrecord
280
     1
270
     1
271
     1
  0
XRECORD
  5
809E
102
{ACAD_REACTORS
330
809A
102
}
330
809A
100
AcDbXrecord
280
     1
270
     1
271
     1
  0
XRECORD
  5
80A0
102
{ACAD_REACTORS
330
809A
102
}
330
809A
100
AcDbXrecord
280
     1
270
     1
271
     1
  0
XRECORD
  5
809D
102
{ACAD_REACTORS
330
809A
102
}
330
809A
100
AcDbXrecord
280
     1
270
     1
271
     1
  0
XRECORD
  5
8AF5
102
{ACAD_REACTORS
330
80AA
102
}
330
80AA
100
AcDbXrecord
280
     1
102
MATERIAL
148
0.0
149
0.0
149
0.0
 93
        0
 94
      127
282
     0
 72
     0
 77
     0
171
     0
175
     0
179
     0
273
     0
  0
XRECORD
  5
80AC
102
{ACAD_REACTORS
330
80AA
102
}
330
80AA
100
AcDbXrecord
280
     1
270
     1
271
     1
  0
XRECORD
  5
80AB
102
{ACAD_REACTORS
330
80AA
102
}
330
80AA
100
AcDbXrecord
280
     1
270
     1
271
     1
  0
XRECORD
  5
80AF
102
{ACAD_REACTORS
330
80AA
102
}
330
80AA
100
AcDbXrecord
280
     1
270
     1
271
     1
  0
XRECORD
  5
80AE
102
{ACAD_REACTORS
330
80AA
102
}
330
80AA
100
AcDbXrecord
280
     1
270
     1
271
     1
  0
XRECORD
  5
80B0
102
{ACAD_REACTORS
330
80AA
102
}
330
80AA
100
AcDbXrecord
280
     1
270
     1
271
     1
  0
XRECORD
  5
80AD
102
{ACAD_REACTORS
330
80AA
102
}
330
80AA
100
AcDbXrecord
280
     1
270
     1
271
     1
  0
CELLSTYLEMAP
  5
8AEA
102
{ACAD_REACTORS
330
811B
102
}
330
811B
100
AcDbCellStyleMap
 90
        3
300
CELLSTYLE
  1
TABLEFORMAT_BEGIN
 90
        5
170
     1
 91
        0
 92
    32768
 62
   257
 93
        1
300
CONTENTFORMAT
  1
CONTENTFORMAT_BEGIN
 90
        0
 91
        0
 92
      512
 93
        0
300

 40
0.0
140
1.0
 94
        5
 62
     0
340
F
144
0.25
309
CONTENTFORMAT_END
171
     0
 94
        0
309
TABLEFORMAT_END
  1
CELLSTYLE_BEGIN
 90
        1
 91
        1
300
_TITLE
309
CELLSTYLE_END
300
CELLSTYLE
  1
TABLEFORMAT_BEGIN
 90
        5
170
     1
 91
        0
 92
        0
 62
   257
 93
        1
300
CONTENTFORMAT
  1
CONTENTFORMAT_BEGIN
 90
        0
 91
        0
 92
      512
 93
        0
300

 40
0.0
140
1.0
 94
        5
 62
     0
340
F
144
0.18
309
CONTENTFORMAT_END
171
     0
 94
        0
309
TABLEFORMAT_END
  1
CELLSTYLE_BEGIN
 90
        2
 91
        1
300
_HEADER
309
CELLSTYLE_END
300
CELLSTYLE
  1
TABLEFORMAT_BEGIN
 90
        5
170
     1
 91
        0
 92
        0
 62
   257
 93
        1
300
CONTENTFORMAT
  1
CONTENTFORMAT_BEGIN
 90
        0
 91
        0
 92
      512
 93
        0
300

 40
0.0
140
1.0
 94
        2
 62
     0
340
F
144
0.18
309
CONTENTFORMAT_END
171
     0
 94
        0
309
TABLEFORMAT_END
  1
CELLSTYLE_BEGIN
 90
        3
 91
        2
300
_DATA
309
CELLSTYLE_END
  0
XRECORD
  5
8B26
102
{ACAD_REACTORS
330
811B
102
}
330
811B
100
AcDbXrecord
280
     1
102
ACAD_ROUNDTRIP_PRE2007_TABLESTYLE
 90
      512
 91
        0
  1

 92
      512
 93
        0
  2

 94
      512
 95
        0
  3

  0
XRECORD
  5
8B01
102
{ACAD_REACTORS
330
8B00
102
}
330
8B00
100
AcDbXrecord
280
     1
102
RTVSPropertyOp0
 70
     1
102
RTVSPropertyOp1
 70
     1
102
RTVSPropertyOp2
 70
     1
102
RTVSPropertyOp3
 70
     1
102
RTVSPropertyOp4
 70
     1
102
RTVSPropertyOp5
 70
     1
102
RTVSPropertyOp6
 70
     1
102
RTVSPropertyOp7
 70
     1
102
RTVSPropertyOp8
 70
     1
102
RTVSPropertyOp9
 70
     1
102
RTVSPropertyOp10
 70
     1
102
RTVSPropertyOp11
 70
     1
102
RTVSPropertyOp12
 70
     1
102
RTVSPropertyOp13
 70
     1
102
RTVSPropertyOp14
 70
     1
102
RTVSPropertyOp15
 70
     1
102
RTVSPropertyOp16
 70
     1
102
RTVSPropertyOp17
 70
     1
102
RTVSPropertyOp18
 70
     1
102
RTVSPropertyOp19
 70
     1
102
RTVSPropertyOp20
 70
     1
102
RTVSPropertyOp21
 70
     1
102
RTVSPropertyOp22
 70
     1
102
RTVSPropertyOp23
 70
     1
102
RTVSPropertyOp24
 70
     1
102
RTVSPropertyOp25
 70
     1
102
RTVSPropertyOp26
 70
     1
102
RTVSPropertyOp27
 70
     1
102
RTVSPropertyOp28
 70
     1
102
RTVSPropertyOp29
 70
     1
102
RTVSPropertyOp30
 70
     1
102
RTVSPropertyOp31
 70
     1
102
RTVSPropertyOp32
 70
     1
  0
XRECORD
  5
8B28
102
{ACAD_REACTORS
330
8B27
102
}
330
8B27
100
AcDbXrecord
280
     1
102
RTVSPropertyOp0
 70
     1
102
RTVSPropertyOp1
 70
     1
102
RTVSPropertyOp2
 70
     1
102
RTVSPropertyOp3
 70
     1
102
RTVSPropertyOp4
 70
     1
102
RTVSPropertyOp5
 70
     1
102
RTVSPropertyOp6
 70
     1
102
RTVSPropertyOp7
 70
     1
102
RTVSPropertyOp8
 70
     1
102
RTVSPropertyOp9
 70
     1
102
RTVSPropertyOp10
 70
     1
102
RTVSPropertyOp11
 70
     1
102
RTVSPropertyOp12
 70
     1
102
RTVSPropertyOp13
 70
     1
102
RTVSPropertyOp14
 70
     1
102
RTVSPropertyOp15
 70
     1
102
RTVSPropertyOp16
 70
     1
102
RTVSPropertyOp17
 70
     1
102
RTVSPropertyOp18
 70
     1
102
RTVSPropertyOp19
 70
     1
102
RTVSPropertyOp20
 70
     1
102
RTVSPropertyOp21
 70
     1
102
RTVSPropertyOp22
 70
     1
102
RTVSPropertyOp23
 70
     1
102
RTVSPropertyOp24
 70
     1
102
RTVSPropertyOp25
 70
     1
102
RTVSPropertyOp26
 70
     1
102
RTVSPropertyOp27
 70
     1
102
RTVSPropertyOp28
 70
     1
102
RTVSPropertyOp29
 70
     1
102
RTVSPropertyOp30
 70
     1
102
RTVSPropertyOp31
 70
     1
102
RTVSPropertyOp32
 70
     1
  0
XRECORD
  5
8B2A
102
{ACAD_REACTORS
330
8B29
102
}
330
8B29
100
AcDbXrecord
280
     1
102
RTVSPropertyOp0
 70
     1
102
RTVSPropertyOp1
 70
     1
102
RTVSPropertyOp2
 70
     1
102
RTVSPropertyOp3
 70
     1
102
RTVSPropertyOp4
 70
     1
102
RTVSPropertyOp5
 70
     1
102
RTVSPropertyOp6
 70
     1
102
RTVSPropertyOp7
 70
     1
102
RTVSPropertyOp8
 70
     1
102
RTVSPropertyOp9
 70
     1
102
RTVSPropertyOp10
 70
     1
102
RTVSPropertyOp11
 70
     1
102
RTVSPropertyOp12
 70
     1
102
RTVSPropertyOp13
 70
     1
102
RTVSPropertyOp14
 70
     1
102
RTVSPropertyOp15
 70
     1
102
RTVSPropertyOp16
 70
     1
102
RTVSPropertyOp17
 70
     1
102
RTVSPropertyOp18
 70
     1
102
RTVSPropertyOp19
 70
     1
102
RTVSPropertyOp20
 70
     1
102
RTVSPropertyOp21
 70
     1
102
RTVSPropertyOp22
 70
     1
102
RTVSPropertyOp23
 70
     1
102
RTVSPropertyOp24
 70
     1
102
RTVSPropertyOp25
 70
     1
102
RTVSPropertyOp26
 70
     1
102
RTVSPropertyOp27
 70
     1
102
RTVSPropertyOp28
 70
     1
102
RTVSPropertyOp29
 70
     1
102
RTVSPropertyOp30
 70
     1
102
RTVSPropertyOp31
 70
     1
102
RTVSPropertyOp32
 70
     1
  0
XRECORD
  5
8AFF
102
{ACAD_REACTORS
330
8AFE
102
}
330
8AFE
100
AcDbXrecord
280
     1
102
RTVSPropertyOp0
 70
     1
102
RTVSPropertyOp1
 70
     1
102
RTVSPropertyOp2
 70
     1
102
RTVSPropertyOp3
 70
     1
102
RTVSPropertyOp4
 70
     1
102
RTVSPropertyOp5
 70
     1
102
RTVSPropertyOp6
 70
     1
102
RTVSPropertyOp7
 70
     1
102
RTVSPropertyOp8
 70
     1
102
RTVSPropertyOp9
 70
     1
102
RTVSPropertyOp10
 70
     1
102
RTVSPropertyOp11
 70
     1
102
RTVSPropertyOp12
 70
     1
102
RTVSPropertyOp13
 70
     1
102
RTVSPropertyOp14
 70
     1
102
RTVSPropertyOp15
 70
     1
102
RTVSPropertyOp16
 70
     1
102
RTVSPropertyOp17
 70
     1
102
RTVSPropertyOp18
 70
     1
102
RTVSPropertyOp19
 70
     1
102
RTVSPropertyOp20
 70
     1
102
RTVSPropertyOp21
 70
     1
102
RTVSPropertyOp22
 70
     1
102
RTVSPropertyOp23
 70
     1
102
RTVSPropertyOp24
 70
     1
102
RTVSPropertyOp25
 70
     1
102
RTVSPropertyOp26
 70
     1
102
RTVSPropertyOp27
 70
     1
102
RTVSPropertyOp28
 70
     1
102
RTVSPropertyOp29
 70
     1
102
RTVSPropertyOp30
 70
     1
102
RTVSPropertyOp31
 70
     1
102
RTVSPropertyOp32
 70
     1
  0
XRECORD
  5
8B0D
102
{ACAD_REACTORS
330
8B0C
102
}
330
8B0C
100
AcDbXrecord
280
     1
102
RTVSPropertyOp0
 70
     1
102
RTVSPropertyOp1
 70
     1
102
RTVSPropertyOp2
 70
     1
102
RTVSPropertyOp3
 70
     1
102
RTVSPropertyOp4
 70
     1
102
RTVSPropertyOp5
 70
     1
102
RTVSPropertyOp6
 70
     1
102
RTVSPropertyOp7
 70
     1
102
RTVSPropertyOp8
 70
     1
102
RTVSPropertyOp9
 70
     1
102
RTVSPropertyOp10
 70
     1
102
RTVSPropertyOp11
 70
     1
102
RTVSPropertyOp12
 70
     1
102
RTVSPropertyOp13
 70
     1
102
RTVSPropertyOp14
 70
     1
102
RTVSPropertyOp15
 70
     1
102
RTVSPropertyOp16
 70
     1
102
RTVSPropertyOp17
 70
     1
102
RTVSPropertyOp18
 70
     1
102
RTVSPropertyOp19
 70
     1
102
RTVSPropertyOp20
 70
     1
102
RTVSPropertyOp21
 70
     1
102
RTVSPropertyOp22
 70
     1
102
RTVSPropertyOp23
 70
     1
102
RTVSPropertyOp24
 70
     1
102
RTVSPropertyOp25
 70
     1
102
RTVSPropertyOp26
 70
     1
102
RTVSPropertyOp27
 70
     1
102
RTVSPropertyOp28
 70
     1
102
RTVSPropertyOp29
 70
     1
102
RTVSPropertyOp30
 70
     1
102
RTVSPropertyOp31
 70
     1
102
RTVSPropertyOp32
 70
     1
  0
XRECORD
  5
8B15
102
{ACAD_REACTORS
330
8B14
102
}
330
8B14
100
AcDbXrecord
280
     1
102
RTVSPropertyOp0
 70
     1
102
RTVSPropertyOp1
 70
     1
102
RTVSPropertyOp2
 70
     1
102
RTVSPropertyOp3
 70
     1
102
RTVSPropertyOp4
 70
     1
102
RTVSPropertyOp5
 70
     1
102
RTVSPropertyOp6
 70
     1
102
RTVSPropertyOp7
 70
     1
102
RTVSPropertyOp8
 70
     1
102
RTVSPropertyOp9
 70
     1
102
RTVSPropertyOp10
 70
     1
102
RTVSPropertyOp11
 70
     1
102
RTVSPropertyOp12
 70
     1
102
RTVSPropertyOp13
 70
     1
102
RTVSPropertyOp14
 70
     1
102
RTVSPropertyOp15
 70
     1
102
RTVSPropertyOp16
 70
     1
102
RTVSPropertyOp17
 70
     1
102
RTVSPropertyOp18
 70
     1
102
RTVSPropertyOp19
 70
     1
102
RTVSPropertyOp20
 70
     1
102
RTVSPropertyOp21
 70
     1
102
RTVSPropertyOp22
 70
     1
102
RTVSPropertyOp23
 70
     1
102
RTVSPropertyOp24
 70
     1
102
RTVSPropertyOp25
 70
     1
102
RTVSPropertyOp26
 70
     1
102
RTVSPropertyOp27
 70
     1
102
RTVSPropertyOp28
 70
     1
102
RTVSPropertyOp29
 70
     1
102
RTVSPropertyOp30
 70
     1
102
RTVSPropertyOp31
 70
     1
102
RTVSPropertyOp32
 70
     1
  0
XRECORD
  5
8B07
102
{ACAD_REACTORS
330
8B06
102
}
330
8B06
100
AcDbXrecord
280
     1
102
RTVSPropertyOp0
 70
     1
102
RTVSPropertyOp1
 70
     1
102
RTVSPropertyOp2
 70
     1
102
RTVSPropertyOp3
 70
     1
102
RTVSPropertyOp4
 70
     1
102
RTVSPropertyOp5
 70
     1
102
RTVSPropertyOp6
 70
     1
102
RTVSPropertyOp7
 70
     1
102
RTVSPropertyOp8
 70
     1
102
RTVSPropertyOp9
 70
     1
102
RTVSPropertyOp10
 70
     1
102
RTVSPropertyOp11
 70
     1
102
RTVSPropertyOp12
 70
     1
102
RTVSPropertyOp13
 70
     1
102
RTVSPropertyOp14
 70
     1
102
RTVSPropertyOp15
 70
     1
102
RTVSPropertyOp16
 70
     1
102
RTVSPropertyOp17
 70
     1
102
RTVSPropertyOp18
 70
     1
102
RTVSPropertyOp19
 70
     1
102
RTVSPropertyOp20
 70
     1
102
RTVSPropertyOp21
 70
     1
102
RTVSPropertyOp22
 70
     1
102
RTVSPropertyOp23
 70
     1
102
RTVSPropertyOp24
 70
     1
102
RTVSPropertyOp25
 70
     1
102
RTVSPropertyOp26
 70
     1
102
RTVSPropertyOp27
 70
     1
102
RTVSPropertyOp28
 70
     1
102
RTVSPropertyOp29
 70
     1
102
RTVSPropertyOp30
 70
     1
102
RTVSPropertyOp31
 70
     1
102
RTVSPropertyOp32
 70
     1
  0
XRECORD
  5
8B0B
102
{ACAD_REACTORS
330
8B0A
102
}
330
8B0A
100
AcDbXrecord
280
     1
102
RTVSPropertyOp0
 70
     1
102
RTVSPropertyOp1
 70
     1
102
RTVSPropertyOp2
 70
     1
102
RTVSPropertyOp3
 70
     1
102
RTVSPropertyOp4
 70
     1
102
RTVSPropertyOp5
 70
     1
102
RTVSPropertyOp6
 70
     1
102
RTVSPropertyOp7
 70
     1
102
RTVSPropertyOp8
 70
     1
102
RTVSPropertyOp9
 70
     1
102
RTVSPropertyOp10
 70
     1
102
RTVSPropertyOp11
 70
     1
102
RTVSPropertyOp12
 70
     1
102
RTVSPropertyOp13
 70
     1
102
RTVSPropertyOp14
 70
     1
102
RTVSPropertyOp15
 70
     1
102
RTVSPropertyOp16
 70
     1
102
RTVSPropertyOp17
 70
     1
102
RTVSPropertyOp18
 70
     1
102
RTVSPropertyOp19
 70
     1
102
RTVSPropertyOp20
 70
     1
102
RTVSPropertyOp21
 70
     1
102
RTVSPropertyOp22
 70
     1
102
RTVSPropertyOp23
 70
     1
102
RTVSPropertyOp24
 70
     1
102
RTVSPropertyOp25
 70
     1
102
RTVSPropertyOp26
 70
     1
102
RTVSPropertyOp27
 70
     1
102
RTVSPropertyOp28
 70
     1
102
RTVSPropertyOp29
 70
     1
102
RTVSPropertyOp30
 70
     1
102
RTVSPropertyOp31
 70
     1
102
RTVSPropertyOp32
 70
     1
  0
XRECORD
  5
8B25
102
{ACAD_REACTORS
330
8B24
102
}
330
8B24
100
AcDbXrecord
280
     1
102
RTVSPropertyOp0
 70
     0
102
RTVSPropertyOp1
 70
     0
102
RTVSPropertyOp2
 70
     0
102
RTVSPropertyOp3
 70
     0
102
RTVSPropertyOp4
 70
     0
102
RTVSPropertyOp5
 70
     0
102
RTVSPropertyOp6
 70
     0
102
RTVSPropertyOp7
 70
     0
102
RTVSPropertyOp8
 70
     0
102
RTVSPropertyOp9
 70
     0
102
RTVSPropertyOp10
 70
     0
102
RTVSPropertyOp11
 70
     0
102
RTVSPropertyOp12
 70
     0
102
RTVSPropertyOp13
 70
     0
102
RTVSPropertyOp14
 70
     2
102
RTVSPropertyOp15
 70
     0
102
RTVSPropertyOp16
 70
     0
102
RTVSPropertyOp17
 70
     0
102
RTVSPropertyOp18
 70
     0
102
RTVSPropertyOp19
 70
     0
102
RTVSPropertyOp20
 70
     0
102
RTVSPropertyOp21
 70
     0
102
RTVSPropertyOp22
 70
     0
102
RTVSPropertyOp23
 70
     0
102
RTVSPropertyOp24
 70
     0
102
RTVSPropertyOp25
 70
     0
102
RTVSPropertyOp26
 70
     0
102
RTVSPropertyOp27
 70
     0
102
RTVSPropertyOp28
 70
     1
102
RTVSPropertyOp29
 70
     1
102
RTVSPropertyOp30
 70
     1
102
RTVSPropertyOp31
 70
     1
102
RTVSPropertyOp32
 70
     1
  0
XRECORD
  5
8B13
102
{ACAD_REACTORS
330
8B12
102
}
330
8B12
100
AcDbXrecord
280
     1
102
RTVSPropertyOp0
 70
     1
102
RTVSPropertyOp1
 70
     1
102
RTVSPropertyOp2
 70
     1
102
RTVSPropertyOp3
 70
     1
102
RTVSPropertyOp4
 70
     1
102
RTVSPropertyOp5
 70
     1
102
RTVSPropertyOp6
 70
     1
102
RTVSPropertyOp7
 70
     1
102
RTVSPropertyOp8
 70
     1
102
RTVSPropertyOp9
 70
     1
102
RTVSPropertyOp10
 70
     1
102
RTVSPropertyOp11
 70
     1
102
RTVSPropertyOp12
 70
     1
102
RTVSPropertyOp13
 70
     1
102
RTVSPropertyOp14
 70
     1
102
RTVSPropertyOp15
 70
     1
102
RTVSPropertyOp16
 70
     1
102
RTVSPropertyOp17
 70
     1
102
RTVSPropertyOp18
 70
     1
102
RTVSPropertyOp19
 70
     1
102
RTVSPropertyOp20
 70
     1
102
RTVSPropertyOp21
 70
     1
102
RTVSPropertyOp22
 70
     1
102
RTVSPropertyOp23
 70
     1
102
RTVSPropertyOp24
 70
     1
102
RTVSPropertyOp25
 70
     1
102
RTVSPropertyOp26
 70
     1
102
RTVSPropertyOp27
 70
     1
102
RTVSPropertyOp28
 70
     1
102
RTVSPropertyOp29
 70
     1
102
RTVSPropertyOp30
 70
     1
102
RTVSPropertyOp31
 70
     1
102
RTVSPropertyOp32
 70
     1
  0
XRECORD
  5
8AF7
102
{ACAD_REACTORS
330
8AF6
102
}
330
8AF6
100
AcDbXrecord
280
     1
102
RTVSPropertyOp0
 70
     1
102
RTVSPropertyOp1
 70
     1
102
RTVSPropertyOp2
 70
     1
102
RTVSPropertyOp3
 70
     1
102
RTVSPropertyOp4
 70
     1
102
RTVSPropertyOp5
 70
     1
102
RTVSPropertyOp6
 70
     1
102
RTVSPropertyOp7
 70
     1
102
RTVSPropertyOp8
 70
     1
102
RTVSPropertyOp9
 70
     1
102
RTVSPropertyOp10
 70
     1
102
RTVSPropertyOp11
 70
     1
102
RTVSPropertyOp12
 70
     1
102
RTVSPropertyOp13
 70
     1
102
RTVSPropertyOp14
 70
     1
102
RTVSPropertyOp15
 70
     1
102
RTVSPropertyOp16
 70
     1
102
RTVSPropertyOp17
 70
     1
102
RTVSPropertyOp18
 70
     1
102
RTVSPropertyOp19
 70
     1
102
RTVSPropertyOp20
 70
     1
102
RTVSPropertyOp21
 70
     1
102
RTVSPropertyOp22
 70
     1
102
RTVSPropertyOp23
 70
     1
102
RTVSPropertyOp24
 70
     1
102
RTVSPropertyOp25
 70
     1
102
RTVSPropertyOp26
 70
     1
102
RTVSPropertyOp27
 70
     1
102
RTVSPropertyOp28
 70
     1
102
RTVSPropertyOp29
 70
     1
102
RTVSPropertyOp30
 70
     1
102
RTVSPropertyOp31
 70
     1
102
RTVSPropertyOp32
 70
     1
  0
XRECORD
  5
8AF9
102
{ACAD_REACTORS
330
8AF8
102
}
330
8AF8
100
AcDbXrecord
280
     1
102
RTVSPropertyOp0
 70
     1
102
RTVSPropertyOp1
 70
     1
102
RTVSPropertyOp2
 70
     1
102
RTVSPropertyOp3
 70
     1
102
RTVSPropertyOp4
 70
     1
102
RTVSPropertyOp5
 70
     1
102
RTVSPropertyOp6
 70
     1
102
RTVSPropertyOp7
 70
     1
102
RTVSPropertyOp8
 70
     1
102
RTVSPropertyOp9
 70
     1
102
RTVSPropertyOp10
 70
     1
102
RTVSPropertyOp11
 70
     1
102
RTVSPropertyOp12
 70
     1
102
RTVSPropertyOp13
 70
     1
102
RTVSPropertyOp14
 70
     1
102
RTVSPropertyOp15
 70
     1
102
RTVSPropertyOp16
 70
     1
102
RTVSPropertyOp17
 70
     1
102
RTVSPropertyOp18
 70
     1
102
RTVSPropertyOp19
 70
     1
102
RTVSPropertyOp20
 70
     1
102
RTVSPropertyOp21
 70
     1
102
RTVSPropertyOp22
 70
     1
102
RTVSPropertyOp23
 70
     1
102
RTVSPropertyOp24
 70
     1
102
RTVSPropertyOp25
 70
     1
102
RTVSPropertyOp26
 70
     1
102
RTVSPropertyOp27
 70
     1
102
RTVSPropertyOp28
 70
     1
102
RTVSPropertyOp29
 70
     1
102
RTVSPropertyOp30
 70
     1
102
RTVSPropertyOp31
 70
     1
102
RTVSPropertyOp32
 70
     1
  0
XRECORD
  5
8AFB
102
{ACAD_REACTORS
330
8AFA
102
}
330
8AFA
100
AcDbXrecord
280
     1
102
RTVSPropertyOp0
 70
     1
102
RTVSPropertyOp1
 70
     1
102
RTVSPropertyOp2
 70
     1
102
RTVSPropertyOp3
 70
     1
102
RTVSPropertyOp4
 70
     1
102
RTVSPropertyOp5
 70
     1
102
RTVSPropertyOp6
 70
     1
102
RTVSPropertyOp7
 70
     1
102
RTVSPropertyOp8
 70
     1
102
RTVSPropertyOp9
 70
     1
102
RTVSPropertyOp10
 70
     1
102
RTVSPropertyOp11
 70
     1
102
RTVSPropertyOp12
 70
     1
102
RTVSPropertyOp13
 70
     1
102
RTVSPropertyOp14
 70
     1
102
RTVSPropertyOp15
 70
     1
102
RTVSPropertyOp16
 70
     1
102
RTVSPropertyOp17
 70
     1
102
RTVSPropertyOp18
 70
     1
102
RTVSPropertyOp19
 70
     1
102
RTVSPropertyOp20
 70
     1
102
RTVSPropertyOp21
 70
     1
102
RTVSPropertyOp22
 70
     1
102
RTVSPropertyOp23
 70
     1
102
RTVSPropertyOp24
 70
     1
102
RTVSPropertyOp25
 70
     1
102
RTVSPropertyOp26
 70
     1
102
RTVSPropertyOp27
 70
     1
102
RTVSPropertyOp28
 70
     1
102
RTVSPropertyOp29
 70
     1
102
RTVSPropertyOp30
 70
     1
102
RTVSPropertyOp31
 70
     1
102
RTVSPropertyOp32
 70
     1
  0
XRECORD
  5
8AFD
102
{ACAD_REACTORS
330
8AFC
102
}
330
8AFC
100
AcDbXrecord
280
     1
102
RTVSPropertyOp0
 70
     1
102
RTVSPropertyOp1
 70
     1
102
RTVSPropertyOp2
 70
     1
102
RTVSPropertyOp3
 70
     1
102
RTVSPropertyOp4
 70
     1
102
RTVSPropertyOp5
 70
     1
102
RTVSPropertyOp6
 70
     1
102
RTVSPropertyOp7
 70
     1
102
RTVSPropertyOp8
 70
     1
102
RTVSPropertyOp9
 70
     1
102
RTVSPropertyOp10
 70
     1
102
RTVSPropertyOp11
 70
     1
102
RTVSPropertyOp12
 70
     1
102
RTVSPropertyOp13
 70
     1
102
RTVSPropertyOp14
 70
     1
102
RTVSPropertyOp15
 70
     1
102
RTVSPropertyOp16
 70
     1
102
RTVSPropertyOp17
 70
     1
102
RTVSPropertyOp18
 70
     1
102
RTVSPropertyOp19
 70
     1
102
RTVSPropertyOp20
 70
     1
102
RTVSPropertyOp21
 70
     1
102
RTVSPropertyOp22
 70
     1
102
RTVSPropertyOp23
 70
     1
102
RTVSPropertyOp24
 70
     1
102
RTVSPropertyOp25
 70
     1
102
RTVSPropertyOp26
 70
     1
102
RTVSPropertyOp27
 70
     1
102
RTVSPropertyOp28
 70
     1
102
RTVSPropertyOp29
 70
     1
102
RTVSPropertyOp30
 70
     1
102
RTVSPropertyOp31
 70
     1
102
RTVSPropertyOp32
 70
     1
  0
XRECORD
  5
8B05
102
{ACAD_REACTORS
330
8B04
102
}
330
8B04
100
AcDbXrecord
280
     1
102
RTVSPropertyOp0
 70
     1
102
RTVSPropertyOp1
 70
     1
102
RTVSPropertyOp2
 70
     1
102
RTVSPropertyOp3
 70
     1
102
RTVSPropertyOp4
 70
     1
102
RTVSPropertyOp5
 70
     1
102
RTVSPropertyOp6
 70
     1
102
RTVSPropertyOp7
 70
     1
102
RTVSPropertyOp8
 70
     1
102
RTVSPropertyOp9
 70
     1
102
RTVSPropertyOp10
 70
     1
102
RTVSPropertyOp11
 70
     1
102
RTVSPropertyOp12
 70
     1
102
RTVSPropertyOp13
 70
     1
102
RTVSPropertyOp14
 70
     1
102
RTVSPropertyOp15
 70
     1
102
RTVSPropertyOp16
 70
     1
102
RTVSPropertyOp17
 70
     1
102
RTVSPropertyOp18
 70
     1
102
RTVSPropertyOp19
 70
     1
102
RTVSPropertyOp20
 70
     1
102
RTVSPropertyOp21
 70
     1
102
RTVSPropertyOp22
 70
     1
102
RTVSPropertyOp23
 70
     1
102
RTVSPropertyOp24
 70
     1
102
RTVSPropertyOp25
 70
     1
102
RTVSPropertyOp26
 70
     1
102
RTVSPropertyOp27
 70
     1
102
RTVSPropertyOp28
 70
     1
102
RTVSPropertyOp29
 70
     1
102
RTVSPropertyOp30
 70
     1
102
RTVSPropertyOp31
 70
     1
102
RTVSPropertyOp32
 70
     1
  0
XRECORD
  5
8B21
102
{ACAD_REACTORS
330
8B20
102
}
330
8B20
100
AcDbXrecord
280
     1
102
RTVSPropertyOp0
 70
     0
102
RTVSPropertyOp1
 70
     0
102
RTVSPropertyOp2
 70
     0
102
RTVSPropertyOp3
 70
     0
102
RTVSPropertyOp4
 70
     0
102
RTVSPropertyOp5
 70
     0
102
RTVSPropertyOp6
 70
     0
102
RTVSPropertyOp7
 70
     0
102
RTVSPropertyOp8
 70
     0
102
RTVSPropertyOp9
 70
     0
102
RTVSPropertyOp10
 70
     0
102
RTVSPropertyOp11
 70
     0
102
RTVSPropertyOp12
 70
     0
102
RTVSPropertyOp13
 70
     0
102
RTVSPropertyOp14
 70
     2
102
RTVSPropertyOp15
 70
     0
102
RTVSPropertyOp16
 70
     0
102
RTVSPropertyOp17
 70
     0
102
RTVSPropertyOp18
 70
     0
102
RTVSPropertyOp19
 70
     0
102
RTVSPropertyOp20
 70
     0
102
RTVSPropertyOp21
 70
     0
102
RTVSPropertyOp22
 70
     0
102
RTVSPropertyOp23
 70
     0
102
RTVSPropertyOp24
 70
     0
102
RTVSPropertyOp25
 70
     0
102
RTVSPropertyOp26
 70
     0
102
RTVSPropertyOp27
 70
     0
102
RTVSPropertyOp28
 70
     1
102
RTVSPropertyOp29
 70
     1
102
RTVSPropertyOp30
 70
     1
102
RTVSPropertyOp31
 70
     1
102
RTVSPropertyOp32
 70
     1
  0
XRECORD
  5
8B11
102
{ACAD_REACTORS
330
8B10
102
}
330
8B10
100
AcDbXrecord
280
     1
102
RTVSPropertyOp0
 70
     1
102
RTVSPropertyOp1
 70
     1
102
RTVSPropertyOp2
 70
     1
102
RTVSPropertyOp3
 70
     1
102
RTVSPropertyOp4
 70
     1
102
RTVSPropertyOp5
 70
     1
102
RTVSPropertyOp6
 70
     1
102
RTVSPropertyOp7
 70
     1
102
RTVSPropertyOp8
 70
     1
102
RTVSPropertyOp9
 70
     1
102
RTVSPropertyOp10
 70
     1
102
RTVSPropertyOp11
 70
     1
102
RTVSPropertyOp12
 70
     1
102
RTVSPropertyOp13
 70
     1
102
RTVSPropertyOp14
 70
     1
102
RTVSPropertyOp15
 70
     1
102
RTVSPropertyOp16
 70
     1
102
RTVSPropertyOp17
 70
     1
102
RTVSPropertyOp18
 70
     1
102
RTVSPropertyOp19
 70
     1
102
RTVSPropertyOp20
 70
     1
102
RTVSPropertyOp21
 70
     1
102
RTVSPropertyOp22
 70
     1
102
RTVSPropertyOp23
 70
     1
102
RTVSPropertyOp24
 70
     1
102
RTVSPropertyOp25
 70
     1
102
RTVSPropertyOp26
 70
     1
102
RTVSPropertyOp27
 70
     1
102
RTVSPropertyOp28
 70
     1
102
RTVSPropertyOp29
 70
     1
102
RTVSPropertyOp30
 70
     1
102
RTVSPropertyOp31
 70
     1
102
RTVSPropertyOp32
 70
     1
  0
XRECORD
  5
8B23
102
{ACAD_REACTORS
330
8B22
102
}
330
8B22
100
AcDbXrecord
280
     1
102
RTVSPropertyOp0
 70
     0
102
RTVSPropertyOp1
 70
     0
102
RTVSPropertyOp2
 70
     0
102
RTVSPropertyOp3
 70
     0
102
RTVSPropertyOp4
 70
     0
102
RTVSPropertyOp5
 70
     0
102
RTVSPropertyOp6
 70
     0
102
RTVSPropertyOp7
 70
     0
102
RTVSPropertyOp8
 70
     0
102
RTVSPropertyOp9
 70
     0
102
RTVSPropertyOp10
 70
     0
102
RTVSPropertyOp11
 70
     0
102
RTVSPropertyOp12
 70
     0
102
RTVSPropertyOp13
 70
     0
102
RTVSPropertyOp14
 70
     2
102
RTVSPropertyOp15
 70
     0
102
RTVSPropertyOp16
 70
     0
102
RTVSPropertyOp17
 70
     0
102
RTVSPropertyOp18
 70
     0
102
RTVSPropertyOp19
 70
     0
102
RTVSPropertyOp20
 70
     0
102
RTVSPropertyOp21
 70
     0
102
RTVSPropertyOp22
 70
     0
102
RTVSPropertyOp23
 70
     0
102
RTVSPropertyOp24
 70
     0
102
RTVSPropertyOp25
 70
     0
102
RTVSPropertyOp26
 70
     0
102
RTVSPropertyOp27
 70
     0
102
RTVSPropertyOp28
 70
     1
102
RTVSPropertyOp29
 70
     1
102
RTVSPropertyOp30
 70
     1
102
RTVSPropertyOp31
 70
     1
102
RTVSPropertyOp32
 70
     1
  0
XRECORD
  5
8B09
102
{ACAD_REACTORS
330
8B08
102
}
330
8B08
100
AcDbXrecord
280
     1
102
RTVSPropertyOp0
 70
     1
102
RTVSPropertyOp1
 70
     1
102
RTVSPropertyOp2
 70
     1
102
RTVSPropertyOp3
 70
     1
102
RTVSPropertyOp4
 70
     1
102
RTVSPropertyOp5
 70
     1
102
RTVSPropertyOp6
 70
     1
102
RTVSPropertyOp7
 70
     1
102
RTVSPropertyOp8
 70
     1
102
RTVSPropertyOp9
 70
     1
102
RTVSPropertyOp10
 70
     1
102
RTVSPropertyOp11
 70
     1
102
RTVSPropertyOp12
 70
     1
102
RTVSPropertyOp13
 70
     1
102
RTVSPropertyOp14
 70
     1
102
RTVSPropertyOp15
 70
     1
102
RTVSPropertyOp16
 70
     1
102
RTVSPropertyOp17
 70
     1
102
RTVSPropertyOp18
 70
     1
102
RTVSPropertyOp19
 70
     1
102
RTVSPropertyOp20
 70
     1
102
RTVSPropertyOp21
 70
     1
102
RTVSPropertyOp22
 70
     1
102
RTVSPropertyOp23
 70
     1
102
RTVSPropertyOp24
 70
     1
102
RTVSPropertyOp25
 70
     1
102
RTVSPropertyOp26
 70
     1
102
RTVSPropertyOp27
 70
     1
102
RTVSPropertyOp28
 70
     1
102
RTVSPropertyOp29
 70
     1
102
RTVSPropertyOp30
 70
     1
102
RTVSPropertyOp31
 70
     1
102
RTVSPropertyOp32
 70
     1
  0
XRECORD
  5
8B1F
102
{ACAD_REACTORS
330
8B1E
102
}
330
8B1E
100
AcDbXrecord
280
     1
102
RTVSPropertyOp0
 70
     1
102
RTVSPropertyOp1
 70
     1
102
RTVSPropertyOp2
 70
     1
102
RTVSPropertyOp3
 70
     1
102
RTVSPropertyOp4
 70
     1
102
RTVSPropertyOp5
 70
     1
102
RTVSPropertyOp6
 70
     1
102
RTVSPropertyOp7
 70
     1
102
RTVSPropertyOp8
 70
     1
102
RTVSPropertyOp9
 70
     1
102
RTVSPropertyOp10
 70
     1
102
RTVSPropertyOp11
 70
     1
102
RTVSPropertyOp12
 70
     1
102
RTVSPropertyOp13
 70
     1
102
RTVSPropertyOp14
 70
     1
102
RTVSPropertyOp15
 70
     1
102
RTVSPropertyOp16
 70
     1
102
RTVSPropertyOp17
 70
     1
102
RTVSPropertyOp18
 70
     1
102
RTVSPropertyOp19
 70
     1
102
RTVSPropertyOp20
 70
     1
102
RTVSPropertyOp21
 70
     1
102
RTVSPropertyOp22
 70
     1
102
RTVSPropertyOp23
 70
     1
102
RTVSPropertyOp24
 70
     1
102
RTVSPropertyOp25
 70
     1
102
RTVSPropertyOp26
 70
     1
102
RTVSPropertyOp27
 70
     1
102
RTVSPropertyOp28
 70
     1
102
RTVSPropertyOp29
 70
     1
102
RTVSPropertyOp30
 70
     1
102
RTVSPropertyOp31
 70
     1
102
RTVSPropertyOp32
 70
     1
  0
XRECORD
  5
8B1D
102
{ACAD_REACTORS
330
8B1C
102
}
330
8B1C
100
AcDbXrecord
280
     1
102
RTVSPropertyOp0
 70
     1
102
RTVSPropertyOp1
 70
     1
102
RTVSPropertyOp2
 70
     1
102
RTVSPropertyOp3
 70
     1
102
RTVSPropertyOp4
 70
     1
102
RTVSPropertyOp5
 70
     1
102
RTVSPropertyOp6
 70
     1
102
RTVSPropertyOp7
 70
     1
102
RTVSPropertyOp8
 70
     1
102
RTVSPropertyOp9
 70
     1
102
RTVSPropertyOp10
 70
     1
102
RTVSPropertyOp11
 70
     1
102
RTVSPropertyOp12
 70
     1
102
RTVSPropertyOp13
 70
     1
102
RTVSPropertyOp14
 70
     1
102
RTVSPropertyOp15
 70
     1
102
RTVSPropertyOp16
 70
     1
102
RTVSPropertyOp17
 70
     1
102
RTVSPropertyOp18
 70
     1
102
RTVSPropertyOp19
 70
     1
102
RTVSPropertyOp20
 70
     1
102
RTVSPropertyOp21
 70
     1
102
RTVSPropertyOp22
 70
     1
102
RTVSPropertyOp23
 70
     1
102
RTVSPropertyOp24
 70
     1
102
RTVSPropertyOp25
 70
     1
102
RTVSPropertyOp26
 70
     1
102
RTVSPropertyOp27
 70
     1
102
RTVSPropertyOp28
 70
     1
102
RTVSPropertyOp29
 70
     1
102
RTVSPropertyOp30
 70
     1
102
RTVSPropertyOp31
 70
     1
102
RTVSPropertyOp32
 70
     1
  0
XRECORD
  5
8B17
102
{ACAD_REACTORS
330
8B16
102
}
330
8B16
100
AcDbXrecord
280
     1
102
RTVSPropertyOp0
 70
     1
102
RTVSPropertyOp1
 70
     1
102
RTVSPropertyOp2
 70
     1
102
RTVSPropertyOp3
 70
     1
102
RTVSPropertyOp4
 70
     1
102
RTVSPropertyOp5
 70
     1
102
RTVSPropertyOp6
 70
     1
102
RTVSPropertyOp7
 70
     1
102
RTVSPropertyOp8
 70
     1
102
RTVSPropertyOp9
 70
     1
102
RTVSPropertyOp10
 70
     1
102
RTVSPropertyOp11
 70
     1
102
RTVSPropertyOp12
 70
     1
102
RTVSPropertyOp13
 70
     1
102
RTVSPropertyOp14
 70
     1
102
RTVSPropertyOp15
 70
     1
102
RTVSPropertyOp16
 70
     1
102
RTVSPropertyOp17
 70
     1
102
RTVSPropertyOp18
 70
     1
102
RTVSPropertyOp19
 70
     1
102
RTVSPropertyOp20
 70
     1
102
RTVSPropertyOp21
 70
     1
102
RTVSPropertyOp22
 70
     1
102
RTVSPropertyOp23
 70
     1
102
RTVSPropertyOp24
 70
     1
102
RTVSPropertyOp25
 70
     1
102
RTVSPropertyOp26
 70
     1
102
RTVSPropertyOp27
 70
     1
102
RTVSPropertyOp28
 70
     1
102
RTVSPropertyOp29
 70
     1
102
RTVSPropertyOp30
 70
     1
102
RTVSPropertyOp31
 70
     1
102
RTVSPropertyOp32
 70
     1
  0
XRECORD
  5
8B19
102
{ACAD_REACTORS
330
8B18
102
}
330
8B18
100
AcDbXrecord
280
     1
102
RTVSPropertyOp0
 70
     1
102
RTVSPropertyOp1
 70
     1
102
RTVSPropertyOp2
 70
     1
102
RTVSPropertyOp3
 70
     1
102
RTVSPropertyOp4
 70
     1
102
RTVSPropertyOp5
 70
     1
102
RTVSPropertyOp6
 70
     1
102
RTVSPropertyOp7
 70
     1
102
RTVSPropertyOp8
 70
     1
102
RTVSPropertyOp9
 70
     1
102
RTVSPropertyOp10
 70
     1
102
RTVSPropertyOp11
 70
     1
102
RTVSPropertyOp12
 70
     1
102
RTVSPropertyOp13
 70
     1
102
RTVSPropertyOp14
 70
     1
102
RTVSPropertyOp15
 70
     1
102
RTVSPropertyOp16
 70
     1
102
RTVSPropertyOp17
 70
     1
102
RTVSPropertyOp18
 70
     1
102
RTVSPropertyOp19
 70
     1
102
RTVSPropertyOp20
 70
     1
102
RTVSPropertyOp21
 70
     1
102
RTVSPropertyOp22
 70
     1
102
RTVSPropertyOp23
 70
     1
102
RTVSPropertyOp24
 70
     1
102
RTVSPropertyOp25
 70
     1
102
RTVSPropertyOp26
 70
     1
102
RTVSPropertyOp27
 70
     1
102
RTVSPropertyOp28
 70
     1
102
RTVSPropertyOp29
 70
     1
102
RTVSPropertyOp30
 70
     1
102
RTVSPropertyOp31
 70
     1
102
RTVSPropertyOp32
 70
     1
  0
XRECORD
  5
8B0F
102
{ACAD_REACTORS
330
8B0E
102
}
330
8B0E
100
AcDbXrecord
280
     1
102
RTVSPropertyOp0
 70
     1
102
RTVSPropertyOp1
 70
     1
102
RTVSPropertyOp2
 70
     1
102
RTVSPropertyOp3
 70
     1
102
RTVSPropertyOp4
 70
     1
102
RTVSPropertyOp5
 70
     1
102
RTVSPropertyOp6
 70
     1
102
RTVSPropertyOp7
 70
     1
102
RTVSPropertyOp8
 70
     1
102
RTVSPropertyOp9
 70
     1
102
RTVSPropertyOp10
 70
     1
102
RTVSPropertyOp11
 70
     1
102
RTVSPropertyOp12
 70
     1
102
RTVSPropertyOp13
 70
     1
102
RTVSPropertyOp14
 70
     1
102
RTVSPropertyOp15
 70
     1
102
RTVSPropertyOp16
 70
     1
102
RTVSPropertyOp17
 70
     1
102
RTVSPropertyOp18
 70
     1
102
RTVSPropertyOp19
 70
     1
102
RTVSPropertyOp20
 70
     1
102
RTVSPropertyOp21
 70
     1
102
RTVSPropertyOp22
 70
     1
102
RTVSPropertyOp23
 70
     1
102
RTVSPropertyOp24
 70
     1
102
RTVSPropertyOp25
 70
     1
102
RTVSPropertyOp26
 70
     1
102
RTVSPropertyOp27
 70
     1
102
RTVSPropertyOp28
 70
     1
102
RTVSPropertyOp29
 70
     1
102
RTVSPropertyOp30
 70
     1
102
RTVSPropertyOp31
 70
     1
102
RTVSPropertyOp32
 70
     1
  0
XRECORD
  5
8B03
102
{ACAD_REACTORS
330
8B02
102
}
330
8B02
100
AcDbXrecord
280
     1
102
RTVSPropertyOp0
 70
     1
102
RTVSPropertyOp1
 70
     1
102
RTVSPropertyOp2
 70
     1
102
RTVSPropertyOp3
 70
     1
102
RTVSPropertyOp4
 70
     1
102
RTVSPropertyOp5
 70
     1
102
RTVSPropertyOp6
 70
     1
102
RTVSPropertyOp7
 70
     1
102
RTVSPropertyOp8
 70
     1
102
RTVSPropertyOp9
 70
     1
102
RTVSPropertyOp10
 70
     1
102
RTVSPropertyOp11
 70
     1
102
RTVSPropertyOp12
 70
     1
102
RTVSPropertyOp13
 70
     1
102
RTVSPropertyOp14
 70
     1
102
RTVSPropertyOp15
 70
     1
102
RTVSPropertyOp16
 70
     1
102
RTVSPropertyOp17
 70
     1
102
RTVSPropertyOp18
 70
     1
102
RTVSPropertyOp19
 70
     1
102
RTVSPropertyOp20
 70
     1
102
RTVSPropertyOp21
 70
     1
102
RTVSPropertyOp22
 70
     1
102
RTVSPropertyOp23
 70
     1
102
RTVSPropertyOp24
 70
     1
102
RTVSPropertyOp25
 70
     1
102
RTVSPropertyOp26
 70
     1
102
RTVSPropertyOp27
 70
     1
102
RTVSPropertyOp28
 70
     1
102
RTVSPropertyOp29
 70
     1
102
RTVSPropertyOp30
 70
     1
102
RTVSPropertyOp31
 70
     1
102
RTVSPropertyOp32
 70
     1
  0
XRECORD
  5
8B1B
102
{ACAD_REACTORS
330
8B1A
102
}
330
8B1A
100
AcDbXrecord
280
     1
102
RTVSPropertyOp0
 70
     1
102
RTVSPropertyOp1
 70
     1
102
RTVSPropertyOp2
 70
     1
102
RTVSPropertyOp3
 70
     1
102
RTVSPropertyOp4
 70
     1
102
RTVSPropertyOp5
 70
     1
102
RTVSPropertyOp6
 70
     1
102
RTVSPropertyOp7
 70
     1
102
RTVSPropertyOp8
 70
     1
102
RTVSPropertyOp9
 70
     1
102
RTVSPropertyOp10
 70
     1
102
RTVSPropertyOp11
 70
     1
102
RTVSPropertyOp12
 70
     1
102
RTVSPropertyOp13
 70
     1
102
RTVSPropertyOp14
 70
     1
102
RTVSPropertyOp15
 70
     1
102
RTVSPropertyOp16
 70
     1
102
RTVSPropertyOp17
 70
     1
102
RTVSPropertyOp18
 70
     1
102
RTVSPropertyOp19
 70
     1
102
RTVSPropertyOp20
 70
     1
102
RTVSPropertyOp21
 70
     1
102
RTVSPropertyOp22
 70
     1
102
RTVSPropertyOp23
 70
     1
102
RTVSPropertyOp24
 70
     1
102
RTVSPropertyOp25
 70
     1
102
RTVSPropertyOp26
 70
     1
102
RTVSPropertyOp27
 70
     1
102
RTVSPropertyOp28
 70
     1
102
RTVSPropertyOp29
 70
     1
102
RTVSPropertyOp30
 70
     1
102
RTVSPropertyOp31
 70
     1
102
RTVSPropertyOp32
 70
     1
  0
ENDSEC
  0
EOF
