  0
SECTION
  2
HEADER
  9
$ACADVER
  1
AC1015
  9
$ACADMAINTVER
 70
    20
  9
$DWGCODEPAGE
  3
ANSI_1252
  9
$INSBASE
 10
0.0
 20
0.0
 30
0.0
  9
$EXTMIN
 10
0.0
 20
0.0
 30
0.0
  9
$EXTMAX
 10
67.85899319401801
 20
42.16016963571056
 30
0.0
  9
$LIMMIN
 10
0.0
 20
0.0
  9
$LIMMAX
 10
12.0
 20
9.0
  9
$ORTHOMODE
 70
     0
  9
$REGENMODE
 70
     1
  9
$FILLMODE
 70
     1
  9
$QTEXTMODE
 70
     0
  9
$MIRRTEXT
 70
     1
  9
$LTSCALE
 40
0.5
  9
$ATTMODE
 70
     1
  9
$TEXTSIZE
 40
0.25
  9
$TRACEWID
 40
0.05
  9
$TEXTSTYLE
  7
STANDARD
  9
$CLAYER
  8
0
  9
$CELTYPE
  6
BYLAYER
  9
$CECOLOR
 62
   256
  9
$CELTSCALE
 40
1.0
  9
$DISPSILH
 70
     0
  9
$DIMSCALE
 40
1.0
  9
$DIMASZ
 40
0.2
  9
$DIMEXO
 40
0.125
  9
$DIMDLI
 40
0.375
  9
$DIMRND
 40
0.0
  9
$DIMDLE
 40
0.0
  9
$DIMEXE
 40
0.125
  9
$DIMTP
 40
0.0
  9
$DIMTM
 40
0.0
  9
$DIMTXT
 40
0.25
  9
$DIMCEN
 40
0.0
  9
$DIMTSZ
 40
0.0
  9
$DIMTOL
 70
     0
  9
$DIMLIM
 70
     0
  9
$DIMTIH
 70
     0
  9
$DIMTOH
 70
     0
  9
$DIMSE1
 70
     0
  9
$DIMSE2
 70
     0
  9
$DIMTAD
 70
     1
  9
$DIMZIN
 70
     3
  9
$DIMBLK
  1

  9
$DIMASO
 70
     1
  9
$DIMSHO
 70
     1
  9
$DIMPOST
  1

  9
$DIMAPOST
  1

  9
$DIMALT
 70
     0
  9
$DIMALTD
 70
     2
  9
$DIMALTF
 40
25.4
  9
$DIMLFAC
 40
1.0
  9
$DIMTOFL
 70
     0
  9
$DIMTVP
 40
0.0
  9
$DIMTIX
 70
     0
  9
$DIMSOXD
 70
     0
  9
$DIMSAH
 70
     0
  9
$DIMBLK1
  1

  9
$DIMBLK2
  1

  9
$DIMSTYLE
  2
STANDARD
  9
$DIMCLRD
 70
     0
  9
$DIMCLRE
 70
     0
  9
$DIMCLRT
 70
     0
  9
$DIMTFAC
 40
1.0
  9
$DIMGAP
 40
0.125
  9
$DIMJUST
 70
     0
  9
$DIMSD1
 70
     0
  9
$DIMSD2
 70
     0
  9
$DIMTOLJ
 70
     1
  9
$DIMTZIN
 70
     3
  9
$DIMALTZ
 70
     3
  9
$DIMALTTZ
 70
     3
  9
$DIMUPT
 70
     0
  9
$DIMDEC
 70
     5
  9
$DIMTDEC
 70
     5
  9
$DIMALTU
 70
     4
  9
$DIMALTTD
 70
     2
  9
$DIMTXSTY
  7
STANDARD
  9
$DIMAUNIT
 70
     0
  9
$DIMADEC
 70
     0
  9
$DIMALTRND
 40
0.0
  9
$DIMAZIN
 70
     0
  9
$DIMDSEP
 70
    46
  9
$DIMATFIT
 70
     0
  9
$DIMFRAC
 70
     2
  9
$DIMLDRBLK
  1

  9
$DIMLUNIT
 70
     4
  9
$DIMLWD
 70
    -2
  9
$DIMLWE
 70
    -2
  9
$DIMTMOVE
 70
     0
  9
$LUNITS
 70
     2
  9
$LUPREC
 70
     5
  9
$SKETCHINC
 40
0.1
  9
$FILLETRAD
 40
0.0
  9
$AUNITS
 70
     0
  9
$AUPREC
 70
     0
  9
$MENU
  1
ACAD
  9
$ELEVATION
 40
0.0
  9
$PELEVATION
 40
0.0
  9
$THICKNESS
 40
0.0
  9
$LIMCHECK
 70
     0
  9
$CHAMFERA
 40
0.0
  9
$CHAMFERB
 40
0.0
  9
$CHAMFERC
 40
0.0
  9
$CHAMFERD
 40
0.0
  9
$SKPOLY
 70
     0
  9
$TDCREATE
 40
2450777.537570949
  9
$TDUCREATE
 40
2450777.745904282
  9
$TDUPDATE
 40
2457807.531145787
  9
$TDUUPDATE
 40
2457807.739479120
  9
$TDINDWG
 40
0.8808861690
  9
$TDUSRTIMER
 40
0.8808861690
  9
$USRTIMER
 70
     1
  9
$ANGBASE
 50
0.0
  9
$ANGDIR
 70
     0
  9
$PDMODE
 70
     0
  9
$PDSIZE
 40
0.0
  9
$PLINEWID
 40
0.0
  9
$SPLFRAME
 70
     0
  9
$SPLINETYPE
 70
     6
  9
$SPLINESEGS
 70
     8
  9
$HANDSEED
  5
9317
  9
$SURFTAB1
 70
     6
  9
$SURFTAB2
 70
     6
  9
$SURFTYPE
 70
     6
  9
$SURFU
 70
     6
  9
$SURFV
 70
     6
  9
$UCSBASE
  2

  9
$UCSNAME
  2

  9
$UCSORG
 10
0.0
 20
0.0
 30
0.0
  9
$UCSXDIR
 10
1.0
 20
0.0
 30
0.0
  9
$UCSYDIR
 10
0.0
 20
1.0
 30
0.0
  9
$UCSORTHOREF
  2

  9
$UCSORTHOVIEW
 70
     0
  9
$UCSORGTOP
 10
0.0
 20
0.0
 30
0.0
  9
$UCSORGBOTTOM
 10
0.0
 20
0.0
 30
0.0
  9
$UCSORGLEFT
 10
0.0
 20
0.0
 30
0.0
  9
$UCSORGRIGHT
 10
0.0
 20
0.0
 30
0.0
  9
$UCSORGFRONT
 10
0.0
 20
0.0
 30
0.0
  9
$UCSORGBACK
 10
0.0
 20
0.0
 30
0.0
  9
$PUCSBASE
  2

  9
$PUCSNAME
  2

  9
$PUCSORG
 10
0.0
 20
0.0
 30
0.0
  9
$PUCSXDIR
 10
1.0
 20
0.0
 30
0.0
  9
$PUCSYDIR
 10
0.0
 20
1.0
 30
0.0
  9
$PUCSORTHOREF
  2

  9
$PUCSORTHOVIEW
 70
     0
  9
$PUCSORGTOP
 10
0.0
 20
0.0
 30
0.0
  9
$PUCSORGBOTTOM
 10
0.0
 20
0.0
 30
0.0
  9
$PUCSORGLEFT
 10
0.0
 20
0.0
 30
0.0
  9
$PUCSORGRIGHT
 10
0.0
 20
0.0
 30
0.0
  9
$PUCSORGFRONT
 10
0.0
 20
0.0
 30
0.0
  9
$PUCSORGBACK
 10
0.0
 20
0.0
 30
0.0
  9
$USERI1
 70
     0
  9
$USERI2
 70
     0
  9
$USERI3
 70
     0
  9
$USERI4
 70
     0
  9
$USERI5
 70
     0
  9
$USERR1
 40
0.0
  9
$USERR2
 40
0.0
  9
$USERR3
 40
0.0
  9
$USERR4
 40
0.0
  9
$USERR5
 40
0.0
  9
$WORLDVIEW
 70
     1
  9
$SHADEDGE
 70
     3
  9
$SHADEDIF
 70
    70
  9
$TILEMODE
 70
     1
  9
$MAXACTVP
 70
    16
  9
$PINSBASE
 10
0.0
 20
0.0
 30
0.0
  9
$PLIMCHECK
 70
     0
  9
$PEXTMIN
 10
1.000000000000000E+20
 20
1.000000000000000E+20
 30
1.000000000000000E+20
  9
$PEXTMAX
 10
-1.000000000000000E+20
 20
-1.000000000000000E+20
 30
-1.000000000000000E+20
  9
$PLIMMIN
 10
0.0
 20
0.0
  9
$PLIMMAX
 10
12.0
 20
9.0
  9
$UNITMODE
 70
     0
  9
$VISRETAIN
 70
     0
  9
$PLINEGEN
 70
     0
  9
$PSLTSCALE
 70
     1
  9
$TREEDEPTH
 70
  3020
  9
$CMLSTYLE
  2
STANDARD
  9
$CMLJUST
 70
     0
  9
$CMLSCALE
 40
1.0
  9
$PROXYGRAPHICS
 70
     1
  9
$MEASUREMENT
 70
     0
  9
$CELWEIGHT
370
    -1
  9
$ENDCAPS
280
     0
  9
$JOINSTYLE
280
     0
  9
$LWDISPLAY
290
     0
  9
$INSUNITS
 70
     0
  9
$HYPERLINKBASE
  1

  9
$STYLESHEET
  1
monochrome.ctb
  9
$XEDIT
290
     1
  9
$CEPSNTYPE
380
     0
  9
$PSTYLEMODE
290
     1
  9
$FINGERPRINTGUID
  2
{AFB9463B-F323-4607-850C-DC68DBB64F67}
  9
$VERSIONGUID
  2
{D68A4568-2C6F-4EC0-97A5-CEDD19F605BC}
  9
$EXTNAMES
290
     1
  9
$PSVPSCALE
 40
0.0
  9
$OLESTARTUP
290
     0
  0
ENDSEC
  0
SECTION
  2
CLASSES
  0
CLASS
  1
DICTIONARYVAR
  2
AcDbDictionaryVar
  3
ObjectDBX Classes
 90
        0
280
     0
281
     0
  0
CLASS
  1
ACDBDICTIONARYWDFLT
  2
AcDbDictionaryWithDefault
  3
ObjectDBX Classes
 90
        0
280
     0
281
     0
  0
CLASS
  1
ACDBPLACEHOLDER
  2
AcDbPlaceHolder
  3
ObjectDBX Classes
 90
        0
280
     0
281
     0
  0
CLASS
  1
LAYOUT
  2
AcDbLayout
  3
ObjectDBX Classes
 90
        0
280
     0
281
     0
  0
CLASS
  1
MATERIAL
  2
AcDbMaterial
  3
ObjectDBX Classes
 90
     1153
280
     0
281
     0
  0
CLASS
  1
VISUALSTYLE
  2
AcDbVisualStyle
  3
ObjectDBX Classes
 90
     4095
280
     0
281
     0
  0
CLASS
  1
TABLESTYLE
  2
AcDbTableStyle
  3
ObjectDBX Classes
 90
     4095
280
     0
281
     0
  0
CLASS
  1
SCALE
  2
AcDbScale
  3
ObjectDBX Classes
 90
     1153
280
     0
281
     0
  0
CLASS
  1
MLEADERSTYLE
  2
AcDbMLeaderStyle
  3
ACDB_MLEADERSTYLE_CLASS
 90
     4095
280
     0
281
     0
  0
CLASS
  1
SORTENTSTABLE
  2
AcDbSortentsTable
  3
ObjectDBX Classes
 90
        0
280
     0
281
     0
  0
CLASS
  1
CELLSTYLEMAP
  2
AcDbCellStyleMap
  3
ObjectDBX Classes
 90
     1152
280
     0
281
     0
  0
CLASS
  1
EXACXREFPANELOBJECT
  2
ExAcXREFPanelObject
  3
EXAC_ESW
 90
     1025
280
     0
281
     0
  0
CLASS
  1
NPOCOLLECTION
  2
AcDbImpNonPersistentObjectsCollection
  3
ObjectDBX Classes
 90
     1153
280
     0
281
     0
  0
CLASS
  1
FIELD
  2
AcDbField
  3
ObjectDBX Classes
 90
    33920
280
     0
281
     0
  0
CLASS
  1
FIELDLIST
  2
AcDbFieldList
  3
ObjectDBX Classes
 90
     1152
280
     0
281
     0
  0
ENDSEC
  0
SECTION
  2
TABLES
  0
TABLE
  2
VPORT
  5
8
102
{ACAD_XDICTIONARY
360
8C6E
102
}
330
0
100
AcDbSymbolTable
 70
     1
  0
VPORT
  5
8BB8
330
8
100
AcDbSymbolTableRecord
100
AcDbViewportTableRecord
  2
*Active
 70
     0
 10
0.0
 20
0.0
 11
1.0
 21
1.0
 12
47.16062708353883
 22
21.08008501418487
 13
0.0
 23
0.0
 14
1.0
 24
1.0
 15
0.0
 25
0.0
 16
0.0
 26
0.0
 36
1.0
 17
0.0
 27
0.0
 37
0.0
 40
42.52270361529894
 41
2.681260945709281
 42
50.0
 43
0.0
 44
0.0
 50
0.0
 51
0.0
 71
     0
 72
  2000
 73
     1
 74
     0
 75
     0
 76
     0
 77
     0
 78
     0
281
     0
 65
     1
110
0.0
120
0.0
130
0.0
111
1.0
121
0.0
131
0.0
112
0.0
122
1.0
132
0.0
 79
     0
146
0.0
1001
ACAD_NAV_VCDISPLAY
1070
     3
  0
ENDTAB
  0
TABLE
  2
LTYPE
  5
5
330
0
100
AcDbSymbolTable
 70
     5
  0
LTYPE
  5
11
330
5
100
AcDbSymbolTableRecord
100
AcDbLinetypeTableRecord
  2
BYBLOCK
 70
     0
  3

 72
    65
 73
     0
 40
0.0
  0
LTYPE
  5
12
330
5
100
AcDbSymbolTableRecord
100
AcDbLinetypeTableRecord
  2
BYLAYER
 70
     0
  3

 72
    65
 73
     0
 40
0.0
  0
LTYPE
  5
13
330
5
100
AcDbSymbolTableRecord
100
AcDbLinetypeTableRecord
  2
CONTINUOUS
 70
     0
  3
Solid line
 72
    65
 73
     0
 40
0.0
  0
LTYPE
  5
659A
330
5
100
AcDbSymbolTableRecord
100
AcDbLinetypeTableRecord
  2
CENTER
 70
     0
  3
____ _ ____ _ ____ _ ____ _ ____ _ ____ _ ____ 
 72
    65
 73
     4
 40
2.0
 49
1.25
 74
     0
 49
-0.25
 74
     0
 49
0.25
 74
     0
 49
-0.25
 74
     0
  0
LTYPE
  5
823F
330
5
100
AcDbSymbolTableRecord
100
AcDbLinetypeTableRecord
  2
HIDDEN
 70
     0
  3
DASHED LINE
 72
    65
 73
     2
 40
0.375
 49
0.25
 74
     0
 49
-0.125
 74
     0
  0
LTYPE
  5
9226
330
5
100
AcDbSymbolTableRecord
100
AcDbLinetypeTableRecord
  2
DASHED
 70
     0
  3
Dashed __ __ __ __ __ __ __ __ __ __ __ __ __ _
 72
    65
 73
     2
 40
0.75
 49
0.5
 74
     0
 49
-0.25
 74
     0
  0
LTYPE
  5
9227
330
5
100
AcDbSymbolTableRecord
100
AcDbLinetypeTableRecord
  2
DOT
 70
     0
  3
Dot . . . . . . . . . . . . . . . . . . . . . .
 72
    65
 73
     2
 40
0.25
 49
0.0
 74
     0
 49
-0.25
 74
     0
  0
ENDTAB
  0
TABLE
  2
LAYER
  5
2
102
{ACAD_XDICTIONARY
360
8C4D
102
}
330
0
100
AcDbSymbolTable
 70
     9
  0
LAYER
  5
E
102
{ACAD_XDICTIONARY
360
8C5D
102
}
330
2
100
AcDbSymbolTableRecord
100
AcDbLayerTableRecord
  2
0
 70
     0
 62
     7
  6
CONTINUOUS
370
    -3
390
485B
  0
LAYER
  5
65A3
102
{ACAD_XDICTIONARY
360
8C5F
102
}
330
2
100
AcDbSymbolTableRecord
100
AcDbLayerTableRecord
  2
R-SWTS-DET1
 70
     0
 62
     1
  6
CONTINUOUS
370
    -3
390
485B
  0
LAYER
  5
65A4
102
{ACAD_XDICTIONARY
360
8C61
102
}
330
2
100
AcDbSymbolTableRecord
100
AcDbLayerTableRecord
  2
PART_NUMBERS
 70
     0
 62
     6
  6
CONTINUOUS
370
    -3
390
485B
  0
LAYER
  5
65A5
102
{ACAD_XDICTIONARY
360
8C63
102
}
330
2
100
AcDbSymbolTableRecord
100
AcDbLayerTableRecord
  2
R-ANNO-DIMS
 70
     0
 62
     3
  6
CONTINUOUS
370
    -3
390
485B
  0
LAYER
  5
65A6
102
{ACAD_XDICTIONARY
360
8C65
102
}
330
2
100
AcDbSymbolTableRecord
100
AcDbLayerTableRecord
  2
R-SWTS-DET2
 70
     0
 62
     4
  6
CONTINUOUS
370
    -3
390
485B
  0
LAYER
  5
65A7
102
{ACAD_XDICTIONARY
360
8C67
102
}
330
2
100
AcDbSymbolTableRecord
100
AcDbLayerTableRecord
  2
R-SWTS-DET3
 70
     0
 62
     5
  6
CONTINUOUS
370
    -3
390
485B
  0
LAYER
  5
6BFE
330
2
100
AcDbSymbolTableRecord
100
AcDbLayerTableRecord
  2
DEFPOINTS
 70
     0
 62
     7
  6
CONTINUOUS
290
     0
370
    -3
390
485B
  0
LAYER
  5
8CC7
102
{ACAD_XDICTIONARY
360
8CC8
102
}
330
2
100
AcDbSymbolTableRecord
100
AcDbLayerTableRecord
  2
TEXT
 70
     0
 62
     3
  6
CONTINUOUS
370
    -3
390
485B
  0
LAYER
  5
9228
330
2
100
AcDbSymbolTableRecord
100
AcDbLayerTableRecord
  2
Kawneer Logo-English
 70
     0
 62
     7
  6
CONTINUOUS
370
    -3
390
485B
1001
AcAecLayerStandard
1000

1000

1001
AcCmTransparency
1071
        0
  0
ENDTAB
  0
TABLE
  2
STYLE
  5
3
330
0
100
AcDbSymbolTable
 70
     1
  0
STYLE
  5
F
330
3
100
AcDbSymbolTableRecord
100
AcDbTextStyleTableRecord
  2
STANDARD
 70
     0
 40
0.0
 41
1.0
 50
0.0
 71
     0
 42
0.25
  3
arial.ttf
  4

1001
ACAD
1000
Arial
1071
       34
  0
ENDTAB
  0
TABLE
  2
VIEW
  5
6
330
0
100
AcDbSymbolTable
 70
     0
  0
ENDTAB
  0
TABLE
  2
UCS
  5
7
330
0
100
AcDbSymbolTable
 70
     0
  0
ENDTAB
  0
TABLE
  2
APPID
  5
9
330
0
100
AcDbSymbolTable
 70
    16
  0
APPID
  5
10
330
9
100
AcDbSymbolTableRecord
100
AcDbRegAppTableRecord
  2
ACAD
 70
     0
  0
APPID
  5
4AF6
330
9
100
AcDbSymbolTableRecord
100
AcDbRegAppTableRecord
  2
MCAD_NO_VIS
 70
     0
  0
APPID
  5
8CCB
330
9
100
AcDbSymbolTableRecord
100
AcDbRegAppTableRecord
  2
ACAD_NAV_VCDISPLAY
 70
     0
  0
APPID
  5
9229
330
9
100
AcDbSymbolTableRecord
100
AcDbRegAppTableRecord
  2
ACAD_EXEMPT_FROM_CAD_STANDARDS
 70
     0
  0
APPID
  5
922A
330
9
100
AcDbSymbolTableRecord
100
AcDbRegAppTableRecord
  2
GradientColor1ACI
 70
     0
  0
APPID
  5
922B
330
9
100
AcDbSymbolTableRecord
100
AcDbRegAppTableRecord
  2
GradientColor2ACI
 70
     0
  0
APPID
  5
922C
330
9
100
AcDbSymbolTableRecord
100
AcDbRegAppTableRecord
  2
ACAD_MLEADERVER
 70
     0
  0
APPID
  5
922D
330
9
100
AcDbSymbolTableRecord
100
AcDbRegAppTableRecord
  2
ACAD_PSEXT
 70
     0
  0
APPID
  5
922E
330
9
100
AcDbSymbolTableRecord
100
AcDbRegAppTableRecord
  2
ACAD_DSTYLE_DIMJAG
 70
     0
  0
APPID
  5
922F
330
9
100
AcDbSymbolTableRecord
100
AcDbRegAppTableRecord
  2
ACAD_DSTYLE_DIMTALN
 70
     0
  0
APPID
  5
9230
330
9
100
AcDbSymbolTableRecord
100
AcDbRegAppTableRecord
  2
ACAD_DSTYLE_DIMBREAK
 70
     0
  0
APPID
  5
9231
330
9
100
AcDbSymbolTableRecord
100
AcDbRegAppTableRecord
  2
AcDbDynamicBlockGUID
 70
     0
  0
APPID
  5
9232
330
9
100
AcDbSymbolTableRecord
100
AcDbRegAppTableRecord
  2
ACAUTHENVIRON
 70
     0
  0
APPID
  5
9233
330
9
100
AcDbSymbolTableRecord
100
AcDbRegAppTableRecord
  2
AcDbDynamicBlockTrueName
 70
     0
  0
APPID
  5
9234
330
9
100
AcDbSymbolTableRecord
100
AcDbRegAppTableRecord
  2
AcAecLayerStandard
 70
     0
  0
APPID
  5
9235
330
9
100
AcDbSymbolTableRecord
100
AcDbRegAppTableRecord
  2
AcCmTransparency
 70
     0
  0
ENDTAB
  0
TABLE
  2
DIMSTYLE
  5
A
330
0
100
AcDbSymbolTable
 70
     2
100
AcDbDimStyleTable
 71
     1
340
26C
  0
DIMSTYLE
105
26C
330
A
100
AcDbSymbolTableRecord
100
AcDbDimStyleTableRecord
  2
STANDARD
 70
     0
340
F
  0
DIMSTYLE
105
6C04
102
{ACAD_REACTORS
330
7840
330
7842
330
7843
330
7844
330
7846
330
8396
330
839A
330
83A0
330
8325
330
8327
330
8329
330
832A
330
832B
330
832C
330
832D
330
8330
330
8331
330
8348
330
834D
330
834E
330
836F
330
8370
330
8371
330
8372
330
8373
330
8374
330
837C
102
}
330
A
100
AcDbSymbolTableRecord
100
AcDbDimStyleTableRecord
  2
SHOP_DETAILS_NORCROSS
 70
     0
  3
"
 41
0.2
 42
0.125
 43
0.375
 44
0.125
 73
     0
 74
     0
 76
     1
 77
     1
 78
     1
140
0.25
141
0.0
147
0.062
176
   256
177
   256
178
   256
276
     2
277
     5
284
     1
340
F
  0
ENDTAB
  0
TABLE
  2
BLOCK_RECORD
  5
1
330
0
100
AcDbSymbolTable
 70
    28
  0
BLOCK_RECORD
  5
17
102
{ACAD_XDICTIONARY
360
4A11
102
}
330
1
100
AcDbSymbolTableRecord
100
AcDbBlockTableRecord
  2
*MODEL_SPACE
340
485E
  0
BLOCK_RECORD
  5
14
102
{ACAD_XDICTIONARY
360
4A0F
102
}
330
1
100
AcDbSymbolTableRecord
100
AcDbBlockTableRecord
  2
*PAPER_SPACE
340
485F
  0
BLOCK_RECORD
  5
796B
330
1
100
AcDbSymbolTableRecord
100
AcDbBlockTableRecord
  2
*D0
340
0
  0
BLOCK_RECORD
  5
7977
330
1
100
AcDbSymbolTableRecord
100
AcDbBlockTableRecord
  2
*D1
340
0
  0
BLOCK_RECORD
  5
7982
330
1
100
AcDbSymbolTableRecord
100
AcDbBlockTableRecord
  2
*D2
340
0
  0
BLOCK_RECORD
  5
798D
330
1
100
AcDbSymbolTableRecord
100
AcDbBlockTableRecord
  2
*D3
340
0
  0
BLOCK_RECORD
  5
7998
330
1
100
AcDbSymbolTableRecord
100
AcDbBlockTableRecord
  2
*D4
340
0
  0
BLOCK_RECORD
  5
83DD
330
1
100
AcDbSymbolTableRecord
100
AcDbBlockTableRecord
  2
*D5
340
0
  0
BLOCK_RECORD
  5
83E8
330
1
100
AcDbSymbolTableRecord
100
AcDbBlockTableRecord
  2
*D6
340
0
  0
BLOCK_RECORD
  5
83F3
330
1
100
AcDbSymbolTableRecord
100
AcDbBlockTableRecord
  2
*D7
340
0
  0
BLOCK_RECORD
  5
8436
330
1
100
AcDbSymbolTableRecord
100
AcDbBlockTableRecord
  2
*D8
340
0
  0
BLOCK_RECORD
  5
8442
330
1
100
AcDbSymbolTableRecord
100
AcDbBlockTableRecord
  2
*D9
340
0
  0
BLOCK_RECORD
  5
844E
330
1
100
AcDbSymbolTableRecord
100
AcDbBlockTableRecord
  2
*D10
340
0
  0
BLOCK_RECORD
  5
8459
330
1
100
AcDbSymbolTableRecord
100
AcDbBlockTableRecord
  2
*D11
340
0
  0
BLOCK_RECORD
  5
8464
330
1
100
AcDbSymbolTableRecord
100
AcDbBlockTableRecord
  2
*D12
340
0
  0
BLOCK_RECORD
  5
846F
330
1
100
AcDbSymbolTableRecord
100
AcDbBlockTableRecord
  2
*D13
340
0
  0
BLOCK_RECORD
  5
847A
330
1
100
AcDbSymbolTableRecord
100
AcDbBlockTableRecord
  2
*D14
340
0
  0
BLOCK_RECORD
  5
8485
330
1
100
AcDbSymbolTableRecord
100
AcDbBlockTableRecord
  2
*D15
340
0
  0
BLOCK_RECORD
  5
8491
330
1
100
AcDbSymbolTableRecord
100
AcDbBlockTableRecord
  2
*D16
340
0
  0
BLOCK_RECORD
  5
849D
330
1
100
AcDbSymbolTableRecord
100
AcDbBlockTableRecord
  2
*D17
340
0
  0
BLOCK_RECORD
  5
84A8
330
1
100
AcDbSymbolTableRecord
100
AcDbBlockTableRecord
  2
*D18
340
0
  0
BLOCK_RECORD
  5
84B3
330
1
100
AcDbSymbolTableRecord
100
AcDbBlockTableRecord
  2
*D19
340
0
  0
BLOCK_RECORD
  5
84D6
330
1
100
AcDbSymbolTableRecord
100
AcDbBlockTableRecord
  2
*D20
340
0
  0
BLOCK_RECORD
  5
84E1
330
1
100
AcDbSymbolTableRecord
100
AcDbBlockTableRecord
  2
*D21
340
0
  0
BLOCK_RECORD
  5
84EC
330
1
100
AcDbSymbolTableRecord
100
AcDbBlockTableRecord
  2
*D22
340
0
  0
BLOCK_RECORD
  5
84F7
330
1
100
AcDbSymbolTableRecord
100
AcDbBlockTableRecord
  2
*D23
340
0
  0
BLOCK_RECORD
  5
8502
330
1
100
AcDbSymbolTableRecord
100
AcDbBlockTableRecord
  2
*D24
340
0
  0
BLOCK_RECORD
  5
850E
330
1
100
AcDbSymbolTableRecord
100
AcDbBlockTableRecord
  2
*D25
340
0
  0
BLOCK_RECORD
  5
851A
330
1
100
AcDbSymbolTableRecord
100
AcDbBlockTableRecord
  2
*D26
340
0
  0
BLOCK_RECORD
  5
9238
102
{ACAD_XDICTIONARY
360
9242
102
}
330
1
100
AcDbSymbolTableRecord
100
AcDbBlockTableRecord
  2
Kawneer Logo English
340
0
102
{BLKREFS
331
9246
102
}
1001
ACAD
1000
DesignCenter Data
1002
{
1070
     1
1070
     1
1002
}
  0
ENDTAB
  0
ENDSEC
  0
SECTION
  2
BLOCKS
  0
BLOCK
  5
3C
330
17
100
AcDbEntity
  8
0
100
AcDbBlockBegin
  2
*MODEL_SPACE
 70
     0
 10
0.0
 20
0.0
 30
0.0
  3
*MODEL_SPACE
  1

  0
ENDBLK
  5
3D
330
17
100
AcDbEntity
  8
0
100
AcDbBlockEnd
  0
BLOCK
  5
3A
330
14
100
AcDbEntity
 67
     1
  8
0
100
AcDbBlockBegin
  2
*PAPER_SPACE
 70
     0
 10
0.0
 20
0.0
 30
0.0
  3
*PAPER_SPACE
  1

  0
ENDBLK
  5
3B
330
14
100
AcDbEntity
 67
     1
  8
0
100
AcDbBlockEnd
  0
BLOCK
  5
7975
330
796B
100
AcDbEntity
  8
0
100
AcDbBlockBegin
  2
*D0
 70
     1
 10
0.0
 20
0.0
 30
0.0
  3
*D0
  1

  0
LINE
  5
8B7E
330
796B
100
AcDbEntity
  8
R-ANNO-DIMS
370
    -2
100
AcDbLine
 10
39.55977008409225
 20
10.11424171759275
 30
0.0
 11
39.55977008409225
 21
7.934693542319593
 31
0.0
  0
LINE
  5
8B7F
330
796B
100
AcDbEntity
  8
R-ANNO-DIMS
370
    -2
100
AcDbLine
 10
39.75977008409225
 20
8.059693542319593
 30
0.0
 11
39.95977008409225
 21
8.059693542319593
 31
0.0
  0
LINE
  5
8B80
330
796B
100
AcDbEntity
  8
R-ANNO-DIMS
370
    -2
100
AcDbLine
 10
39.10977008409225
 20
8.059693542319593
 30
0.0
 11
36.36910341742559
 21
8.059693542319593
 31
0.0
  0
SOLID
  5
8B81
330
796B
100
AcDbEntity
  8
R-ANNO-DIMS
100
AcDbTrace
 10
39.75977008409225
 20
8.093026875652926
 30
0.0
 11
39.75977008409225
 21
8.026360208986259
 31
0.0
 12
39.55977008409225
 22
8.059693542319593
 32
0.0
 13
39.55977008409225
 23
8.059693542319593
 33
0.0
  0
SOLID
  5
8B82
330
796B
100
AcDbEntity
  8
R-ANNO-DIMS
100
AcDbTrace
 10
39.10977008409225
 20
8.093026875652926
 30
0.0
 11
39.10977008409225
 21
8.026360208986259
 31
0.0
 12
39.30977008409225
 22
8.059693542319593
 32
0.0
 13
39.30977008409225
 23
8.059693542319593
 33
0.0
  0
MTEXT
  5
8B83
330
796B
100
AcDbEntity
  8
R-ANNO-DIMS
100
AcDbMText
 10
37.63943675075892
 20
8.246693542319592
 30
0.0
 40
0.25
 41
0.0
 71
     5
 72
     1
  1
\A1;SHIM SPACE
 73
     1
 44
1.0
1001
ACAD
1000
MTEXTBEGIN
1070
    73
1070
     1
1070
    44
1040
1.0
1070
    74
1070
     0
1000
MTEXTEND
  0
POINT
  5
8B84
330
796B
100
AcDbEntity
  8
DEFPOINTS
 62
     0
100
AcDbPoint
 10
39.55977008409225
 20
10.23924171759275
 30
0.0
  0
POINT
  5
8B85
330
796B
100
AcDbEntity
  8
DEFPOINTS
 62
     0
100
AcDbPoint
 10
39.30977008409225
 20
9.86862921247183
 30
0.0
  0
POINT
  5
8B86
330
796B
100
AcDbEntity
  8
DEFPOINTS
 62
     0
100
AcDbPoint
 10
39.30977008409225
 20
8.059693542319593
 30
0.0
  0
ENDBLK
  5
7976
330
796B
100
AcDbEntity
  8
0
100
AcDbBlockEnd
  0
BLOCK
  5
7980
330
7977
100
AcDbEntity
  8
0
100
AcDbBlockBegin
  2
*D1
 70
     1
 10
0.0
 20
0.0
 30
0.0
  3
*D1
  1

  0
LINE
  5
7D56
330
7977
100
AcDbEntity
  8
R-ANNO-DIMS
370
    -2
100
AcDbLine
 10
39.30977008409225
 20
9.74362921247183
 30
0.0
 11
39.30977008409225
 21
7.372193542319593
 31
0.0
  0
LINE
  5
7D57
330
7977
100
AcDbEntity
  8
R-ANNO-DIMS
370
    -2
100
AcDbLine
 10
39.50977008409225
 20
7.497193542319593
 30
0.0
 11
43.3604104792716
 21
7.497193542319593
 31
0.0
  0
SOLID
  5
7D58
330
7977
100
AcDbEntity
  8
R-ANNO-DIMS
100
AcDbTrace
 10
39.50977008409225
 20
7.530526875652926
 30
0.0
 11
39.50977008409225
 21
7.463860208986259
 31
0.0
 12
39.30977008409225
 22
7.497193542319593
 32
0.0
 13
39.30977008409225
 23
7.497193542319593
 33
0.0
  0
SOLID
  5
7D59
330
7977
100
AcDbEntity
  8
R-ANNO-DIMS
100
AcDbTrace
 10
43.3604104792716
 20
7.530526875652926
 30
0.0
 11
43.3604104792716
 21
7.463860208986259
 31
0.0
 12
43.56041047927161
 22
7.497193542319593
 32
0.0
 13
43.56041047927161
 23
7.497193542319593
 33
0.0
  0
MTEXT
  5
7D5A
330
7977
100
AcDbEntity
  8
R-ANNO-DIMS
100
AcDbMText
 10
41.43509028168192
 20
7.684193542319593
 30
0.0
 40
0.25
 41
0.0
 71
     5
 72
     1
  1
\A1;OD  
 73
     1
 44
1.0
1001
ACAD
1000
MTEXTBEGIN
1070
    73
1070
     1
1070
    44
1040
1.0
1070
    74
1070
     0
1000
MTEXTEND
  0
POINT
  5
7D5B
330
7977
100
AcDbEntity
  8
DEFPOINTS
 62
     0
100
AcDbPoint
 10
39.30977008409225
 20
9.86862921247183
 30
0.0
  0
POINT
  5
7D5C
330
7977
100
AcDbEntity
  8
DEFPOINTS
 62
     0
100
AcDbPoint
 10
43.56041047927161
 20
10.11424171759272
 30
0.0
  0
POINT
  5
7D5D
330
7977
100
AcDbEntity
  8
DEFPOINTS
 62
     0
100
AcDbPoint
 10
43.56041047927161
 20
7.497193542319593
 30
0.0
  0
ENDBLK
  5
7981
330
7977
100
AcDbEntity
  8
0
100
AcDbBlockEnd
  0
BLOCK
  5
798B
330
7982
100
AcDbEntity
  8
0
100
AcDbBlockBegin
  2
*D2
 70
     1
 10
0.0
 20
0.0
 30
0.0
  3
*D2
  1

  0
LINE
  5
7D6F
330
7982
100
AcDbEntity
  8
R-ANNO-DIMS
370
    -2
100
AcDbLine
 10
39.55977008409225
 20
10.11424171759275
 30
0.0
 11
39.55977008409225
 21
7.934693542319593
 31
0.0
  0
LINE
  5
7D70
330
7982
100
AcDbEntity
  8
R-ANNO-DIMS
370
    -2
100
AcDbLine
 10
39.75977008409225
 20
8.059693542319593
 30
0.0
 11
43.3604104792716
 21
8.059693542319593
 31
0.0
  0
SOLID
  5
7D71
330
7982
100
AcDbEntity
  8
R-ANNO-DIMS
100
AcDbTrace
 10
39.75977008409225
 20
8.093026875652926
 30
0.0
 11
39.75977008409225
 21
8.026360208986259
 31
0.0
 12
39.55977008409225
 22
8.059693542319593
 32
0.0
 13
39.55977008409225
 23
8.059693542319593
 33
0.0
  0
SOLID
  5
7D72
330
7982
100
AcDbEntity
  8
R-ANNO-DIMS
100
AcDbTrace
 10
43.3604104792716
 20
8.093026875652926
 30
0.0
 11
43.3604104792716
 21
8.026360208986259
 31
0.0
 12
43.56041047927161
 22
8.059693542319593
 32
0.0
 13
43.56041047927161
 23
8.059693542319593
 33
0.0
  0
MTEXT
  5
7D73
330
7982
100
AcDbEntity
  8
R-ANNO-DIMS
100
AcDbMText
 10
41.56009028168193
 20
8.246693542319592
 30
0.0
 40
0.25
 41
0.0
 71
     5
 72
     1
  1
\A1;FW  
 73
     1
 44
1.0
1001
ACAD
1000
MTEXTBEGIN
1070
    73
1070
     1
1070
    44
1040
1.0
1070
    74
1070
     0
1000
MTEXTEND
  0
POINT
  5
7D74
330
7982
100
AcDbEntity
  8
DEFPOINTS
 62
     0
100
AcDbPoint
 10
39.55977008409225
 20
10.23924171759275
 30
0.0
  0
POINT
  5
7D75
330
7982
100
AcDbEntity
  8
DEFPOINTS
 62
     0
100
AcDbPoint
 10
43.56041047927161
 20
10.11424171759272
 30
0.0
  0
POINT
  5
7D76
330
7982
100
AcDbEntity
  8
DEFPOINTS
 62
     0
100
AcDbPoint
 10
43.56041047927161
 20
8.059693542319593
 30
0.0
  0
ENDBLK
  5
798C
330
7982
100
AcDbEntity
  8
0
100
AcDbBlockEnd
  0
BLOCK
  5
7996
330
798D
100
AcDbEntity
  8
0
100
AcDbBlockBegin
  2
*D3
 70
     1
 10
0.0
 20
0.0
 30
0.0
  3
*D3
  1

  0
LINE
  5
7D67
330
798D
100
AcDbEntity
  8
R-ANNO-DIMS
370
    -2
100
AcDbLine
 10
41.55977008409226
 20
10.11424171759275
 30
0.0
 11
41.55977008409226
 21
8.497193542319593
 31
0.0
  0
LINE
  5
7D68
330
798D
100
AcDbEntity
  8
R-ANNO-DIMS
370
    -2
100
AcDbLine
 10
41.75977008409226
 20
8.622193542319593
 30
0.0
 11
43.35977008409225
 21
8.622193542319593
 31
0.0
  0
SOLID
  5
7D69
330
798D
100
AcDbEntity
  8
R-ANNO-DIMS
100
AcDbTrace
 10
41.75977008409226
 20
8.655526875652926
 30
0.0
 11
41.75977008409226
 21
8.588860208986259
 31
0.0
 12
41.55977008409226
 22
8.622193542319593
 32
0.0
 13
41.55977008409226
 23
8.622193542319593
 33
0.0
  0
SOLID
  5
7D6A
330
798D
100
AcDbEntity
  8
R-ANNO-DIMS
100
AcDbTrace
 10
43.35977008409225
 20
8.655526875652926
 30
0.0
 11
43.35977008409225
 21
8.588860208986259
 31
0.0
 12
43.55977008409226
 22
8.622193542319593
 32
0.0
 13
43.55977008409226
 23
8.622193542319593
 33
0.0
  0
MTEXT
  5
7D6B
330
798D
100
AcDbEntity
  8
R-ANNO-DIMS
100
AcDbMText
 10
42.55977008409226
 20
8.809193542319592
 30
0.0
 40
0.25
 41
0.0
 71
     5
 72
     1
  1
\A1;DLO
 73
     1
 44
1.0
1001
ACAD
1000
MTEXTBEGIN
1070
    73
1070
     1
1070
    44
1040
1.0
1070
    74
1070
     0
1000
MTEXTEND
  0
POINT
  5
7D6C
330
798D
100
AcDbEntity
  8
DEFPOINTS
 62
     0
100
AcDbPoint
 10
41.55977008409226
 20
10.23924171759275
 30
0.0
  0
POINT
  5
7D6D
330
798D
100
AcDbEntity
  8
DEFPOINTS
 62
     0
100
AcDbPoint
 10
43.55977008409226
 20
9.866080224717464
 30
0.0
  0
POINT
  5
7D6E
330
798D
100
AcDbEntity
  8
DEFPOINTS
 62
     0
100
AcDbPoint
 10
43.55977008409226
 20
8.622193542319593
 30
0.0
  0
ENDBLK
  5
7997
330
798D
100
AcDbEntity
  8
0
100
AcDbBlockEnd
  0
BLOCK
  5
79A1
330
7998
100
AcDbEntity
  8
0
100
AcDbBlockBegin
  2
*D4
 70
     1
 10
0.0
 20
0.0
 30
0.0
  3
*D4
  1

  0
LINE
  5
7D77
330
7998
100
AcDbEntity
  8
R-ANNO-DIMS
370
    -2
100
AcDbLine
 10
39.55977008409225
 20
10.11424171759275
 30
0.0
 11
39.55977008409225
 21
8.497193542319593
 31
0.0
  0
LINE
  5
7D78
330
7998
100
AcDbEntity
  8
R-ANNO-DIMS
370
    -2
100
AcDbLine
 10
39.75977008409225
 20
8.622193542319593
 30
0.0
 11
41.35977008409226
 21
8.622193542319593
 31
0.0
  0
SOLID
  5
7D79
330
7998
100
AcDbEntity
  8
R-ANNO-DIMS
100
AcDbTrace
 10
39.75977008409225
 20
8.655526875652926
 30
0.0
 11
39.75977008409225
 21
8.588860208986259
 31
0.0
 12
39.55977008409225
 22
8.622193542319593
 32
0.0
 13
39.55977008409225
 23
8.622193542319593
 33
0.0
  0
SOLID
  5
7D7A
330
7998
100
AcDbEntity
  8
R-ANNO-DIMS
100
AcDbTrace
 10
41.35977008409226
 20
8.655526875652926
 30
0.0
 11
41.35977008409226
 21
8.588860208986259
 31
0.0
 12
41.55977008409226
 22
8.622193542319593
 32
0.0
 13
41.55977008409226
 23
8.622193542319593
 33
0.0
  0
MTEXT
  5
7D7B
330
7998
100
AcDbEntity
  8
R-ANNO-DIMS
100
AcDbMText
 10
40.55977008409225
 20
8.809193542319592
 30
0.0
 40
0.25
 41
0.0
 71
     5
 72
     1
  1
\A1;2"
 73
     1
 44
1.0
1001
ACAD
1000
MTEXTBEGIN
1070
    73
1070
     1
1070
    44
1040
1.0
1070
    74
1070
     0
1000
MTEXTEND
  0
POINT
  5
7D7C
330
7998
100
AcDbEntity
  8
DEFPOINTS
 62
     0
100
AcDbPoint
 10
39.55977008409225
 20
10.23924171759275
 30
0.0
  0
POINT
  5
7D7D
330
7998
100
AcDbEntity
  8
DEFPOINTS
 62
     0
100
AcDbPoint
 10
41.55977008409226
 20
10.23924171759275
 30
0.0
  0
POINT
  5
7D7E
330
7998
100
AcDbEntity
  8
DEFPOINTS
 62
     0
100
AcDbPoint
 10
41.55977008409226
 20
8.622193542319593
 30
0.0
  0
ENDBLK
  5
79A2
330
7998
100
AcDbEntity
  8
0
100
AcDbBlockEnd
  0
BLOCK
  5
83E6
330
83DD
100
AcDbEntity
  8
0
100
AcDbBlockBegin
  2
*D5
 70
     1
 10
0.0
 20
0.0
 30
0.0
  3
*D5
  1

  0
LINE
  5
8755
330
83DD
100
AcDbEntity
  8
R-ANNO-DIMS
370
    -2
100
AcDbLine
 10
49.76396899186499
 20
10.11424171759275
 30
0.0
 11
49.76396899186499
 21
8.527241717592751
 31
0.0
  0
LINE
  5
8756
330
83DD
100
AcDbEntity
  8
R-ANNO-DIMS
370
    -2
100
AcDbLine
 10
49.56396899186499
 20
8.652241717592751
 30
0.0
 11
47.95749608456595
 21
8.652241717592751
 31
0.0
  0
SOLID
  5
8757
330
83DD
100
AcDbEntity
  8
R-ANNO-DIMS
100
AcDbTrace
 10
49.56396899186499
 20
8.685575050926084
 30
0.0
 11
49.56396899186499
 21
8.618908384259418
 31
0.0
 12
49.76396899186499
 22
8.652241717592751
 32
0.0
 13
49.76396899186499
 23
8.652241717592751
 33
0.0
  0
SOLID
  5
8758
330
83DD
100
AcDbEntity
  8
R-ANNO-DIMS
100
AcDbTrace
 10
47.95749608456595
 20
8.685575050926084
 30
0.0
 11
47.95749608456595
 21
8.618908384259418
 31
0.0
 12
47.75749608456595
 22
8.652241717592751
 32
0.0
 13
47.75749608456595
 23
8.652241717592751
 33
0.0
  0
MTEXT
  5
8759
330
83DD
100
AcDbEntity
  8
R-ANNO-DIMS
100
AcDbMText
 10
48.76073253821547
 20
8.83924171759275
 30
0.0
 40
0.25
 41
0.0
 71
     5
 72
     1
  1
\A1;DLO
 73
     1
 44
1.0
1001
ACAD
1000
MTEXTBEGIN
1070
    73
1070
     1
1070
    44
1040
1.0
1070
    74
1070
     0
1000
MTEXTEND
  0
POINT
  5
875A
330
83DD
100
AcDbEntity
  8
DEFPOINTS
 62
     0
100
AcDbPoint
 10
49.76396899186499
 20
10.23924171759275
 30
0.0
  0
POINT
  5
875B
330
83DD
100
AcDbEntity
  8
DEFPOINTS
 62
     0
100
AcDbPoint
 10
47.75749608456595
 20
9.991080224717485
 30
0.0
  0
POINT
  5
875C
330
83DD
100
AcDbEntity
  8
DEFPOINTS
 62
     0
100
AcDbPoint
 10
47.75749608456595
 20
8.652241717592751
 30
0.0
  0
ENDBLK
  5
83E7
330
83DD
100
AcDbEntity
  8
0
100
AcDbBlockEnd
  0
BLOCK
  5
83F1
330
83E8
100
AcDbEntity
  8
0
100
AcDbBlockBegin
  2
*D6
 70
     1
 10
0.0
 20
0.0
 30
0.0
  3
*D6
  1

  0
LINE
  5
874D
330
83E8
100
AcDbEntity
  8
R-ANNO-DIMS
370
    -2
100
AcDbLine
 10
51.76401699186499
 20
10.11424171759275
 30
0.0
 11
51.76401699186499
 21
8.527241717592751
 31
0.0
  0
LINE
  5
874E
330
83E8
100
AcDbEntity
  8
R-ANNO-DIMS
370
    -2
100
AcDbLine
 10
51.96401699186498
 20
8.652241717592751
 30
0.0
 11
53.570441899164
 21
8.652241717592751
 31
0.0
  0
SOLID
  5
874F
330
83E8
100
AcDbEntity
  8
R-ANNO-DIMS
100
AcDbTrace
 10
51.96401699186498
 20
8.685575050926084
 30
0.0
 11
51.96401699186498
 21
8.618908384259418
 31
0.0
 12
51.76401699186499
 22
8.652241717592751
 32
0.0
 13
51.76401699186499
 23
8.652241717592751
 33
0.0
  0
SOLID
  5
8750
330
83E8
100
AcDbEntity
  8
R-ANNO-DIMS
100
AcDbTrace
 10
53.570441899164
 20
8.685575050926084
 30
0.0
 11
53.570441899164
 21
8.618908384259418
 31
0.0
 12
53.770441899164
 22
8.652241717592751
 32
0.0
 13
53.770441899164
 23
8.652241717592751
 33
0.0
  0
MTEXT
  5
8751
330
83E8
100
AcDbEntity
  8
R-ANNO-DIMS
100
AcDbMText
 10
52.76722944551449
 20
8.83924171759275
 30
0.0
 40
0.25
 41
0.0
 71
     5
 72
     1
  1
\A1;DLO
 73
     1
 44
1.0
1001
ACAD
1000
MTEXTBEGIN
1070
    73
1070
     1
1070
    44
1040
1.0
1070
    74
1070
     0
1000
MTEXTEND
  0
POINT
  5
8752
330
83E8
100
AcDbEntity
  8
DEFPOINTS
 62
     0
100
AcDbPoint
 10
51.76401699186499
 20
10.23924171759275
 30
0.0
  0
POINT
  5
8753
330
83E8
100
AcDbEntity
  8
DEFPOINTS
 62
     0
100
AcDbPoint
 10
53.770441899164
 20
9.991080224717485
 30
0.0
  0
POINT
  5
8754
330
83E8
100
AcDbEntity
  8
DEFPOINTS
 62
     0
100
AcDbPoint
 10
53.770441899164
 20
8.652241717592751
 30
0.0
  0
ENDBLK
  5
83F2
330
83E8
100
AcDbEntity
  8
0
100
AcDbBlockEnd
  0
BLOCK
  5
83FC
330
83F3
100
AcDbEntity
  8
0
100
AcDbBlockBegin
  2
*D7
 70
     1
 10
0.0
 20
0.0
 30
0.0
  3
*D7
  1

  0
LINE
  5
875D
330
83F3
100
AcDbEntity
  8
R-ANNO-DIMS
370
    -2
100
AcDbLine
 10
49.76392099186497
 20
10.11424171759275
 30
0.0
 11
49.76392099186497
 21
8.527241717592751
 31
0.0
  0
LINE
  5
875E
330
83F3
100
AcDbEntity
  8
R-ANNO-DIMS
370
    -2
100
AcDbLine
 10
49.96392099186497
 20
8.652241717592751
 30
0.0
 11
51.56401699186498
 21
8.652241717592751
 31
0.0
  0
SOLID
  5
875F
330
83F3
100
AcDbEntity
  8
R-ANNO-DIMS
100
AcDbTrace
 10
49.96392099186497
 20
8.685575050926084
 30
0.0
 11
49.96392099186497
 21
8.618908384259418
 31
0.0
 12
49.76392099186497
 22
8.652241717592751
 32
0.0
 13
49.76392099186497
 23
8.652241717592751
 33
0.0
  0
SOLID
  5
8760
330
83F3
100
AcDbEntity
  8
R-ANNO-DIMS
100
AcDbTrace
 10
51.56401699186498
 20
8.685575050926084
 30
0.0
 11
51.56401699186498
 21
8.618908384259418
 31
0.0
 12
51.76401699186499
 22
8.652241717592751
 32
0.0
 13
51.76401699186499
 23
8.652241717592751
 33
0.0
  0
MTEXT
  5
8761
330
83F3
100
AcDbEntity
  8
R-ANNO-DIMS
100
AcDbMText
 10
50.76396899186498
 20
8.83924171759275
 30
0.0
 40
0.25
 41
0.0
 71
     5
 72
     1
  1
\A1;2"
 73
     1
 44
1.0
1001
ACAD
1000
MTEXTBEGIN
1070
    73
1070
     1
1070
    44
1040
1.0
1070
    74
1070
     0
1000
MTEXTEND
  0
POINT
  5
8762
330
83F3
100
AcDbEntity
  8
DEFPOINTS
 62
     0
100
AcDbPoint
 10
49.76392099186497
 20
10.23924171759275
 30
0.0
  0
POINT
  5
8763
330
83F3
100
AcDbEntity
  8
DEFPOINTS
 62
     0
100
AcDbPoint
 10
51.76401699186499
 20
10.23924171759275
 30
0.0
  0
POINT
  5
8764
330
83F3
100
AcDbEntity
  8
DEFPOINTS
 62
     0
100
AcDbPoint
 10
51.76401699186499
 20
8.652241717592751
 30
0.0
  0
ENDBLK
  5
83FD
330
83F3
100
AcDbEntity
  8
0
100
AcDbBlockEnd
  0
BLOCK
  5
8440
330
8436
100
AcDbEntity
  8
0
100
AcDbBlockBegin
  2
*D8
 70
     1
 10
0.0
 20
0.0
 30
0.0
  3
*D8
  1

  0
LINE
  5
89B2
330
8436
100
AcDbEntity
  8
R-ANNO-DIMS
370
    -2
100
AcDbLine
 10
11.24106453573068
 20
30.82116138220888
 30
0.0
 11
11.24106453573068
 21
29.99389500491668
 31
0.0
  0
LINE
  5
89B3
330
8436
100
AcDbEntity
  8
R-ANNO-DIMS
370
    -2
100
AcDbLine
 10
13.24631227000185
 20
30.82109176470157
 30
0.0
 11
13.24631227000185
 21
29.99389500491668
 31
0.0
  0
LINE
  5
89B4
330
8436
100
AcDbEntity
  8
R-ANNO-DIMS
370
    -2
100
AcDbLine
 10
11.44106453573068
 20
30.11889500491668
 30
0.0
 11
13.04631227000185
 21
30.11889500491668
 31
0.0
  0
SOLID
  5
89B5
330
8436
100
AcDbEntity
  8
R-ANNO-DIMS
100
AcDbTrace
 10
11.44106453573068
 20
30.15222833825002
 30
0.0
 11
11.44106453573068
 21
30.08556167158335
 31
0.0
 12
11.24106453573068
 22
30.11889500491668
 32
0.0
 13
11.24106453573068
 23
30.11889500491668
 33
0.0
  0
SOLID
  5
89B6
330
8436
100
AcDbEntity
  8
R-ANNO-DIMS
100
AcDbTrace
 10
13.04631227000185
 20
30.15222833825002
 30
0.0
 11
13.04631227000185
 21
30.08556167158335
 31
0.0
 12
13.24631227000185
 22
30.11889500491668
 32
0.0
 13
13.24631227000185
 23
30.11889500491668
 33
0.0
  0
MTEXT
  5
89B7
330
8436
100
AcDbEntity
  8
R-ANNO-DIMS
100
AcDbMText
 10
12.24368840286627
 20
30.30589500491668
 30
0.0
 40
0.25
 41
0.0
 71
     5
 72
     1
  1
\A1;2"
 73
     1
 44
1.0
1001
ACAD
1000
MTEXTBEGIN
1070
    73
1070
     1
1070
    44
1040
1.0
1070
    74
1070
     0
1000
MTEXTEND
  0
POINT
  5
89B8
330
8436
100
AcDbEntity
  8
DEFPOINTS
 62
     0
100
AcDbPoint
 10
11.24106453573068
 20
30.94616138220888
 30
0.0
  0
POINT
  5
89B9
330
8436
100
AcDbEntity
  8
DEFPOINTS
 62
     0
100
AcDbPoint
 10
13.24631227000185
 20
30.94609176470157
 30
0.0
  0
POINT
  5
89BA
330
8436
100
AcDbEntity
  8
DEFPOINTS
 62
     0
100
AcDbPoint
 10
13.24631227000185
 20
30.11889500491668
 30
0.0
  0
ENDBLK
  5
8441
330
8436
100
AcDbEntity
  8
0
100
AcDbBlockEnd
  0
BLOCK
  5
844C
330
8442
100
AcDbEntity
  8
0
100
AcDbBlockBegin
  2
*D9
 70
     1
 10
0.0
 20
0.0
 30
0.0
  3
*D9
  1

  0
LINE
  5
89A9
330
8442
100
AcDbEntity
  8
R-ANNO-DIMS
370
    -2
100
AcDbLine
 10
13.3713145130772
 20
32.83216138221269
 30
0.0
 11
13.3713145130772
 21
29.31118328140428
 31
0.0
  0
LINE
  5
89AA
330
8442
100
AcDbEntity
  8
R-ANNO-DIMS
370
    -2
100
AcDbLine
 10
11.12131451307713
 20
32.8321613822127
 30
0.0
 11
11.12131451307713
 21
29.31118328140428
 31
0.0
  0
LINE
  5
89AB
330
8442
100
AcDbEntity
  8
R-ANNO-DIMS
370
    -2
100
AcDbLine
 10
13.1713145130772
 20
29.43618328140428
 30
0.0
 11
11.32131451307713
 21
29.43618328140428
 31
0.0
  0
SOLID
  5
89AC
330
8442
100
AcDbEntity
  8
R-ANNO-DIMS
100
AcDbTrace
 10
13.1713145130772
 20
29.46951661473762
 30
0.0
 11
13.1713145130772
 21
29.40284994807095
 31
0.0
 12
13.3713145130772
 22
29.43618328140428
 32
0.0
 13
13.3713145130772
 23
29.43618328140428
 33
0.0
  0
SOLID
  5
89AD
330
8442
100
AcDbEntity
  8
R-ANNO-DIMS
100
AcDbTrace
 10
11.32131451307713
 20
29.46951661473762
 30
0.0
 11
11.32131451307713
 21
29.40284994807095
 31
0.0
 12
11.12131451307713
 22
29.43618328140428
 32
0.0
 13
11.12131451307713
 23
29.43618328140428
 33
0.0
  0
MTEXT
  5
89AE
330
8442
100
AcDbEntity
  8
R-ANNO-DIMS
100
AcDbMText
 10
12.24631451307717
 20
29.62318328140428
 30
0.0
 40
0.25
 41
0.0
 71
     5
 72
     1
  1
\A1;2 1/4"
 73
     1
 44
1.0
1001
ACAD
1000
MTEXTBEGIN
1070
    73
1070
     1
1070
    44
1040
1.0
1070
    74
1070
     0
1000
MTEXTEND
  0
POINT
  5
89AF
330
8442
100
AcDbEntity
  8
DEFPOINTS
 62
     0
100
AcDbPoint
 10
13.3713145130772
 20
32.95716138221269
 30
0.0
  0
POINT
  5
89B0
330
8442
100
AcDbEntity
  8
DEFPOINTS
 62
     0
100
AcDbPoint
 10
11.12131451307713
 20
32.9571613822127
 30
0.0
  0
POINT
  5
89B1
330
8442
100
AcDbEntity
  8
DEFPOINTS
 62
     0
100
AcDbPoint
 10
11.12131451307713
 20
29.43618328140428
 30
0.0
  0
ENDBLK
  5
844D
330
8442
100
AcDbEntity
  8
0
100
AcDbBlockEnd
  0
BLOCK
  5
8457
330
844E
100
AcDbEntity
  8
0
100
AcDbBlockBegin
  2
*D10
 70
     1
 10
0.0
 20
0.0
 30
0.0
  3
*D10
  1

  0
LINE
  5
89CD
330
844E
100
AcDbEntity
  8
R-ANNO-DIMS
370
    -2
100
AcDbLine
 10
10.99631451307713
 20
34.94616138220891
 30
0.0
 11
9.368894513077085
 21
34.94616138220891
 31
0.0
  0
LINE
  5
89CE
330
844E
100
AcDbEntity
  8
R-ANNO-DIMS
370
    -2
100
AcDbLine
 10
9.493894513077085
 20
34.7461613822089
 30
0.0
 11
9.493894513077085
 21
33.14716138221271
 31
0.0
  0
SOLID
  5
89CF
330
844E
100
AcDbEntity
  8
R-ANNO-DIMS
100
AcDbTrace
 10
9.460561179743752
 20
34.7461613822089
 30
0.0
 11
9.527227846410418
 21
34.7461613822089
 31
0.0
 12
9.493894513077085
 22
34.94616138220891
 32
0.0
 13
9.493894513077085
 23
34.94616138220891
 33
0.0
  0
SOLID
  5
89D0
330
844E
100
AcDbEntity
  8
R-ANNO-DIMS
100
AcDbTrace
 10
9.460561179743752
 20
33.14716138221271
 30
0.0
 11
9.527227846410418
 21
33.14716138221271
 31
0.0
 12
9.493894513077085
 22
32.94716138221271
 32
0.0
 13
9.493894513077085
 23
32.94716138221271
 33
0.0
  0
MTEXT
  5
89D1
330
844E
100
AcDbEntity
  8
R-ANNO-DIMS
100
AcDbMText
 10
9.306894513077081
 20
33.84511841724417
 30
0.0
 40
0.25
 41
0.0
 71
     5
 72
     1
  1
\A1;2"
 11
0.0000000000000001
 21
1.0
 31
0.0
 73
     1
 44
1.0
1001
ACAD
1000
MTEXTBEGIN
1070
    73
1070
     1
1070
    44
1040
1.0
1070
    74
1070
     0
1000
MTEXTEND
  0
POINT
  5
89D2
330
844E
100
AcDbEntity
  8
DEFPOINTS
 62
     0
100
AcDbPoint
 10
11.12131451307713
 20
34.94616138220891
 30
0.0
  0
POINT
  5
89D3
330
844E
100
AcDbEntity
  8
DEFPOINTS
 62
     0
100
AcDbPoint
 10
11.13131451307711
 20
32.94716138221271
 30
0.0
  0
POINT
  5
89D4
330
844E
100
AcDbEntity
  8
DEFPOINTS
 62
     0
100
AcDbPoint
 10
9.493894513077085
 20
32.94716138221271
 30
0.0
  0
ENDBLK
  5
8458
330
844E
100
AcDbEntity
  8
0
100
AcDbBlockEnd
  0
BLOCK
  5
8462
330
8459
100
AcDbEntity
  8
0
100
AcDbBlockBegin
  2
*D11
 70
     1
 10
0.0
 20
0.0
 30
0.0
  3
*D11
  1

  0
LINE
  5
89A1
330
8459
100
AcDbEntity
  8
R-ANNO-DIMS
370
    -2
100
AcDbLine
 10
9.36889451307708
 20
34.50866138220884
 30
0.0
 11
8.74389451307708
 21
34.50866138220884
 31
0.0
  0
LINE
  5
89A2
330
8459
100
AcDbEntity
  8
R-ANNO-DIMS
370
    -2
100
AcDbLine
 10
8.86889451307708
 20
34.30866138220884
 30
0.0
 11
8.86889451307708
 21
31.14616138220888
 31
0.0
  0
SOLID
  5
89A3
330
8459
100
AcDbEntity
  8
R-ANNO-DIMS
100
AcDbTrace
 10
8.835561179743747
 20
34.30866138220884
 30
0.0
 11
8.902227846410413
 21
34.30866138220884
 31
0.0
 12
8.86889451307708
 22
34.50866138220884
 32
0.0
 13
8.86889451307708
 23
34.50866138220884
 33
0.0
  0
SOLID
  5
89A4
330
8459
100
AcDbEntity
  8
R-ANNO-DIMS
100
AcDbTrace
 10
8.835561179743747
 20
31.14616138220888
 30
0.0
 11
8.902227846410413
 21
31.14616138220888
 31
0.0
 12
8.86889451307708
 22
30.94616138220888
 32
0.0
 13
8.86889451307708
 23
30.94616138220888
 33
0.0
  0
MTEXT
  5
89A5
330
8459
100
AcDbEntity
  8
R-ANNO-DIMS
100
AcDbMText
 10
8.681894513077075
 20
32.72741138220886
 30
0.0
 40
0.25
 41
0.0
 71
     5
 72
     1
  1
\A1;MH
 11
0.0000000000000001
 21
1.0
 31
0.0
 73
     1
 44
1.0
1001
ACAD
1000
MTEXTBEGIN
1070
    73
1070
     1
1070
    44
1040
1.0
1070
    74
1070
     0
1000
MTEXTEND
  0
POINT
  5
89A6
330
8459
100
AcDbEntity
  8
DEFPOINTS
 62
     0
100
AcDbPoint
 10
9.49389451307708
 20
34.50866138220884
 30
0.0
  0
POINT
  5
89A7
330
8459
100
AcDbEntity
  8
DEFPOINTS
 62
     0
100
AcDbPoint
 10
10.99690571178792
 20
30.94616138220888
 30
0.0
  0
POINT
  5
89A8
330
8459
100
AcDbEntity
  8
DEFPOINTS
 62
     0
100
AcDbPoint
 10
8.86889451307708
 20
30.94616138220888
 30
0.0
  0
ENDBLK
  5
8463
330
8459
100
AcDbEntity
  8
0
100
AcDbBlockEnd
  0
BLOCK
  5
846D
330
8464
100
AcDbEntity
  8
0
100
AcDbBlockBegin
  2
*D12
 70
     1
 10
0.0
 20
0.0
 30
0.0
  3
*D12
  1

  0
LINE
  5
8999
330
8464
100
AcDbEntity
  8
R-ANNO-DIMS
370
    -2
100
AcDbLine
 10
10.99631451307713
 20
34.9461613822089
 30
0.0
 11
8.11889451307708
 21
34.9461613822089
 31
0.0
  0
LINE
  5
899A
330
8464
100
AcDbEntity
  8
R-ANNO-DIMS
370
    -2
100
AcDbLine
 10
8.24389451307708
 20
34.7461613822089
 30
0.0
 11
8.24389451307708
 21
31.14616138220888
 31
0.0
  0
SOLID
  5
899B
330
8464
100
AcDbEntity
  8
R-ANNO-DIMS
100
AcDbTrace
 10
8.210561179743747
 20
34.7461613822089
 30
0.0
 11
8.277227846410413
 21
34.7461613822089
 31
0.0
 12
8.24389451307708
 22
34.9461613822089
 32
0.0
 13
8.24389451307708
 23
34.9461613822089
 33
0.0
  0
SOLID
  5
899C
330
8464
100
AcDbEntity
  8
R-ANNO-DIMS
100
AcDbTrace
 10
8.210561179743747
 20
31.14616138220888
 30
0.0
 11
8.277227846410413
 21
31.14616138220888
 31
0.0
 12
8.24389451307708
 22
30.94616138220888
 32
0.0
 13
8.24389451307708
 23
30.94616138220888
 33
0.0
  0
MTEXT
  5
899D
330
8464
100
AcDbEntity
  8
R-ANNO-DIMS
100
AcDbMText
 10
8.056894513077075
 20
32.94616138220888
 30
0.0
 40
0.25
 41
0.0
 71
     5
 72
     1
  1
\A1;FH
 11
0.0000000000000001
 21
1.0
 31
0.0
 73
     1
 44
1.0
1001
ACAD
1000
MTEXTBEGIN
1070
    73
1070
     1
1070
    44
1040
1.0
1070
    74
1070
     0
1000
MTEXTEND
  0
POINT
  5
899E
330
8464
100
AcDbEntity
  8
DEFPOINTS
 62
     0
100
AcDbPoint
 10
11.12131451307713
 20
34.9461613822089
 30
0.0
  0
POINT
  5
899F
330
8464
100
AcDbEntity
  8
DEFPOINTS
 62
     0
100
AcDbPoint
 10
10.99690571178792
 20
30.94616138220888
 30
0.0
  0
POINT
  5
89A0
330
8464
100
AcDbEntity
  8
DEFPOINTS
 62
     0
100
AcDbPoint
 10
8.24389451307708
 20
30.94616138220888
 30
0.0
  0
ENDBLK
  5
846E
330
8464
100
AcDbEntity
  8
0
100
AcDbBlockEnd
  0
BLOCK
  5
8478
330
846F
100
AcDbEntity
  8
0
100
AcDbBlockBegin
  2
*D13
 70
     1
 10
0.0
 20
0.0
 30
0.0
  3
*D13
  1

  0
LINE
  5
8B4B
330
846F
100
AcDbEntity
  8
R-ANNO-DIMS
370
    -2
100
AcDbLine
 10
8.550006014212215
 20
35.1961613822089
 30
0.0
 11
7.493894513077081
 21
35.1961613822089
 31
0.0
  0
LINE
  5
8B4C
330
846F
100
AcDbEntity
  8
R-ANNO-DIMS
370
    -2
100
AcDbLine
 10
7.618894513077081
 20
34.9961613822089
 30
0.0
 11
7.61889451307708
 21
31.14616138220888
 31
0.0
  0
SOLID
  5
8B4D
330
846F
100
AcDbEntity
  8
R-ANNO-DIMS
100
AcDbTrace
 10
7.585561179743748
 20
34.9961613822089
 30
0.0
 11
7.652227846410414
 21
34.9961613822089
 31
0.0
 12
7.618894513077081
 22
35.1961613822089
 32
0.0
 13
7.618894513077081
 23
35.1961613822089
 33
0.0
  0
SOLID
  5
8B4E
330
846F
100
AcDbEntity
  8
R-ANNO-DIMS
100
AcDbTrace
 10
7.585561179743747
 20
31.14616138220888
 30
0.0
 11
7.652227846410413
 21
31.14616138220888
 31
0.0
 12
7.61889451307708
 22
30.94616138220888
 32
0.0
 13
7.61889451307708
 23
30.94616138220888
 33
0.0
  0
MTEXT
  5
8B4F
330
846F
100
AcDbEntity
  8
R-ANNO-DIMS
100
AcDbMText
 10
7.431894513077074
 20
33.07116138220889
 30
0.0
 40
0.25
 41
0.0
 71
     5
 72
     1
  1
\A1;OD
 11
0.0000000000000001
 21
1.0
 31
0.0
 73
     1
 44
1.0
1001
ACAD
1000
MTEXTBEGIN
1070
    73
1070
     1
1070
    44
1040
1.0
1070
    74
1070
     0
1000
MTEXTEND
  0
POINT
  5
8B50
330
846F
100
AcDbEntity
  8
DEFPOINTS
 62
     0
100
AcDbPoint
 10
8.675006014212215
 20
35.1961613822089
 30
0.0
  0
POINT
  5
8B51
330
846F
100
AcDbEntity
  8
DEFPOINTS
 62
     0
100
AcDbPoint
 10
10.99690571178792
 20
30.94616138220888
 30
0.0
  0
POINT
  5
8B52
330
846F
100
AcDbEntity
  8
DEFPOINTS
 62
     0
100
AcDbPoint
 10
7.61889451307708
 20
30.94616138220888
 30
0.0
  0
ENDBLK
  5
8479
330
846F
100
AcDbEntity
  8
0
100
AcDbBlockEnd
  0
BLOCK
  5
8483
330
847A
100
AcDbEntity
  8
0
100
AcDbBlockBegin
  2
*D14
 70
     1
 10
0.0
 20
0.0
 30
0.0
  3
*D14
  1

  0
LINE
  5
8989
330
847A
100
AcDbEntity
  8
R-ANNO-DIMS
370
    -2
100
AcDbLine
 10
11.00631451307711
 20
32.94716138221271
 30
0.0
 11
9.36889451307708
 21
32.94716138221271
 31
0.0
  0
LINE
  5
898A
330
847A
100
AcDbEntity
  8
R-ANNO-DIMS
370
    -2
100
AcDbLine
 10
9.49389451307708
 20
32.74716138221271
 30
0.0
 11
9.49389451307708
 21
31.14616138220888
 31
0.0
  0
SOLID
  5
898B
330
847A
100
AcDbEntity
  8
R-ANNO-DIMS
100
AcDbTrace
 10
9.460561179743747
 20
32.74716138221271
 30
0.0
 11
9.527227846410413
 21
32.74716138221271
 31
0.0
 12
9.49389451307708
 22
32.94716138221271
 32
0.0
 13
9.49389451307708
 23
32.94716138221271
 33
0.0
  0
SOLID
  5
898C
330
847A
100
AcDbEntity
  8
R-ANNO-DIMS
100
AcDbTrace
 10
9.460561179743747
 20
31.14616138220888
 30
0.0
 11
9.527227846410413
 21
31.14616138220888
 31
0.0
 12
9.49389451307708
 22
30.94616138220888
 32
0.0
 13
9.49389451307708
 23
30.94616138220888
 33
0.0
  0
MTEXT
  5
898D
330
847A
100
AcDbEntity
  8
R-ANNO-DIMS
100
AcDbMText
 10
9.306894513077075
 20
31.94666138221079
 30
0.0
 40
0.25
 41
0.0
 71
     5
 72
     1
  1
\A1;DLO
 11
0.0000000000000001
 21
1.0
 31
0.0
 73
     1
 44
1.0
1001
ACAD
1000
MTEXTBEGIN
1070
    73
1070
     1
1070
    44
1040
1.0
1070
    74
1070
     0
1000
MTEXTEND
  0
POINT
  5
898E
330
847A
100
AcDbEntity
  8
DEFPOINTS
 62
     0
100
AcDbPoint
 10
11.13131451307711
 20
32.94716138221271
 30
0.0
  0
POINT
  5
898F
330
847A
100
AcDbEntity
  8
DEFPOINTS
 62
     0
100
AcDbPoint
 10
10.99690571178792
 20
30.94616138220888
 30
0.0
  0
POINT
  5
8990
330
847A
100
AcDbEntity
  8
DEFPOINTS
 62
     0
100
AcDbPoint
 10
9.49389451307708
 20
30.94616138220888
 30
0.0
  0
ENDBLK
  5
8484
330
847A
100
AcDbEntity
  8
0
100
AcDbBlockEnd
  0
BLOCK
  5
848F
330
8485
100
AcDbEntity
  8
0
100
AcDbBlockBegin
  2
*D15
 70
     1
 10
0.0
 20
0.0
 30
0.0
  3
*D15
  1

  0
LINE
  5
89C4
330
8485
100
AcDbEntity
  8
R-ANNO-DIMS
370
    -2
100
AcDbLine
 10
9.36889451307708
 20
34.50866138220884
 30
0.0
 11
8.743894513077085
 21
34.50866138220884
 31
0.0
  0
LINE
  5
89C5
330
8485
100
AcDbEntity
  8
R-ANNO-DIMS
370
    -2
100
AcDbLine
 10
8.868894513077085
 20
34.30866138220884
 30
0.0
 11
8.868894513077085
 21
34.10866138220884
 31
0.0
  0
LINE
  5
89C6
330
8485
100
AcDbEntity
  8
R-ANNO-DIMS
370
    -2
100
AcDbLine
 10
8.868894513077085
 20
35.1461613822089
 30
0.0
 11
8.868894513077087
 21
36.55349471554223
 31
0.0
  0
SOLID
  5
89C7
330
8485
100
AcDbEntity
  8
R-ANNO-DIMS
100
AcDbTrace
 10
8.835561179743752
 20
34.30866138220884
 30
0.0
 11
8.902227846410418
 21
34.30866138220884
 31
0.0
 12
8.868894513077085
 22
34.50866138220884
 32
0.0
 13
8.868894513077085
 23
34.50866138220884
 33
0.0
  0
SOLID
  5
89C8
330
8485
100
AcDbEntity
  8
R-ANNO-DIMS
100
AcDbTrace
 10
8.835561179743752
 20
35.1461613822089
 30
0.0
 11
8.902227846410418
 21
35.1461613822089
 31
0.0
 12
8.868894513077085
 22
34.9461613822089
 32
0.0
 13
8.868894513077085
 23
34.9461613822089
 33
0.0
  0
MTEXT
  5
89C9
330
8485
100
AcDbEntity
  8
R-ANNO-DIMS
100
AcDbMText
 10
8.681894513077081
 20
35.94982804887557
 30
0.0
 40
0.25
 41
0.0
 71
     5
 72
     1
  1
\A1;7/16"
 11
0.0000000000000001
 21
1.0
 31
0.0
 73
     1
 44
1.0
1001
ACAD
1000
MTEXTBEGIN
1070
    73
1070
     1
1070
    44
1040
1.0
1070
    74
1070
     0
1000
MTEXTEND
  0
POINT
  5
89CA
330
8485
100
AcDbEntity
  8
DEFPOINTS
 62
     0
100
AcDbPoint
 10
9.49389451307708
 20
34.50866138220884
 30
0.0
  0
POINT
  5
89CB
330
8485
100
AcDbEntity
  8
DEFPOINTS
 62
     0
100
AcDbPoint
 10
11.12131451307713
 20
34.9461613822089
 30
0.0
  0
POINT
  5
89CC
330
8485
100
AcDbEntity
  8
DEFPOINTS
 62
     0
100
AcDbPoint
 10
8.868894513077085
 20
34.9461613822089
 30
0.0
  0
ENDBLK
  5
8490
330
8485
100
AcDbEntity
  8
0
100
AcDbBlockEnd
  0
BLOCK
  5
849B
330
8491
100
AcDbEntity
  8
0
100
AcDbBlockBegin
  2
*D16
 70
     1
 10
0.0
 20
0.0
 30
0.0
  3
*D16
  1

  0
LINE
  5
8B53
330
8491
100
AcDbEntity
  8
R-ANNO-DIMS
370
    -2
100
AcDbLine
 10
10.99631451307713
 20
34.9461613822089
 30
0.0
 11
8.118894513077085
 21
34.9461613822089
 31
0.0
  0
LINE
  5
8B54
330
8491
100
AcDbEntity
  8
R-ANNO-DIMS
370
    -2
100
AcDbLine
 10
8.243894513077085
 20
34.7461613822089
 30
0.0
 11
8.243894513077085
 21
34.5461613822089
 31
0.0
  0
LINE
  5
8B55
330
8491
100
AcDbEntity
  8
R-ANNO-DIMS
370
    -2
100
AcDbLine
 10
8.243894513077085
 20
35.3961613822089
 30
0.0
 11
8.243894513077087
 21
38.13682804887557
 31
0.0
  0
SOLID
  5
8B56
330
8491
100
AcDbEntity
  8
R-ANNO-DIMS
100
AcDbTrace
 10
8.210561179743752
 20
34.7461613822089
 30
0.0
 11
8.277227846410418
 21
34.7461613822089
 31
0.0
 12
8.243894513077085
 22
34.9461613822089
 32
0.0
 13
8.243894513077085
 23
34.9461613822089
 33
0.0
  0
SOLID
  5
8B57
330
8491
100
AcDbEntity
  8
R-ANNO-DIMS
100
AcDbTrace
 10
8.210561179743752
 20
35.3961613822089
 30
0.0
 11
8.277227846410418
 21
35.3961613822089
 31
0.0
 12
8.243894513077085
 22
35.1961613822089
 32
0.0
 13
8.243894513077085
 23
35.1961613822089
 33
0.0
  0
MTEXT
  5
8B58
330
8491
100
AcDbEntity
  8
R-ANNO-DIMS
100
AcDbMText
 10
8.056894513077081
 20
36.86649471554223
 30
0.0
 40
0.25
 41
0.0
 71
     5
 72
     1
  1
\A1;SHIM SPACE
 11
0.0000000000000001
 21
1.0
 31
0.0
 73
     1
 44
1.0
1001
ACAD
1000
MTEXTBEGIN
1070
    73
1070
     1
1070
    44
1040
1.0
1070
    74
1070
     0
1000
MTEXTEND
  0
POINT
  5
8B59
330
8491
100
AcDbEntity
  8
DEFPOINTS
 62
     0
100
AcDbPoint
 10
11.12131451307713
 20
34.9461613822089
 30
0.0
  0
POINT
  5
8B5A
330
8491
100
AcDbEntity
  8
DEFPOINTS
 62
     0
100
AcDbPoint
 10
10.71529455838211
 20
35.1961613822089
 30
0.0
  0
POINT
  5
8B5B
330
8491
100
AcDbEntity
  8
DEFPOINTS
 62
     0
100
AcDbPoint
 10
8.243894513077085
 20
35.1961613822089
 30
0.0
  0
ENDBLK
  5
849C
330
8491
100
AcDbEntity
  8
0
100
AcDbBlockEnd
  0
BLOCK
  5
84A6
330
849D
100
AcDbEntity
  8
0
100
AcDbBlockBegin
  2
*D17
 70
     1
 10
0.0
 20
0.0
 30
0.0
  3
*D17
  1

  0
LINE
  5
89E5
330
849D
100
AcDbEntity
  8
R-ANNO-DIMS
370
    -2
100
AcDbLine
 10
11.17909518043578
 20
25.93740163248396
 30
0.0
 11
9.409256673311062
 21
25.93740163248396
 31
0.0
  0
LINE
  5
89E6
330
849D
100
AcDbEntity
  8
R-ANNO-DIMS
370
    -2
100
AcDbLine
 10
9.534256673311062
 20
26.13740163248396
 30
0.0
 11
9.534256673311062
 21
27.73772183007363
 31
0.0
  0
SOLID
  5
89E7
330
849D
100
AcDbEntity
  8
R-ANNO-DIMS
100
AcDbTrace
 10
9.500923339977729
 20
26.13740163248396
 30
0.0
 11
9.567590006644396
 21
26.13740163248396
 31
0.0
 12
9.534256673311062
 22
25.93740163248396
 32
0.0
 13
9.534256673311062
 23
25.93740163248396
 33
0.0
  0
SOLID
  5
89E8
330
849D
100
AcDbEntity
  8
R-ANNO-DIMS
100
AcDbTrace
 10
9.500923339977729
 20
27.73772183007363
 30
0.0
 11
9.567590006644396
 21
27.73772183007363
 31
0.0
 12
9.534256673311062
 22
27.93772183007363
 32
0.0
 13
9.534256673311062
 23
27.93772183007363
 33
0.0
  0
MTEXT
  5
89E9
330
849D
100
AcDbEntity
  8
R-ANNO-DIMS
100
AcDbMText
 10
9.34725667331106
 20
26.9375617312788
 30
0.0
 40
0.25
 41
0.0
 71
     5
 72
     1
  1
\A1;DLO
 11
0.0000000000000001
 21
1.0
 31
0.0
 73
     1
 44
1.0
1001
ACAD
1000
MTEXTBEGIN
1070
    73
1070
     1
1070
    44
1040
1.0
1070
    74
1070
     0
1000
MTEXTEND
  0
POINT
  5
89EA
330
849D
100
AcDbEntity
  8
DEFPOINTS
 62
     0
100
AcDbPoint
 10
11.30409518043578
 20
25.93740163248396
 30
0.0
  0
POINT
  5
89EB
330
849D
100
AcDbEntity
  8
DEFPOINTS
 62
     0
100
AcDbPoint
 10
11.03009518043578
 20
27.93772183007363
 30
0.0
  0
POINT
  5
89EC
330
849D
100
AcDbEntity
  8
DEFPOINTS
 62
     0
100
AcDbPoint
 10
9.534256673311062
 20
27.93772183007363
 30
0.0
  0
ENDBLK
  5
84A7
330
849D
100
AcDbEntity
  8
0
100
AcDbBlockEnd
  0
BLOCK
  5
84B1
330
84A8
100
AcDbEntity
  8
0
100
AcDbBlockBegin
  2
*D18
 70
     1
 10
0.0
 20
0.0
 30
0.0
  3
*D18
  1

  0
LINE
  5
89DD
330
84A8
100
AcDbEntity
  8
R-ANNO-DIMS
370
    -2
100
AcDbLine
 10
11.15325667331106
 20
23.93740163248395
 30
0.0
 11
9.409256673311062
 21
23.93740163248395
 31
0.0
  0
LINE
  5
89DE
330
84A8
100
AcDbEntity
  8
R-ANNO-DIMS
370
    -2
100
AcDbLine
 10
9.534256673311062
 20
23.73740163248395
 30
0.0
 11
9.534256673311062
 21
22.13772183007363
 31
0.0
  0
SOLID
  5
89DF
330
84A8
100
AcDbEntity
  8
R-ANNO-DIMS
100
AcDbTrace
 10
9.500923339977729
 20
23.73740163248395
 30
0.0
 11
9.567590006644396
 21
23.73740163248395
 31
0.0
 12
9.534256673311062
 22
23.93740163248395
 32
0.0
 13
9.534256673311062
 23
23.93740163248395
 33
0.0
  0
SOLID
  5
89E0
330
84A8
100
AcDbEntity
  8
R-ANNO-DIMS
100
AcDbTrace
 10
9.500923339977729
 20
22.13772183007363
 30
0.0
 11
9.567590006644396
 21
22.13772183007363
 31
0.0
 12
9.534256673311062
 22
21.93772183007363
 32
0.0
 13
9.534256673311062
 23
21.93772183007363
 33
0.0
  0
MTEXT
  5
89E1
330
84A8
100
AcDbEntity
  8
R-ANNO-DIMS
100
AcDbMText
 10
9.34725667331106
 20
22.9375617312788
 30
0.0
 40
0.25
 41
0.0
 71
     5
 72
     1
  1
\A1;DLO
 11
0.0000000000000001
 21
1.0
 31
0.0
 73
     1
 44
1.0
1001
ACAD
1000
MTEXTBEGIN
1070
    73
1070
     1
1070
    44
1040
1.0
1070
    74
1070
     0
1000
MTEXTEND
  0
POINT
  5
89E2
330
84A8
100
AcDbEntity
  8
DEFPOINTS
 62
     0
100
AcDbPoint
 10
11.27825667331106
 20
23.93740163248395
 30
0.0
  0
POINT
  5
89E3
330
84A8
100
AcDbEntity
  8
DEFPOINTS
 62
     0
100
AcDbPoint
 10
11.03009518043578
 20
21.93772183007363
 30
0.0
  0
POINT
  5
89E4
330
84A8
100
AcDbEntity
  8
DEFPOINTS
 62
     0
100
AcDbPoint
 10
9.534256673311062
 20
21.93772183007363
 30
0.0
  0
ENDBLK
  5
84B2
330
84A8
100
AcDbEntity
  8
0
100
AcDbBlockEnd
  0
BLOCK
  5
84BC
330
84B3
100
AcDbEntity
  8
0
100
AcDbBlockBegin
  2
*D19
 70
     1
 10
0.0
 20
0.0
 30
0.0
  3
*D19
  1

  0
LINE
  5
89D5
330
84B3
100
AcDbEntity
  8
R-ANNO-DIMS
370
    -2
100
AcDbLine
 10
11.17909518043578
 20
25.93740163248396
 30
0.0
 11
9.409256673311062
 21
25.93740163248396
 31
0.0
  0
LINE
  5
89D6
330
84B3
100
AcDbEntity
  8
R-ANNO-DIMS
370
    -2
100
AcDbLine
 10
9.534256673311062
 20
25.73740163248396
 30
0.0
 11
9.534256673311062
 21
24.13740163248397
 31
0.0
  0
SOLID
  5
89D7
330
84B3
100
AcDbEntity
  8
R-ANNO-DIMS
100
AcDbTrace
 10
9.500923339977729
 20
25.73740163248396
 30
0.0
 11
9.567590006644396
 21
25.73740163248396
 31
0.0
 12
9.534256673311062
 22
25.93740163248396
 32
0.0
 13
9.534256673311062
 23
25.93740163248396
 33
0.0
  0
SOLID
  5
89D8
330
84B3
100
AcDbEntity
  8
R-ANNO-DIMS
100
AcDbTrace
 10
9.500923339977729
 20
24.13740163248397
 30
0.0
 11
9.567590006644396
 21
24.13740163248397
 31
0.0
 12
9.534256673311062
 22
23.93740163248397
 32
0.0
 13
9.534256673311062
 23
23.93740163248397
 33
0.0
  0
MTEXT
  5
89D9
330
84B3
100
AcDbEntity
  8
R-ANNO-DIMS
100
AcDbMText
 10
9.34725667331106
 20
24.93740163248397
 30
0.0
 40
0.25
 41
0.0
 71
     5
 72
     1
  1
\A1;2"
 11
0.0000000000000001
 21
1.0
 31
0.0
 73
     1
 44
1.0
1001
ACAD
1000
MTEXTBEGIN
1070
    73
1070
     1
1070
    44
1040
1.0
1070
    74
1070
     0
1000
MTEXTEND
  0
POINT
  5
89DA
330
84B3
100
AcDbEntity
  8
DEFPOINTS
 62
     0
100
AcDbPoint
 10
11.30409518043578
 20
25.93740163248396
 30
0.0
  0
POINT
  5
89DB
330
84B3
100
AcDbEntity
  8
DEFPOINTS
 62
     0
100
AcDbPoint
 10
11.27825667331106
 20
23.93740163248397
 30
0.0
  0
POINT
  5
89DC
330
84B3
100
AcDbEntity
  8
DEFPOINTS
 62
     0
100
AcDbPoint
 10
9.534256673311062
 20
23.93740163248397
 30
0.0
  0
ENDBLK
  5
84BD
330
84B3
100
AcDbEntity
  8
0
100
AcDbBlockEnd
  0
BLOCK
  5
84DF
330
84D6
100
AcDbEntity
  8
0
100
AcDbBlockBegin
  2
*D20
 70
     1
 10
0.0
 20
0.0
 30
0.0
  3
*D20
  1

  0
LINE
  5
8B6D
330
84D6
100
AcDbEntity
  8
R-ANNO-DIMS
370
    -2
100
AcDbLine
 10
9.327730272520824
 20
15.76979108439398
 30
0.0
 11
8.855969911353867
 21
15.76979108439398
 31
0.0
  0
LINE
  5
8B6E
330
84D6
100
AcDbEntity
  8
R-ANNO-DIMS
370
    -2
100
AcDbLine
 10
8.980969911353867
 20
15.96979108439398
 30
0.0
 11
8.980969911353867
 21
19.4431112819806
 31
0.0
  0
SOLID
  5
8B6F
330
84D6
100
AcDbEntity
  8
R-ANNO-DIMS
100
AcDbTrace
 10
8.947636578020533
 20
15.96979108439398
 30
0.0
 11
9.0143032446872
 21
15.96979108439398
 31
0.0
 12
8.980969911353867
 22
15.76979108439398
 32
0.0
 13
8.980969911353867
 23
15.76979108439398
 33
0.0
  0
SOLID
  5
8B70
330
84D6
100
AcDbEntity
  8
R-ANNO-DIMS
100
AcDbTrace
 10
8.947636578020533
 20
19.4431112819806
 30
0.0
 11
9.0143032446872
 21
19.4431112819806
 31
0.0
 12
8.980969911353867
 22
19.6431112819806
 32
0.0
 13
8.980969911353867
 23
19.6431112819806
 33
0.0
  0
MTEXT
  5
8B71
330
84D6
100
AcDbEntity
  8
R-ANNO-DIMS
100
AcDbMText
 10
8.793969911353865
 20
17.7064511831873
 30
0.0
 40
0.25
 41
0.0
 71
     5
 72
     1
  1
\A1;MH
 11
0.0000000000000001
 21
1.0
 31
0.0
 73
     1
 44
1.0
1001
ACAD
1000
MTEXTBEGIN
1070
    73
1070
     1
1070
    44
1040
1.0
1070
    74
1070
     0
1000
MTEXTEND
  0
POINT
  5
8B72
330
84D6
100
AcDbEntity
  8
DEFPOINTS
 62
     0
100
AcDbPoint
 10
9.452730272520824
 20
15.76979108439398
 30
0.0
  0
POINT
  5
8B73
330
84D6
100
AcDbEntity
  8
DEFPOINTS
 62
     0
100
AcDbPoint
 10
11.10098530731014
 20
19.6431112819806
 30
0.0
  0
POINT
  5
8B74
330
84D6
100
AcDbEntity
  8
DEFPOINTS
 62
     0
100
AcDbPoint
 10
8.980969911353867
 20
19.6431112819806
 30
0.0
  0
ENDBLK
  5
84E0
330
84D6
100
AcDbEntity
  8
0
100
AcDbBlockEnd
  0
BLOCK
  5
84EA
330
84E1
100
AcDbEntity
  8
0
100
AcDbBlockBegin
  2
*D21
 70
     1
 10
0.0
 20
0.0
 30
0.0
  3
*D21
  1

  0
LINE
  5
8B5C
330
84E1
100
AcDbEntity
  8
R-ANNO-DIMS
370
    -2
100
AcDbLine
 10
8.670985384310739
 20
15.39379108439463
 30
0.0
 11
7.605969911353866
 21
15.39379108439463
 31
0.0
  0
LINE
  5
8B5D
330
84E1
100
AcDbEntity
  8
R-ANNO-DIMS
370
    -2
100
AcDbLine
 10
7.730969911353866
 20
15.59379108439463
 30
0.0
 11
7.730969911353867
 21
19.4431112819806
 31
0.0
  0
SOLID
  5
8B5E
330
84E1
100
AcDbEntity
  8
R-ANNO-DIMS
100
AcDbTrace
 10
7.697636578020532
 20
15.59379108439463
 30
0.0
 11
7.764303244687199
 21
15.59379108439463
 31
0.0
 12
7.730969911353866
 22
15.39379108439463
 32
0.0
 13
7.730969911353866
 23
15.39379108439463
 33
0.0
  0
SOLID
  5
8B5F
330
84E1
100
AcDbEntity
  8
R-ANNO-DIMS
100
AcDbTrace
 10
7.697636578020533
 20
19.4431112819806
 30
0.0
 11
7.7643032446872
 21
19.4431112819806
 31
0.0
 12
7.730969911353867
 22
19.6431112819806
 32
0.0
 13
7.730969911353867
 23
19.6431112819806
 33
0.0
  0
MTEXT
  5
8B60
330
84E1
100
AcDbEntity
  8
R-ANNO-DIMS
100
AcDbMText
 10
7.543969911353863
 20
17.51845118318762
 30
0.0
 40
0.25
 41
0.0
 71
     5
 72
     1
  1
\A1;OD
 11
0.0000000000000001
 21
1.0
 31
0.0
 73
     1
 44
1.0
1001
ACAD
1000
MTEXTBEGIN
1070
    73
1070
     1
1070
    44
1040
1.0
1070
    74
1070
     0
1000
MTEXTEND
  0
POINT
  5
8B61
330
84E1
100
AcDbEntity
  8
DEFPOINTS
 62
     0
100
AcDbPoint
 10
8.795985384310739
 20
15.39379108439463
 30
0.0
  0
POINT
  5
8B62
330
84E1
100
AcDbEntity
  8
DEFPOINTS
 62
     0
100
AcDbPoint
 10
11.10098530731014
 20
19.6431112819806
 30
0.0
  0
POINT
  5
8B63
330
84E1
100
AcDbEntity
  8
DEFPOINTS
 62
     0
100
AcDbPoint
 10
7.730969911353867
 20
19.6431112819806
 30
0.0
  0
ENDBLK
  5
84EB
330
84E1
100
AcDbEntity
  8
0
100
AcDbBlockEnd
  0
BLOCK
  5
84F5
330
84EC
100
AcDbEntity
  8
0
100
AcDbBlockBegin
  2
*D22
 70
     1
 10
0.0
 20
0.0
 30
0.0
  3
*D22
  1

  0
LINE
  5
8A89
330
84EC
100
AcDbEntity
  8
R-ANNO-DIMS
370
    -2
100
AcDbLine
 10
11.10194251483841
 20
15.64379108439472
 30
0.0
 11
9.480969911353868
 21
15.64379108439472
 31
0.0
  0
LINE
  5
8A8A
330
84EC
100
AcDbEntity
  8
R-ANNO-DIMS
370
    -2
100
AcDbLine
 10
9.605969911353868
 20
15.84379108439472
 30
0.0
 11
9.605969911353868
 21
17.4431112819806
 31
0.0
  0
SOLID
  5
8A8B
330
84EC
100
AcDbEntity
  8
R-ANNO-DIMS
100
AcDbTrace
 10
9.572636578020535
 20
15.84379108439472
 30
0.0
 11
9.639303244687202
 21
15.84379108439472
 31
0.0
 12
9.605969911353868
 22
15.64379108439472
 32
0.0
 13
9.605969911353868
 23
15.64379108439472
 33
0.0
  0
SOLID
  5
8A8C
330
84EC
100
AcDbEntity
  8
R-ANNO-DIMS
100
AcDbTrace
 10
9.572636578020535
 20
17.4431112819806
 30
0.0
 11
9.639303244687202
 21
17.4431112819806
 31
0.0
 12
9.605969911353868
 22
17.6431112819806
 32
0.0
 13
9.605969911353868
 23
17.6431112819806
 33
0.0
  0
MTEXT
  5
8A8D
330
84EC
100
AcDbEntity
  8
R-ANNO-DIMS
100
AcDbMText
 10
9.418969911353867
 20
16.73908204935948
 30
0.0
 40
0.25
 41
0.0
 71
     5
 72
     1
  1
\A1;2"
 11
0.0000000000000001
 21
1.0
 31
0.0
 73
     1
 44
1.0
1001
ACAD
1000
MTEXTBEGIN
1070
    73
1070
     1
1070
    44
1040
1.0
1070
    74
1070
     0
1000
MTEXTEND
  0
POINT
  5
8A8E
330
84EC
100
AcDbEntity
  8
DEFPOINTS
 62
     0
100
AcDbPoint
 10
11.22694251483841
 20
15.64379108439472
 30
0.0
  0
POINT
  5
8A8F
330
84EC
100
AcDbEntity
  8
DEFPOINTS
 62
     0
100
AcDbPoint
 10
11.23539410859933
 20
17.6431112819806
 30
0.0
  0
POINT
  5
8A90
330
84EC
100
AcDbEntity
  8
DEFPOINTS
 62
     0
100
AcDbPoint
 10
9.605969911353868
 20
17.6431112819806
 30
0.0
  0
ENDBLK
  5
84F6
330
84EC
100
AcDbEntity
  8
0
100
AcDbBlockEnd
  0
BLOCK
  5
8500
330
84F7
100
AcDbEntity
  8
0
100
AcDbBlockBegin
  2
*D23
 70
     1
 10
0.0
 20
0.0
 30
0.0
  3
*D23
  1

  0
LINE
  5
8A31
330
84F7
100
AcDbEntity
  8
R-ANNO-DIMS
370
    -2
100
AcDbLine
 10
11.10194251483841
 20
15.64379108439472
 30
0.0
 11
8.230969911353867
 21
15.64379108439472
 31
0.0
  0
LINE
  5
8A32
330
84F7
100
AcDbEntity
  8
R-ANNO-DIMS
370
    -2
100
AcDbLine
 10
8.355969911353867
 20
15.84379108439472
 30
0.0
 11
8.355969911353867
 21
19.4431112819806
 31
0.0
  0
SOLID
  5
8A33
330
84F7
100
AcDbEntity
  8
R-ANNO-DIMS
100
AcDbTrace
 10
8.322636578020533
 20
15.84379108439472
 30
0.0
 11
8.3893032446872
 21
15.84379108439472
 31
0.0
 12
8.355969911353867
 22
15.64379108439472
 32
0.0
 13
8.355969911353867
 23
15.64379108439472
 33
0.0
  0
SOLID
  5
8A34
330
84F7
100
AcDbEntity
  8
R-ANNO-DIMS
100
AcDbTrace
 10
8.322636578020533
 20
19.4431112819806
 30
0.0
 11
8.3893032446872
 21
19.4431112819806
 31
0.0
 12
8.355969911353867
 22
19.6431112819806
 32
0.0
 13
8.355969911353867
 23
19.6431112819806
 33
0.0
  0
MTEXT
  5
8A35
330
84F7
100
AcDbEntity
  8
R-ANNO-DIMS
100
AcDbMText
 10
8.168969911353865
 20
17.64345118318766
 30
0.0
 40
0.25
 41
0.0
 71
     5
 72
     1
  1
\A1;FH
 11
0.0000000000000001
 21
1.0
 31
0.0
 73
     1
 44
1.0
1001
ACAD
1000
MTEXTBEGIN
1070
    73
1070
     1
1070
    44
1040
1.0
1070
    74
1070
     0
1000
MTEXTEND
  0
POINT
  5
8A36
330
84F7
100
AcDbEntity
  8
DEFPOINTS
 62
     0
100
AcDbPoint
 10
11.22694251483841
 20
15.64379108439472
 30
0.0
  0
POINT
  5
8A37
330
84F7
100
AcDbEntity
  8
DEFPOINTS
 62
     0
100
AcDbPoint
 10
11.10098530731014
 20
19.6431112819806
 30
0.0
  0
POINT
  5
8A38
330
84F7
100
AcDbEntity
  8
DEFPOINTS
 62
     0
100
AcDbPoint
 10
8.355969911353867
 20
19.6431112819806
 30
0.0
  0
ENDBLK
  5
8501
330
84F7
100
AcDbEntity
  8
0
100
AcDbBlockEnd
  0
BLOCK
  5
850C
330
8502
100
AcDbEntity
  8
0
100
AcDbBlockBegin
  2
*D24
 70
     1
 10
0.0
 20
0.0
 30
0.0
  3
*D24
  1

  0
LINE
  5
8B64
330
8502
100
AcDbEntity
  8
R-ANNO-DIMS
370
    -2
100
AcDbLine
 10
9.327730272520824
 20
15.76979108439398
 30
0.0
 11
8.855969911353868
 21
15.76979108439398
 31
0.0
  0
LINE
  5
8B65
330
8502
100
AcDbEntity
  8
R-ANNO-DIMS
370
    -2
100
AcDbLine
 10
8.980969911353868
 20
15.96979108439398
 30
0.0
 11
8.980969911353868
 21
16.16979108439398
 31
0.0
  0
LINE
  5
8B66
330
8502
100
AcDbEntity
  8
R-ANNO-DIMS
370
    -2
100
AcDbLine
 10
8.980969911353868
 20
15.44379108439472
 30
0.0
 11
8.980969911353868
 21
14.22498175563969
 31
0.0
  0
SOLID
  5
8B67
330
8502
100
AcDbEntity
  8
R-ANNO-DIMS
100
AcDbTrace
 10
8.947636578020535
 20
15.96979108439398
 30
0.0
 11
9.014303244687202
 21
15.96979108439398
 31
0.0
 12
8.980969911353868
 22
15.76979108439398
 32
0.0
 13
8.980969911353868
 23
15.76979108439398
 33
0.0
  0
SOLID
  5
8B68
330
8502
100
AcDbEntity
  8
R-ANNO-DIMS
100
AcDbTrace
 10
8.947636578020535
 20
15.44379108439472
 30
0.0
 11
9.014303244687202
 21
15.44379108439472
 31
0.0
 12
8.980969911353868
 22
15.64379108439472
 32
0.0
 13
8.980969911353868
 23
15.64379108439472
 33
0.0
  0
MTEXT
  5
8B69
330
8502
100
AcDbEntity
  8
R-ANNO-DIMS
100
AcDbMText
 10
8.793969911353867
 20
14.70364842230636
 30
0.0
 40
0.25
 41
0.0
 71
     5
 72
     1
  1
\A1;1/8"
 11
0.0000000000000001
 21
1.0
 31
0.0
 73
     1
 44
1.0
1001
ACAD
1000
MTEXTBEGIN
1070
    73
1070
     1
1070
    44
1040
1.0
1070
    74
1070
     0
1000
MTEXTEND
  0
POINT
  5
8B6A
330
8502
100
AcDbEntity
  8
DEFPOINTS
 62
     0
100
AcDbPoint
 10
9.452730272520824
 20
15.76979108439398
 30
0.0
  0
POINT
  5
8B6B
330
8502
100
AcDbEntity
  8
DEFPOINTS
 62
     0
100
AcDbPoint
 10
11.22694251483841
 20
15.64379108439472
 30
0.0
  0
POINT
  5
8B6C
330
8502
100
AcDbEntity
  8
DEFPOINTS
 62
     0
100
AcDbPoint
 10
8.980969911353868
 20
15.64379108439472
 30
0.0
  0
ENDBLK
  5
850D
330
8502
100
AcDbEntity
  8
0
100
AcDbBlockEnd
  0
BLOCK
  5
8518
330
850E
100
AcDbEntity
  8
0
100
AcDbBlockBegin
  2
*D25
 70
     1
 10
0.0
 20
0.0
 30
0.0
  3
*D25
  1

  0
LINE
  5
8B75
330
850E
100
AcDbEntity
  8
R-ANNO-DIMS
370
    -2
100
AcDbLine
 10
11.10194251483841
 20
15.64379108439472
 30
0.0
 11
8.23096991135387
 21
15.64379108439472
 31
0.0
  0
LINE
  5
8B76
330
850E
100
AcDbEntity
  8
R-ANNO-DIMS
370
    -2
100
AcDbLine
 10
8.35596991135387
 20
15.84379108439472
 30
0.0
 11
8.35596991135387
 21
16.04379108439472
 31
0.0
  0
LINE
  5
8B77
330
850E
100
AcDbEntity
  8
R-ANNO-DIMS
370
    -2
100
AcDbLine
 10
8.35596991135387
 20
15.19379108439463
 30
0.0
 11
8.35596991135387
 21
12.45312441772797
 31
0.0
  0
SOLID
  5
8B78
330
850E
100
AcDbEntity
  8
R-ANNO-DIMS
100
AcDbTrace
 10
8.322636578020537
 20
15.84379108439472
 30
0.0
 11
8.389303244687203
 21
15.84379108439472
 31
0.0
 12
8.35596991135387
 22
15.64379108439472
 32
0.0
 13
8.35596991135387
 23
15.64379108439472
 33
0.0
  0
SOLID
  5
8B79
330
850E
100
AcDbEntity
  8
R-ANNO-DIMS
100
AcDbTrace
 10
8.322636578020537
 20
15.19379108439463
 30
0.0
 11
8.389303244687203
 21
15.19379108439463
 31
0.0
 12
8.35596991135387
 22
15.39379108439463
 32
0.0
 13
8.35596991135387
 23
15.39379108439463
 33
0.0
  0
MTEXT
  5
8B7A
330
850E
100
AcDbEntity
  8
R-ANNO-DIMS
100
AcDbMText
 10
8.168969911353867
 20
13.7234577510613
 30
0.0
 40
0.25
 41
0.0
 71
     5
 72
     1
  1
\A1;SHIM SPACE
 11
0.0000000000000001
 21
1.0
 31
0.0
 73
     1
 44
1.0
1001
ACAD
1000
MTEXTBEGIN
1070
    73
1070
     1
1070
    44
1040
1.0
1070
    74
1070
     0
1000
MTEXTEND
  0
POINT
  5
8B7B
330
850E
100
AcDbEntity
  8
DEFPOINTS
 62
     0
100
AcDbPoint
 10
11.22694251483841
 20
15.64379108439472
 30
0.0
  0
POINT
  5
8B7C
330
850E
100
AcDbEntity
  8
DEFPOINTS
 62
     0
100
AcDbPoint
 10
10.82736995665891
 20
15.39379108439463
 30
0.0
  0
POINT
  5
8B7D
330
850E
100
AcDbEntity
  8
DEFPOINTS
 62
     0
100
AcDbPoint
 10
8.35596991135387
 20
15.39379108439463
 30
0.0
  0
ENDBLK
  5
8519
330
850E
100
AcDbEntity
  8
0
100
AcDbBlockEnd
  0
BLOCK
  5
8523
330
851A
100
AcDbEntity
  8
0
100
AcDbBlockBegin
  2
*D26
 70
     1
 10
0.0
 20
0.0
 30
0.0
  3
*D26
  1

  0
LINE
  5
8A4B
330
851A
100
AcDbEntity
  8
R-ANNO-DIMS
370
    -2
100
AcDbLine
 10
11.11039410859933
 20
17.6431112819806
 30
0.0
 11
9.480969911353867
 21
17.6431112819806
 31
0.0
  0
LINE
  5
8A4C
330
851A
100
AcDbEntity
  8
R-ANNO-DIMS
370
    -2
100
AcDbLine
 10
9.605969911353867
 20
17.8431112819806
 30
0.0
 11
9.605969911353867
 21
19.4431112819806
 31
0.0
  0
SOLID
  5
8A4D
330
851A
100
AcDbEntity
  8
R-ANNO-DIMS
100
AcDbTrace
 10
9.572636578020533
 20
17.8431112819806
 30
0.0
 11
9.6393032446872
 21
17.8431112819806
 31
0.0
 12
9.605969911353867
 22
17.6431112819806
 32
0.0
 13
9.605969911353867
 23
17.6431112819806
 33
0.0
  0
SOLID
  5
8A4E
330
851A
100
AcDbEntity
  8
R-ANNO-DIMS
100
AcDbTrace
 10
9.572636578020533
 20
19.4431112819806
 30
0.0
 11
9.6393032446872
 21
19.4431112819806
 31
0.0
 12
9.605969911353867
 22
19.6431112819806
 32
0.0
 13
9.605969911353867
 23
19.6431112819806
 33
0.0
  0
MTEXT
  5
8A4F
330
851A
100
AcDbEntity
  8
R-ANNO-DIMS
100
AcDbMText
 10
9.418969911353865
 20
18.6431112819806
 30
0.0
 40
0.25
 41
0.0
 71
     5
 72
     1
  1
\A1;DLO
 11
0.0000000000000001
 21
1.0
 31
0.0
 73
     1
 44
1.0
1001
ACAD
1000
MTEXTBEGIN
1070
    73
1070
     1
1070
    44
1040
1.0
1070
    74
1070
     0
1000
MTEXTEND
  0
POINT
  5
8A50
330
851A
100
AcDbEntity
  8
DEFPOINTS
 62
     0
100
AcDbPoint
 10
11.23539410859933
 20
17.6431112819806
 30
0.0
  0
POINT
  5
8A51
330
851A
100
AcDbEntity
  8
DEFPOINTS
 62
     0
100
AcDbPoint
 10
11.10098530731014
 20
19.6431112819806
 30
0.0
  0
POINT
  5
8A52
330
851A
100
AcDbEntity
  8
DEFPOINTS
 62
     0
100
AcDbPoint
 10
9.605969911353867
 20
19.6431112819806
 30
0.0
  0
ENDBLK
  5
8524
330
851A
100
AcDbEntity
  8
0
100
AcDbBlockEnd
  0
BLOCK
  5
9244
330
9238
100
AcDbEntity
  8
0
100
AcDbBlockBegin
  2
Kawneer Logo English
 70
     0
 10
0.0
 20
0.0
 30
0.0
  3
Kawneer Logo English
  1

  0
MTEXT
  5
9239
102
{ACAD_XDICTIONARY
360
92D7
102
}
330
9238
100
AcDbEntity
  8
Kawneer Logo-English
100
AcDbMText
 10
1.510096758583198
 20
0.0372523876656778
 30
0.0
 40
0.036
 41
0.6125900866323382
 71
     3
 72
     5
  1
{\fArial TUR|b0|i0|c0|p34;\T1.05;AN ARCONIC COMPANY}
 73
     1
 44
1.0
1001
ACAD
1000
ACAD_MTEXT_COLUMN_INFO_BEGIN
1070
    75
1070
     2
1070
    79
1070
     0
1070
    76
1070
     1
1070
    78
1070
     0
1070
    48
1040
0.6125900866323382
1070
    49
1040
1.0
1070
    50
1070
     1
1040
0.0
1000
ACAD_MTEXT_COLUMN_INFO_END
1000
MTEXTBEGIN
1070
    73
1070
     1
1070
    44
1040
1.0
1070
    74
1070
     0
1000
MTEXTEND
  0
HATCH
  5
923A
330
9238
100
AcDbEntity
  8
Kawneer Logo-English
100
AcDbHatch
 10
0.0
 20
0.0
 30
0.0
210
0.0
220
0.0
230
1.0
  2
SOLID
 70
     1
 71
     0
 91
        1
 92
        1
 93
       81
 72
     1
 10
0.2706169776412204
 20
0.0336337282279411
 11
0.2687512969786691
 21
0.0350329887248546
 72
     1
 10
0.2687512969786696
 20
0.0350329887248547
 11
0.2633408230572721
 21
0.039137486182467
 72
     1
 10
0.2633408230572729
 20
0.0391374861824669
 11
0.2550385441089194
 21
0.0453875164020133
 72
     1
 10
0.2550385441089191
 20
0.0453875164020132
 11
0.2442175962661241
 21
0.053596511317238
 72
     1
 10
0.2442175962661235
 20
0.0535965113172379
 11
0.2314376837276472
 21
0.0632980507625037
 72
     1
 10
0.2314376837276479
 20
0.0632980507625037
 11
0.2172585106922595
 21
0.0741189986052996
 72
     1
 10
0.2172585106922598
 20
0.0741189986052996
 11
0.2019599292593419
 21
0.0856862187131167
 72
     1
 10
0.201959929259341
 20
0.0856862187131167
 11
0.1862882116939105
 21
0.0976265749534437
 72
     1
 10
0.1862882116939102
 20
0.0976265749534437
 11
0.1706164941284813
 21
0.1095669311937706
 72
     1
 10
0.1706164941284811
 20
0.1095669311937709
 11
0.1553179126955632
 21
0.1211341513015875
 72
     1
 10
0.1553179126955642
 20
0.1211341513015876
 11
0.1411387396601757
 21
0.131955099144384
 72
     1
 10
0.1411387396601755
 20
0.1319550991443839
 11
0.1284521111548274
 21
0.141749922622777
 72
     1
 10
0.1284521111548278
 20
0.1417499226227768
 11
0.117631163312031
 21
0.1499589175380016
 72
     1
 10
0.1176311633120304
 20
0.1499589175380017
 11
0.1094221683968068
 21
0.1563022317906752
 72
     1
 10
0.1094221683968062
 20
0.1563022317906754
 11
0.1041049785085351
 21
0.1604067292482882
 72
     1
 10
0.1041049785085351
 20
0.1604067292482878
 11
0.1023325818791119
 21
0.1618992737783286
 72
     1
 10
0.1023325818791116
 20
0.1618992737783289
 11
0.1043848306079176
 21
0.1636716704077524
 72
     1
 10
0.1043848306079194
 20
0.1636716704077524
 11
0.1100751566286996
 21
0.1683358720641301
 72
     1
 10
0.1100751566286986
 20
0.1683358720641301
 11
0.1189371397758159
 21
0.1757053106812067
 72
     1
 10
0.1189371397758161
 20
0.1757053106812067
 11
0.1304110758505067
 21
0.1851269980270901
 72
     1
 10
0.1304110758505059
 20
0.1851269980270902
 11
0.1439372606540007
 21
0.1963210820023967
 72
     1
 10
0.1439372606540017
 20
0.1963210820023967
 11
0.1589559899875385
 21
0.2087278584083611
 72
     1
 10
0.1589559899875379
 20
0.2087278584083611
 11
0.1750941277186041
 21
0.2220674751456017
 72
     1
 10
0.1750941277186047
 20
0.2220674751456017
 11
0.19169868561531
 21
0.2358735120484796
 72
     1
 10
0.1916986856153105
 20
0.2358735120484796
 11
0.208303243512014
 21
0.2495862649182301
 72
     1
 10
0.2083032435120131
 20
0.2495862649182304
 11
0.2244413812430811
 21
0.2628325976223432
 72
     1
 10
0.2244413812430812
 20
0.2628325976223429
 11
0.239460110576618
 21
0.2753326580614352
 72
     1
 10
0.2394601105766174
 20
0.2753326580614351
 11
0.2529862953801122
 21
0.2864334580036143
 72
     1
 10
0.2529862953801132
 20
0.2864334580036143
 11
0.2643669474216756
 21
0.2958551453494973
 72
     1
 10
0.2643669474216757
 20
0.2958551453494973
 11
0.2731356465356649
 21
0.3031312999334466
 72
     1
 10
0.273135646535664
 20
0.3031312999334466
 11
0.2788259725564443
 21
0.3077955015898243
 72
     1
 10
0.278825972556445
 20
0.3077955015898246
 11
0.2807849372521245
 21
0.3094746141861208
 72
     1
 10
0.2807849372521249
 20
0.3094746141861205
 11
0.2798520969208501
 21
0.3094746141861205
 72
     1
 10
0.2798520969208496
 20
0.3094746141861205
 11
0.2769602918938953
 21
0.3095678982192478
 72
     1
 10
0.2769602918938943
 20
0.3095678982192481
 11
0.2724826583037715
 21
0.3095678982192481
 72
     1
 10
0.2724826583037729
 20
0.3095678982192481
 11
0.2666057642167363
 21
0.3095678982192481
 72
     1
 10
0.266605764216735
 20
0.3095678982192481
 11
0.2597027457652953
 21
0.3095678982192481
 72
     1
 10
0.2597027457652956
 20
0.3095678982192481
 11
0.2519601710157094
 21
0.3095678982192481
 72
     1
 10
0.2519601710157104
 20
0.3095678982192481
 11
0.2437511761004851
 21
0.3095678982192481
 72
     1
 10
0.243751176100484
 20
0.3095678982192481
 11
0.2351690450527495
 21
0.3095678982192481
 72
     1
 10
0.2351690450527495
 20
0.3095678982192481
 11
0.2266801980381413
 21
0.3095678982192481
 72
     1
 10
0.2266801980381423
 20
0.3095678982192481
 11
0.2183779190897905
 21
0.3094746141861208
 72
     1
 10
0.2183779190897899
 20
0.3094746141861205
 11
0.2106353443402037
 21
0.3094746141861205
 72
     1
 10
0.2106353443402029
 20
0.3094746141861205
 11
0.2037323258887632
 21
0.3094746141861205
 72
     1
 10
0.203732325888764
 20
0.3094746141861205
 11
0.1978554318017273
 21
0.3094746141861205
 72
     1
 10
0.1978554318017278
 20
0.3094746141861205
 11
0.1932845141784786
 21
0.3094746141861205
 72
     1
 10
0.1932845141784787
 20
0.3094746141861205
 11
0.1903927091515244
 21
0.3094746141861205
 72
     1
 10
0.1903927091515234
 20
0.3094746141861205
 11
0.1893665847871204
 21
0.3094746141861205
 72
     1
 10
0.1893665847871206
 20
0.3094746141861205
 11
0.1879673242902067
 21
0.3077955015898243
 72
     1
 10
0.1879673242902076
 20
0.3077955015898246
 11
0.1841426789319786
 21
0.3030380159003196
 72
     1
 10
0.1841426789319787
 20
0.3030380159003192
 11
0.1780792167786874
 21
0.29576186131637
 72
     1
 10
0.1780792167786873
 20
0.29576186131637
 11
0.170243357995973
 21
0.2862468899373593
 72
     1
 10
0.170243357995973
 20
0.2862468899373593
 11
0.1610082387163447
 21
0.2750528059620528
 72
     1
 10
0.1610082387163438
 20
0.2750528059620528
 11
0.1507469950723126
 21
0.2624594614898328
 72
     1
 10
0.1507469950723133
 20
0.2624594614898328
 11
0.1396461951301336
 21
0.2491198447525922
 72
     1
 10
0.1396461951301333
 20
0.2491198447525922
 11
0.1282655430885727
 21
0.2352205238165866
 72
     1
 10
0.1282655430885726
 20
0.2352205238165868
 11
0.1168848910470102
 21
0.2214144869137089
 72
     1
 10
0.1168848910470102
 20
0.2214144869137087
 11
0.1058773751379587
 21
0.2079815861433408
 72
     1
 10
0.105877375137958
 20
0.2079815861433408
 11
0.0955228474608004
 21
0.1954815257042486
 72
     1
 10
0.0955228474608019
 20
0.1954815257042488
 11
0.0862877281811736
 21
0.1842874417289424
 72
     1
 10
0.0862877281811727
 20
0.1842874417289424
 11
0.0784518693984583
 21
0.1747724703499316
 72
     1
 10
0.0784518693984584
 20
0.1747724703499314
 11
0.0723884072451672
 21
0.1674963157659821
 72
     1
 10
0.0723884072451671
 20
0.1674963157659822
 11
0.0685637618869363
 21
0.1627388300764767
 72
     1
 10
0.0685637618869364
 20
0.1627388300764767
 11
0.0671645013900242
 21
0.1611530015133082
 72
     1
 10
0.0671645013900251
 20
0.1611530015133082
 11
0.0680040576881734
 21
0.1596604569832674
 72
     1
 10
0.0680040576881726
 20
0.1596604569832674
 11
0.0704294425494878
 21
0.1556492435587824
 72
     1
 10
0.0704294425494871
 20
0.1556492435587824
 11
0.0742540879077179
 21
0.1493059293061089
 72
     1
 10
0.0742540879077192
 20
0.1493059293061089
 11
0.0791048576303511
 21
0.1411902184240116
 72
     1
 10
0.0791048576303508
 20
0.1411902184240116
 11
0.0848884676842594
 21
0.1314886789787458
 72
     1
 10
0.0848884676842596
 20
0.1314886789787459
 11
0.0913250659700619
 21
0.1207610151690772
 72
     1
 10
0.0913250659700613
 20
0.1207610151690775
 11
0.0982280844214992
 21
0.1091937950612604
 72
     1
 10
0.0982280844214985
 20
0.1091937950612603
 11
0.1053176709391927
 21
0.0973467228540611
 72
     1
 10
0.105317670939193
 20
0.0973467228540612
 11
0.1124072574568872
 21
0.0854996506468619
 72
     1
 10
0.1124072574568871
 20
0.0854996506468617
 11
0.1193102759083267
 21
0.0739324305390446
 72
     1
 10
0.1193102759083278
 20
0.0739324305390448
 11
0.1257468741941283
 21
0.0632047667293762
 72
     1
 10
0.1257468741941277
 20
0.063204766729376
 11
0.1315304842480362
 21
0.0535032272841102
 72
     1
 10
0.1315304842480365
 20
0.0535032272841104
 11
0.1363812539706702
 21
0.0453875164020132
 72
     1
 10
0.1363812539706699
 20
0.0453875164020132
 11
0.1402058993288989
 21
0.0391374861824667
 72
     1
 10
0.1402058993288988
 20
0.0391374861824669
 11
0.1426312841902157
 21
0.0350329887248546
 72
     1
 10
0.1426312841902164
 20
0.0350329887248547
 11
0.1434708404883648
 21
0.0336337282279412
 72
     1
 10
0.143470840488364
 20
0.0336337282279411
 11
0.2706169776412211
 21
0.0336337282279411
 97
        0
 75
     0
 76
     1
 98
        1
 10
-0.3743130907707726
 20
-0.2500502867693841
1001
ACAD
1010
0.0
1020
0.0
1030
0.0
  0
HATCH
  5
923B
330
9238
100
AcDbEntity
  8
Kawneer Logo-English
100
AcDbHatch
 10
0.0
 20
0.0
 30
0.0
210
0.0
220
0.0
230
1.0
  2
SOLID
 70
     1
 71
     0
 91
        1
 92
        1
 93
       18
 72
     1
 10
0.0001865656044393
 20
0.2563959993365415
 11
-0.0000000024618153
 21
0.113671428651383
 72
     1
 10
-0.0000000024618159
 20
0.1136714286513832
 11
0.0012126899688416
 21
0.1152572572145516
 72
     1
 10
0.0012126899688421
 20
0.1152572572145516
 11
0.0045709151614355
 21
0.1197348908046738
 72
     1
 10
0.004570915161435
 20
0.119734890804674
 11
0.0098881050497044
 21
0.1268244773223682
 72
     1
 10
0.0098881050497044
 20
0.1268244773223682
 11
0.0166978394680158
 21
0.1359663125688683
 72
     1
 10
0.016697839468016
 20
0.1359663125688683
 11
0.0248135503501131
 21
0.1467872604116651
 72
     1
 10
0.024813550350113
 20
0.1467872604116652
 11
0.0338621015634867
 21
0.1588209006851195
 72
     1
 10
0.0338621015634872
 20
0.1588209006851194
 11
0.0434703569756247
 21
0.1716940972567221
 72
     1
 10
0.0434703569756247
 20
0.1716940972567224
 11
0.0534517485202732
 21
0.1850337139939626
 72
     1
 10
0.0534517485202724
 20
0.1850337139939624
 11
0.0634331400649208
 21
0.1983733307312025
 72
     1
 10
0.0634331400649222
 20
0.1983733307312024
 11
0.0730413954770597
 21
0.2112465273028051
 72
     1
 10
0.0730413954770595
 20
0.2112465273028053
 11
0.0820899466904331
 21
0.2233734516093873
 72
     1
 10
0.0820899466904321
 20
0.2233734516093873
 11
0.0902056575725293
 21
0.2341943994521837
 72
     1
 10
0.0902056575725308
 20
0.2341943994521837
 11
0.0970153919908422
 21
0.2433362346986839
 72
     1
 10
0.0970153919908405
 20
0.2433362346986839
 11
0.1022392978459834
 21
0.2503325371832507
 72
     1
 10
0.1022392978459843
 20
0.2503325371832508
 11
0.1056908070717041
 21
0.2549034548065008
 72
     1
 10
0.1056908070717046
 20
0.254903454806501
 11
0.1069034995023621
 21
0.2564892833696694
 72
     1
 10
0.1069034995023625
 20
0.2564892833696695
 11
0.0001865656044399
 21
0.2563959993365418
 97
        0
 75
     0
 76
     1
 98
        1
 10
-0.3743130907707726
 20
-0.2500502867693841
1001
ACAD
1010
0.0
1020
0.0
1030
0.0
  0
HATCH
  5
923C
330
9238
100
AcDbEntity
  8
Kawneer Logo-English
100
AcDbHatch
 10
0.0
 20
0.0
 30
0.0
210
0.0
220
0.0
230
1.0
  2
SOLID
 70
     1
 71
     0
 91
        2
 92
       16
 93
       76
 72
     1
 10
1.358402087941634
 20
0.1650709309046659
 11
1.358402087941634
 21
0.16796273593162
 72
     1
 10
1.358402087941634
 20
0.1679627359316202
 11
1.358402087941634
 21
0.1729067896873803
 72
     1
 10
1.358402087941634
 20
0.1729067896873803
 11
1.358402087941634
 21
0.1791568199069267
 72
     1
 10
1.358402087941634
 20
0.1791568199069267
 11
1.358402087941634
 21
0.1861531223914932
 72
     1
 10
1.358402087941634
 20
0.186153122391493
 11
1.358402087941634
 21
0.1931494248760595
 72
     1
 10
1.358402087941634
 20
0.1931494248760596
 11
1.358402087941634
 21
0.1994927391287338
 72
     1
 10
1.358402087941634
 20
0.1994927391287336
 11
1.358402087941634
 21
0.2044367928844937
 72
     1
 10
1.358402087941634
 20
0.2044367928844937
 11
1.358402087941634
 21
0.2072353138783208
 72
     1
 10
1.358402087941634
 20
0.2072353138783208
 11
1.359894632471676
 21
0.2072353138783208
 72
     1
 10
1.359894632471676
 20
0.2072353138783208
 11
1.362693153465502
 21
0.2072353138783208
 72
     1
 10
1.362693153465502
 20
0.2072353138783208
 11
1.366424514790605
 21
0.2072353138783208
 72
     1
 10
1.366424514790606
 20
0.2072353138783208
 11
1.371088716446983
 21
0.2072353138783208
 72
     1
 10
1.371088716446982
 20
0.2072353138783208
 11
1.376405906335254
 21
0.2072353138783208
 72
     1
 10
1.376405906335254
 20
0.2072353138783208
 11
1.382282800422289
 21
0.2072353138783208
 72
     1
 10
1.38228280042229
 20
0.2072353138783208
 11
1.388346262575581
 21
0.2072353138783208
 72
     1
 10
1.388346262575579
 20
0.2072353138783208
 11
1.394596292795125
 21
0.2072353138783208
 72
     1
 10
1.394596292795125
 20
0.2072353138783208
 11
1.400753038981545
 21
0.2072353138783208
 72
     1
 10
1.400753038981546
 20
0.2072353138783208
 11
1.406723217101709
 21
0.2072353138783208
 72
     1
 10
1.406723217101708
 20
0.2072353138783208
 11
1.412320259089362
 21
0.2072353138783208
 72
     1
 10
1.412320259089362
 20
0.2072353138783208
 11
1.417264312845122
 21
0.2072353138783208
 72
     1
 10
1.417264312845123
 20
0.2072353138783208
 11
1.421368810302735
 21
0.2072353138783208
 72
     1
 10
1.421368810302734
 20
0.2072353138783208
 11
1.424540467429071
 21
0.2072353138783208
 72
     1
 10
1.424540467429072
 20
0.2072353138783208
 11
1.426592716157878
 21
0.2072353138783208
 72
     1
 10
1.426592716157878
 20
0.2072353138783208
 11
1.427338988422898
 21
0.2072353138783208
 72
     1
 10
1.427338988422898
 20
0.2072353138783208
 11
1.430977065714873
 21
0.207142029845193
 72
     1
 10
1.430977065714872
 20
0.207142029845193
 11
1.434335290907465
 21
0.2068621777458102
 72
     1
 10
1.434335290907465
 20
0.2068621777458102
 11
1.435921119470633
 21
0.2066756096795552
 72
     1
 10
1.435921119470633
 20
0.206675609679555
 11
1.437413664000673
 21
0.2063957575801723
 72
     1
 10
1.437413664000674
 20
0.2063957575801723
 11
1.438906208530714
 21
0.2061159054807895
 72
     1
 10
1.438906208530714
 20
0.2061159054807898
 11
1.440398753060756
 21
0.2056494853151523
 72
     1
 10
1.440398753060756
 20
0.2056494853151521
 11
1.441704729524542
 21
0.2050897811163865
 72
     1
 10
1.441704729524542
 20
0.2050897811163866
 11
1.443010705988328
 21
0.204530076917621
 72
     1
 10
1.443010705988329
 20
0.204530076917621
 11
1.444223398418986
 21
0.2036905206194736
 72
     1
 10
1.444223398418985
 20
0.2036905206194736
 11
1.445436090849643
 21
0.2028509643213252
 72
     1
 10
1.445436090849643
 20
0.2028509643213252
 11
1.446555499247174
 21
0.2018248399569224
 72
     1
 10
1.446555499247173
 20
0.2018248399569223
 11
1.447581623611576
 21
0.2007054315593917
 72
     1
 10
1.447581623611578
 20
0.2007054315593915
 11
1.448607747975981
 21
0.1993061710624781
 72
     1
 10
1.448607747975981
 20
0.1993061710624781
 11
1.449540588307258
 21
0.1978136265324374
 72
     1
 10
1.449540588307256
 20
0.1978136265324373
 11
1.450380144605403
 21
0.1961345139361415
 72
     1
 10
1.450380144605404
 20
0.1961345139361415
 11
1.451126416870426
 21
0.1944554013398453
 72
     1
 10
1.451126416870426
 20
0.1944554013398454
 11
1.451592837036063
 21
0.1929628568098046
 72
     1
 10
1.451592837036062
 20
0.1929628568098046
 11
1.451965973168573
 21
0.1913770282466361
 72
     1
 10
1.451965973168574
 20
0.1913770282466361
 11
1.452245825267955
 21
0.1899777677497231
 72
     1
 10
1.452245825267954
 20
0.1899777677497231
 11
1.452432393334211
 21
0.188671791285937
 72
     1
 10
1.452432393334211
 20
0.1886717912859369
 11
1.452432393334211
 21
0.1874590988552789
 72
     1
 10
1.452432393334211
 20
0.1874590988552789
 11
1.452525677367338
 21
0.1863396904577482
 72
     1
 10
1.452525677367337
 20
0.1863396904577481
 11
1.452432393334211
 21
0.1844740097951972
 72
     1
 10
1.452432393334211
 20
0.1844740097951974
 11
1.452245825267955
 21
0.1827948971989012
 72
     1
 10
1.452245825267954
 20
0.1827948971989009
 11
1.451872689135445
 21
0.1810225005694773
 72
     1
 10
1.451872689135446
 20
0.1810225005694774
 11
1.451406268969809
 21
0.1794366720063093
 72
     1
 10
1.451406268969809
 20
0.1794366720063094
 11
1.450846564771043
 21
0.1779441274762682
 72
     1
 10
1.450846564771041
 20
0.1779441274762681
 11
1.450100292506021
 21
0.1764515829462274
 72
     1
 10
1.450100292506023
 20
0.1764515829462275
 11
1.449260736207875
 21
0.1750523224493141
 72
     1
 10
1.449260736207873
 20
0.1750523224493139
 11
1.448327895876597
 21
0.1737463459855283
 72
     1
 10
1.448327895876596
 20
0.1737463459855281
 11
1.44702191941281
 21
0.1723470854886151
 72
     1
 10
1.447021919412811
 20
0.1723470854886151
 11
1.445715942949025
 21
0.1711343930579568
 72
     1
 10
1.445715942949026
 20
0.1711343930579568
 11
1.444316682452114
 21
0.1700149846604262
 72
     1
 10
1.444316682452114
 20
0.1700149846604259
 11
1.442824137922072
 21
0.168988860296023
 72
     1
 10
1.442824137922072
 20
0.168988860296023
 11
1.441238309358904
 21
0.1682425880310024
 72
     1
 10
1.441238309358902
 20
0.1682425880310024
 11
1.439559196762608
 21
0.1674963157659821
 72
     1
 10
1.439559196762608
 20
0.1674963157659822
 11
1.437880084166311
 21
0.1669366115672166
 72
     1
 10
1.437880084166311
 20
0.1669366115672167
 11
1.436107687536888
 21
0.1664701914015788
 72
     1
 10
1.436107687536888
 20
0.1664701914015789
 11
1.434242006874337
 21
0.166003771235941
 72
     1
 10
1.434242006874337
 20
0.1660037712359412
 11
1.432376326211786
 21
0.1657239191365588
 72
     1
 10
1.432376326211785
 20
0.1657239191365585
 11
1.430417361516107
 21
0.1655373510703035
 72
     1
 10
1.430417361516108
 20
0.1655373510703037
 11
1.428458396820429
 21
0.1653507830040482
 72
     1
 10
1.428458396820428
 20
0.1653507830040482
 11
1.424353899362817
 21
0.1651642149377932
 72
     1
 10
1.424353899362817
 20
0.1651642149377932
 11
1.420156117872077
 21
0.1650709309046658
 72
     1
 10
1.420156117872076
 20
0.1650709309046659
 11
1.41773073301076
 21
0.1650709309046659
 72
     1
 10
1.417730733010761
 20
0.1650709309046659
 11
1.411107566658704
 21
0.1650709309046659
 72
     1
 10
1.411107566658702
 20
0.1650709309046659
 11
1.401779163345947
 21
0.1650709309046659
 72
     1
 10
1.401779163345949
 20
0.1650709309046659
 11
1.390958215503152
 21
0.1650709309046659
 72
     1
 10
1.390958215503152
 20
0.1650709309046659
 11
1.379950699594101
 21
0.1650709309046659
 72
     1
 10
1.379950699594099
 20
0.1650709309046659
 11
1.369969308049451
 21
0.1650709309046659
 72
     1
 10
1.369969308049451
 20
0.1650709309046659
 11
1.362320017332992
 21
0.1650709309046659
 72
     1
 10
1.362320017332992
 20
0.1650709309046659
 11
1.358402087941635
 21
0.1650709309046659
 97
        0
 92
        1
 93
      107
 72
     1
 10
1.443756978253348
 20
0.1485596570410883
 11
1.446928635379685
 21
0.1492126452729816
 72
     1
 10
1.446928635379685
 20
0.1492126452729817
 11
1.449540588307256
 21
0.1498656335048746
 72
     1
 10
1.449540588307256
 20
0.1498656335048745
 11
1.451872689135445
 21
0.1506119057698948
 72
     1
 10
1.451872689135446
 20
0.1506119057698946
 11
1.45401822189738
 21
0.1514514620680426
 72
     1
 10
1.45401822189738
 20
0.1514514620680425
 11
1.455883902559929
 21
0.1521977343330632
 72
     1
 10
1.455883902559929
 20
0.1521977343330631
 11
1.457563015156225
 21
0.1530372906312111
 72
     1
 10
1.457563015156225
 20
0.1530372906312111
 11
1.459148843719394
 21
0.1539701309624869
 72
     1
 10
1.459148843719394
 20
0.1539701309624866
 11
1.460641388249434
 21
0.1549029712937624
 72
     1
 10
1.460641388249434
 20
0.1549029712937622
 11
1.462133932779476
 21
0.155835811625038
 72
     1
 10
1.462133932779476
 20
0.155835811625038
 11
1.463439909243262
 21
0.1568619359894408
 72
     1
 10
1.463439909243262
 20
0.1568619359894408
 11
1.464745885707048
 21
0.1579813443869714
 72
     1
 10
1.464745885707047
 20
0.1579813443869716
 11
1.465865294104579
 21
0.1591007527845022
 72
     1
 10
1.465865294104579
 20
0.1591007527845025
 11
1.466984702502109
 21
0.1602201611820331
 72
     1
 10
1.466984702502108
 20
0.1602201611820328
 11
1.468010826866511
 21
0.1613395695795634
 72
     1
 10
1.468010826866511
 20
0.1613395695795637
 11
1.468943667197788
 21
0.1625522620102216
 72
     1
 10
1.468943667197788
 20
0.1625522620102216
 11
1.469876507529063
 21
0.1636716704077522
 72
     1
 10
1.469876507529063
 20
0.1636716704077524
 11
1.470622779794084
 21
0.1648843628384107
 72
     1
 10
1.470622779794084
 20
0.1648843628384107
 11
1.471462336092232
 21
0.1661903393021964
 72
     1
 10
1.471462336092232
 20
0.1661903393021967
 11
1.472115324324125
 21
0.1674030317328546
 72
     1
 10
1.472115324324124
 20
0.1674030317328546
 11
1.472768312556016
 21
0.1686157241635125
 72
     1
 10
1.472768312556017
 20
0.1686157241635125
 11
1.473328016754783
 21
0.1699217006272986
 72
     1
 10
1.473328016754782
 20
0.1699217006272989
 11
1.47379443692042
 21
0.1711343930579568
 72
     1
 10
1.47379443692042
 20
0.1711343930579568
 11
1.474260857086057
 21
0.1724403695217425
 72
     1
 10
1.474260857086058
 20
0.1724403695217424
 11
1.474727277251697
 21
0.1736530619524008
 72
     1
 10
1.474727277251697
 20
0.173653061952401
 11
1.475380265483589
 21
0.1760784468137175
 72
     1
 10
1.475380265483588
 20
0.1760784468137173
 11
1.475846685649225
 21
0.1785038316750338
 72
     1
 10
1.475846685649226
 20
0.1785038316750335
 11
1.476219821781737
 21
0.1808359325032223
 72
     1
 10
1.476219821781738
 20
0.1808359325032223
 11
1.47649967388112
 21
0.1830747492982838
 72
     1
 10
1.47649967388112
 20
0.1830747492982838
 11
1.476592957914248
 21
0.1851269980270901
 72
     1
 10
1.476592957914248
 20
0.1851269980270902
 11
1.476686241947374
 21
0.1870859627227688
 72
     1
 10
1.476686241947375
 20
0.1870859627227687
 11
1.476592957914249
 21
0.1888583593521923
 72
     1
 10
1.476592957914248
 20
0.1888583593521922
 11
1.476499673881119
 21
0.1906307559816158
 72
     1
 10
1.47649967388112
 20
0.1906307559816159
 11
1.476406389847991
 21
0.1924031526110394
 72
     1
 10
1.476406389847991
 20
0.1924031526110394
 11
1.476126537748608
 21
0.1940822652073352
 72
     1
 10
1.476126537748608
 20
0.1940822652073352
 11
1.475846685649226
 21
0.195761377803631
 72
     1
 10
1.475846685649226
 20
0.1957613778036309
 11
1.475566833549843
 21
0.1974404903999272
 72
     1
 10
1.475566833549843
 20
0.1974404903999272
 11
1.475100413384206
 21
0.1990263189630953
 72
     1
 10
1.475100413384205
 20
0.1990263189630952
 11
1.474633993218568
 21
0.2006121475262637
 72
     1
 10
1.474633993218568
 20
0.2006121475262639
 11
1.47416757305293
 21
0.2021046920563051
 72
     1
 10
1.474167573052932
 20
0.2021046920563049
 11
1.473514584821038
 21
0.2035972365863457
 72
     1
 10
1.473514584821037
 20
0.2035972365863459
 11
1.472954880622271
 21
0.2050897811163867
 72
     1
 10
1.472954880622272
 20
0.2050897811163866
 11
1.472208608357252
 21
0.2064890416133
 72
     1
 10
1.472208608357252
 20
0.2064890416133001
 11
1.471462336092232
 21
0.2078883021102135
 72
     1
 10
1.471462336092232
 20
0.2078883021102136
 11
1.470622779794083
 21
0.2091942785739993
 72
     1
 10
1.470622779794084
 20
0.2091942785739991
 11
1.469783223495935
 21
0.2105002550377848
 72
     1
 10
1.469783223495934
 20
0.2105002550377851
 11
1.468850383164659
 21
0.2118062315015707
 72
     1
 10
1.468850383164661
 20
0.2118062315015709
 11
1.467917542833386
 21
0.2130189239322288
 72
     1
 10
1.467917542833385
 20
0.2130189239322289
 11
1.466891418468982
 21
0.2141383323297595
 72
     1
 10
1.466891418468982
 20
0.2141383323297595
 11
1.465772010071451
 21
0.2153510247604178
 72
     1
 10
1.46577201007145
 20
0.215351024760418
 11
1.464652601673919
 21
0.2163771491248209
 72
     1
 10
1.46465260167392
 20
0.2163771491248209
 11
1.463533193276389
 21
0.2174032734892238
 72
     1
 10
1.463533193276389
 20
0.2174032734892238
 11
1.462227216812603
 21
0.2184293978536266
 72
     1
 10
1.462227216812602
 20
0.2184293978536266
 11
1.461014524381945
 21
0.2193622381849024
 72
     1
 10
1.461014524381946
 20
0.2193622381849023
 11
1.459615263885032
 21
0.2202950785161781
 72
     1
 10
1.459615263885031
 20
0.2202950785161782
 11
1.458309287421245
 21
0.2211346348143262
 72
     1
 10
1.458309287421246
 20
0.221134634814326
 11
1.456816742891206
 21
0.221974191112474
 72
     1
 10
1.456816742891206
 20
0.2219741911124738
 11
1.455417482394292
 21
0.2227204633774945
 72
     1
 10
1.455417482394291
 20
0.2227204633774944
 11
1.453831653831122
 21
0.2233734516093874
 72
     1
 10
1.453831653831123
 20
0.2233734516093873
 11
1.452339109301082
 21
0.2240264398412803
 72
     1
 10
1.452339109301082
 20
0.2240264398412803
 11
1.450659996704785
 21
0.2245861440400459
 72
     1
 10
1.450659996704787
 20
0.2245861440400457
 11
1.44907416814162
 21
0.2251458482388108
 72
     1
 10
1.449074168141619
 20
0.2251458482388109
 11
1.447301771512194
 21
0.2256122684044489
 72
     1
 10
1.447301771512194
 20
0.2256122684044488
 11
1.445249522783388
 21
0.2261719726032139
 72
     1
 10
1.445249522783388
 20
0.226171972603214
 11
1.44329055808771
 21
0.2265451087357246
 72
     1
 10
1.443290558087712
 20
0.2265451087357244
 11
1.441145025325778
 21
0.2269182448682345
 72
     1
 10
1.441145025325776
 20
0.2269182448682345
 11
1.438906208530714
 21
0.2271980969676173
 72
     1
 10
1.438906208530714
 20
0.2271980969676173
 11
1.436387539636271
 21
0.2273846650338724
 72
     1
 10
1.436387539636271
 20
0.2273846650338724
 11
1.433495734609316
 21
0.2275712331001274
 72
     1
 10
1.433495734609317
 20
0.2275712331001274
 11
1.430044225383597
 21
0.2276645171332552
 72
     1
 10
1.430044225383597
 20
0.2276645171332549
 11
1.42612629599224
 21
0.2277578011663822
 72
     1
 10
1.42612629599224
 20
0.2277578011663825
 11
1.426033011959112
 21
0.2277578011663825
 72
     1
 10
1.426033011959111
 20
0.2277578011663825
 11
1.33489451159349
 21
0.2277578011663825
 72
     1
 10
1.334894511593491
 20
0.2277578011663825
 11
1.334894511593491
 21
0.0926825211976832
 72
     1
 10
1.334894511593491
 20
0.0926825211976832
 11
1.358588656007891
 21
0.0926825211976832
 72
     1
 10
1.358588656007891
 20
0.0926825211976832
 11
1.358588656007891
 21
0.0947347699264896
 72
     1
 10
1.358588656007891
 20
0.0947347699264896
 11
1.358588656007891
 21
0.1001452438478876
 72
     1
 10
1.358588656007891
 20
0.1001452438478875
 11
1.358588656007891
 21
0.1079811026306024
 72
     1
 10
1.358588656007891
 20
0.1079811026306024
 11
1.358588656007891
 21
0.1170296538439752
 72
     1
 10
1.358588656007891
 20
0.1170296538439753
 11
1.358588656007891
 21
0.1262647731236032
 72
     1
 10
1.358588656007891
 20
0.1262647731236031
 11
1.358588656007891
 21
0.1347536201382103
 72
     1
 10
1.358588656007891
 20
0.1347536201382104
 11
1.358588656007891
 21
0.1412835024571394
 72
     1
 10
1.358588656007891
 20
0.1412835024571393
 11
1.358588656007891
 21
0.1448282957159864
 72
     1
 10
1.358588656007891
 20
0.1448282957159865
 11
1.362320017332992
 21
0.1448282957159865
 72
     1
 10
1.362320017332992
 20
0.1448282957159865
 11
1.369409603850688
 21
0.1448282957159865
 72
     1
 10
1.369409603850688
 20
0.1448282957159865
 11
1.378738007163443
 21
0.1448282957159865
 72
     1
 10
1.378738007163443
 20
0.1448282957159865
 11
1.388999250807475
 21
0.1448282957159865
 72
     1
 10
1.388999250807473
 20
0.1448282957159865
 11
1.399260494451505
 21
0.1448282957159865
 72
     1
 10
1.399260494451506
 20
0.1448282957159865
 11
1.408215761631749
 21
0.1448282957159865
 72
     1
 10
1.408215761631748
 20
0.1448282957159865
 11
1.414745643950677
 21
0.1448282957159865
 72
     1
 10
1.414745643950678
 20
0.1448282957159865
 11
1.41773073301076
 21
0.1448282957159865
 72
     1
 10
1.417730733010761
 20
0.1448282957159865
 11
1.420062833838949
 21
0.1420297747221594
 72
     1
 10
1.420062833838949
 20
0.1420297747221597
 11
1.425193455660966
 21
0.1359663125688683
 72
     1
 10
1.425193455660965
 20
0.1359663125688683
 11
1.432283042178659
 21
0.1275707495873888
 72
     1
 10
1.432283042178659
 20
0.1275707495873886
 11
1.440305469027628
 21
0.1180557782083779
 72
     1
 10
1.440305469027629
 20
0.1180557782083781
 11
1.448234611843471
 21
0.1087273748956225
 72
     1
 10
1.448234611843471
 20
0.1087273748956225
 11
1.455044346261782
 21
0.1006116640135252
 72
     1
 10
1.455044346261782
 20
0.1006116640135252
 11
1.459895115984414
 21
0.0948280539596167
 72
     1
 10
1.459895115984414
 20
0.0948280539596169
 11
1.461760796646965
 21
0.0926825211976832
 72
     1
 10
1.461760796646967
 20
0.0926825211976832
 11
1.49254452757906
 21
0.0926825211976832
 72
     1
 10
1.492544527579059
 20
0.0926825211976832
 11
1.490678846916508
 21
0.0948280539596169
 72
     1
 10
1.490678846916508
 20
0.0948280539596169
 11
1.48564150912762
 21
0.100518379980398
 72
     1
 10
1.48564150912762
 20
0.1005183799803981
 11
1.478458638576797
 21
0.1088206589287502
 72
     1
 10
1.478458638576798
 20
0.1088206589287502
 11
1.470063075595318
 21
0.1183356303077609
 72
     1
 10
1.470063075595317
 20
0.118335630307761
 11
1.461480944547582
 21
0.1282237378192818
 72
     1
 10
1.461480944547582
 20
0.1282237378192818
 11
1.453551801731739
 21
0.1372722890326546
 72
     1
 10
1.45355180173174
 20
0.1372722890326546
 11
1.447395055545323
 21
0.1444551595834761
 72
     1
 10
1.447395055545323
 20
0.1444551595834759
 11
1.443756978253349
 21
0.1485596570410882
 97
        0
 75
     0
 76
     1
 98
        1
 10
-0.3743130907707726
 20
-0.2500502867693841
1001
ACAD
1010
0.0
1020
0.0
1030
0.0
  0
HATCH
  5
923D
330
9238
100
AcDbEntity
  8
Kawneer Logo-English
100
AcDbHatch
 10
0.0
 20
0.0
 30
0.0
210
0.0
220
0.0
230
1.0
  2
SOLID
 70
     1
 71
     0
 91
        1
 92
        1
 93
       87
 72
     1
 10
1.205602841678699
 20
0.1525708704655737
 11
1.207468522341251
 21
0.1525708704655737
 72
     1
 10
1.207468522341252
 20
0.1525708704655737
 11
1.211199883666355
 21
0.1525708704655737
 72
     1
 10
1.211199883666355
 20
0.1525708704655737
 11
1.216517073554626
 21
0.1525708704655737
 72
     1
 10
1.216517073554626
 20
0.1525708704655737
 11
1.223046955873555
 21
0.1525708704655737
 72
     1
 10
1.223046955873553
 20
0.1525708704655737
 11
1.230602962556885
 21
0.1525708704655737
 72
     1
 10
1.230602962556885
 20
0.1525708704655737
 11
1.238998525538365
 21
0.1525708704655737
 72
     1
 10
1.238998525538365
 20
0.1525708704655737
 11
1.247767224652354
 21
0.1525708704655737
 72
     1
 10
1.247767224652355
 20
0.1525708704655737
 11
1.256815775865728
 21
0.1525708704655737
 72
     1
 10
1.256815775865729
 20
0.1525708704655737
 11
1.265771043045974
 21
0.1525708704655737
 72
     1
 10
1.265771043045973
 20
0.1525708704655737
 11
1.274446458126836
 21
0.1525708704655737
 72
     1
 10
1.274446458126837
 20
0.1525708704655737
 11
1.282562169008935
 21
0.1525708704655737
 72
     1
 10
1.282562169008935
 20
0.1525708704655737
 11
1.289745039559756
 21
0.1525708704655737
 72
     1
 10
1.289745039559755
 20
0.1525708704655737
 11
1.295808501713046
 21
0.1525708704655737
 72
     1
 10
1.295808501713046
 20
0.1525708704655737
 11
1.300472703369423
 21
0.1525708704655737
 72
     1
 10
1.300472703369423
 20
0.1525708704655737
 11
1.303457792429505
 21
0.1525708704655737
 72
     1
 10
1.303457792429505
 20
0.1525708704655737
 11
1.304483916793908
 21
0.1525708704655737
 72
     1
 10
1.304483916793908
 20
0.1525708704655737
 11
1.304483916793908
 21
0.1730000737205081
 72
     1
 10
1.304483916793908
 20
0.1730000737205078
 11
1.303457792429505
 21
0.1730000737205078
 72
     1
 10
1.303457792429505
 20
0.1730000737205078
 11
1.300472703369423
 21
0.1730000737205078
 72
     1
 10
1.300472703369423
 20
0.1730000737205078
 11
1.295808501713045
 21
0.1730000737205078
 72
     1
 10
1.295808501713046
 20
0.1730000737205078
 11
1.289745039559754
 21
0.1730000737205078
 72
     1
 10
1.289745039559755
 20
0.1730000737205078
 11
1.282562169008934
 21
0.1730000737205078
 72
     1
 10
1.282562169008935
 20
0.1730000737205078
 11
1.274446458126837
 21
0.1730000737205078
 72
     1
 10
1.274446458126837
 20
0.1730000737205078
 11
1.265771043045975
 21
0.1730000737205078
 72
     1
 10
1.265771043045973
 20
0.1730000737205078
 11
1.256815775865728
 21
0.1730000737205078
 72
     1
 10
1.256815775865729
 20
0.1730000737205078
 11
1.247767224652355
 21
0.1730000737205078
 72
     1
 10
1.247767224652355
 20
0.1730000737205078
 11
1.238998525538365
 21
0.1730000737205078
 72
     1
 10
1.238998525538365
 20
0.1730000737205078
 11
1.230602962556885
 21
0.1730000737205078
 72
     1
 10
1.230602962556885
 20
0.1730000737205078
 11
1.223046955873553
 21
0.1730000737205078
 72
     1
 10
1.223046955873553
 20
0.1730000737205078
 11
1.216517073554625
 21
0.1730000737205078
 72
     1
 10
1.216517073554626
 20
0.1730000737205078
 11
1.211199883666355
 21
0.1730000737205078
 72
     1
 10
1.211199883666355
 20
0.1730000737205078
 11
1.207468522341252
 21
0.1730000737205078
 72
     1
 10
1.207468522341252
 20
0.1730000737205078
 11
1.205602841678701
 21
0.1730000737205078
 72
     1
 10
1.205602841678699
 20
0.1730000737205078
 11
1.205602841678699
 21
0.1754254585818243
 72
     1
 10
1.205602841678699
 20
0.1754254585818245
 11
1.205602841678699
 21
0.1794366720063095
 72
     1
 10
1.205602841678699
 20
0.1794366720063094
 11
1.205602841678699
 21
0.1843807257620694
 72
     1
 10
1.205602841678699
 20
0.1843807257620694
 11
1.205602841678699
 21
0.1898844837165951
 72
     1
 10
1.205602841678699
 20
0.1898844837165951
 11
1.205602841678699
 21
0.1952949576379935
 72
     1
 10
1.205602841678699
 20
0.1952949576379937
 11
1.205602841678699
 21
0.2003322954268815
 72
     1
 10
1.205602841678699
 20
0.2003322954268814
 11
1.205602841678699
 21
0.2042502248182386
 72
     1
 10
1.205602841678699
 20
0.2042502248182386
 11
1.205602841678699
 21
0.206675609679555
 72
     1
 10
1.205602841678699
 20
0.206675609679555
 11
1.207468522341251
 21
0.206675609679555
 72
     1
 10
1.207468522341252
 20
0.206675609679555
 11
1.211293167699483
 21
0.206675609679555
 72
     1
 10
1.211293167699483
 20
0.206675609679555
 11
1.21670364162088
 21
0.206675609679555
 72
     1
 10
1.216703641620879
 20
0.206675609679555
 11
1.223420092006063
 21
0.206675609679555
 72
     1
 10
1.223420092006064
 20
0.206675609679555
 11
1.231255950788778
 21
0.206675609679555
 72
     1
 10
1.231255950788778
 20
0.206675609679555
 11
1.239744797803386
 21
0.206675609679555
 72
     1
 10
1.239744797803385
 20
0.206675609679555
 11
1.248886633049885
 21
0.206675609679555
 72
     1
 10
1.248886633049885
 20
0.206675609679555
 11
1.258121752329513
 21
0.206675609679555
 72
     1
 10
1.258121752329514
 20
0.206675609679555
 11
1.267356871609143
 21
0.206675609679555
 72
     1
 10
1.267356871609142
 20
0.206675609679555
 11
1.276218854756259
 21
0.206675609679555
 72
     1
 10
1.276218854756259
 20
0.206675609679555
 11
1.284521133704611
 21
0.206675609679555
 72
     1
 10
1.284521133704611
 20
0.206675609679555
 11
1.291890572321688
 21
0.206675609679555
 72
     1
 10
1.291890572321688
 20
0.206675609679555
 11
1.298140602541234
 21
0.206675609679555
 72
     1
 10
1.298140602541234
 20
0.206675609679555
 11
1.30289808823074
 21
0.206675609679555
 72
     1
 10
1.30289808823074
 20
0.206675609679555
 11
1.305976461323949
 21
0.206675609679555
 72
     1
 10
1.305976461323949
 20
0.206675609679555
 11
1.30709586972148
 21
0.206675609679555
 72
     1
 10
1.307095869721479
 20
0.206675609679555
 11
1.307095869721479
 21
0.2277578011663822
 72
     1
 10
1.307095869721479
 20
0.2277578011663825
 11
1.304577200827036
 21
0.2277578011663825
 72
     1
 10
1.304577200827037
 20
0.2277578011663825
 11
1.182188549363684
 21
0.2277578011663825
 72
     1
 10
1.182188549363684
 20
0.2277578011663825
 11
1.182188549363684
 21
0.0926825211976832
 72
     1
 10
1.182188549363684
 20
0.0926825211976832
 11
1.311853355410986
 21
0.0926825211976832
 72
     1
 10
1.311853355410985
 20
0.0926825211976832
 11
1.311853355410985
 21
0.113671428651383
 72
     1
 10
1.311853355410985
 20
0.1136714286513832
 11
1.310733947013454
 21
0.1136714286513832
 72
     1
 10
1.310733947013455
 20
0.1136714286513832
 11
1.307469005853991
 21
0.1136714286513832
 72
     1
 10
1.307469005853991
 20
0.1136714286513832
 11
1.302431668065102
 21
0.1136714286513832
 72
     1
 10
1.302431668065103
 20
0.1136714286513832
 11
1.295901785746174
 21
0.1136714286513832
 72
     1
 10
1.295901785746174
 20
0.1136714286513832
 11
1.288159210996586
 21
0.1136714286513832
 72
     1
 10
1.288159210996587
 20
0.1136714286513832
 11
1.279483795915724
 21
0.1136714286513832
 72
     1
 10
1.279483795915723
 20
0.1136714286513832
 11
1.270155392602968
 21
0.1136714286513832
 72
     1
 10
1.270155392602969
 20
0.1136714286513832
 11
1.260547137190832
 21
0.1136714286513832
 72
     1
 10
1.260547137190831
 20
0.1136714286513832
 11
1.250752313712437
 21
0.1136714286513832
 72
     1
 10
1.250752313712437
 20
0.1136714286513832
 11
1.241330626366554
 21
0.1136714286513832
 72
     1
 10
1.241330626366555
 20
0.1136714286513832
 11
1.23237535918631
 21
0.1136714286513832
 72
     1
 10
1.232375359186308
 20
0.1136714286513832
 11
1.224166364271082
 21
0.1136714286513832
 72
     1
 10
1.224166364271083
 20
0.1136714286513832
 11
1.217170061786517
 21
0.1136714286513832
 72
     1
 10
1.217170061786517
 20
0.1136714286513832
 11
1.211479735765737
 21
0.1136714286513832
 72
     1
 10
1.211479735765737
 20
0.1136714286513832
 11
1.20756180637438
 21
0.1136714286513832
 72
     1
 10
1.207561806374379
 20
0.1136714286513832
 11
1.2056028416787
 21
0.1136714286513832
 72
     1
 10
1.205602841678699
 20
0.1136714286513832
 11
1.205602841678699
 21
0.1163766656120825
 72
     1
 10
1.205602841678699
 20
0.1163766656120823
 11
1.205602841678699
 21
0.1209475832353323
 72
     1
 10
1.205602841678699
 20
0.1209475832353325
 11
1.205602841678699
 21
0.1267311932892411
 72
     1
 10
1.205602841678699
 20
0.1267311932892408
 11
1.205602841678699
 21
0.1330745075419143
 72
     1
 10
1.205602841678699
 20
0.1330745075419144
 11
1.205602841678699
 21
0.1395111058277156
 72
     1
 10
1.205602841678699
 20
0.1395111058277158
 11
1.205602841678699
 21
0.1452947158816239
 72
     1
 10
1.205602841678699
 20
0.145294715881624
 11
1.205602841678699
 21
0.1498656335048746
 72
     1
 10
1.205602841678699
 20
0.1498656335048745
 11
1.205602841678699
 21
0.1525708704655738
 97
        0
 75
     0
 76
     1
 98
        1
 10
-0.3743130907707726
 20
-0.2500502867693841
1001
ACAD
1010
0.0
1020
0.0
1030
0.0
  0
HATCH
  5
923E
330
9238
100
AcDbEntity
  8
Kawneer Logo-English
100
AcDbHatch
 10
0.0
 20
0.0
 30
0.0
210
0.0
220
0.0
230
1.0
  2
SOLID
 70
     1
 71
     0
 91
        1
 92
        1
 93
       87
 72
     1
 10
1.049352086190046
 20
0.1525708704655737
 11
1.051217766852597
 21
0.1525708704655737
 72
     1
 10
1.051217766852596
 20
0.1525708704655737
 11
1.054949128177699
 21
0.1525708704655737
 72
     1
 10
1.0549491281777
 20
0.1525708704655737
 11
1.060173034032843
 21
0.1525708704655737
 72
     1
 10
1.060173034032843
 20
0.1525708704655737
 11
1.0667962003849
 21
0.1525708704655737
 72
     1
 10
1.0667962003849
 20
0.1525708704655737
 11
1.074352207068231
 21
0.1525708704655737
 72
     1
 10
1.074352207068232
 20
0.1525708704655737
 11
1.082747770049711
 21
0.1525708704655737
 72
     1
 10
1.082747770049711
 20
0.1525708704655737
 11
1.0915164691637
 21
0.1525708704655737
 72
     1
 10
1.091516469163701
 20
0.1525708704655737
 11
1.100565020377075
 21
0.1525708704655737
 72
     1
 10
1.100565020377073
 20
0.1525708704655737
 11
1.109520287557319
 21
0.1525708704655737
 72
     1
 10
1.10952028755732
 20
0.1525708704655737
 11
1.118195702638183
 21
0.1525708704655737
 72
     1
 10
1.118195702638182
 20
0.1525708704655737
 11
1.126218129487151
 21
0.1525708704655737
 72
     1
 10
1.126218129487152
 20
0.1525708704655737
 11
1.133401000037974
 21
0.1525708704655737
 72
     1
 10
1.133401000037974
 20
0.1525708704655737
 11
1.139557746224391
 21
0.1525708704655737
 72
     1
 10
1.139557746224392
 20
0.1525708704655737
 11
1.14422194788077
 21
0.1525708704655737
 72
     1
 10
1.144221947880769
 20
0.1525708704655737
 11
1.147207036940851
 21
0.1525708704655737
 72
     1
 10
1.147207036940852
 20
0.1525708704655737
 11
1.148233161305255
 21
0.1525708704655737
 72
     1
 10
1.148233161305255
 20
0.1525708704655737
 11
1.148233161305255
 21
0.1730000737205081
 72
     1
 10
1.148233161305255
 20
0.1730000737205078
 11
1.147207036940852
 21
0.1730000737205078
 72
     1
 10
1.147207036940852
 20
0.1730000737205078
 11
1.14422194788077
 21
0.1730000737205078
 72
     1
 10
1.144221947880769
 20
0.1730000737205078
 11
1.139557746224391
 21
0.1730000737205078
 72
     1
 10
1.139557746224392
 20
0.1730000737205078
 11
1.133494284071101
 21
0.1730000737205078
 72
     1
 10
1.133494284071101
 20
0.1730000737205078
 11
1.126218129487152
 21
0.1730000737205078
 72
     1
 10
1.126218129487152
 20
0.1730000737205078
 11
1.118195702638183
 21
0.1730000737205078
 72
     1
 10
1.118195702638182
 20
0.1730000737205078
 11
1.10952028755732
 21
0.1730000737205078
 72
     1
 10
1.10952028755732
 20
0.1730000737205078
 11
1.100565020377074
 21
0.1730000737205078
 72
     1
 10
1.100565020377073
 20
0.1730000737205078
 11
1.0915164691637
 21
0.1730000737205078
 72
     1
 10
1.091516469163701
 20
0.1730000737205078
 11
1.082747770049712
 21
0.1730000737205078
 72
     1
 10
1.082747770049711
 20
0.1730000737205078
 11
1.074352207068231
 21
0.1730000737205078
 72
     1
 10
1.074352207068232
 20
0.1730000737205078
 11
1.0667962003849
 21
0.1730000737205078
 72
     1
 10
1.0667962003849
 20
0.1730000737205078
 11
1.060173034032843
 21
0.1730000737205078
 72
     1
 10
1.060173034032843
 20
0.1730000737205078
 11
1.054949128177701
 21
0.1730000737205078
 72
     1
 10
1.0549491281777
 20
0.1730000737205078
 11
1.051217766852597
 21
0.1730000737205078
 72
     1
 10
1.051217766852596
 20
0.1730000737205078
 11
1.049352086190045
 21
0.1730000737205078
 72
     1
 10
1.049352086190046
 20
0.1730000737205078
 11
1.049352086190046
 21
0.1754254585818243
 72
     1
 10
1.049352086190046
 20
0.1754254585818245
 11
1.049352086190046
 21
0.1794366720063095
 72
     1
 10
1.049352086190046
 20
0.1794366720063094
 11
1.049352086190046
 21
0.1843807257620694
 72
     1
 10
1.049352086190046
 20
0.1843807257620694
 11
1.049352086190046
 21
0.1898844837165951
 72
     1
 10
1.049352086190046
 20
0.1898844837165951
 11
1.049352086190046
 21
0.1952949576379935
 72
     1
 10
1.049352086190046
 20
0.1952949576379937
 11
1.049352086190046
 21
0.2003322954268815
 72
     1
 10
1.049352086190046
 20
0.2003322954268814
 11
1.049352086190046
 21
0.2042502248182386
 72
     1
 10
1.049352086190046
 20
0.2042502248182386
 11
1.049352086190046
 21
0.206675609679555
 72
     1
 10
1.049352086190046
 20
0.206675609679555
 11
1.051217766852597
 21
0.206675609679555
 72
     1
 10
1.051217766852596
 20
0.206675609679555
 11
1.055042412210825
 21
0.206675609679555
 72
     1
 10
1.055042412210827
 20
0.206675609679555
 11
1.060452886132226
 21
0.206675609679555
 72
     1
 10
1.060452886132225
 20
0.206675609679555
 11
1.067169336517409
 21
0.206675609679555
 72
     1
 10
1.06716933651741
 20
0.206675609679555
 11
1.075005195300124
 21
0.206675609679555
 72
     1
 10
1.075005195300123
 20
0.206675609679555
 11
1.083494042314731
 21
0.206675609679555
 72
     1
 10
1.083494042314732
 20
0.206675609679555
 11
1.092542593528105
 21
0.206675609679555
 72
     1
 10
1.092542593528106
 20
0.206675609679555
 11
1.10187099684086
 21
0.206675609679555
 72
     1
 10
1.101870996840861
 20
0.206675609679555
 11
1.111106116120489
 21
0.206675609679555
 72
     1
 10
1.111106116120488
 20
0.206675609679555
 11
1.119968099267605
 21
0.206675609679555
 72
     1
 10
1.119968099267605
 20
0.206675609679555
 11
1.128270378215957
 21
0.206675609679555
 72
     1
 10
1.128270378215957
 20
0.206675609679555
 11
1.135639816833034
 21
0.206675609679555
 72
     1
 10
1.135639816833034
 20
0.206675609679555
 11
1.14188984705258
 21
0.206675609679555
 72
     1
 10
1.141889847052581
 20
0.206675609679555
 11
1.146647332742086
 21
0.206675609679555
 72
     1
 10
1.146647332742086
 20
0.206675609679555
 11
1.149725705835295
 21
0.206675609679555
 72
     1
 10
1.149725705835296
 20
0.206675609679555
 11
1.150845114232827
 21
0.206675609679555
 72
     1
 10
1.150845114232826
 20
0.206675609679555
 11
1.150845114232826
 21
0.2277578011663822
 72
     1
 10
1.150845114232826
 20
0.2277578011663825
 11
1.148326445338383
 21
0.2277578011663825
 72
     1
 10
1.148326445338383
 20
0.2277578011663825
 11
1.025937793875031
 21
0.2277578011663825
 72
     1
 10
1.025937793875032
 20
0.2277578011663825
 11
1.025937793875032
 21
0.0926825211976832
 72
     1
 10
1.025937793875032
 20
0.0926825211976832
 11
1.155602599922332
 21
0.0926825211976832
 72
     1
 10
1.155602599922332
 20
0.0926825211976832
 11
1.155602599922332
 21
0.113671428651383
 72
     1
 10
1.155602599922332
 20
0.1136714286513832
 11
1.154483191524801
 21
0.1136714286513832
 72
     1
 10
1.154483191524799
 20
0.1136714286513832
 11
1.151218250365336
 21
0.1136714286513832
 72
     1
 10
1.151218250365338
 20
0.1136714286513832
 11
1.146180912576449
 21
0.1136714286513832
 72
     1
 10
1.146180912576449
 20
0.1136714286513832
 11
1.13965103025752
 21
0.1136714286513832
 72
     1
 10
1.13965103025752
 20
0.1136714286513832
 11
1.131908455507932
 21
0.1136714286513832
 72
     1
 10
1.131908455507931
 20
0.1136714286513832
 11
1.12323304042707
 21
0.1136714286513832
 72
     1
 10
1.123233040427071
 20
0.1136714286513832
 11
1.113904637114314
 21
0.1136714286513832
 72
     1
 10
1.113904637114314
 20
0.1136714286513832
 11
1.104296381702177
 21
0.1136714286513832
 72
     1
 10
1.104296381702177
 20
0.1136714286513832
 11
1.094501558223783
 21
0.1136714286513832
 72
     1
 10
1.094501558223784
 20
0.1136714286513832
 11
1.085079870877901
 21
0.1136714286513832
 72
     1
 10
1.085079870877899
 20
0.1136714286513832
 11
1.076124603697654
 21
0.1136714286513832
 72
     1
 10
1.076124603697655
 20
0.1136714286513832
 11
1.067915608782429
 21
0.1136714286513832
 72
     1
 10
1.067915608782429
 20
0.1136714286513832
 11
1.060919306297863
 21
0.1136714286513832
 72
     1
 10
1.060919306297863
 20
0.1136714286513832
 11
1.055228980277083
 21
0.1136714286513832
 72
     1
 10
1.055228980277082
 20
0.1136714286513832
 11
1.051311050885725
 21
0.1136714286513832
 72
     1
 10
1.051311050885726
 20
0.1136714286513832
 11
1.049352086190046
 21
0.1136714286513832
 72
     1
 10
1.049352086190046
 20
0.1136714286513832
 11
1.049352086190046
 21
0.1163766656120825
 72
     1
 10
1.049352086190046
 20
0.1163766656120823
 11
1.049352086190046
 21
0.1209475832353323
 72
     1
 10
1.049352086190046
 20
0.1209475832353325
 11
1.049352086190046
 21
0.1267311932892411
 72
     1
 10
1.049352086190046
 20
0.1267311932892408
 11
1.049352086190046
 21
0.1330745075419143
 72
     1
 10
1.049352086190046
 20
0.1330745075419144
 11
1.049352086190046
 21
0.1395111058277156
 72
     1
 10
1.049352086190046
 20
0.1395111058277158
 11
1.049352086190046
 21
0.1452947158816239
 72
     1
 10
1.049352086190046
 20
0.145294715881624
 11
1.049352086190046
 21
0.1498656335048746
 72
     1
 10
1.049352086190046
 20
0.1498656335048745
 11
1.049352086190046
 21
0.1525708704655738
 97
        0
 75
     0
 76
     1
 98
        1
 10
-0.3743130907707726
 20
-0.2500502867693841
1001
ACAD
1010
0.0
1020
0.0
1030
0.0
  0
HATCH
  5
923F
330
9238
100
AcDbEntity
  8
Kawneer Logo-English
100
AcDbHatch
 10
0.0
 20
0.0
 30
0.0
210
0.0
220
0.0
230
1.0
  2
SOLID
 70
     1
 71
     0
 91
        1
 92
        1
 93
       42
 72
     1
 10
0.9725793269260698
 20
0.2277578011663825
 11
0.9725793269260698
 21
0.1354998924032311
 72
     1
 10
0.9725793269260698
 20
0.1354998924032311
 11
0.9729524630585808
 21
0.1264513411898582
 72
     1
 10
0.9729524630585796
 20
0.1264513411898583
 11
0.9729524630585796
 21
0.1255185008585825
 72
     1
 10
0.9729524630585796
 20
0.1255185008585824
 11
0.9731390311248343
 21
0.1238393882622866
 72
     1
 10
0.9731390311248349
 20
0.1238393882622866
 11
0.9717397706279211
 21
0.1254252168254551
 72
     1
 10
0.97173977062792
 20
0.1254252168254551
 11
0.9710867823960281
 21
0.1262647731236031
 72
     1
 10
0.9710867823960294
 20
0.1262647731236031
 11
0.9641837639445897
 21
0.1339140638400625
 72
     1
 10
0.9641837639445899
 20
0.1339140638400624
 11
0.8755639324734129
 21
0.2277578011663823
 72
     1
 10
0.8755639324734115
 20
0.2277578011663825
 11
0.8529891964565429
 21
0.2277578011663825
 72
     1
 10
0.8529891964565434
 20
0.2277578011663825
 11
0.8529891964565434
 21
0.0926825211976832
 72
     1
 10
0.8529891964565434
 20
0.0926825211976832
 11
0.8756572165065401
 21
0.0926825211976832
 72
     1
 10
0.875657216506541
 20
0.0926825211976832
 11
0.875657216506541
 21
0.1927762887435495
 72
     1
 10
0.875657216506541
 20
0.1927762887435495
 11
0.875657216506541
 21
0.1931494248760597
 72
     1
 10
0.875657216506541
 20
0.1931494248760596
 11
0.8755639324734129
 21
0.193988981174208
 72
     1
 10
0.8755639324734115
 20
0.1939889811742079
 11
0.8754706484402849
 21
0.1952949576379935
 72
     1
 10
0.8754706484402859
 20
0.1952949576379937
 11
0.8753773644071577
 21
0.1967875021680344
 72
     1
 10
0.875377364407158
 20
0.1967875021680343
 11
0.8755639324734126
 21
0.1965076500686515
 72
     1
 10
0.8755639324734115
 20
0.1965076500686517
 11
0.8756572165065396
 21
0.1963210820023967
 72
     1
 10
0.875657216506541
 20
0.1963210820023967
 11
0.8764967728046894
 21
0.1954815257042487
 72
     1
 10
0.8764967728046887
 20
0.1954815257042488
 11
0.8781758854009835
 21
0.1936158450416976
 72
     1
 10
0.8781758854009842
 20
0.1936158450416973
 11
0.8797617139641527
 21
0.1917501643791464
 72
     1
 10
0.879761713964152
 20
0.1917501643791466
 11
0.8805079862291723
 21
0.1909106080809982
 72
     1
 10
0.8805079862291727
 20
0.190910608080998
 11
0.8816273946267036
 21
0.1897911996834678
 72
     1
 10
0.8816273946267028
 20
0.1897911996834681
 11
0.884519199653657
 21
0.1867128265902584
 72
     1
 10
0.8845191996536581
 20
0.1867128265902582
 11
0.8891834013100353
 21
0.1818620568676254
 72
     1
 10
0.889183401310035
 20
0.1818620568676252
 11
0.8951535794301982
 21
0.1756120266480794
 72
     1
 10
0.8951535794301985
 20
0.1756120266480794
 11
0.9021498819147662
 21
0.1681493039978751
 72
     1
 10
0.9021498819147669
 20
0.1681493039978752
 11
0.9099857406974814
 21
0.1598470250495227
 72
     1
 10
0.9099857406974813
 20
0.1598470250495225
 11
0.9183813036789613
 21
0.1509850419024051
 72
     1
 10
0.9183813036789612
 20
0.1509850419024052
 11
0.9271500027929521
 21
0.1418432066559046
 72
     1
 10
0.9271500027929509
 20
0.1418432066559046
 11
0.9358254178738118
 21
0.1326080873762767
 72
     1
 10
0.9358254178738132
 20
0.1326080873762767
 11
0.9442209808552931
 21
0.1237461042291589
 72
     1
 10
0.9442209808552931
 20
0.1237461042291589
 11
0.9520568396380092
 21
0.1154438252808068
 72
     1
 10
0.9520568396380092
 20
0.1154438252808068
 11
0.9590531421225751
 21
0.1079811026306025
 72
     1
 10
0.959053142122574
 20
0.1079811026306024
 11
0.9650233202427372
 21
0.101731072411056
 72
     1
 10
0.9650233202427376
 20
0.101731072411056
 11
0.9695942378659868
 21
0.0968803026884232
 72
     1
 10
0.9695942378659871
 20
0.096880302688423
 11
0.9725793269260696
 21
0.0938019295952138
 72
     1
 10
0.9725793269260698
 20
0.093801929595214
 11
0.9736054512904727
 21
0.0926825211976834
 72
     1
 10
0.9736054512904726
 20
0.0926825211976832
 11
0.9952473469760661
 21
0.0926825211976832
 72
     1
 10
0.9952473469760651
 20
0.0926825211976832
 11
0.9952473469760651
 21
0.2277578011663825
 72
     1
 10
0.9952473469760651
 20
0.2277578011663825
 11
0.9927286780816201
 21
0.2277578011663825
 72
     1
 10
0.9927286780816203
 20
0.2277578011663825
 11
0.9725793269260686
 21
0.2277578011663825
 97
        0
 75
     0
 76
     1
 98
        1
 10
-0.3743130907707726
 20
-0.2500502867693841
1001
ACAD
1010
0.0
1020
0.0
1030
0.0
  0
HATCH
  5
9240
330
9238
100
AcDbEntity
  8
Kawneer Logo-English
100
AcDbHatch
 10
0.0
 20
0.0
 30
0.0
210
0.0
220
0.0
230
1.0
  2
SOLID
 70
     1
 71
     0
 91
        2
 92
       16
 93
       32
 72
     1
 10
0.5269615006757409
 20
0.144641727649731
 11
0.5290137494045469
 21
0.148652941074216
 72
     1
 10
0.5290137494045464
 20
0.1486529410742159
 11
0.5322786905640116
 21
0.1551828233931449
 72
     1
 10
0.532278690564012
 20
0.1551828233931452
 11
0.5364764720547521
 21
0.1633918183083696
 72
     1
 10
0.5364764720547526
 20
0.1633918183083696
 11
0.5409541056448736
 21
0.1722538014554874
 72
     1
 10
0.5409541056448726
 20
0.1722538014554873
 11
0.545338455201869
 21
0.1808359325032223
 72
     1
 10
0.5453384552018701
 20
0.1808359325032223
 11
0.5490698165269726
 21
0.1882053711202994
 72
     1
 10
0.549069816526973
 20
0.1882053711202996
 11
0.5515884854214162
 21
0.1932427089091875
 72
     1
 10
0.5515884854214148
 20
0.1932427089091872
 11
0.5526146097858177
 21
0.1952016736048658
 72
     1
 10
0.5526146097858194
 20
0.1952016736048658
 11
0.552801177852074
 21
0.195761377803631
 72
     1
 10
0.5528011778520723
 20
0.1957613778036309
 11
0.5533608820508379
 21
0.1970673542674166
 72
     1
 10
0.5533608820508378
 20
0.1970673542674169
 11
0.5542004383489863
 21
0.1990263189630955
 72
     1
 10
0.5542004383489872
 20
0.1990263189630952
 11
0.5550399946471356
 21
0.2012651357581567
 72
     1
 10
0.5550399946471352
 20
0.2012651357581567
 11
0.5555064148127727
 21
0.2001457273606265
 72
     1
 10
0.5555064148127729
 20
0.2001457273606264
 11
0.5560661190115385
 21
0.198933034929968
 72
     1
 10
0.5560661190115379
 20
0.198933034929968
 11
0.5567191072434298
 21
0.197533774433055
 72
     1
 10
0.5567191072434304
 20
0.197533774433055
 11
0.5574653795084506
 21
0.1959479458698865
 72
     1
 10
0.557465379508451
 20
0.1959479458698865
 11
0.5583049358065995
 21
0.1942688332735902
 72
     1
 10
0.5583049358065986
 20
0.1942688332735903
 11
0.5606370366347874
 21
0.1896046316172126
 72
     1
 10
0.5606370366347871
 20
0.1896046316172126
 11
0.5639952618273804
 21
0.1828881812320289
 72
     1
 10
0.5639952618273814
 20
0.1828881812320287
 11
0.5680064752518651
 21
0.1748657543830587
 72
     1
 10
0.5680064752518637
 20
0.1748657543830589
 11
0.57239082480886
 21
0.1661903393021966
 72
     1
 10
0.5723908248088612
 20
0.1661903393021967
 11
0.5765886062996012
 21
0.1577947763207168
 72
     1
 10
0.5765886062996
 20
0.1577947763207165
 11
0.5803199676247008
 21
0.1503320536705122
 72
     1
 10
0.5803199676247015
 20
0.1503320536705122
 11
0.5831184886185295
 21
0.144641727649731
 72
     1
 10
0.5831184886185295
 20
0.144641727649731
 11
0.5791072751940441
 21
0.144641727649731
 72
     1
 10
0.5791072751940436
 20
0.144641727649731
 11
0.5724841088419869
 21
0.144641727649731
 72
     1
 10
0.5724841088419872
 20
0.144641727649731
 11
0.5641818298936356
 21
0.144641727649731
 72
     1
 10
0.5641818298936352
 20
0.144641727649731
 11
0.5550399946471351
 21
0.144641727649731
 72
     1
 10
0.5550399946471352
 20
0.144641727649731
 11
0.5458981594006351
 21
0.144641727649731
 72
     1
 10
0.5458981594006352
 20
0.144641727649731
 11
0.5375958804522815
 21
0.144641727649731
 72
     1
 10
0.5375958804522814
 20
0.144641727649731
 11
0.5310659981333528
 21
0.144641727649731
 72
     1
 10
0.5310659981333524
 20
0.144641727649731
 11
0.5269615006757405
 21
0.144641727649731
 97
        0
 92
        1
 93
      141
 72
     1
 10
0.5656743744236757
 20
0.2277578011663825
 11
0.544405614870593
 21
0.2277578011663825
 72
     1
 10
0.544405614870593
 20
0.2277578011663825
 11
0.4748157261574382
 21
0.0934287934627039
 72
     1
 10
0.4748157261574378
 20
0.0934287934627039
 11
0.4729500454948865
 21
0.0955743262246376
 72
     1
 10
0.4729500454948874
 20
0.0955743262246376
 11
0.4699649564348049
 21
0.0991191194834847
 72
     1
 10
0.4699649564348043
 20
0.0991191194834847
 11
0.4661403110765752
 21
0.1036900371067346
 72
     1
 10
0.4661403110765754
 20
0.1036900371067347
 11
0.4615693934533244
 21
0.1091005110281331
 72
     1
 10
0.461569393453325
 20
0.109100511028133
 11
0.456345487598182
 21
0.1152572572145517
 72
     1
 10
0.4563454875981812
 20
0.1152572572145516
 11
0.4506551615774008
 21
0.1219737075997353
 72
     1
 10
0.4506551615774015
 20
0.1219737075997354
 11
0.4447782674903648
 21
0.1290632941174296
 72
     1
 10
0.4447782674903636
 20
0.1290632941174296
 11
0.4387148053370722
 21
0.1362461646682511
 72
     1
 10
0.4387148053370727
 20
0.1362461646682512
 11
0.4326513431837832
 21
0.1433357511859454
 72
     1
 10
0.4326513431837844
 20
0.1433357511859453
 11
0.4268677331298759
 21
0.1502387696373844
 72
     1
 10
0.4268677331298756
 20
0.1502387696373844
 11
0.4214572592084763
 21
0.1566753679231857
 72
     1
 10
0.4214572592084754
 20
0.1566753679231858
 11
0.4165132054527153
 21
0.1625522620102216
 72
     1
 10
0.4165132054527163
 20
0.1625522620102216
 11
0.4123154239619763
 21
0.1674963157659821
 72
     1
 10
0.4123154239619753
 20
0.1674963157659822
 11
0.4088639147362555
 21
0.1715075291904667
 72
     1
 10
0.4088639147362568
 20
0.1715075291904669
 11
0.4065318139080681
 21
0.1743993342174211
 72
     1
 10
0.4065318139080665
 20
0.1743993342174211
 11
0.405319121477409
 21
0.1757985947143345
 72
     1
 10
0.4053191214774104
 20
0.1757985947143345
 11
0.4067183819743243
 21
0.1769180031118651
 72
     1
 10
0.4067183819743235
 20
0.1769180031118651
 11
0.4094236189350213
 21
0.1788769678075437
 72
     1
 10
0.4094236189350218
 20
0.1788769678075437
 11
0.4132482642932526
 21
0.1816754888013702
 72
     1
 10
0.4132482642932525
 20
0.1816754888013703
 11
0.4179124659496298
 21
0.1852202820602174
 72
     1
 10
0.417912465949629
 20
0.1852202820602174
 11
0.4232296558379
 21
0.189138211451575
 72
     1
 10
0.4232296558379001
 20
0.1891382114515751
 11
0.4291065499249351
 21
0.1935225610085696
 72
     1
 10
0.4291065499249367
 20
0.1935225610085698
 11
0.4352632961113562
 21
0.1981867626649482
 72
     1
 10
0.4352632961113554
 20
0.1981867626649479
 11
0.4416066103640296
 21
0.2028509643213252
 72
     1
 10
0.4416066103640293
 20
0.2028509643213252
 11
0.4479499246167016
 21
0.2076084500108307
 72
     1
 10
0.4479499246167018
 20
0.2076084500108307
 11
0.4540133867699932
 21
0.2120860836009535
 72
     1
 10
0.4540133867699927
 20
0.2120860836009535
 11
0.4596104287576467
 21
0.2162838650916932
 72
     1
 10
0.4596104287576468
 20
0.216283865091693
 11
0.4646477665465351
 21
0.2200152264167952
 72
     1
 10
0.464647766546535
 20
0.2200152264167951
 11
0.4689388320704013
 21
0.223186883543132
 72
     1
 10
0.4689388320704016
 20
0.2231868835431323
 11
0.4721104891967386
 21
0.2256122684044488
 72
     1
 10
0.4721104891967376
 20
0.2256122684044488
 11
0.4742560219586717
 21
0.2271980969676172
 72
     1
 10
0.4742560219586727
 20
0.2271980969676173
 11
0.475002294223693
 21
0.2277578011663825
 72
     1
 10
0.4750022942236929
 20
0.2277578011663825
 11
0.4674462875403612
 21
0.2277578011663825
 72
     1
 10
0.4674462875403611
 20
0.2277578011663825
 11
0.4395543616352215
 21
0.2277578011663825
 72
     1
 10
0.439554361635222
 20
0.2277578011663825
 11
0.4386215213039473
 21
0.2270115289013622
 72
     1
 10
0.4386215213039466
 20
0.2270115289013622
 11
0.4359162843432469
 21
0.2250525642056836
 72
     1
 10
0.4359162843432465
 20
0.2250525642056836
 11
0.4318117868856346
 21
0.2220674751456017
 72
     1
 10
0.4318117868856351
 20
0.2220674751456017
 11
0.4264013129642376
 21
0.2180562617211167
 72
     1
 10
0.4264013129642379
 20
0.2180562617211168
 11
0.4200579987115638
 21
0.2132987760316117
 72
     1
 10
0.4200579987115641
 20
0.2132987760316114
 11
0.4128751281607416
 21
0.2079815861433408
 72
     1
 10
0.4128751281607408
 20
0.2079815861433408
 11
0.4051325534111546
 21
0.20229126012256
 72
     1
 10
0.4051325534111552
 20
0.20229126012256
 11
0.397016842529058
 21
0.1963210820023964
 72
     1
 10
0.3970168425290583
 20
0.1963210820023967
 11
0.3889011316469611
 21
0.1903509038822331
 72
     1
 10
0.3889011316469611
 20
0.190350903882233
 11
0.3808787047979902
 21
0.1844740097951972
 72
     1
 10
0.3808787047979898
 20
0.1844740097951974
 11
0.3733226981146581
 21
0.1787836837744166
 72
     1
 10
0.373322698114658
 20
0.1787836837744166
 11
0.3663263956300919
 21
0.173653061952401
 72
     1
 10
0.3663263956300931
 20
0.173653061952401
 11
0.3601696494436735
 21
0.169082144329151
 72
     1
 10
0.3601696494436726
 20
0.1690821443291508
 11
0.3550390276216579
 21
0.1653507830040483
 72
     1
 10
0.3550390276216584
 20
0.1653507830040482
 11
0.3513076662965558
 21
0.1625522620102218
 72
     1
 10
0.3513076662965551
 20
0.1625522620102216
 11
0.3490688495014928
 21
0.1609664334470531
 72
     1
 10
0.3490688495014926
 20
0.1609664334470531
 11
0.3490688495014926
 21
0.1631119662089868
 72
     1
 10
0.3490688495014926
 20
0.1631119662089868
 11
0.3490688495014926
 21
0.1662836233353237
 72
     1
 10
0.3490688495014926
 20
0.1662836233353238
 11
0.3490688495014926
 21
0.1702948367598088
 72
     1
 10
0.3490688495014926
 20
0.1702948367598088
 11
0.3490688495014926
 21
0.1749590384161865
 72
     1
 10
0.3490688495014926
 20
0.1749590384161865
 11
0.3490688495014926
 21
0.1801829442713294
 72
     1
 10
0.3490688495014926
 20
0.1801829442713296
 11
0.3490688495014926
 21
0.185779986258983
 72
     1
 10
0.3490688495014926
 20
0.1857799862589829
 11
0.3490688495014926
 21
0.1916568803460187
 72
     1
 10
0.3490688495014926
 20
0.1916568803460186
 11
0.3490688495014926
 21
0.1975337744330549
 72
     1
 10
0.3490688495014926
 20
0.197533774433055
 11
0.3490688495014926
 21
0.2033173844869632
 72
     1
 10
0.3490688495014926
 20
0.2033173844869631
 11
0.3490688495014926
 21
0.2088211424414888
 72
     1
 10
0.3490688495014926
 20
0.2088211424414888
 11
0.3490688495014926
 21
0.2139517642635044
 72
     1
 10
0.3490688495014926
 20
0.2139517642635044
 11
0.3490688495014926
 21
0.2185226818867544
 72
     1
 10
0.3490688495014926
 20
0.2185226818867545
 11
0.3490688495014926
 21
0.2222540432118567
 72
     1
 10
0.3490688495014926
 20
0.2222540432118567
 11
0.3490688495014926
 21
0.2252391322719387
 72
     1
 10
0.3490688495014926
 20
0.2252391322719387
 11
0.3490688495014926
 21
0.2271048129344895
 72
     1
 10
0.3490688495014926
 20
0.2271048129344895
 11
0.3490688495014926
 21
0.2277578011663825
 72
     1
 10
0.3490688495014926
 20
0.2277578011663825
 11
0.3258411252527322
 21
0.2277578011663825
 72
     1
 10
0.3258411252527336
 20
0.2277578011663825
 11
0.3258411252527336
 21
0.0926825211976832
 72
     1
 10
0.3258411252527336
 20
0.0926825211976832
 11
0.3486957133689848
 21
0.0926825211976832
 72
     1
 10
0.3486957133689845
 20
0.0926825211976832
 11
0.3486957133689845
 21
0.0943616337939795
 72
     1
 10
0.3486957133689845
 20
0.0943616337939795
 11
0.3486957133689845
 21
0.0988392673841017
 72
     1
 10
0.3486957133689845
 20
0.0988392673841017
 11
0.3486957133689845
 21
0.1051825816367752
 72
     1
 10
0.3486957133689845
 20
0.1051825816367753
 11
0.3486957133689845
 21
0.1125520202538523
 72
     1
 10
0.3486957133689845
 20
0.1125520202538524
 11
0.3486957133689845
 21
0.1200147429040567
 72
     1
 10
0.3486957133689845
 20
0.1200147429040567
 11
0.3486957133689845
 21
0.1267311932892408
 72
     1
 10
0.3486957133689845
 20
0.1267311932892408
 11
0.3486957133689845
 21
0.1317685310781287
 72
     1
 10
0.3486957133689845
 20
0.1317685310781289
 11
0.3486957133689845
 21
0.1342871999725727
 72
     1
 10
0.3486957133689845
 20
0.1342871999725725
 11
0.3507479620977905
 21
0.1356864604694859
 72
     1
 10
0.35074796209779
 20
0.1356864604694859
 11
0.3548524595554018
 21
0.1387648335626952
 72
     1
 10
0.3548524595554015
 20
0.1387648335626952
 11
0.3605427855761835
 21
0.1428693310203079
 72
     1
 10
0.3605427855761842
 20
0.1428693310203079
 11
0.3668860998288565
 21
0.1476268167098129
 72
     1
 10
0.3668860998288568
 20
0.1476268167098129
 11
0.373322698114659
 21
0.1522910183661906
 72
     1
 10
0.373322698114658
 20
0.1522910183661908
 11
0.3791995922016947
 21
0.1565820838900582
 72
     1
 10
0.3791995922016946
 20
0.1565820838900582
 11
0.3836772257918156
 21
0.1599403090826502
 72
     1
 10
0.3836772257918159
 20
0.1599403090826503
 11
0.386195894686261
 21
0.1618059897452011
 72
     1
 10
0.3861958946862609
 20
0.1618059897452011
 11
0.3873153030837921
 21
0.1604067292482882
 72
     1
 10
0.3873153030837915
 20
0.1604067292482878
 11
0.3894608358457238
 21
0.1577947763207163
 72
     1
 10
0.3894608358457248
 20
0.1577947763207165
 11
0.3925392089389353
 21
0.1541566990287417
 72
     1
 10
0.3925392089389348
 20
0.1541566990287417
 11
0.396457138330292
 21
0.149492497372364
 72
     1
 10
0.3964571383302933
 20
0.149492497372364
 11
0.4009347719204161
 21
0.1442685915172211
 72
     1
 10
0.4009347719204146
 20
0.1442685915172209
 11
0.4057855416430466
 21
0.138391697430185
 72
     1
 10
0.4057855416430463
 20
0.1383916974301853
 11
0.4109161634650628
 21
0.1322349512437666
 72
     1
 10
0.410916163465064
 20
0.1322349512437666
 11
0.4162333533533335
 21
0.1259849210242201
 72
     1
 10
0.4162333533533334
 20
0.1259849210242201
 11
0.4215505432416044
 21
0.1196416067715466
 72
     1
 10
0.4215505432416045
 20
0.1196416067715466
 11
0.4265878810304927
 21
0.113671428651383
 72
     1
 10
0.4265878810304931
 20
0.1136714286513832
 11
0.4312520826868704
 21
0.1079811026306024
 72
     1
 10
0.4312520826868696
 20
0.1079811026306024
 11
0.4355431482107378
 21
0.1029437648417141
 72
     1
 10
0.435543148210738
 20
0.1029437648417139
 11
0.4390879414695842
 21
0.0987459833509739
 72
     1
 10
0.4390879414695843
 20
0.0987459833509741
 11
0.4417931784302841
 21
0.0954810421915098
 72
     1
 10
0.4417931784302845
 20
0.0954810421915096
 11
0.4435655750597076
 21
0.0934287934627037
 72
     1
 10
0.4435655750597074
 20
0.0934287934627039
 11
0.4442185632915993
 21
0.0926825211976832
 72
     1
 10
0.4442185632915985
 20
0.0926825211976832
 11
0.4743493059918004
 21
0.0926825211976832
 72
     1
 10
0.4743493059918001
 20
0.0926825211976832
 11
0.4753754303562029
 21
0.0926825211976832
 72
     1
 10
0.4753754303562033
 20
0.0926825211976832
 11
0.5008419714000258
 21
0.0926825211976832
 72
     1
 10
0.5008419714000265
 20
0.0926825211976832
 11
0.5014949596319184
 21
0.0939884976614689
 72
     1
 10
0.501494959631919
 20
0.0939884976614688
 11
0.5031740722282155
 21
0.0973467228540609
 72
     1
 10
0.503174072228215
 20
0.0973467228540612
 11
0.5055061730564038
 21
0.1021042085435666
 72
     1
 10
0.505506173056403
 20
0.1021042085435665
 11
0.5083046940502291
 21
0.1077012505312196
 72
     1
 10
0.5083046940502292
 20
0.1077012505312194
 11
0.5111032150440553
 21
0.1134848605851279
 72
     1
 10
0.5111032150440549
 20
0.1134848605851281
 11
0.5137151679716264
 21
0.1186154824071433
 72
     1
 10
0.5137151679716277
 20
0.1186154824071433
 11
0.5156741326673071
 21
0.1226266958316283
 72
     1
 10
0.5156741326673076
 20
0.122626695831628
 11
0.5167002570317104
 21
0.1247722285935621
 72
     1
 10
0.5167002570317103
 20
0.1247722285935622
 11
0.5180062334954961
 21
0.1247722285935622
 72
     1
 10
0.5180062334954961
 20
0.1247722285935622
 11
0.5207114704561957
 21
0.1247722285935622
 72
     1
 10
0.5207114704561944
 20
0.1247722285935622
 11
0.5246293998475517
 21
0.1247722285935622
 72
     1
 10
0.5246293998475525
 20
0.1247722285935622
 11
0.5295734536033125
 21
0.1247722285935622
 72
     1
 10
0.5295734536033115
 20
0.1247722285935622
 11
0.5352637796240919
 21
0.1247722285935622
 72
     1
 10
0.5352637796240929
 20
0.1247722285935622
 11
0.5415138098436386
 21
0.1247722285935622
 72
     1
 10
0.5415138098436394
 20
0.1247722285935622
 11
0.5482302602288245
 21
0.1247722285935622
 72
     1
 10
0.5482302602288236
 20
0.1247722285935622
 11
0.5551332786802616
 21
0.1247722285935622
 72
     1
 10
0.5551332786802608
 20
0.1247722285935622
 11
0.5620362971317004
 21
0.1247722285935622
 72
     1
 10
0.5620362971317015
 20
0.1247722285935622
 11
0.5687527475168847
 21
0.1247722285935622
 72
     1
 10
0.5687527475168839
 20
0.1247722285935622
 11
0.5750027777364317
 21
0.1247722285935622
 72
     1
 10
0.5750027777364322
 20
0.1247722285935622
 11
0.5806931037572126
 21
0.1247722285935622
 72
     1
 10
0.5806931037572119
 20
0.1247722285935622
 11
0.585637157512972
 21
0.1247722285935622
 72
     1
 10
0.5856371575129727
 20
0.1247722285935622
 11
0.5895550869043299
 21
0.1247722285935622
 72
     1
 10
0.5895550869043289
 20
0.1247722285935622
 11
0.5922603238650286
 21
0.1247722285935622
 72
     1
 10
0.5922603238650291
 20
0.1247722285935622
 11
0.5935663003288148
 21
0.1247722285935622
 72
     1
 10
0.5935663003288148
 20
0.1247722285935622
 11
0.5945924246932176
 21
0.1226266958316281
 72
     1
 10
0.5945924246932175
 20
0.122626695831628
 11
0.5965513893888953
 21
0.1186154824071431
 72
     1
 10
0.5965513893888957
 20
0.1186154824071433
 11
0.5991633423164672
 21
0.1134848605851281
 72
     1
 10
0.5991633423164667
 20
0.1134848605851281
 11
0.6019618633102946
 21
0.1077012505312196
 72
     1
 10
0.6019618633102959
 20
0.1077012505312194
 11
0.604760384304122
 21
0.1021042085435664
 72
     1
 10
0.6047603843041221
 20
0.1021042085435665
 11
0.6070924851323109
 21
0.0973467228540611
 72
     1
 10
0.6070924851323101
 20
0.0973467228540612
 11
0.6087715977286067
 21
0.0939884976614691
 72
     1
 10
0.6087715977286062
 20
0.0939884976614688
 11
0.609424585960498
 21
0.0926825211976832
 72
     1
 10
0.6094245859604986
 20
0.0926825211976832
 11
0.6363836715343633
 21
0.0926825211976832
 72
     1
 10
0.6363836715343641
 20
0.0926825211976832
 11
0.5671669189537184
 21
0.2277578011663825
 72
     1
 10
0.5671669189537179
 20
0.2277578011663825
 11
0.5656743744236758
 21
0.2277578011663825
 97
        0
 75
     0
 76
     1
 98
        1
 10
-0.3743130907707726
 20
-0.2500502867693841
1001
ACAD
1010
0.0
1020
0.0
1030
0.0
  0
HATCH
  5
9241
330
9238
100
AcDbEntity
  8
Kawneer Logo-English
100
AcDbHatch
 10
0.0
 20
0.0
 30
0.0
210
0.0
220
0.0
230
1.0
  2
SOLID
 70
     1
 71
     0
 91
        1
 92
        1
 93
       69
 72
     1
 10
0.8092389849197205
 20
0.2277578011663825
 11
0.778921674153266
 21
0.1309289747799811
 72
     1
 10
0.778921674153267
 20
0.1309289747799809
 11
0.7781754018882468
 21
0.1287834420180468
 72
     1
 10
0.7781754018882468
 20
0.1287834420180467
 11
0.7776156976894812
 21
0.1270110453886236
 72
     1
 10
0.7776156976894813
 20
0.1270110453886237
 11
0.7771492775238438
 21
0.1253319327923275
 72
     1
 10
0.7771492775238436
 20
0.1253319327923274
 11
0.7766828573582045
 21
0.1238393882622867
 72
     1
 10
0.7766828573582046
 20
0.1238393882622866
 11
0.7764030052588217
 21
0.1248655126266895
 72
     1
 10
0.776403005258822
 20
0.1248655126266896
 11
0.7761231531594392
 21
0.1259849210242202
 72
     1
 10
0.7761231531594391
 20
0.1259849210242201
 11
0.7759365850931844
 21
0.1268244773223681
 72
     1
 10
0.7759365850931843
 20
0.1268244773223682
 11
0.7758433010600562
 21
0.1271976134548783
 72
     1
 10
0.7758433010600552
 20
0.1271976134548783
 11
0.7755634489606744
 21
0.1280371697530267
 72
     1
 10
0.775563448960674
 20
0.1280371697530267
 11
0.7750970287950349
 21
0.1291565781505569
 72
     1
 10
0.7750970287950363
 20
0.1291565781505568
 11
0.773977620397507
 21
0.1323282352768938
 72
     1
 10
0.7739776203975062
 20
0.1323282352768939
 11
0.7721119397349549
 21
0.1372722890326544
 72
     1
 10
0.7721119397349554
 20
0.1372722890326546
 11
0.7697798389067666
 21
0.1436156032853281
 72
     1
 10
0.769779838906767
 20
0.1436156032853281
 11
0.7670746019460673
 21
0.1511716099686602
 72
     1
 10
0.7670746019460668
 20
0.15117160996866
 11
0.7639962288528581
 21
0.1595671729501399
 72
     1
 10
0.7639962288528582
 20
0.15956717295014
 11
0.7606380036602665
 21
0.1686157241635125
 72
     1
 10
0.7606380036602652
 20
0.1686157241635125
 11
0.7572797784676718
 21
0.1778508434431408
 72
     1
 10
0.7572797784676726
 20
0.1778508434431408
 11
0.753921553275081
 21
0.187179246755896
 72
     1
 10
0.7539215532750814
 20
0.1871792467558961
 11
0.7505633280824898
 21
0.1962277979692689
 72
     1
 10
0.7505633280824902
 20
0.1962277979692689
 11
0.7474849549892814
 21
0.2046233609507488
 72
     1
 10
0.7474849549892797
 20
0.2046233609507488
 11
0.74477971802858
 21
0.2121793676340809
 72
     1
 10
0.7447797180285814
 20
0.2121793676340809
 11
0.7424476172003926
 21
0.2185226818867544
 72
     1
 10
0.7424476172003929
 20
0.2185226818867545
 11
0.7405819365378416
 21
0.2234667356425151
 72
     1
 10
0.7405819365378408
 20
0.2234667356425151
 11
0.7394625281403098
 21
0.2266383927688516
 72
     1
 10
0.7394625281403103
 20
0.2266383927688516
 11
0.7390893920078009
 21
0.2277578011663822
 72
     1
 10
0.7390893920078004
 20
0.2277578011663825
 11
0.7191266089185034
 21
0.2277578011663825
 72
     1
 10
0.7191266089185029
 20
0.2277578011663825
 11
0.6843316645619254
 21
0.1336342117406798
 72
     1
 10
0.6843316645619267
 20
0.1336342117406795
 11
0.6832122561643957
 21
0.130649122680598
 72
     1
 10
0.6832122561643961
 20
0.1306491226805981
 11
0.6823726998662476
 21
0.1282237378192816
 72
     1
 10
0.6823726998662468
 20
0.1282237378192818
 11
0.6817197116343549
 21
0.1260782050573481
 72
     1
 10
0.6817197116343552
 20
0.1260782050573481
 11
0.6811600074355896
 21
0.1241192403616695
 72
     1
 10
0.6811600074355884
 20
0.1241192403616695
 11
0.6808801553362055
 21
0.1250520806929446
 72
     1
 10
0.6808801553362059
 20
0.1250520806929445
 11
0.6805070192036949
 21
0.1261714890904751
 72
     1
 10
0.680507019203696
 20
0.1261714890904752
 11
0.6802271671043131
 21
0.1272908974880058
 72
     1
 10
0.680227167104313
 20
0.1272908974880061
 11
0.6798540309718037
 21
0.1286901579849195
 72
     1
 10
0.6798540309718031
 20
0.1286901579849194
 11
0.6794808948392922
 21
0.12980956638245
 72
     1
 10
0.6794808948392932
 20
0.1298095663824503
 11
0.6784547704748904
 21
0.1328879394756595
 72
     1
 10
0.67845477047489
 20
0.1328879394756595
 11
0.6769622259448497
 21
0.1378319932314196
 72
     1
 10
0.6769622259448496
 20
0.1378319932314196
 11
0.6750032612491701
 21
0.1441753074840938
 72
     1
 10
0.6750032612491697
 20
0.1441753074840937
 11
0.6725778763878547
 21
0.1516380301342981
 72
     1
 10
0.6725778763878556
 20
0.1516380301342981
 11
0.6699659234602841
 21
0.160033593115778
 72
     1
 10
0.6699659234602829
 20
0.160033593115778
 11
0.6671674024664549
 21
0.168988860296023
 72
     1
 10
0.6671674024664554
 20
0.168988860296023
 11
0.6642755974395012
 21
0.1782239795756509
 72
     1
 10
0.6642755974395019
 20
0.178223979575651
 11
0.6613837924125477
 21
0.1874590988552789
 72
     1
 10
0.6613837924125466
 20
0.1874590988552789
 11
0.6585852714187205
 21
0.1964143660355239
 72
     1
 10
0.6585852714187204
 20
0.1964143660355237
 11
0.6559733184911489
 21
0.2047166449838762
 72
     1
 10
0.6559733184911494
 20
0.2047166449838765
 11
0.6536412176629606
 21
0.2122726516672082
 72
     1
 10
0.6536412176629614
 20
0.2122726516672082
 11
0.6515889689341538
 21
0.2186159659198823
 72
     1
 10
0.6515889689341537
 20
0.2186159659198821
 11
0.6500964244041133
 21
0.2234667356425149
 72
     1
 10
0.6500964244041132
 20
0.2234667356425151
 11
0.6490703000397104
 21
0.2266383927688516
 72
     1
 10
0.6490703000397105
 20
0.2266383927688516
 11
0.6487904479403276
 21
0.2277578011663822
 72
     1
 10
0.648790447940328
 20
0.2277578011663825
 11
0.6237903270621445
 21
0.2277578011663825
 72
     1
 10
0.6237903270621437
 20
0.2277578011663825
 11
0.6676338226320932
 21
0.0926825211976832
 72
     1
 10
0.6676338226320926
 20
0.0926825211976832
 11
0.6922608073777669
 21
0.0926825211976832
 72
     1
 10
0.6922608073777666
 20
0.0926825211976832
 11
0.726029627369941
 21
0.1855001341596003
 72
     1
 10
0.7260296273699423
 20
0.1855001341596003
 11
0.7269624677012189
 21
0.1882986551534267
 72
     1
 10
0.7269624677012177
 20
0.1882986551534266
 11
0.7278020239993661
 21
0.1906307559816158
 72
     1
 10
0.727802023999367
 20
0.1906307559816159
 11
0.7284550122312589
 21
0.1927762887435496
 72
     1
 10
0.7284550122312581
 20
0.1927762887435495
 11
0.7290147164300237
 21
0.1947352534392281
 72
     1
 10
0.7290147164300232
 20
0.1947352534392282
 11
0.7298542727281716
 21
0.192216584544784
 72
     1
 10
0.729854272728173
 20
0.1922165845447839
 11
0.7306938290263214
 21
0.1894180635509575
 72
     1
 10
0.7306938290263206
 20
0.1894180635509575
 11
0.7318132374238499
 21
0.1863396904577483
 72
     1
 10
0.7318132374238511
 20
0.1863396904577481
 11
0.7331192138876387
 21
0.1827016131657736
 72
     1
 10
0.7331192138876382
 20
0.1827016131657737
 11
0.7654887733828987
 21
0.0926825211976834
 72
     1
 10
0.7654887733828986
 20
0.0926825211976832
 11
0.7895560539298075
 21
0.0926825211976832
 72
     1
 10
0.7895560539298075
 20
0.0926825211976832
 11
0.8341458217647785
 21
0.2277578011663825
 72
     1
 10
0.8341458217647783
 20
0.2277578011663825
 11
0.830601028505932
 21
0.2277578011663825
 72
     1
 10
0.8306010285059324
 20
0.2277578011663825
 11
0.8092389849197216
 21
0.2277578011663825
 97
        0
 75
     0
 76
     1
 98
        1
 10
-0.3743130907707726
 20
-0.2500502867693841
1001
ACAD
1010
0.0
1020
0.0
1030
0.0
  0
ENDBLK
  5
9245
330
9238
100
AcDbEntity
  8
0
100
AcDbBlockEnd
  0
ENDSEC
  0
SECTION
  2
ENTITIES
  0
TEXT
  5
206E
330
17
100
AcDbEntity
  8
0
  6
Continuous
 62
     7
100
AcDbText
 10
48.37774116456421
 20
5.010874714638497
 30
0.0
 40
0.375
  1
VERTICAL MULLION
 72
     1
 11
50.89581756292711
 21
5.010874714638497
 31
0.0
100
AcDbText
  0
MTEXT
  5
2082
330
17
100
AcDbEntity
  8
0
 62
     2
100
AcDbMText
 10
19.60790140209769
 20
6.884496034123785
 30
0.0
 40
0.375
 41
11.91800541288839
 71
     2
 72
     5
  1
DETAIL SCALE: 1" = 1"
 73
     1
 44
1.0
1001
ACAD
1000
MTEXTBEGIN
1070
    73
1070
     1
1070
    44
1040
1.0
1070
    74
1070
     0
1000
MTEXTEND
  0
LINE
  5
2085
330
17
100
AcDbEntity
  8
0
100
AcDbLine
 10
0.0
 20
0.0
 30
0.0
 11
0.0
 21
42.16016963571056
 31
0.0
  0
LINE
  5
2088
330
17
100
AcDbEntity
  8
0
100
AcDbLine
 10
0.0
 20
0.0
 30
0.0
 11
67.85899319401801
 21
0.0
 31
0.0
  0
MTEXT
  5
2099
330
17
100
AcDbEntity
  8
0
 62
     2
100
AcDbMText
 10
19.60790140209769
 20
9.89038798822257
 30
0.0
 40
0.5
 41
22.36280468203696
 71
     2
 72
     5
  1
TRIFAB™ VG 450 FRAMING SYSTEM 2" SIGHTLINE \PFRONT SET - "SSG" VENEER - OUTSIDE GLAZED\P(1/4" INFILL)
 73
     1
 44
1.0
1001
ACAD
1000
MTEXTBEGIN
1070
    73
1070
     1
1070
    44
1040
1.0
1070
    74
1070
     0
1000
MTEXTEND
  0
MTEXT
  5
2FFF
330
17
100
AcDbEntity
  8
0
 62
     7
100
AcDbMText
 10
5.146880908301227
 20
24.46744133923058
 30
0.0
 40
0.375
 41
7.34375
 71
     2
 72
     5
  1
HORIZONTAL
 73
     1
 44
1.0
1001
ACAD
1000
MTEXTBEGIN
1070
    73
1070
     1
1070
    44
1040
1.0
1070
    74
1070
     0
1000
MTEXTEND
  0
TEXT
  5
4558
330
17
100
AcDbEntity
  8
0
  6
Continuous
 62
     2
100
AcDbText
 10
3.888453724269251
 20
24.94990741864466
 30
0.0
 40
0.375
  1
DETAIL 2
 72
     1
 11
5.023941445960929
 21
24.94990741864466
 31
0.0
100
AcDbText
  0
TEXT
  5
455C
330
17
100
AcDbEntity
  8
0
  6
Continuous
 62
     2
100
AcDbText
 10
3.888453724269251
 20
33.21880744509036
 30
0.0
 40
0.375
  1
DETAIL 1
 72
     1
 11
5.023941445960929
 21
33.21880744509036
 31
0.0
100
AcDbText
  0
TEXT
  5
457D
330
17
100
AcDbEntity
  8
0
  6
Continuous
 62
     2
100
AcDbText
 10
49.77547253608475
 20
5.810610442187048
 30
0.0
 40
0.375
  1
DETAIL 5
 72
     1
 11
50.91096025777642
 21
5.810610442187048
 31
0.0
100
AcDbText
  0
TEXT
  5
4582
330
17
100
AcDbEntity
  8
0
  6
Continuous
 62
     2
100
AcDbText
 10
3.888453724269251
 20
18.26981225337612
 30
0.0
 40
0.375
  1
DETAIL 3
 72
     1
 11
5.023941445960929
 21
18.26981225337612
 31
0.0
100
AcDbText
  0
TEXT
  5
4E5C
330
17
100
AcDbEntity
  8
0
  6
Continuous
 62
     2
100
AcDbText
 10
40.43320803379339
 20
5.804567590763774
 30
0.0
 40
0.375
  1
DETAIL 4
 72
     1
 11
41.56869575548507
 21
5.804567590763774
 31
0.0
100
AcDbText
  0
TEXT
  5
4E5D
330
17
100
AcDbEntity
  8
0
  6
Continuous
 62
     7
100
AcDbText
 10
40.85496847673397
 20
5.015190477163137
 30
0.0
 40
0.375
  1
JAMB
 72
     1
 11
41.55355306063575
 21
5.015190477163137
 31
0.0
100
AcDbText
  0
MTEXT
  5
51E8
330
17
100
AcDbEntity
  8
0
 62
     7
100
AcDbMText
 10
5.146880908301227
 20
17.88826439413763
 30
0.0
 40
0.375
 41
7.34375
 71
     2
 72
     5
  1
SILL
 73
     1
 44
1.0
1001
ACAD
1000
MTEXTBEGIN
1070
    73
1070
     1
1070
    44
1040
1.0
1070
    74
1070
     0
1000
MTEXTEND
  0
MTEXT
  5
51EC
330
17
100
AcDbEntity
  8
0
 62
     7
100
AcDbMText
 10
5.146880908301227
 20
32.84324287890876
 30
0.0
 40
0.375
 41
7.34375
 71
     2
 72
     5
  1
HEAD
 73
     1
 44
1.0
1001
ACAD
1000
MTEXTBEGIN
1070
    73
1070
     1
1070
    44
1040
1.0
1070
    74
1070
     0
1000
MTEXTEND
  0
TEXT
  5
66C5
330
17
100
AcDbEntity
  8
PART_NUMBERS
100
AcDbText
 10
14.19357968333839
 20
16.72785927431377
 30
0.0
 40
0.25
  1
132WC007 INSERT
100
AcDbText
  0
TEXT
  5
66C6
330
17
100
AcDbEntity
  8
PART_NUMBERS
100
AcDbText
 10
14.19357968333839
 20
17.22785927431377
 30
0.0
 40
0.25
  1
450SSG328 SSG MULLION ADAPTOR
100
AcDbText
  0
TEXT
  5
6703
330
17
100
AcDbEntity
  8
PART_NUMBERS
100
AcDbText
 10
13.99904450577654
 20
33.03165247364157
 30
0.0
 40
0.25
  1
450SSG328 SSG MULLION ADAPTOR
100
AcDbText
  0
TEXT
  5
6704
330
17
100
AcDbEntity
  8
PART_NUMBERS
100
AcDbText
 10
13.99904450577654
 20
33.53165247364156
 30
0.0
 40
0.25
  1
132WC007 INSERT
100
AcDbText
  0
TEXT
  5
674C
330
17
100
AcDbEntity
  8
PART_NUMBERS
100
AcDbText
 10
13.84358477215244
 20
25.27081079605905
 30
0.0
 40
0.25
  1
132WC329 VENEER ANCHOR
100
AcDbText
  0
TEXT
  5
674E
330
17
100
AcDbEntity
  8
PART_NUMBERS
100
AcDbText
 10
13.84358477215244
 20
24.26553215862864
 30
0.0
 40
0.25
  1
451SSG004 HORIZONTAL COVER
100
AcDbText
  0
TEXT
  5
674F
330
17
100
AcDbEntity
  8
PART_NUMBERS
100
AcDbText
 10
13.84358477215244
 20
24.76553215862864
 30
0.0
 40
0.25
  1
132SSG111 HORIZONTAL
100
AcDbText
  0
TEXT
  5
68E3
330
17
100
AcDbEntity
  8
PART_NUMBERS
100
AcDbText
 10
39.52664329270437
 20
14.03638650735606
 30
0.0
 40
0.25
  1
132WC005 MULLION
100
AcDbText
  0
TEXT
  5
68E4
330
17
100
AcDbEntity
  8
PART_NUMBERS
100
AcDbText
 10
39.52664329270437
 20
13.54325365686739
 30
0.0
 40
0.25
  1
450087 SNAP-IN FLAT FILLER
100
AcDbText
  0
TEXT
  5
7491
330
17
100
AcDbEntity
  8
PART_NUMBERS
100
AcDbText
 10
14.19357968333839
 20
16.19186900053177
 30
0.0
 40
0.25
  1
132WC106 EQUAL LEG RECEPTOR
100
AcDbText
  0
LWPOLYLINE
  5
7839
330
17
100
AcDbEntity
  8
R-SWTS-DET2
100
AcDbPolyline
 90
       28
 70
     1
 43
0.0
 10
39.62935537310914
 20
11.06258427453483
 10
39.62935537310914
 20
11.30862848466513
 42
-0.4686607930141859
 10
39.65298037310914
 20
11.32829722572806
 42
0.3667957117022638
 10
39.72028288552449
 20
11.36690894371035
 42
0.5198534925126158
 10
39.69677142201808
 20
11.40040665421304
 10
39.67985537310914
 20
11.40040665421304
 42
0.4142135623730951
 10
39.67385537310914
 20
11.39440665421304
 10
39.67385537310914
 20
11.38730344891681
 42
-0.5170635500108248
 10
39.66053913768742
 20
11.37786933090675
 10
39.59267160853086
 20
11.40172579570118
 42
0.5170635500106123
 10
39.57935537310914
 20
11.39229167769112
 10
39.57935537310914
 20
10.40902754006632
 42
0.5170635500105867
 10
39.59267160853086
 20
10.39959342205627
 10
39.62267160853085
 20
10.41013887660172
 42
0.3183363346813847
 10
39.62935537310914
 20
10.41957299461178
 10
39.62935537310914
 20
10.99258427453483
 42
-0.414213562372887
 10
39.63935537310914
 20
11.00258427453482
 10
39.71776440648972
 20
11.00258427453482
 42
-0.4142135623730951
 10
39.84276440648971
 20
10.87758427453482
 10
39.84276440648971
 20
10.59605165363915
 42
0.1374618384367904
 10
39.85150107837844
 20
10.56487359739833
 10
39.90328769739081
 20
10.50933924757149
 42
0.5499676122637228
 10
39.92335537310914
 20
10.52480389612705
 10
39.89361965981475
 20
10.59200522209387
 42
-0.1045253338067179
 10
39.89276440648971
 20
10.59605165363915
 10
39.89276440648972
 20
10.87758427453482
 42
0.414213562373107
 10
39.71776440648972
 20
11.05258427453482
 10
39.63935537310914
 20
11.05258427453484
 42
-0.414213562372887
  0
LINE
  5
783A
330
17
100
AcDbEntity
  8
R-SWTS-DET3
100
AcDbLine
 10
39.30967408409223
 20
12.61862921247184
 30
0.0
 11
39.30977008409225
 21
9.868629212471844
 31
0.0
  0
CIRCLE
  5
783B
330
17
100
AcDbEntity
  8
R-SWTS-DET3
100
AcDbCircle
 10
39.43502008409226
 20
10.4576039870055
 30
0.0
 40
0.125
  0
LWPOLYLINE
  5
783C
330
17
100
AcDbEntity
  8
R-SWTS-DET1
100
AcDbPolyline
 90
        6
 70
     0
 43
0.0
 10
43.55908168891292
 20
12.61424171759275
 10
43.56009028168194
 20
11.47012246403037
 10
43.77234247180481
 20
11.41720204936794
 10
43.34751789396939
 20
11.31128138581753
 10
43.55977008409226
 20
11.2583609711551
 10
43.55977008409226
 20
9.866080224717464
  0
DIMENSION
  5
7840
330
17
100
AcDbEntity
  8
R-ANNO-DIMS
100
AcDbDimension
  2
*D0
 10
39.30977008409225
 20
8.059693542319593
 30
0.0
 11
37.63943675075892
 21
8.246693542319592
 31
0.0
 70
    32
  1
SHIM SPACE
 71
     5
 42
-1.0
  3
SHOP_DETAILS_NORCROSS
100
AcDbAlignedDimension
 13
39.55977008409225
 23
10.23924171759275
 33
0.0
 14
39.30977008409225
 24
9.86862921247183
 34
0.0
100
AcDbRotatedDimension
1001
ACAD
1000
DSTYLE
1002
{
1070
    78
1070
     1
1070
   270
1070
     7
1070
   284
1070
     1
1070
   140
1040
0.25
1070
    74
1070
     0
1070
    73
1070
     0
1070
    77
1070
     1
1070
    76
1070
     1
1070
     3
1000
"
1070
   147
1040
0.062
1070
   287
1070
     3
1070
    42
1040
0.125
1070
    44
1040
0.125
1070
    43
1040
0.375
1070
   271
1070
     4
1070
   178
1070
   256
1070
   177
1070
   256
1070
   176
1070
   256
1070
   141
1040
0.0
1070
    41
1040
0.2
1002
}
  0
LINE
  5
7841
330
17
100
AcDbEntity
  8
R-SWTS-DET1
  6
Continuous
100
AcDbLine
 10
43.55940188650258
 20
10.11424171759275
 30
0.0
 11
39.55967408409224
 21
10.11424171759275
 31
0.0
  0
DIMENSION
  5
7842
330
17
100
AcDbEntity
  8
R-ANNO-DIMS
100
AcDbDimension
  2
*D1
 10
43.56041047927161
 20
7.497193542319593
 30
0.0
 11
41.43509028168192
 21
7.684193542319593
 31
0.0
 70
    32
  1
OD  
 71
     5
 42
-1.0
  3
SHOP_DETAILS_NORCROSS
100
AcDbAlignedDimension
 13
39.30977008409225
 23
9.86862921247183
 33
0.0
 14
43.56041047927161
 24
10.11424171759272
 34
0.0
100
AcDbRotatedDimension
1001
ACAD
1000
DSTYLE
1002
{
1070
    78
1070
     1
1070
   270
1070
     7
1070
   284
1070
     1
1070
   140
1040
0.25
1070
    74
1070
     0
1070
    73
1070
     0
1070
    77
1070
     1
1070
    76
1070
     1
1070
     3
1000
"
1070
   147
1040
0.062
1070
   287
1070
     3
1070
    42
1040
0.125
1070
    44
1040
0.125
1070
    43
1040
0.375
1070
   271
1070
     4
1070
   178
1070
   256
1070
   177
1070
   256
1070
   176
1070
   256
1070
   141
1040
0.0
1070
    41
1040
0.2
1002
}
  0
DIMENSION
  5
7843
330
17
100
AcDbEntity
  8
R-ANNO-DIMS
100
AcDbDimension
  2
*D2
 10
43.56041047927161
 20
8.059693542319593
 30
0.0
 11
41.56009028168193
 21
8.246693542319592
 31
0.0
 70
    32
  1
FW  
 71
     5
 42
-1.0
  3
SHOP_DETAILS_NORCROSS
100
AcDbAlignedDimension
 13
39.55977008409225
 23
10.23924171759275
 33
0.0
 14
43.56041047927161
 24
10.11424171759272
 34
0.0
100
AcDbRotatedDimension
1001
ACAD
1000
DSTYLE
1002
{
1070
    78
1070
     1
1070
   270
1070
     7
1070
   284
1070
     1
1070
   140
1040
0.25
1070
    74
1070
     0
1070
    73
1070
     0
1070
    77
1070
     1
1070
    76
1070
     1
1070
     3
1000
"
1070
   147
1040
0.062
1070
   287
1070
     3
1070
    42
1040
0.125
1070
    44
1040
0.125
1070
    43
1040
0.375
1070
   271
1070
     4
1070
   178
1070
   256
1070
   177
1070
   256
1070
   176
1070
   256
1070
   141
1040
0.0
1070
    41
1040
0.2
1002
}
  0
DIMENSION
  5
7844
330
17
100
AcDbEntity
  8
R-ANNO-DIMS
100
AcDbDimension
  2
*D3
 10
43.55977008409226
 20
8.622193542319593
 30
0.0
 11
42.55977008409226
 21
8.809193542319592
 31
0.0
 70
    32
  1
DLO
 71
     5
 42
-1.0
  3
SHOP_DETAILS_NORCROSS
100
AcDbAlignedDimension
 13
41.55977008409226
 23
10.23924171759275
 33
0.0
 14
43.55977008409226
 24
9.866080224717464
 34
0.0
100
AcDbRotatedDimension
1001
ACAD
1000
DSTYLE
1002
{
1070
    78
1070
     1
1070
   270
1070
     7
1070
   284
1070
     1
1070
   140
1040
0.25
1070
    74
1070
     0
1070
    73
1070
     0
1070
    77
1070
     1
1070
    76
1070
     1
1070
     3
1000
"
1070
   147
1040
0.062
1070
   287
1070
     3
1070
    42
1040
0.125
1070
    44
1040
0.125
1070
    43
1040
0.375
1070
   271
1070
     4
1070
   178
1070
   256
1070
   177
1070
   256
1070
   176
1070
   256
1070
   141
1040
0.0
1070
    41
1040
0.2
1002
}
  0
LINE
  5
7845
330
17
100
AcDbEntity
  8
R-SWTS-DET1
  6
Continuous
100
AcDbLine
 10
43.55940188650258
 20
10.23924171759275
 30
0.0
 11
41.55977008409226
 21
10.23924171759275
 31
0.0
  0
DIMENSION
  5
7846
330
17
100
AcDbEntity
  8
R-ANNO-DIMS
100
AcDbDimension
  2
*D4
 10
41.55977008409226
 20
8.622193542319593
 30
0.0
 11
40.55977008409225
 21
8.809193542319592
 31
0.0
 70
    32
 71
     5
 42
-1.0
  3
SHOP_DETAILS_NORCROSS
100
AcDbAlignedDimension
 13
39.55977008409225
 23
10.23924171759275
 33
0.0
 14
41.55977008409226
 24
10.23924171759275
 34
0.0
100
AcDbRotatedDimension
1001
ACAD
1000
DSTYLE
1002
{
1070
    78
1070
     1
1070
   270
1070
     7
1070
   284
1070
     1
1070
   140
1040
0.25
1070
    74
1070
     0
1070
    73
1070
     0
1070
    77
1070
     1
1070
    76
1070
     1
1070
     3
1000
"
1070
   147
1040
0.062
1070
   287
1070
     3
1070
    42
1040
0.125
1070
    44
1040
0.125
1070
    43
1040
0.375
1070
   271
1070
     4
1070
   178
1070
   256
1070
   177
1070
   256
1070
   176
1070
   256
1070
   141
1040
0.0
1070
    41
1040
0.2
1002
}
  0
ARC
  5
7847
330
17
100
AcDbEntity
  8
R-SWTS-DET3
100
AcDbCircle
 10
39.49847467304756
 20
9.9308606499849
 30
0.0
 40
0.1933235212518425
100
AcDbArc
 50
71.54469815849257
 51
167.4502642365828
  0
ARC
  5
7848
330
17
100
AcDbEntity
  8
R-SWTS-DET3
100
AcDbCircle
 10
39.49847467304756
 20
10.05586064998489
 30
0.0
 40
0.1933235212518425
100
AcDbArc
 50
71.54469815849257
 51
167.4502642365828
  0
LINE
  5
784A
330
17
100
AcDbEntity
  8
R-SWTS-DET1
  6
Continuous
100
AcDbLine
 10
39.55967408409224
 20
10.11424171759275
 30
0.0
 11
39.55967408409224
 21
10.23924171759275
 31
0.0
  0
LINE
  5
784C
330
17
100
AcDbEntity
  8
R-SWTS-DET1
  6
Continuous
100
AcDbLine
 10
39.55967408409224
 20
12.36424171759275
 30
0.0
 11
43.55908168891292
 21
12.36424171759274
 31
0.0
  0
LINE
  5
784E
330
17
100
AcDbEntity
  8
R-SWTS-DET1
  6
Continuous
100
AcDbLine
 10
39.55967408409224
 20
12.23924171759275
 30
0.0
 11
43.55908168891292
 21
12.23924171759275
 31
0.0
  0
LINE
  5
784F
330
17
100
AcDbEntity
  8
R-SWTS-DET3
  6
CENTER
100
AcDbLine
 10
38.73606595511862
 20
10.84792176381704
 30
0.0
 11
40.90597816197601
 21
10.84792176381705
 31
0.0
  0
LINE
  5
7850
330
17
100
AcDbEntity
  8
R-SWTS-DET1
  6
Continuous
100
AcDbLine
 10
39.55967408409224
 20
12.23924171759275
 30
0.0
 11
39.55967408409224
 21
12.36424171759277
 31
0.0
  0
LINE
  5
7851
330
17
100
AcDbEntity
  8
R-SWTS-DET3
100
AcDbLine
 10
39.55977008409225
 20
10.58260397494773
 30
0.0
 11
39.30967408409223
 21
11.91061833607084
 31
0.0
  0
LINE
  5
7852
330
17
100
AcDbEntity
  8
R-SWTS-DET3
100
AcDbLine
 10
39.30977008409225
 20
10.58260397494773
 30
0.0
 11
39.55917408409224
 21
11.91061833607084
 31
0.0
  0
LINE
  5
7853
330
17
100
AcDbEntity
  8
R-SWTS-DET3
100
AcDbLine
 10
39.30977008409225
 20
10.58260397494773
 30
0.0
 11
39.55927008409226
 21
10.58260397494773
 31
0.0
  0
LINE
  5
7854
330
17
100
AcDbEntity
  8
R-SWTS-DET3
100
AcDbLine
 10
39.30967408409223
 20
11.91061833607084
 30
0.0
 11
39.55917408409224
 21
11.91061833607084
 31
0.0
  0
LINE
  5
7855
330
17
100
AcDbEntity
  8
0
100
AcDbLine
 10
39.55977008409225
 20
11.95427769863157
 30
0.0
 11
39.55977008409225
 21
10.62294789313235
 31
0.0
  0
LINE
  5
7856
330
17
100
AcDbEntity
  8
R-SWTS-DET3
100
AcDbLine
 10
39.55977008409225
 20
10.58260397494773
 30
0.0
 11
39.55967408409223
 21
11.91061833607084
 31
0.0
  0
TEXT
  5
7FAC
330
17
100
AcDbEntity
  8
PART_NUMBERS
100
AcDbText
 10
48.25973315726944
 20
13.54325365686739
 30
0.0
 40
0.25
  1
132SSG005 MULLION
100
AcDbText
  0
TEXT
  5
7FAD
330
17
100
AcDbEntity
  8
PART_NUMBERS
100
AcDbText
 10
48.25973315726944
 20
14.03638650735606
 30
0.0
 40
0.25
  1
132WC329 VENEER ANCHOR
100
AcDbText
  0
LWPOLYLINE
  5
7FAE
330
17
100
AcDbEntity
  8
R-SWTS-DET1
100
AcDbPolyline
 90
      128
 70
     1
 43
0.0
 10
41.46927008409226
 20
11.28424171759275
 42
-0.4142135623730951
 10
41.48927008409226
 20
11.26424171759275
 10
41.48927008409226
 20
11.23524171759275
 42
-0.4142135623730951
 10
41.46927008409226
 20
11.21524171759275
 10
41.26727508409225
 20
11.21524171759275
 42
-0.4142135623730951
 10
41.22927008409225
 20
11.25324671759275
 10
41.25127008409226
 20
11.25324671759275
 10
41.25127008409226
 20
11.29024671759275
 42
0.4142135623731054
 10
41.22627008409226
 20
11.31524671759275
 10
40.69972208409222
 20
11.31524671759275
 42
0.4142135623730977
 10
40.59972208409222
 20
11.21524671759275
 10
40.59972208409223
 20
10.40924171759274
 42
0.4142135623730938
 10
40.69972208409223
 20
10.30924171759274
 10
41.29584349673336
 20
10.30924171759275
 42
0.6681640521692635
 10
41.30998620277177
 20
10.3433832827788
 10
41.23659170154425
 20
10.41678370501208
 42
-0.1989018846181244
 10
41.22927008409225
 20
10.43446066149465
 10
41.22927008409225
 20
10.48923671759276
 10
41.25127008409226
 20
10.48923671759276
 10
41.25127008409226
 20
10.55123671759276
 10
41.22927008409225
 20
10.55123671759276
 42
-0.4142135623730882
 10
41.26727508409225
 20
10.58924171759276
 10
41.46927008409226
 20
10.58924171759276
 42
-0.4142135623730951
 10
41.48927008409226
 20
10.56924171759276
 10
41.48927008409226
 20
10.54024171759276
 42
-0.4142135623730951
 10
41.46927008409226
 20
10.52024171759276
 10
41.45727008409226
 20
10.52024171759276
 10
41.45727008409226
 20
10.54924171759276
 10
41.41927008409226
 20
10.54924171759276
 10
41.3171118502759
 20
10.52680466960743
 42
0.3541185725306985
 10
41.30127008409226
 20
10.50724171759275
 10
41.30127008409226
 20
10.46529171759275
 10
41.36789241456259
 20
10.39861404806309
 42
0.1989123673796433
 10
41.38557008409225
 20
10.39129171759275
 10
41.45727008409226
 20
10.39129171759275
 10
41.45727008409226
 20
10.42029171759275
 10
41.53977008409226
 20
10.39129171759275
 10
41.52977008409226
 20
10.33829259255884
 10
41.55977008409226
 20
10.32774713801338
 10
41.55977008409226
 20
10.23924171759275
 10
39.55967408409224
 20
10.23924171759275
 10
39.55967408409224
 20
10.32774713801338
 10
39.58967408409224
 20
10.33829259255884
 10
39.57967408409224
 20
10.39129171759275
 10
39.66217408409224
 20
10.42029171759275
 10
39.66217408409224
 20
10.39129171759275
 10
39.73387408409224
 20
10.39129171759276
 42
0.1989123673796435
 10
39.75155175362191
 20
10.39861404806309
 10
39.81817408409224
 20
10.46529171759275
 10
39.81817408409224
 20
10.50724171759275
 42
0.3541185725306985
 10
39.8023323179086
 20
10.52680466960743
 10
39.70017408409224
 20
10.54924171759276
 10
39.66217408409224
 20
10.54924171759276
 10
39.66217408409224
 20
10.52024171759276
 10
39.65017408409224
 20
10.52024171759276
 42
-0.4142135623730951
 10
39.63017408409224
 20
10.54024171759276
 10
39.63017408409224
 20
10.56924171759276
 42
-0.4142135623730951
 10
39.65017408409224
 20
10.58924171759276
 10
39.85216908409224
 20
10.58924171759276
 42
-0.4142135623730881
 10
39.89017408409225
 20
10.55123671759276
 10
39.86817408409224
 20
10.55123671759276
 10
39.86817408409224
 20
10.48923671759276
 10
39.89017408409225
 20
10.48923671759276
 10
39.89017408409225
 20
10.43446066149465
 42
-0.1989018846181243
 10
39.88285246664025
 20
10.41678370501208
 10
39.80945796541274
 20
10.3433832827788
 42
0.6681640521692636
 10
39.82360067145113
 20
10.30924171759275
 10
40.41972208409227
 20
10.30924171759275
 42
0.4142135623731149
 10
40.51972208409227
 20
10.40924171759275
 10
40.51972208409222
 20
11.21524671759276
 42
0.4142135623730753
 10
40.41972208409222
 20
11.31524671759275
 10
39.89317408409224
 20
11.31524671759275
 42
0.4142135623731057
 10
39.86817408409224
 20
11.29024671759275
 10
39.86817408409224
 20
11.25324671759275
 10
39.89017408409225
 20
11.25324671759275
 42
-0.4142135623730951
 10
39.85216908409224
 20
11.21524171759275
 10
39.65017408409224
 20
11.21524171759275
 42
-0.4142135623730951
 10
39.63017408409224
 20
11.23524171759275
 10
39.63017408409224
 20
11.26424171759275
 42
-0.4142135623730951
 10
39.65017408409224
 20
11.28424171759275
 10
39.66217408409224
 20
11.28424171759275
 10
39.66217408409224
 20
11.25524171759275
 10
39.70017408409224
 20
11.25524171759275
 10
39.8023323179086
 20
11.27767876557808
 42
0.3541185725306917
 10
39.81817408409224
 20
11.29724171759276
 10
39.81817408409224
 20
11.33919171759275
 10
39.75155175362191
 20
11.40586938712242
 42
0.1989123673796472
 10
39.73387408409224
 20
11.41319171759275
 10
39.66217408409224
 20
11.41319171759275
 10
39.66217408409224
 20
11.38419171759275
 10
39.57967408409224
 20
11.41319171759275
 10
39.58967408409224
 20
11.46619084262668
 10
39.55967408409224
 20
11.47673629717213
 10
39.55967408409224
 20
12.23924171759275
 10
39.93467408409224
 20
12.23924171759277
 10
39.93467408409224
 20
12.16924171759277
 10
39.68967408409224
 20
12.16924171759276
 42
0.4142135623730747
 10
39.62967408409225
 20
12.10924171759276
 10
39.62967408409225
 20
11.56319171759276
 42
0.4142135623730951
 10
39.69967408409224
 20
11.49319171759275
 10
39.73387408409224
 20
11.49319171759275
 42
-0.1989123673796583
 10
39.80812029611683
 20
11.46243792961734
 10
39.86804287902867
 20
11.40251051252918
 42
0.1989123673796514
 10
39.88572408409224
 20
11.39518671759275
 10
41.23372008409226
 20
11.39518671759275
 42
0.1989123673796515
 10
41.25140128915583
 20
11.40251051252918
 10
41.31132387206768
 20
11.46243792961734
 42
-0.1989123673796583
 10
41.38557008409225
 20
11.49319171759276
 10
41.41977008409226
 20
11.49319171759275
 42
0.4142135623730951
 10
41.48977008409225
 20
11.56319171759276
 10
41.48977008409225
 20
12.10924171759276
 42
0.4142135623730792
 10
41.42977008409226
 20
12.16924171759276
 10
41.18477008409226
 20
12.16924171759277
 10
41.18477008409226
 20
12.23924171759277
 10
41.55977008409226
 20
12.23924171759275
 10
41.55977008409226
 20
11.47673629717213
 10
41.52977008409226
 20
11.46619084262668
 10
41.53977008409226
 20
11.41319171759275
 10
41.45727008409226
 20
11.38419171759275
 10
41.45727008409226
 20
11.41319171759275
 10
41.38557008409225
 20
11.41319171759275
 42
0.1989123673796472
 10
41.36789241456259
 20
11.40586938712242
 10
41.30127008409226
 20
11.33919171759275
 10
41.30127008409226
 20
11.29724171759275
 42
0.3541185725306917
 10
41.3171118502759
 20
11.27767876557808
 10
41.41927008409226
 20
11.25524171759275
 10
41.45727008409226
 20
11.25524171759275
 10
41.45727008409226
 20
11.28424171759275
  0
LINE
  5
7FAF
330
17
100
AcDbEntity
  8
R-SWTS-DET2
100
AcDbLine
 10
41.55972208409226
 20
10.27225489048929
 30
0.0
 11
43.55972208409226
 21
10.27225489048928
 31
0.0
  0
LINE
  5
7FB0
330
17
100
AcDbEntity
  8
R-SWTS-DET2
100
AcDbLine
 10
41.55972208409226
 20
11.53445489048929
 30
0.0
 11
43.55972208409226
 21
11.53445489048929
 31
0.0
  0
LINE
  5
7FB1
330
17
100
AcDbEntity
  8
R-SWTS-DET3
100
AcDbLine
 10
41.18472208409225
 20
11.02775489048929
 30
0.0
 11
43.55972208409226
 21
11.02775489048929
 31
0.0
  0
LINE
  5
7FB2
330
17
100
AcDbEntity
  8
R-SWTS-DET3
100
AcDbLine
 10
41.18472208409225
 20
10.77775489048929
 30
0.0
 11
43.55972208409226
 21
10.77775489048929
 31
0.0
  0
LINE
  5
7FB3
330
17
100
AcDbEntity
  8
R-SWTS-DET2
100
AcDbLine
 10
41.74643718887231
 20
10.77654171759277
 30
0.0
 11
41.63898587113545
 21
10.53012466723383
 31
0.0
  0
LINE
  5
7FB4
330
17
100
AcDbEntity
  8
R-SWTS-DET2
100
AcDbLine
 10
41.63898587113545
 20
10.53012466723383
 30
0.0
 11
41.58959104099041
 21
10.27105489048928
 31
0.0
  0
LINE
  5
7FB5
330
17
100
AcDbEntity
  8
R-SWTS-DET2
100
AcDbLine
 10
41.74643718887231
 20
11.02896806338581
 30
0.0
 11
41.63898587113545
 21
11.27538511374474
 31
0.0
  0
LINE
  5
7FB6
330
17
100
AcDbEntity
  8
R-SWTS-DET3
100
AcDbLine
 10
41.18472208409225
 20
11.02775489048929
 30
0.0
 11
41.18472208409225
 21
10.77775489048929
 31
0.0
  0
LINE
  5
7FB7
330
17
100
AcDbEntity
  8
R-SWTS-DET2
100
AcDbLine
 10
41.23616634676085
 20
10.73493733817804
 30
0.0
 11
41.41646773654325
 21
10.77826806338581
 31
0.0
  0
ARC
  5
7FB8
330
17
100
AcDbEntity
  8
R-SWTS-DET2
100
AcDbCircle
 10
41.24814364147311
 20
10.68280489048929
 30
0.0
 40
0.0534906318026363
100
AcDbArc
 50
102.9390184097804
 51
257.4224697865404
  0
LINE
  5
7FB9
330
17
100
AcDbEntity
  8
R-SWTS-DET2
100
AcDbLine
 10
41.23649549487271
 20
10.63059791421771
 30
0.0
 11
41.41725382816361
 21
10.59026806338581
 31
0.0
  0
LINE
  5
7FBA
330
17
100
AcDbEntity
  8
R-SWTS-DET2
100
AcDbLine
 10
41.23616634676085
 20
11.07057244280053
 30
0.0
 11
41.41646773654325
 21
11.02724171759277
 31
0.0
  0
ARC
  5
7FBB
330
17
100
AcDbEntity
  8
R-SWTS-DET2
100
AcDbCircle
 10
41.24814364147311
 20
11.12270489048929
 30
0.0
 40
0.0534906318026363
100
AcDbArc
 50
102.5775302134595
 51
257.0609815902196
  0
LINE
  5
7FBC
330
17
100
AcDbEntity
  8
R-SWTS-DET2
100
AcDbLine
 10
41.23649549487271
 20
11.17491186676086
 30
0.0
 11
41.41725382816361
 21
11.21524171759277
 31
0.0
  0
LINE
  5
7FBD
330
17
100
AcDbEntity
  8
R-SWTS-DET2
100
AcDbLine
 10
41.63898587113545
 20
11.27538511374474
 30
0.0
 11
41.58959104099041
 21
11.53445489048929
 31
0.0
  0
LINE
  5
831B
330
17
100
AcDbEntity
  8
R-SWTS-DET1
100
AcDbLine
 10
12.31771951307716
 20
34.50866138220884
 30
0.0
 11
12.30076190959315
 21
34.50866138220884
 31
0.0
  0
LINE
  5
831F
330
17
100
AcDbEntity
  8
R-SWTS-DET3
100
AcDbLine
 10
11.45078474763304
 20
35.1961613822089
 30
0.0
 11
13.02134432382722
 21
34.9461613822089
 31
0.0
  0
LINE
  5
8320
330
17
100
AcDbEntity
  8
R-SWTS-DET3
100
AcDbLine
 10
11.45078474763304
 20
34.9461613822089
 30
0.0
 11
13.02134432382722
 21
34.9461613822089
 31
0.0
  0
LINE
  5
8321
330
17
100
AcDbEntity
  8
R-SWTS-DET3
100
AcDbLine
 10
13.02134432382722
 20
35.1961613822089
 30
0.0
 11
11.45078474763304
 21
34.9461613822089
 31
0.0
  0
LINE
  5
8322
330
17
100
AcDbEntity
  8
R-SWTS-DET3
100
AcDbLine
 10
13.75683451307815
 20
35.1961613822089
 30
0.0
 11
10.71529455838211
 21
35.1961613822089
 31
0.0
  0
DIMENSION
  5
8325
330
17
100
AcDbEntity
  8
R-ANNO-DIMS
100
AcDbDimension
  2
*D8
 10
13.24631227000185
 20
30.11889500491668
 30
0.0
 11
12.24368840286627
 21
30.11889500491668
 31
0.0
 70
   160
 71
     5
 42
-1.0
  3
SHOP_DETAILS_NORCROSS
100
AcDbAlignedDimension
 13
11.24106453573068
 23
30.94616138220888
 33
0.0
 14
13.24631227000185
 24
30.94609176470157
 34
0.0
100
AcDbRotatedDimension
1001
ACAD
1000
DSTYLE
1002
{
1070
    76
1070
     0
1002
}
  0
LWPOLYLINE
  5
8326
330
17
100
AcDbEntity
  8
R-SWTS-DET1
100
AcDbPolyline
 90
        6
 70
     0
 43
0.0
 10
13.4950672046632
 20
30.94616138220888
 10
12.35094795110083
 20
30.9458411846192
 10
12.2980275364384
 20
30.73358899449634
 10
12.19210687288799
 20
31.15841357233175
 10
12.13918645822557
 20
30.94616138220888
 10
10.99690571178792
 20
30.94616138220888
  0
DIMENSION
  5
8327
330
17
100
AcDbEntity
  8
R-ANNO-DIMS
100
AcDbDimension
  2
*D9
 10
11.12131451307713
 20
29.43618328140428
 30
0.0
 11
12.24631451307717
 21
29.43618328140428
 31
0.0
 70
   160
 71
     5
 42
-1.0
  3
SHOP_DETAILS_NORCROSS
100
AcDbAlignedDimension
 13
13.3713145130772
 23
32.95716138221269
 33
0.0
 14
11.12131451307713
 24
32.9571613822127
 34
0.0
100
AcDbRotatedDimension
1001
ACAD
1000
DSTYLE
1002
{
1070
    76
1070
     0
1002
}
  0
DIMENSION
  5
8329
330
17
100
AcDbEntity
  8
R-ANNO-DIMS
100
AcDbDimension
  2
*D10
 10
9.493894513077085
 20
32.94716138221271
 30
0.0
 11
9.49389451307708
 21
33.84511841724417
 31
0.0
 70
   160
 71
     5
 42
-1.0
  3
SHOP_DETAILS_NORCROSS
100
AcDbAlignedDimension
 13
11.12131451307713
 23
34.94616138220891
 33
0.0
 14
11.13131451307711
 24
32.94716138221271
 34
0.0
 50
90.0
100
AcDbRotatedDimension
1001
ACAD
1000
DSTYLE
1002
{
1002
}
  0
DIMENSION
  5
832A
330
17
100
AcDbEntity
  8
R-ANNO-DIMS
100
AcDbDimension
  2
*D11
 10
8.86889451307708
 20
30.94616138220888
 30
0.0
 11
8.681894513077075
 21
32.72741138220886
 31
0.0
 70
    32
  1
MH
 71
     5
 42
-1.0
  3
SHOP_DETAILS_NORCROSS
100
AcDbAlignedDimension
 13
9.49389451307708
 23
34.50866138220884
 33
0.0
 14
10.99690571178792
 24
30.94616138220888
 34
0.0
 50
90.0
100
AcDbRotatedDimension
1001
ACAD
1000
DSTYLE
1002
{
1002
}
  0
DIMENSION
  5
832B
330
17
100
AcDbEntity
  8
R-ANNO-DIMS
100
AcDbDimension
  2
*D12
 10
8.24389451307708
 20
30.94616138220888
 30
0.0
 11
8.056894513077075
 21
32.94616138220888
 31
0.0
 70
    32
  1
FH
 71
     5
 42
-1.0
  3
SHOP_DETAILS_NORCROSS
100
AcDbAlignedDimension
 13
11.12131451307713
 23
34.9461613822089
 33
0.0
 14
10.99690571178792
 24
30.94616138220888
 34
0.0
 50
90.0
100
AcDbRotatedDimension
1001
ACAD
1000
DSTYLE
1002
{
1002
}
  0
DIMENSION
  5
832C
330
17
100
AcDbEntity
  8
R-ANNO-DIMS
100
AcDbDimension
  2
*D13
 10
7.61889451307708
 20
30.94616138220888
 30
0.0
 11
7.431894513077074
 21
33.07116138220889
 31
0.0
 70
    32
  1
OD
 71
     5
 42
-1.0
  3
SHOP_DETAILS_NORCROSS
100
AcDbAlignedDimension
 13
8.675006014212215
 23
35.1961613822089
 33
0.0
 14
10.99690571178792
 24
30.94616138220888
 34
0.0
 50
90.0
100
AcDbRotatedDimension
1001
ACAD
1000
DSTYLE
1002
{
1002
}
  0
DIMENSION
  5
832D
330
17
100
AcDbEntity
  8
R-ANNO-DIMS
100
AcDbDimension
  2
*D14
 10
9.49389451307708
 20
30.94616138220888
 30
0.0
 11
9.306894513077075
 21
31.94666138221079
 31
0.0
 70
    32
  1
DLO
 71
     5
 42
-1.0
  3
SHOP_DETAILS_NORCROSS
100
AcDbAlignedDimension
 13
11.13131451307711
 23
32.94716138221271
 33
0.0
 14
10.99690571178792
 24
30.94616138220888
 34
0.0
 50
90.0
100
AcDbRotatedDimension
1001
ACAD
1000
DSTYLE
1002
{
1002
}
  0
DIMENSION
  5
8330
330
17
100
AcDbEntity
  8
R-ANNO-DIMS
100
AcDbDimension
  2
*D15
 10
8.868894513077085
 20
34.9461613822089
 30
0.0
 11
8.86889451307708
 21
35.94982804887557
 31
0.0
 70
   160
 71
     5
 42
-1.0
  3
SHOP_DETAILS_NORCROSS
100
AcDbAlignedDimension
 13
9.49389451307708
 23
34.50866138220884
 33
0.0
 14
11.12131451307713
 24
34.9461613822089
 34
0.0
 50
90.0
100
AcDbRotatedDimension
1001
ACAD
1000
DSTYLE
1002
{
1002
}
  0
DIMENSION
  5
8331
330
17
100
AcDbEntity
  8
R-ANNO-DIMS
100
AcDbDimension
  2
*D16
 10
8.243894513077085
 20
35.1961613822089
 30
0.0
 11
8.24389451307708
 21
36.86649471554223
 31
0.0
 70
   160
  1
SHIM SPACE
 71
     5
 42
-1.0
  3
SHOP_DETAILS_NORCROSS
100
AcDbAlignedDimension
 13
11.12131451307713
 23
34.9461613822089
 33
0.0
 14
10.71529455838211
 24
35.1961613822089
 34
0.0
 50
90.0
100
AcDbRotatedDimension
1001
ACAD
1000
DSTYLE
1002
{
1002
}
  0
LINE
  5
8332
330
17
100
AcDbEntity
  8
R-ANNO-DIMS
  6
Continuous
100
AcDbLine
 10
9.60104050217987
 20
34.50866138220884
 30
0.0
 11
12.04915211612882
 21
34.50866138220884
 31
0.0
  0
ARC
  5
8336
330
17
100
AcDbEntity
  8
R-SWTS-DET3
100
AcDbCircle
 10
10.87247545248429
 20
34.97431565012646
 30
0.0
 40
0.2504267175816111
100
AcDbArc
 50
353.5448646659804
 51
62.35888106505984
  0
CIRCLE
  5
8337
330
17
100
AcDbEntity
  8
R-SWTS-DET3
100
AcDbCircle
 10
11.39982757108461
 20
35.04790787148362
 30
0.0
 40
0.1460250000000009
  0
LINE
  5
8338
330
17
100
AcDbEntity
  8
R-SWTS-DET3
100
AcDbLine
 10
11.45078474763304
 20
34.9461613822089
 30
0.0
 11
11.45078474763304
 21
35.1961613822089
 31
0.0
  0
LINE
  5
8339
330
17
100
AcDbEntity
  8
R-SWTS-DET1
100
AcDbLine
 10
13.24631451307716
 20
32.95716138221269
 30
0.0
 11
13.24631227000185
 21
30.94609176470157
 31
0.0
  0
LINE
  5
8340
330
17
100
AcDbEntity
  8
R-SWTS-DET3
  6
CENTER
100
AcDbLine
 10
12.8184290776151
 20
35.7928220454124
 30
0.0
 11
12.81842907761511
 21
34.03707004541251
 31
0.0
  0
LINE
  5
8341
330
17
100
AcDbEntity
  8
R-SWTS-DET1
100
AcDbLine
 10
13.24631451307718
 20
34.50866138220885
 30
0.0
 11
13.24631451307718
 21
33.1321613822127
 31
0.0
  0
LINE
  5
8342
330
17
100
AcDbEntity
  8
R-SWTS-DET1
100
AcDbLine
 10
13.24631451307718
 20
34.50866138220885
 30
0.0
 11
12.38771951307715
 21
34.50866138220884
 31
0.0
  0
LINE
  5
8343
330
17
100
AcDbEntity
  8
R-SWTS-DET3
100
AcDbLine
 10
13.02134432382722
 20
34.9461613822089
 30
0.0
 11
13.02134432382722
 21
35.1961613822089
 31
0.0
  0
LINE
  5
8346
330
17
100
AcDbEntity
  8
R-SWTS-DET1
  6
Continuous
100
AcDbLine
 10
11.27825667331106
 20
27.93772183007363
 30
0.0
 11
11.27825667331106
 21
21.93772183007363
 31
0.0
  0
DIMENSION
  5
8348
330
17
100
AcDbEntity
  8
R-ANNO-DIMS
100
AcDbDimension
  2
*D17
 10
9.534256673311062
 20
27.93772183007363
 30
0.0
 11
9.34725667331106
 21
26.9375617312788
 31
0.0
 70
    32
  1
DLO
 71
     5
 42
-1.0
  3
SHOP_DETAILS_NORCROSS
100
AcDbAlignedDimension
 13
11.30409518043578
 23
25.93740163248396
 33
0.0
 14
11.03009518043578
 24
27.93772183007363
 34
0.0
 50
270.0
100
AcDbRotatedDimension
1001
ACAD
1000
DSTYLE
1002
{
1070
    78
1070
     1
1070
   270
1070
     7
1070
   284
1070
     1
1070
   140
1040
0.25
1070
    74
1070
     0
1070
    73
1070
     0
1070
    77
1070
     1
1070
    76
1070
     1
1070
     3
1000
"
1070
   147
1040
0.062
1070
    42
1040
0.125
1070
    44
1040
0.125
1070
    43
1040
0.375
1070
   178
1070
   256
1070
   177
1070
   256
1070
   176
1070
   256
1070
   141
1040
0.0
1070
    41
1040
0.2
1002
}
  0
LWPOLYLINE
  5
834C
330
17
100
AcDbEntity
  8
R-SWTS-DET1
100
AcDbPolyline
 90
        6
 70
     0
 43
0.0
 10
13.49625667331108
 20
21.93772183007363
 10
12.3521374197487
 20
21.93740163248396
 10
12.29921700508628
 20
21.72514944236109
 10
12.19329634153587
 20
22.14997402019649
 10
12.14037592687345
 20
21.93772183007363
 10
10.9980951804358
 20
21.93772183007363
  0
DIMENSION
  5
834D
330
17
100
AcDbEntity
  8
R-ANNO-DIMS
100
AcDbDimension
  2
*D18
 10
9.534256673311062
 20
21.93772183007363
 30
0.0
 11
9.34725667331106
 21
22.9375617312788
 31
0.0
 70
    32
  1
DLO
 71
     5
 42
-1.0
  3
SHOP_DETAILS_NORCROSS
100
AcDbAlignedDimension
 13
11.27825667331106
 23
23.93740163248395
 33
0.0
 14
11.03009518043578
 24
21.93772183007363
 34
0.0
 50
270.0
100
AcDbRotatedDimension
1001
ACAD
1000
DSTYLE
1002
{
1070
    78
1070
     1
1070
   270
1070
     7
1070
   284
1070
     1
1070
   140
1040
0.25
1070
    74
1070
     0
1070
    73
1070
     0
1070
    77
1070
     1
1070
    76
1070
     1
1070
     3
1000
"
1070
   147
1040
0.062
1070
    42
1040
0.125
1070
    44
1040
0.125
1070
    43
1040
0.375
1070
   178
1070
   256
1070
   177
1070
   256
1070
   176
1070
   256
1070
   141
1040
0.0
1070
    41
1040
0.2
1002
}
  0
DIMENSION
  5
834E
330
17
100
AcDbEntity
  8
R-ANNO-DIMS
100
AcDbDimension
  2
*D19
 10
9.534256673311062
 20
23.93740163248397
 30
0.0
 11
9.34725667331106
 21
24.93740163248397
 31
0.0
 70
    32
 71
     5
 42
-1.0
  3
SHOP_DETAILS_NORCROSS
100
AcDbAlignedDimension
 13
11.30409518043578
 23
25.93740163248396
 33
0.0
 14
11.27825667331106
 24
23.93740163248397
 34
0.0
 50
270.0
100
AcDbRotatedDimension
1001
ACAD
1000
DSTYLE
1002
{
1070
    78
1070
     1
1070
   270
1070
     7
1070
   284
1070
     1
1070
   140
1040
0.25
1070
    74
1070
     0
1070
    73
1070
     0
1070
    77
1070
     1
1070
    76
1070
     1
1070
     3
1000
"
1070
   147
1040
0.062
1070
    42
1040
0.125
1070
    44
1040
0.125
1070
    43
1040
0.375
1070
   178
1070
   256
1070
   177
1070
   256
1070
   176
1070
   256
1070
   141
1040
0.0
1070
    41
1040
0.2
1002
}
  0
LINE
  5
8352
330
17
100
AcDbEntity
  8
R-SWTS-DET1
  6
Continuous
100
AcDbLine
 10
13.27825667331106
 20
24.46712599570439
 30
0.0
 11
13.27825667331106
 21
21.93772183007363
 31
0.0
  0
LINE
  5
8353
330
17
100
AcDbEntity
  8
R-SWTS-DET3
  6
CENTER
100
AcDbLine
 10
14.18356806603709
 20
23.45083644998072
 30
0.0
 11
12.4278160660372
 21
23.45083644998071
 31
0.0
  0
LWPOLYLINE
  5
8355
330
17
100
AcDbEntity
  8
R-SWTS-DET1
100
AcDbPolyline
 90
        6
 70
     0
 43
0.0
 10
13.52825667331106
 20
27.93772183007363
 10
12.38413741974869
 20
27.93740163248396
 10
12.33121700508627
 20
27.72514944236109
 10
12.22529634153586
 20
28.14997402019649
 10
12.17237592687343
 20
27.93772183007363
 10
11.03009518043578
 20
27.93772183007363
  0
LINE
  5
835B
330
17
100
AcDbEntity
  8
R-SWTS-DET3
  6
CENTER
100
AcDbLine
 10
14.18356806603709
 20
26.42406281498722
 30
0.0
 11
12.4278160660372
 21
26.42406281498723
 31
0.0
  0
LINE
  5
835C
330
17
100
AcDbEntity
  8
R-SWTS-DET1
  6
Continuous
100
AcDbLine
 10
13.27825667331106
 20
27.93772183007363
 30
0.0
 11
13.27825667331106
 21
26.73494963248397
 31
0.0
  0
LWPOLYLINE
  5
8366
330
17
100
AcDbEntity
  8
R-SWTS-DET1
100
AcDbPolyline
 90
        6
 70
     0
 43
0.0
 10
13.59914680018542
 20
19.6431112819806
 10
12.45502754662305
 20
19.64343147957027
 10
12.40210713196062
 20
19.85568366969314
 10
12.29618646841022
 20
19.43085909185773
 10
12.24326605374779
 20
19.6431112819806
 10
11.10098530731014
 20
19.6431112819806
  0
LINE
  5
8369
330
17
100
AcDbEntity
  8
R-SWTS-DET3
100
AcDbLine
 10
13.12542391934944
 20
15.39411128198441
 30
0.0
 11
11.55486434315527
 21
15.64411128198441
 31
0.0
  0
LINE
  5
836A
330
17
100
AcDbEntity
  8
R-SWTS-DET3
100
AcDbLine
 10
11.55486434315527
 20
15.64411128198441
 30
0.0
 11
13.12542391934944
 21
15.64411128198441
 31
0.0
  0
LINE
  5
836B
330
17
100
AcDbEntity
  8
R-SWTS-DET3
100
AcDbLine
 10
11.55486434315527
 20
15.39411128198441
 30
0.0
 11
13.12542391934944
 21
15.64411128198441
 31
0.0
  0
LINE
  5
836C
330
17
100
AcDbEntity
  8
R-SWTS-DET3
100
AcDbLine
 10
13.86091410860037
 20
15.39411128198441
 30
0.0
 11
10.81937415390433
 21
15.39411128198441
 31
0.0
  0
DIMENSION
  5
836F
330
17
100
AcDbEntity
  8
R-ANNO-DIMS
100
AcDbDimension
  2
*D20
 10
8.980969911353867
 20
19.6431112819806
 30
0.0
 11
8.793969911353865
 21
17.7064511831873
 31
0.0
 70
    32
  1
MH
 71
     5
 42
-1.0
  3
SHOP_DETAILS_NORCROSS
100
AcDbAlignedDimension
 13
9.452730272520824
 23
15.76979108439398
 33
0.0
 14
11.10098530731014
 24
19.6431112819806
 34
0.0
 50
90.0
100
AcDbRotatedDimension
1001
ACAD
1000
DSTYLE
1002
{
1002
}
  0
DIMENSION
  5
8370
330
17
100
AcDbEntity
  8
R-ANNO-DIMS
100
AcDbDimension
  2
*D21
 10
7.730969911353867
 20
19.6431112819806
 30
0.0
 11
7.543969911353863
 21
17.51845118318762
 31
0.0
 70
    32
  1
OD
 71
     5
 42
-1.0
  3
SHOP_DETAILS_NORCROSS
100
AcDbAlignedDimension
 13
8.795985384310739
 23
15.39379108439463
 33
0.0
 14
11.10098530731014
 24
19.6431112819806
 34
0.0
 50
90.0
100
AcDbRotatedDimension
1001
ACAD
1000
DSTYLE
1002
{
1002
}
  0
DIMENSION
  5
8371
330
17
100
AcDbEntity
  8
R-ANNO-DIMS
100
AcDbDimension
  2
*D22
 10
9.605969911353868
 20
17.6431112819806
 30
0.0
 11
9.605969911353867
 21
16.73908204935948
 31
0.0
 70
   160
 71
     5
 42
-1.0
  3
SHOP_DETAILS_NORCROSS
100
AcDbAlignedDimension
 13
11.22694251483841
 23
15.64379108439472
 33
0.0
 14
11.23539410859933
 24
17.6431112819806
 34
0.0
 50
90.0
100
AcDbRotatedDimension
1001
ACAD
1000
DSTYLE
1002
{
1002
}
  0
DIMENSION
  5
8372
330
17
100
AcDbEntity
  8
R-ANNO-DIMS
100
AcDbDimension
  2
*D23
 10
8.355969911353867
 20
19.6431112819806
 30
0.0
 11
8.168969911353865
 21
17.64345118318766
 31
0.0
 70
    32
  1
FH
 71
     5
 42
-1.0
  3
SHOP_DETAILS_NORCROSS
100
AcDbAlignedDimension
 13
11.22694251483841
 23
15.64379108439472
 33
0.0
 14
11.10098530731014
 24
19.6431112819806
 34
0.0
 50
90.0
100
AcDbRotatedDimension
1001
ACAD
1000
DSTYLE
1002
{
1002
}
  0
DIMENSION
  5
8373
330
17
100
AcDbEntity
  8
R-ANNO-DIMS
100
AcDbDimension
  2
*D24
 10
8.980969911353868
 20
15.64379108439472
 30
0.0
 11
8.980969911353867
 21
14.70364842230636
 31
0.0
 70
   160
 71
     5
 42
-1.0
  3
SHOP_DETAILS_NORCROSS
100
AcDbAlignedDimension
 13
9.452730272520824
 23
15.76979108439398
 33
0.0
 14
11.22694251483841
 24
15.64379108439472
 34
0.0
 50
90.0
100
AcDbRotatedDimension
1001
ACAD
1000
DSTYLE
1002
{
1002
}
  0
DIMENSION
  5
8374
330
17
100
AcDbEntity
  8
R-ANNO-DIMS
100
AcDbDimension
  2
*D25
 10
8.35596991135387
 20
15.39379108439463
 30
0.0
 11
8.355969911353867
 21
13.7234577510613
 31
0.0
 70
   160
  1
SHIM SPACE
 71
     5
 42
-1.0
  3
SHOP_DETAILS_NORCROSS
100
AcDbAlignedDimension
 13
11.22694251483841
 23
15.64379108439472
 33
0.0
 14
10.82736995665891
 24
15.39379108439463
 34
0.0
 50
90.0
100
AcDbRotatedDimension
1001
ACAD
1000
DSTYLE
1002
{
1002
}
  0
CIRCLE
  5
8375
330
17
100
AcDbEntity
  8
R-SWTS-DET3
100
AcDbCircle
 10
11.50784476556175
 20
15.54091957909278
 30
0.0
 40
0.1460250000000009
  0
LINE
  5
8376
330
17
100
AcDbEntity
  8
R-SWTS-DET3
100
AcDbLine
 10
11.55486434315527
 20
15.64411128198441
 30
0.0
 11
11.55486434315527
 21
15.39411128198441
 31
0.0
  0
ARC
  5
8377
330
17
100
AcDbEntity
  8
R-SWTS-DET3
100
AcDbCircle
 10
10.97655504800651
 20
15.61595701406685
 30
0.0
 40
0.2504267175816111
100
AcDbArc
 50
297.6411189349402
 51
6.455135334019569
  0
HATCH
  5
8378
330
17
100
AcDbEntity
  8
0
  6
Continuous
100
AcDbHatch
 10
0.0
 20
0.0
 30
0.0
210
0.0
220
0.0
230
1.0
  2
SOLID
 70
     1
 71
     0
 91
        1
 92
        7
 72
     0
 73
     1
 93
        4
 10
11.22539410859935
 20
15.7691112819844
 10
11.35039410859935
 20
15.7691112819844
 10
11.32789410859935
 20
16.0816112819844
 10
11.22539410859935
 20
16.0816112819844
 97
        0
 75
     0
 76
     1
 47
0.0009877432954695
 98
        1
 10
11.27728642227876
 20
15.95449806782039
  0
LINE
  5
8379
330
17
100
AcDbEntity
  8
0
  6
Continuous
100
AcDbLine
 10
11.32789410859935
 20
16.0816112819844
 30
0.0
 11
11.22539410859935
 21
16.0816112819844
 31
0.0
  0
LINE
  5
837A
330
17
100
AcDbEntity
  8
0
  6
Continuous
100
AcDbLine
 10
11.35039410859935
 20
15.7691112819844
 30
0.0
 11
11.22539410859935
 21
15.7691112819844
 31
0.0
  0
DIMENSION
  5
837C
330
17
100
AcDbEntity
  8
R-ANNO-DIMS
100
AcDbDimension
  2
*D26
 10
9.605969911353867
 20
19.6431112819806
 30
0.0
 11
9.418969911353865
 21
18.6431112819806
 31
0.0
 70
    32
  1
DLO
 71
     5
 42
-1.0
  3
SHOP_DETAILS_NORCROSS
100
AcDbAlignedDimension
 13
11.23539410859933
 23
17.6431112819806
 33
0.0
 14
11.10098530731014
 24
19.6431112819806
 34
0.0
 50
90.0
100
AcDbRotatedDimension
1001
ACAD
1000
DSTYLE
1002
{
1002
}
  0
LINE
  5
837E
330
17
100
AcDbEntity
  8
R-SWTS-DET3
100
AcDbLine
 10
11.88696886063147
 20
17.26879108439475
 30
0.0
 11
12.13696886063147
 21
17.26879108439475
 31
0.0
  0
LINE
  5
8383
330
17
100
AcDbEntity
  8
R-SWTS-DET1
100
AcDbLine
 10
13.35039410859931
 20
15.7691112819844
 30
0.0
 11
13.35039410859931
 21
17.4581112819806
 31
0.0
  0
LINE
  5
8384
330
17
100
AcDbEntity
  8
R-SWTS-DET3
  6
CENTER
100
AcDbLine
 10
12.92250867313733
 20
14.79745061878091
 30
0.0
 11
12.92250867313734
 21
16.5532026187808
 31
0.0
  0
LINE
  5
8385
330
17
100
AcDbEntity
  8
R-SWTS-DET3
100
AcDbLine
 10
13.12542391934944
 20
15.64411128198441
 30
0.0
 11
13.12542391934944
 21
15.39411128198441
 31
0.0
  0
LINE
  5
8387
330
17
100
AcDbEntity
  8
R-SWTS-DET1
100
AcDbLine
 10
13.35039410859938
 20
17.63311128198061
 30
0.0
 11
13.35039158566027
 21
19.64318089956623
 31
0.0
  0
LINE
  5
838C
330
17
100
AcDbEntity
  8
R-SWTS-DET3
  6
CENTER
100
AcDbLine
 10
49.26890333647214
 20
13.31942746766713
 30
0.0
 11
49.26890333647213
 21
11.56367546766724
 31
0.0
  0
LWPOLYLINE
  5
838D
330
17
100
AcDbEntity
  8
R-SWTS-DET1
100
AcDbPolyline
 90
        6
 70
     0
 43
0.0
 10
47.75781628215562
 20
12.61424171759275
 10
47.75781628215562
 20
11.47012246403039
 10
47.97006847227849
 20
11.41720204936796
 10
47.54524389444306
 20
11.31128138581756
 10
47.75749608456595
 20
11.25836097115512
 10
47.75749608456595
 20
9.866080224717485
  0
LWPOLYLINE
  5
838E
330
17
100
AcDbEntity
  8
R-SWTS-DET1
100
AcDbPolyline
 90
        6
 70
     0
 43
0.0
 10
53.77012170157433
 20
12.61424171759275
 10
53.77012170157433
 20
11.47012246403039
 10
53.55786951145146
 20
11.41720204936796
 10
53.98269408928689
 20
11.31128138581756
 10
53.770441899164
 20
11.25836097115512
 10
53.770441899164
 20
9.866080224717485
  0
LINE
  5
838F
330
17
100
AcDbEntity
  8
R-SWTS-DET3
  6
CENTER
100
AcDbLine
 10
52.25903464725784
 20
13.31942746766713
 30
0.0
 11
52.25903464725785
 21
11.56367546766724
 31
0.0
  0
LINE
  5
8392
330
17
100
AcDbEntity
  8
R-SWTS-DET1
  6
Continuous
100
AcDbLine
 10
53.75717588697628
 20
10.11424171759277
 30
0.0
 11
47.75781628215562
 21
10.11424171759272
 31
0.0
  0
LINE
  5
8393
330
17
100
AcDbEntity
  8
R-SWTS-DET2
  6
Continuous
100
AcDbLine
 10
49.7640439918649
 20
11.53445489048929
 30
0.0
 11
47.75781628215562
 21
11.53445489048929
 31
0.0
  0
LINE
  5
8394
330
17
100
AcDbEntity
  8
R-SWTS-DET3
100
AcDbLine
 10
50.50749608456595
 20
10.7755153717997
 30
0.0
 11
47.75749608456595
 21
10.7755153717997
 31
0.0
  0
LINE
  5
8395
330
17
100
AcDbEntity
  8
R-SWTS-DET3
100
AcDbLine
 10
50.50749608456595
 20
11.0255153717997
 30
0.0
 11
47.75749608456595
 21
11.0255153717997
 31
0.0
  0
DIMENSION
  5
8396
330
17
100
AcDbEntity
  8
R-ANNO-DIMS
100
AcDbDimension
  2
*D5
 10
47.75749608456595
 20
8.652241717592751
 30
0.0
 11
48.76073253821547
 21
8.83924171759275
 31
0.0
 70
    32
  1
DLO
 71
     5
 42
-1.0
  3
SHOP_DETAILS_NORCROSS
100
AcDbAlignedDimension
 13
49.76396899186499
 23
10.23924171759275
 33
0.0
 14
47.75749608456595
 24
9.991080224717485
 34
0.0
100
AcDbRotatedDimension
1001
ACAD
1000
DSTYLE
1002
{
1070
    78
1070
     1
1070
   270
1070
     7
1070
   284
1070
     1
1070
   140
1040
0.25
1070
    74
1070
     0
1070
    73
1070
     0
1070
    77
1070
     1
1070
    76
1070
     1
1070
     3
1000
"
1070
   147
1040
0.062
1070
    42
1040
0.125
1070
    44
1040
0.125
1070
    43
1040
0.375
1070
   178
1070
   256
1070
   177
1070
   256
1070
   176
1070
   256
1070
   141
1040
0.0
1070
    41
1040
0.2
1002
}
  0
LINE
  5
8397
330
17
100
AcDbEntity
  8
0
  6
Continuous
100
AcDbLine
 10
53.75717588697628
 20
10.23924171759277
 30
0.0
 11
47.75781628215562
 21
10.23924171759272
 31
0.0
  0
LINE
  5
8398
330
17
100
AcDbEntity
  8
R-SWTS-DET1
  6
Continuous
100
AcDbLine
 10
53.770441899164
 20
10.23924171759275
 30
0.0
 11
47.76428918945465
 21
10.23924171759274
 31
0.0
  0
LINE
  5
8399
330
17
100
AcDbEntity
  8
R-SWTS-DET2
100
AcDbLine
 10
53.770441899164
 20
10.27002854469622
 30
0.0
 11
47.75749608456595
 21
10.27002854469622
 31
0.0
  0
DIMENSION
  5
839A
330
17
100
AcDbEntity
  8
R-ANNO-DIMS
100
AcDbDimension
  2
*D6
 10
53.770441899164
 20
8.652241717592751
 30
0.0
 11
52.76722944551449
 21
8.83924171759275
 31
0.0
 70
    32
  1
DLO
 71
     5
 42
-1.0
  3
SHOP_DETAILS_NORCROSS
100
AcDbAlignedDimension
 13
51.76401699186499
 23
10.23924171759275
 33
0.0
 14
53.770441899164
 24
9.991080224717485
 34
0.0
100
AcDbRotatedDimension
1001
ACAD
1000
DSTYLE
1002
{
1070
    78
1070
     1
1070
   270
1070
     7
1070
   284
1070
     1
1070
   140
1040
0.25
1070
    74
1070
     0
1070
    73
1070
     0
1070
    77
1070
     1
1070
    76
1070
     1
1070
     3
1000
"
1070
   147
1040
0.062
1070
    42
1040
0.125
1070
    44
1040
0.125
1070
    43
1040
0.375
1070
   178
1070
   256
1070
   177
1070
   256
1070
   176
1070
   256
1070
   141
1040
0.0
1070
    41
1040
0.2
1002
}
  0
LINE
  5
839B
330
17
100
AcDbEntity
  8
R-SWTS-DET3
100
AcDbLine
 10
51.00749608456595
 20
10.7755153717997
 30
0.0
 11
53.770441899164
 21
10.7755153717997
 31
0.0
  0
LINE
  5
839C
330
17
100
AcDbEntity
  8
R-SWTS-DET3
100
AcDbLine
 10
51.00749608456595
 20
11.0255153717997
 30
0.0
 11
53.770441899164
 21
11.0255153717997
 31
0.0
  0
LINE
  5
839D
330
17
100
AcDbEntity
  8
R-SWTS-DET2
  6
Continuous
100
AcDbLine
 10
51.76389399186505
 20
11.53445489048929
 30
0.0
 11
53.77012170157433
 21
11.53445489048929
 31
0.0
  0
DIMENSION
  5
83A0
330
17
100
AcDbEntity
  8
R-ANNO-DIMS
100
AcDbDimension
  2
*D7
 10
51.76401699186499
 20
8.652241717592751
 30
0.0
 11
50.76396899186498
 21
8.83924171759275
 31
0.0
 70
    32
 71
     5
 42
-1.0
  3
SHOP_DETAILS_NORCROSS
100
AcDbAlignedDimension
 13
49.76392099186497
 23
10.23924171759275
 33
0.0
 14
51.76401699186499
 24
10.23924171759275
 34
0.0
100
AcDbRotatedDimension
1001
ACAD
1000
DSTYLE
1002
{
1070
    78
1070
     1
1070
   270
1070
     7
1070
   284
1070
     1
1070
   140
1040
0.25
1070
    74
1070
     0
1070
    73
1070
     0
1070
    77
1070
     1
1070
    76
1070
     1
1070
     3
1000
"
1070
   147
1040
0.062
1070
    42
1040
0.125
1070
    44
1040
0.125
1070
    43
1040
0.375
1070
   178
1070
   256
1070
   177
1070
   256
1070
   176
1070
   256
1070
   141
1040
0.0
1070
    41
1040
0.2
1002
}
  0
LINE
  5
83A3
330
17
100
AcDbEntity
  8
R-SWTS-DET3
100
AcDbLine
 10
50.50749608456595
 20
10.7755153717997
 30
0.0
 11
50.50749608456595
 21
11.0255153717997
 31
0.0
  0
LWPOLYLINE
  5
83A4
330
17
100
AcDbEntity
  8
R-SWTS-DET2
100
AcDbPolyline
 90
        4
 70
     1
 43
0.0
 10
49.96549608456595
 20
11.19724171759275
 10
50.04749608456597
 20
11.19724171759275
 42
-0.9999999999999998
 10
50.04749608456597
 20
11.10724171759275
 10
49.96549608456595
 20
11.10724171759275
 42
-0.9999999999999998
  0
LWPOLYLINE
  5
83A5
330
17
100
AcDbEntity
  8
R-SWTS-DET2
100
AcDbPolyline
 90
       20
 70
     1
 43
0.0
 10
50.00620689576862
 20
11.37068630546169
 10
49.96375914749841
 20
11.38176856628635
 42
0.5544918979838886
 10
49.95759472675734
 20
11.37594245164712
 10
49.97506939340999
 20
11.2892768862843
 42
0.3570681555087527
 10
49.98977346683582
 20
11.27724171759276
 10
50.09249608456595
 20
11.27724171759275
 10
50.16249608456595
 20
11.28524171759275
 10
50.16249608456595
 20
11.01224171759275
 10
50.09249608456595
 20
11.02724171759275
 10
49.92049608456596
 20
11.02724171759276
 10
49.85049608456597
 20
11.01224171759275
 10
49.85049608456597
 20
11.27724171759275
 10
49.86521870229609
 20
11.27724171759275
 42
0.3570681555087529
 10
49.87992277572194
 20
11.2892768862843
 10
49.89739744237457
 20
11.37594245164712
 42
0.5544918979838379
 10
49.89123302163352
 20
11.38176856628636
 10
49.84878527336328
 20
11.37068630546169
 42
-1.000000000000044
 10
49.84120689576863
 20
11.39971333068015
 10
49.92749608456596
 20
11.42224171759275
 10
50.01378527336329
 20
11.39971333068015
 42
-0.9999999999999726
  0
ARC
  5
83A6
330
17
100
AcDbEntity
  8
R-SWTS-DET3
  6
Continuous
100
AcDbCircle
 10
50.8034604812836
 20
11.08601133685838
 30
0.0
 40
0.302230868264209
100
AcDbArc
 50
140.7482129089603
 51
191.5465931082142
  0
LINE
  5
83A7
330
17
100
AcDbEntity
  8
R-SWTS-DET3
100
AcDbLine
 10
51.00749608456595
 20
10.7755153717997
 30
0.0
 11
51.00749608456595
 21
11.0255153717997
 31
0.0
  0
LWPOLYLINE
  5
83A8
330
17
100
AcDbEntity
  8
R-SWTS-DET2
100
AcDbPolyline
 90
        4
 70
     1
 43
0.0
 10
51.5493460845661
 20
11.19724171759275
 10
51.46734608456611
 20
11.19724171759275
 42
0.9999999999999998
 10
51.46734608456611
 20
11.10724171759275
 10
51.5493460845661
 20
11.10724171759275
 42
0.9999999999999998
  0
LWPOLYLINE
  5
83A9
330
17
100
AcDbEntity
  8
R-SWTS-DET2
100
AcDbPolyline
 90
       20
 70
     1
 43
0.0
 10
51.50863527336343
 20
11.37068630546169
 10
51.55108302163366
 20
11.38176856628635
 42
-0.5544918979838886
 10
51.5572474423747
 20
11.37594245164712
 10
51.53977277572206
 20
11.2892768862843
 42
-0.3570681555087527
 10
51.52506870229623
 20
11.27724171759275
 10
51.42234608456611
 20
11.27724171759275
 10
51.3523460845661
 20
11.28524171759275
 10
51.3523460845661
 20
11.01224171759275
 10
51.42234608456609
 20
11.02724171759275
 10
51.59434608456609
 20
11.02724171759275
 10
51.66434608456611
 20
11.01224171759275
 10
51.66434608456611
 20
11.27724171759275
 10
51.64962346683597
 20
11.27724171759275
 42
-0.3570681555087529
 10
51.63491939341014
 20
11.2892768862843
 10
51.61744472675749
 20
11.37594245164712
 42
-0.5544918979838379
 10
51.62360914749855
 20
11.38176856628636
 10
51.66605689576877
 20
11.37068630546169
 42
1.000000000000044
 10
51.67363527336344
 20
11.39971333068015
 10
51.58734608456612
 20
11.42224171759275
 10
51.50105689576878
 20
11.39971333068015
 42
0.9999999999999726
  0
ARC
  5
83AA
330
17
100
AcDbEntity
  8
R-SWTS-DET3
  6
Continuous
100
AcDbCircle
 10
50.71138168784846
 20
11.08601133685838
 30
0.0
 40
0.302230868264209
100
AcDbArc
 50
348.4534068917857
 51
39.25178709103965
  0
LINE
  5
83B0
330
17
100
AcDbEntity
  8
R-SWTS-DET1
  6
Continuous
100
AcDbLine
 10
49.76392099186497
 20
12.36424171759274
 30
0.0
 11
47.75781628215562
 21
12.36424171759274
 31
0.0
  0
LINE
  5
83B1
330
17
100
AcDbEntity
  8
R-SWTS-DET1
  6
Continuous
100
AcDbLine
 10
49.76392099186497
 20
12.23924171759275
 30
0.0
 11
47.75781628215562
 21
12.23924171759275
 31
0.0
  0
LINE
  5
83B3
330
17
100
AcDbEntity
  8
R-SWTS-DET1
  6
Continuous
100
AcDbLine
 10
51.76401699186499
 20
12.36424171759274
 30
0.0
 11
53.77012170157433
 21
12.36424171759274
 31
0.0
  0
LINE
  5
83B4
330
17
100
AcDbEntity
  8
R-SWTS-DET1
  6
Continuous
100
AcDbLine
 10
51.76401699186499
 20
12.23924171759275
 30
0.0
 11
53.77012170157433
 21
12.23924171759275
 31
0.0
  0
LINE
  5
83B6
330
17
100
AcDbEntity
  8
R-SWTS-DET1
  6
Continuous
100
AcDbLine
 10
51.36396899186498
 20
12.36424171759277
 30
0.0
 11
50.16396899186499
 21
12.36424171759277
 31
0.0
  0
LINE
  5
83B7
330
17
100
AcDbEntity
  8
R-SWTS-DET1
  6
Continuous
100
AcDbLine
 10
50.29261992851624
 20
12.23924171759278
 30
0.0
 11
51.23531805521374
 21
12.23924171759277
 31
0.0
  0
LINE
  5
86E0
330
17
100
AcDbEntity
  8
0
100
AcDbLine
 10
52.38636784840134
 20
12.23924171759277
 30
0.0
 11
52.38636784840134
 21
12.36424171759277
 31
0.0
  0
LINE
  5
86E1
330
17
100
AcDbEntity
  8
0
100
AcDbLine
 10
52.12136784840134
 20
12.23924171759277
 30
0.0
 11
52.12136784840134
 21
12.36424171759277
 31
0.0
  0
LINE
  5
86E3
330
17
100
AcDbEntity
  8
0
100
AcDbLine
 10
49.40657013532864
 20
12.23924171759277
 30
0.0
 11
49.40657013532864
 21
12.36424171759277
 31
0.0
  0
LINE
  5
86E4
330
17
100
AcDbEntity
  8
0
100
AcDbLine
 10
49.14157013532864
 20
12.23924171759277
 30
0.0
 11
49.14157013532864
 21
12.36424171759277
 31
0.0
  0
LWPOLYLINE
  5
86E5
330
17
100
AcDbEntity
  8
R-SWTS-DET1
100
AcDbPolyline
 90
       22
 70
     1
 43
0.0
 10
51.61484691756153
 20
12.13924171759277
 10
51.36396899186498
 20
12.13924171759277
 10
51.36396899186498
 20
12.23924171759277
 10
52.56146899186499
 20
12.23924171759277
 42
0.4142135623730951
 10
52.57646899186499
 20
12.25424171759277
 10
52.57646899186499
 20
12.34924171759278
 42
0.4142135623730951
 10
52.56146899186499
 20
12.36424171759277
 10
51.36396899186498
 20
12.36424171759277
 42
0.3659852195961352
 10
51.24071675376978
 20
12.2600716432893
 42
-0.3659852195961381
 10
51.11746451567458
 20
12.15590156898583
 10
50.41047346805541
 20
12.15590156898583
 42
-0.3659852195961362
 10
50.2872212299602
 20
12.2600716432893
 42
0.3659852195961371
 10
50.16396899186499
 20
12.36424171759277
 10
48.96646899186499
 20
12.36424171759277
 42
0.4142135623730951
 10
48.95146899186499
 20
12.34924171759277
 10
48.95146899186499
 20
12.25424171759277
 42
0.4142135623730951
 10
48.96646899186499
 20
12.23924171759277
 10
50.16396899186499
 20
12.23924171759277
 10
50.16396899186499
 20
12.13924171759277
 10
49.91309106616846
 20
12.13924171759277
 42
0.9999999999999998
 10
49.91309106616846
 20
12.03090156898583
 10
51.61484691756153
 20
12.03090156898584
 42
0.9999999999999998
  0
LWPOLYLINE
  5
86E6
330
17
100
AcDbEntity
  8
R-SWTS-DET1
100
AcDbPolyline
 90
       66
 70
     1
 43
0.0
 10
50.99906571576007
 20
11.64824171759276
 10
50.52887226796988
 20
11.64824171759276
 42
0.4142135623730951
 10
50.43887226796988
 20
11.55824171759276
 10
50.43887226796988
 20
11.40724171759276
 42
-0.4142135623730951
 10
50.37887226796987
 20
11.34724171759276
 10
50.1240439918649
 20
11.34724171759275
 42
-0.4142135623730951
 10
50.10404399186489
 20
11.36724171759275
 10
50.10404399186489
 20
11.37724171759274
 42
0.4142135623730995
 10
49.9840439918649
 20
11.49724171759275
 10
49.8590439918649
 20
11.49724171759274
 42
-0.4142135623730951
 10
49.83404399186491
 20
11.52224171759275
 10
49.83404399186491
 20
12.10924171759276
 42
-0.4142135623730602
 10
49.89404399186491
 20
12.16924171759276
 10
50.13894799186488
 20
12.16924171759277
 10
50.13894799186488
 20
12.23924171759277
 10
49.7640439918649
 20
12.23924171759275
 10
49.7640439918649
 20
11.27724171759276
 10
49.8460439918649
 20
11.27724171759274
 42
0.4142135623731367
 10
49.8710439918649
 20
11.30224171759275
 10
49.8710439918649
 20
11.32724171759275
 10
49.8340439918649
 20
11.32724171759275
 10
49.83404399186491
 20
11.37724171759275
 42
-0.4142135623731159
 10
49.88404399186491
 20
11.42724171759275
 10
49.9840439918649
 20
11.42724171759275
 42
-0.4142135623730951
 10
50.03404399186489
 20
11.37724171759275
 10
50.03404399186489
 20
11.32724171759275
 10
49.99704399186489
 20
11.32724171759275
 10
49.99704399186489
 20
11.30224171759275
 42
0.414213562373095
 10
50.02204399186489
 20
11.27724171759276
 10
50.57596899186497
 20
11.27724171759276
 42
0.4142135623730951
 10
50.62596899186498
 20
11.32724171759276
 10
50.62596899186498
 20
11.37124171759276
 10
50.53196899186498
 20
11.37124171759276
 10
50.53196899186498
 20
11.55824171759276
 10
50.99596899186497
 20
11.55824171759276
 10
50.99596899186497
 20
11.37124171759276
 10
50.90196899186497
 20
11.37124171759276
 10
50.90196899186497
 20
11.32724171759276
 42
0.4142135623730951
 10
50.95196899186498
 20
11.27724171759276
 10
51.50589399186506
 20
11.27724171759276
 42
0.4142135623730951
 10
51.53089399186506
 20
11.30224171759275
 10
51.53089399186506
 20
11.32724171759275
 10
51.49389399186506
 20
11.32724171759275
 10
51.49389399186506
 20
11.37724171759275
 42
-0.4142135623730951
 10
51.54389399186506
 20
11.42724171759275
 10
51.64389399186505
 20
11.42724171759275
 42
-0.4142135623731159
 10
51.69389399186504
 20
11.37724171759275
 10
51.69389399186506
 20
11.32724171759275
 10
51.65689399186505
 20
11.32724171759275
 10
51.65689399186505
 20
11.30224171759275
 42
0.4142135623731367
 10
51.68189399186505
 20
11.27724171759274
 10
51.76389399186505
 20
11.27724171759276
 10
51.76389399186505
 20
12.23924171759275
 10
51.38898999186508
 20
12.23924171759277
 10
51.38898999186508
 20
12.16924171759277
 10
51.63389399186504
 20
12.16924171759276
 42
-0.4142135623730604
 10
51.69389399186504
 20
12.10924171759276
 10
51.69389399186504
 20
11.52224171759275
 42
-0.4142135623730951
 10
51.66889399186505
 20
11.49724171759274
 10
51.54389399186506
 20
11.49724171759275
 42
0.4142135623730993
 10
51.42389399186506
 20
11.37724171759274
 10
51.42389399186506
 20
11.36724171759275
 42
-0.4142135623730951
 10
51.40389399186505
 20
11.34724171759275
 10
51.14906571576008
 20
11.34724171759276
 42
-0.4142135623730951
 10
51.08906571576008
 20
11.40724171759276
 10
51.08906571576008
 20
11.55824171759276
 42
0.4142135623730951
  0
ARC
  5
86E7
330
17
100
AcDbEntity
  8
R-SWTS-DET3
100
AcDbCircle
 10
50.75749608456595
 20
10.17884611436303
 30
0.0
 40
0.6469267367871222
100
AcDbArc
 50
67.26667694457813
 51
112.733323055423
  0
ARC
  5
86E9
330
17
100
AcDbEntity
  8
R-SWTS-DET3
  6
Continuous
100
AcDbCircle
 10
50.73828934746695
 20
11.08601133685838
 30
0.0
 40
0.302230868264209
100
AcDbArc
 50
140.7482129089603
 51
191.5465931082142
  0
ARC
  5
86EA
330
17
100
AcDbEntity
  8
R-SWTS-DET3
  6
Continuous
100
AcDbCircle
 10
50.67311821365031
 20
11.08601133685838
 30
0.0
 40
0.302230868264209
100
AcDbArc
 50
140.7482129089603
 51
191.5465931082142
  0
ARC
  5
86EB
330
17
100
AcDbEntity
  8
R-SWTS-DET3
  6
Continuous
100
AcDbCircle
 10
50.60965132932821
 20
11.08601133685838
 30
0.0
 40
0.302230868264209
100
AcDbArc
 50
140.7482129089603
 51
191.5465931082142
  0
ARC
  5
86EC
330
17
100
AcDbEntity
  8
R-SWTS-DET3
  6
Continuous
100
AcDbCircle
 10
50.52896300754232
 20
11.08601133685838
 30
0.0
 40
0.302230868264209
100
AcDbArc
 50
140.7482129089603
 51
191.5465931082142
  0
ARC
  5
86ED
330
17
100
AcDbEntity
  8
R-SWTS-DET3
  6
Continuous
100
AcDbCircle
 10
50.77965644555086
 20
11.08601133685838
 30
0.0
 40
0.302230868264209
100
AcDbArc
 50
348.4534068917857
 51
39.25178709103965
  0
ARC
  5
86EE
330
17
100
AcDbEntity
  8
R-SWTS-DET3
  6
Continuous
100
AcDbCircle
 10
50.84793089276672
 20
11.08601133685838
 30
0.0
 40
0.302230868264209
100
AcDbArc
 50
348.4534068917857
 51
39.25178709103965
  0
ARC
  5
86EF
330
17
100
AcDbEntity
  8
R-SWTS-DET3
  6
Continuous
100
AcDbCircle
 10
50.92241227726759
 20
11.08601133685838
 30
0.0
 40
0.302230868264209
100
AcDbArc
 50
348.4534068917857
 51
39.25178709103965
  0
ARC
  5
86F0
330
17
100
AcDbEntity
  8
R-SWTS-DET3
  6
Continuous
100
AcDbCircle
 10
50.99999666468107
 20
11.08601133685838
 30
0.0
 40
0.302230868264209
100
AcDbArc
 50
348.4534068917857
 51
39.25178709103965
  0
ARC
  5
86F1
330
17
100
AcDbEntity
  8
R-SWTS-DET3
100
AcDbCircle
 10
50.75749608456595
 20
10.24086865150644
 30
0.0
 40
0.6469267367871222
100
AcDbArc
 50
67.26667694457813
 51
112.733323055423
  0
ARC
  5
86F2
330
17
100
AcDbEntity
  8
R-SWTS-DET3
100
AcDbCircle
 10
50.75749608456595
 20
10.3245992693709
 30
0.0
 40
0.6469267367871222
100
AcDbArc
 50
67.26667694457813
 51
112.733323055423
  0
ARC
  5
86F3
330
17
100
AcDbEntity
  8
R-SWTS-DET3
100
AcDbCircle
 10
50.75749608456595
 20
10.39902624052552
 30
0.0
 40
0.6469267367871222
100
AcDbArc
 50
67.26667694457813
 51
112.733323055423
  0
LWPOLYLINE
  5
8815
330
17
100
AcDbEntity
  8
R-SWTS-DET1
100
AcDbPolyline
 90
       79
 70
     1
 43
0.0
 10
11.39366451307717
 20
33.1213613822127
 10
11.39366451307717
 20
33.04966138221269
 10
11.42266451307717
 20
33.04966138221269
 10
11.39366451307717
 20
32.96716138221269
 10
11.34066538804325
 20
32.97716138221268
 10
11.3301199334978
 20
32.94716138221268
 10
11.25631451307719
 20
32.94716138221268
 42
-0.4142135623733032
 10
11.24631451307716
 20
32.9571613822127
 10
11.24631451307719
 20
33.04216138221268
 42
0.4142135623733032
 10
11.23631451307719
 20
33.05216138221267
 10
11.2113734969258
 20
33.05216138221267
 42
-0.5773502691905536
 10
11.20271324288796
 20
33.06716138221269
 10
11.30026580177122
 20
33.23612737060684
 42
-0.2679491924309027
 10
11.30898496563842
 20
33.24116138221267
 10
11.36160951307719
 20
33.24116138221267
 42
0.4142135623730951
 10
11.42160951307719
 20
33.30116138221267
 10
11.42160951307719
 20
33.72216138221271
 42
-0.4142135623730951
 10
11.59160951307718
 20
33.89216138221271
 10
12.25771951307714
 20
33.89216138221272
 42
0.4142135623730257
 10
12.31771951307715
 20
33.95216138221272
 10
12.31771951307715
 20
34.76716138221269
 42
-0.9999999999999998
 10
12.38771951307715
 20
34.76716138221269
 10
12.38771951307716
 20
33.26688761843991
 42
0.1990202627215353
 10
12.393583249733
 20
33.25273961297396
 10
12.45487989563412
 20
33.19149384015745
 42
-0.1990202627214278
 10
12.48566451307716
 20
33.11721681146134
 10
12.48566451307718
 20
33.08716138221271
 42
0.4142135623730951
 10
12.55566451307718
 20
33.01716138221272
 10
13.09856473993563
 20
33.01716138221272
 42
0.362554880954596
 10
13.16743962650543
 20
33.07466138221288
 42
-0.3625548809546137
 10
13.23631451307713
 20
33.1321613822127
 10
13.26831451307713
 20
33.1321613822127
 42
-0.4142135623729794
 10
13.30831451307713
 20
33.09216138221272
 10
13.30831451307714
 20
33.05216138221271
 10
13.24631451307713
 20
33.05216138221271
 10
13.24631451307717
 20
32.95716138221269
 42
-0.4142135623726789
 10
13.23631451307716
 20
32.9471613822127
 10
12.47920909265654
 20
32.9471613822127
 10
12.46866363811109
 20
32.97716138221273
 10
12.41566451307717
 20
32.96716138221274
 10
12.38666451307717
 20
33.04966138221272
 10
12.41566451307716
 20
33.04966138221272
 10
12.41566451307716
 20
33.12136138221271
 42
0.1989123673795612
 10
12.40834218260682
 20
33.1390390517424
 10
12.34166451307715
 20
33.20566138221273
 10
12.29971451307716
 20
33.20566138221273
 42
0.3541185725306532
 10
12.28015156106247
 20
33.18981961602907
 10
12.25771451307716
 20
33.08766138221273
 10
12.25771451307716
 20
33.04966138221272
 10
12.28671451307716
 20
33.04966138221272
 10
12.28671451307716
 20
33.03766138221272
 42
-0.4142135623730951
 10
12.26671451307715
 20
33.01766138221274
 10
12.23771451307715
 20
33.01766138221271
 42
-0.4142135623730951
 10
12.21771451307716
 20
33.03766138221275
 10
12.21771451307716
 20
33.23965638221273
 42
-0.4142135623730951
 10
12.25571951307715
 20
33.27766138221273
 10
12.25571951307715
 20
33.25566138221274
 10
12.29271951307716
 20
33.25566138221274
 42
0.4142135623730951
 10
12.31771951307717
 20
33.28066138221274
 10
12.31771951307715
 20
33.76216138221272
 42
0.4142135623731645
 10
12.25771951307715
 20
33.82216138221271
 10
11.59160951307718
 20
33.8221613822127
 42
0.4142135623730951
 10
11.49160951307718
 20
33.72216138221271
 10
11.49160951307718
 20
33.2806613822127
 42
0.4142135623730951
 10
11.51660951307719
 20
33.25566138221269
 10
11.55360951307719
 20
33.25566138221271
 10
11.55360951307719
 20
33.27766138221271
 42
-0.4142135623730951
 10
11.59161451307719
 20
33.23965638221272
 10
11.59161451307719
 20
33.0376613822127
 42
-0.4142135623730951
 10
11.57161451307718
 20
33.01766138221268
 10
11.54261451307719
 20
33.0176613822127
 42
-0.414213562372991
 10
11.52261451307718
 20
33.03766138221269
 10
11.52261451307718
 20
33.04966138221269
 10
11.55161451307717
 20
33.04966138221269
 10
11.55161451307717
 20
33.08766138221269
 10
11.52917746509188
 20
33.18981961602906
 42
0.3541185725307327
 10
11.50961451307717
 20
33.20566138221269
 10
11.46766451307718
 20
33.20566138221269
 10
11.40098684354752
 20
33.13903905174236
 42
0.1989123673796441
  0
LWPOLYLINE
  5
8816
330
17
100
AcDbEntity
  8
R-SWTS-DET2
  6
HIDDEN
100
AcDbPolyline
 90
       47
 70
     1
 43
0.0
 10
11.36689811268264
 20
33.20393249030063
 42
-0.6680280733072436
 10
11.33276184933849
 20
33.21808047079377
 10
11.33276002247684
 20
34.68116130729497
 42
-0.4142139280914197
 10
11.39276002247678
 20
34.74116138221339
 10
12.16076190959317
 20
34.74116138221334
 42
-0.4142135623730951
 10
12.22076190959317
 20
34.68116138221334
 10
12.22076190959311
 20
33.48716138220937
 42
0.9999999999996445
 10
12.30076190959315
 20
33.48716138220937
 10
12.30076190959315
 20
34.68116138221334
 42
0.3792048116104194
 10
12.17765899515674
 20
34.82013795757573
 42
-0.4827078497312515
 10
12.16946900363238
 20
34.83348505725229
 10
12.18266515340637
 20
34.86974118078017
 42
0.5205670505519691
 10
12.17326822719853
 20
34.88316138221342
 10
12.10718769145971
 20
34.88316138221343
 42
0.3152987888790578
 10
12.09779076525183
 20
34.87658158364668
 10
12.08001431237884
 20
34.82774118078013
 42
-0.3152987888787907
 10
12.070617386171
 20
34.8211613822134
 10
11.25275984949564
 20
34.82116138221346
 10
11.25276190959264
 20
33.15384821579625
 10
11.20271324288794
 20
33.06716138221265
 42
0.5773502691902963
 10
11.21137349692581
 20
33.05216138221263
 10
11.23631451307719
 20
33.05216138221265
 42
-0.4142135623730951
 10
11.2463145130772
 20
33.04216138221264
 10
11.24631451307716
 20
32.9571613822127
 42
0.4142135623735113
 10
11.25631451307718
 20
32.94716138221267
 10
11.3301199334978
 20
32.94716138221266
 10
11.34066538804325
 20
32.97716138221268
 10
11.39366451307715
 20
32.96716138221269
 10
11.42266451307717
 20
33.04966138221268
 10
11.39366451307717
 20
33.04966138221268
 10
11.39366451307717
 20
33.1213613822127
 42
-0.1989123673795624
 10
11.40098684354752
 20
33.13903905174236
 10
11.46766451307719
 20
33.20566138221269
 10
11.50961451307717
 20
33.20566138221269
 42
-0.3541185725307185
 10
11.52917746509187
 20
33.18981961602904
 10
11.55161451307717
 20
33.08766138221269
 10
11.55161451307717
 20
33.04966138221268
 10
11.52261451307718
 20
33.04966138221268
 10
11.52261451307718
 20
33.03766138221269
 42
0.414213562372991
 10
11.54261451307719
 20
33.01766138221268
 10
11.57161451307718
 20
33.01766138221267
 42
0.414213562372887
 10
11.59161451307718
 20
33.0376613822127
 10
11.59161451307719
 20
33.2396563822127
 42
0.4142135623731497
 10
11.5536095130772
 20
33.2776613822127
 10
11.5536095130772
 20
33.25566138221269
 10
11.42694938051281
 20
33.25566138221269
 42
0.1988044764924175
 10
11.41281311716867
 20
33.24980938767863
1001
MCAD_NO_VIS
1070
     1
  0
LWPOLYLINE
  5
8817
330
17
100
AcDbEntity
  8
R-SWTS-DET1
100
AcDbPolyline
 90
       54
 70
     1
 43
0.0
 10
13.24631451307716
 20
33.14216138221269
 10
13.28997476711502
 20
33.21778316047768
 42
0.131652497587137
 10
13.29131451307716
 20
33.22278316047766
 10
13.29131451307717
 20
34.0101133822127
 10
13.24631451307716
 20
34.0101133822127
 10
13.24631451307716
 20
34.11511338221267
 10
13.29131451307717
 20
34.11511338221267
 10
13.24631451307716
 20
34.82116138220887
 10
12.1988133839719
 20
34.82116138220887
 42
-0.4142135623730951
 10
12.1888133839719
 20
34.83116138220888
 10
12.1888133839719
 20
34.8800870642315
 42
0.4142135623731476
 10
12.1788133839719
 20
34.89008706423149
 10
12.09943062607713
 20
34.89008706423148
 42
0.3152987888785061
 10
12.09003369986929
 20
34.88350726566475
 10
12.06973650488803
 20
34.82774118077562
 42
-0.3152987888788812
 10
12.06033957868022
 20
34.82116138220887
 10
11.24631451307716
 20
34.82116138220891
 10
11.20131451307714
 20
34.11511338221268
 10
11.24631451307715
 20
34.11511339017764
 10
11.24631451307715
 20
34.01011339017766
 10
11.20131451307714
 20
34.0101133822127
 10
11.20131451307716
 20
33.22278316047767
 42
0.1316524975872394
 10
11.2026542590393
 20
33.21778316047769
 10
11.24631451307716
 20
33.1421613822127
 10
11.19431451307714
 20
33.1421613822127
 42
0.4142135623730951
 10
11.18431451307714
 20
33.13216138221271
 10
11.18431451307714
 20
33.06216138221269
 42
0.4142135623730951
 10
11.19431451307714
 20
33.0521613822127
 10
11.23631451307715
 20
33.0521613822127
 42
-0.4142135623733032
 10
11.24631451307715
 20
33.04216138221268
 10
11.24631451307716
 20
32.9571613822127
 42
-0.4142135623730951
 10
11.23631451307716
 20
32.94716138221271
 10
11.13131451307711
 20
32.94716138221271
 42
-0.4142135623735113
 10
11.12131451307713
 20
32.9571613822127
 10
11.12131451307713
 20
34.94616138220891
 10
11.24631451307716
 20
34.94616138220891
 10
11.24631451307716
 20
34.90116138220889
 10
12.0188133839719
 20
34.90116138220887
 10
12.0188133839719
 20
34.9461613822089
 10
12.26881338397191
 20
34.94616138220889
 10
12.2688133839719
 20
34.90116138220888
 10
13.24631451307716
 20
34.90116138220888
 10
13.24631451307716
 20
34.9461613822089
 10
13.37131451307719
 20
34.9461613822089
 10
13.3713145130772
 20
32.95716138221269
 42
-0.4142135623739275
 10
13.36131451307721
 20
32.9471613822127
 10
13.25631451307715
 20
32.9471613822127
 42
-0.4142135623735113
 10
13.24631451307716
 20
32.95716138221269
 10
13.24631451307717
 20
33.04216138221267
 42
-0.4142135623730951
 10
13.25631451307716
 20
33.05216138221269
 10
13.29831451307718
 20
33.05216138221269
 42
0.4142135623730951
 10
13.30831451307717
 20
33.06216138221268
 10
13.30831451307717
 20
33.1321613822127
 42
0.4142135623730951
 10
13.29831451307718
 20
33.14216138221269
  0
LINE
  5
8818
330
17
100
AcDbEntity
  8
R-SWTS-DET3
100
AcDbLine
 10
12.02910134018068
 20
33.32116138220888
 30
0.0
 11
12.02910134018068
 21
30.94616138220888
 31
0.0
  0
LINE
  5
8819
330
17
100
AcDbEntity
  8
R-SWTS-DET3
100
AcDbLine
 10
11.77910134018067
 20
33.32116138220888
 30
0.0
 11
11.77910134018067
 21
30.94616138220888
 31
0.0
  0
LINE
  5
881A
330
17
100
AcDbEntity
  8
R-SWTS-DET2
100
AcDbLine
 10
11.77788816728416
 20
32.75944627742882
 30
0.0
 11
11.53147111692522
 21
32.86689759516568
 31
0.0
  0
LINE
  5
881B
330
17
100
AcDbEntity
  8
R-SWTS-DET2
100
AcDbLine
 10
11.53147111692522
 20
32.86689759516568
 30
0.0
 11
11.27240134018067
 21
32.91629242531072
 31
0.0
  0
LINE
  5
881C
330
17
100
AcDbEntity
  8
R-SWTS-DET2
100
AcDbLine
 10
12.0303145130772
 20
32.75944627742882
 30
0.0
 11
12.27673156343613
 21
32.86689759516568
 31
0.0
  0
LINE
  5
881D
330
17
100
AcDbEntity
  8
R-SWTS-DET3
100
AcDbLine
 10
12.02910134018068
 20
33.32116138220888
 30
0.0
 11
11.77910134018067
 21
33.32116138220888
 31
0.0
  0
LINE
  5
881E
330
17
100
AcDbEntity
  8
R-SWTS-DET2
100
AcDbLine
 10
11.73628378786943
 20
33.26971711954028
 30
0.0
 11
11.77961451307719
 21
33.08941572975788
 31
0.0
  0
ARC
  5
881F
330
17
100
AcDbEntity
  8
R-SWTS-DET2
100
AcDbCircle
 10
11.68415134018067
 20
33.25773982482802
 30
0.0
 40
0.0534906318026363
100
AcDbArc
 50
12.93901840978043
 51
167.4224697865404
  0
LINE
  5
8820
330
17
100
AcDbEntity
  8
R-SWTS-DET2
100
AcDbLine
 10
11.6319443639091
 20
33.26938797142843
 30
0.0
 11
11.59161451307719
 21
33.08862963813752
 31
0.0
  0
LINE
  5
8821
330
17
100
AcDbEntity
  8
R-SWTS-DET2
100
AcDbLine
 10
12.07191889249192
 20
33.26971711954028
 30
0.0
 11
12.02858816728415
 21
33.08941572975788
 31
0.0
  0
ARC
  5
8822
330
17
100
AcDbEntity
  8
R-SWTS-DET2
100
AcDbCircle
 10
12.12405134018067
 20
33.25773982482802
 30
0.0
 40
0.0534906318026363
100
AcDbArc
 50
12.57753021345956
 51
167.0609815902195
  0
LINE
  5
8823
330
17
100
AcDbEntity
  8
R-SWTS-DET2
100
AcDbLine
 10
12.17625831645225
 20
33.26938797142843
 30
0.0
 11
12.21658816728415
 21
33.08862963813752
 31
0.0
  0
LINE
  5
8824
330
17
100
AcDbEntity
  8
R-SWTS-DET2
100
AcDbLine
 10
12.27673156343613
 20
32.86689759516568
 30
0.0
 11
12.53580134018068
 21
32.91629242531072
 31
0.0
  0
LINE
  5
8825
330
17
100
AcDbEntity
  8
R-SWTS-DET1
100
AcDbLine
 10
12.27910134018068
 20
32.86734942216476
 30
0.0
 11
12.27910134018068
 21
30.94616138220888
 31
0.0
  0
LINE
  5
8826
330
17
100
AcDbEntity
  8
R-SWTS-DET2
100
AcDbLine
 10
12.53580134018068
 20
32.91629242531072
 30
0.0
 11
12.53580134018068
 21
32.94616138220888
 31
0.0
  0
LINE
  5
8827
330
17
100
AcDbEntity
  8
R-SWTS-DET2
100
AcDbLine
 10
11.27240134018067
 20
32.91629242531072
 30
0.0
 11
11.27240134018067
 21
32.94616138220888
 31
0.0
  0
TEXT
  5
8912
330
17
100
AcDbEntity
  8
PART_NUMBERS
100
AcDbText
 10
13.99904450577654
 20
34.00429898086409
 30
0.0
 40
0.25
  1
132WC106 EQUAL LEG RECEPTOR
100
AcDbText
  0
LINE
  5
89ED
330
17
100
AcDbEntity
  8
0
100
AcDbLine
 10
13.27825667331106
 20
26.55984848902032
 30
0.0
 11
13.40325667331106
 21
26.55984848902032
 31
0.0
  0
LINE
  5
89EE
330
17
100
AcDbEntity
  8
0
100
AcDbLine
 10
13.27825667331106
 20
26.29484848902032
 30
0.0
 11
13.40325667331106
 21
26.29484848902032
 31
0.0
  0
LINE
  5
89F0
330
17
100
AcDbEntity
  8
0
100
AcDbLine
 10
13.27825667331106
 20
23.58005077594762
 30
0.0
 11
13.40325667331106
 21
23.58005077594762
 31
0.0
  0
LINE
  5
89F1
330
17
100
AcDbEntity
  8
0
100
AcDbLine
 10
13.27825667331106
 20
23.31505077594762
 30
0.0
 11
13.40325667331106
 21
23.31505077594762
 31
0.0
  0
LWPOLYLINE
  5
89F2
330
17
100
AcDbEntity
  8
R-SWTS-DET1
100
AcDbPolyline
 90
       22
 70
     1
 43
0.0
 10
13.17825667331106
 20
25.78832755818051
 10
13.17825667331106
 20
25.53744963248397
 10
13.27825667331106
 20
25.53744963248397
 10
13.27825667331106
 20
26.73494963248397
 42
-0.4142135623730951
 10
13.29325667331106
 20
26.74994963248397
 10
13.38825667331106
 20
26.74994963248396
 42
-0.4142135623730951
 10
13.40325667331106
 20
26.73494963248397
 10
13.40325667331105
 20
25.53744963248397
 42
-0.3659852195961352
 10
13.29908659900759
 20
25.41419739438877
 42
0.3659852195961381
 10
13.19491652470412
 20
25.29094515629356
 10
13.19491652470412
 20
24.58395410867438
 42
0.3659852195961362
 10
13.29908659900759
 20
24.46070187057917
 42
-0.3659852195961371
 10
13.40325667331105
 20
24.33744963248397
 10
13.40325667331106
 20
23.13994963248397
 42
-0.4142135623730951
 10
13.38825667331106
 20
23.12494963248397
 10
13.29325667331106
 20
23.12494963248397
 42
-0.4142135623730951
 10
13.27825667331106
 20
23.13994963248397
 10
13.27825667331106
 20
24.33744963248397
 10
13.17825667331106
 20
24.33744963248397
 10
13.17825667331106
 20
24.08657170678743
 42
-0.9999999999999998
 10
13.06991652470412
 20
24.08657170678743
 10
13.06991652470412
 20
25.78832755818051
 42
-0.9999999999999998
  0
LWPOLYLINE
  5
89F3
330
17
100
AcDbEntity
  8
R-SWTS-DET1
100
AcDbPolyline
 90
      105
 70
     1
 43
0.0
 10
12.50338799003193
 20
25.69048532434675
 10
12.44056540996686
 20
25.6277148838137
 42
0.199020262721565
 10
12.43470167331103
 20
25.61356687834776
 10
12.43470167331104
 20
24.26133238662018
 42
0.1990202627215634
 10
12.44056540996686
 20
24.24718438115424
 10
12.50338799003193
 20
24.18441394062118
 42
-0.1990202627215617
 10
12.53270667331104
 20
24.11367391329153
 10
12.53270667331104
 20
24.07740163248396
 42
0.4142135623730951
 10
12.59270667331104
 20
24.01740163248396
 10
13.14875667331104
 20
24.01740163248396
 42
0.4142135623730778
 10
13.20875667331104
 20
24.07740163248395
 10
13.20875667331105
 20
24.31240163248395
 10
13.27875667331106
 20
24.31240163248395
 10
13.27875667331103
 20
23.93740163248395
 10
12.51625125289041
 20
23.93740163248396
 10
12.50570579834495
 20
23.96740163248397
 10
12.45270667331104
 20
23.95740163248397
 10
12.42370667331104
 20
24.03990163248397
 10
12.45270667331104
 20
24.03990163248397
 10
12.45270667331104
 20
24.11160163248397
 42
0.1989123673796841
 10
12.4453843428407
 20
24.12927930201363
 10
12.37870667331104
 20
24.19590163248397
 10
12.33675667331104
 20
24.19590163248397
 42
0.3541185725307339
 10
12.31719372129636
 20
24.18005986630032
 10
12.29475667331104
 20
24.07790163248397
 10
12.29475667331104
 20
24.03990163248397
 10
12.32375667331103
 20
24.03990163248397
 10
12.32375667331103
 20
24.02790163248397
 42
-0.4142135623731209
 10
12.30375667331103
 20
24.00790163248397
 10
12.27475667331104
 20
24.00790163248397
 42
-0.414213562373069
 10
12.25475667331103
 20
24.02790163248397
 10
12.25475667331104
 20
24.22989663248397
 42
-0.4142135623730951
 10
12.29276167331103
 20
24.26790163248397
 10
12.29276167331103
 20
24.24590163248397
 10
12.32976167331103
 20
24.24590163248397
 42
0.4142135623730951
 10
12.35476167331103
 20
24.27090163248397
 10
12.35476167331103
 20
24.27099763248398
 10
12.35476167331104
 20
24.98499763248399
 42
0.4142135623730864
 10
12.29476167331104
 20
25.04499763248399
 10
11.52175167331105
 20
25.04499763248399
 42
0.4142135623730953
 10
11.46175167331104
 20
24.98499763248399
 10
11.46175167331104
 20
24.28799763248399
 42
0.4142135623730951
 10
11.48175167331104
 20
24.26799763248399
 10
11.52875167331104
 20
24.26799763248399
 10
11.52875167331104
 20
24.24599763248399
 10
11.59075167331104
 20
24.24599763248399
 10
11.59075167331104
 20
24.26799763248399
 42
-0.4142135623730951
 10
11.62875667331104
 20
24.22999263248399
 10
11.62875667331104
 20
24.02799763248399
 42
-0.4142135623731341
 10
11.60875667331104
 20
24.00799763248399
 10
11.57975667331104
 20
24.00799763248399
 42
-0.4142135623730951
 10
11.55975667331104
 20
24.02799763248399
 10
11.55975667331104
 20
24.03999763248399
 10
11.58875667331104
 20
24.03999763248399
 10
11.58875667331104
 20
24.07799763248399
 10
11.56631962532571
 20
24.18015586630035
 42
0.354118572530701
 10
11.54675667331104
 20
24.19599763248399
 10
11.50480667331104
 20
24.19599763248399
 10
11.43812900378137
 20
24.12937530201365
 42
0.198912367379658
 10
11.43080667331104
 20
24.111697632484
 10
11.43080667331104
 20
24.03999763248399
 10
11.45980667331104
 20
24.03999763248399
 10
11.45980667331104
 20
24.02799763248399
 42
-0.4142135623730951
 10
11.43980667331104
 20
24.00799763248399
 10
11.39483791100072
 20
24.00799763248399
 42
-0.4142135623730951
 10
11.37483791100072
 20
24.02799763248399
 10
11.37483791100072
 20
25.37512145415732
 10
11.39665939831548
 20
25.62454219548906
 42
-0.3888787318529861
 10
11.41658329227731
 20
25.64279908063411
 10
11.43585422973586
 20
25.64279908063411
 10
11.46175167331104
 20
25.60132267422289
 10
11.46175167331104
 20
25.18499763248399
 42
0.414213562373095
 10
11.52175167331105
 20
25.12499763248399
 10
12.29476167331106
 20
25.12499763248399
 42
0.4142135623730951
 10
12.35476167331104
 20
25.18499763248399
 10
12.35476167331104
 20
25.60399763248397
 42
0.4142135623730951
 10
12.32976167331103
 20
25.62899763248398
 10
12.29276167331104
 20
25.62899763248398
 10
12.29276167331104
 20
25.60699763248397
 42
-0.4142135623730951
 10
12.25475667331104
 20
25.64500263248397
 10
12.25475667331104
 20
25.84699763248397
 42
-0.4142135623730431
 10
12.27475667331103
 20
25.86699763248397
 10
12.30375667331104
 20
25.86699763248397
 42
-0.4142135623730561
 10
12.32375667331104
 20
25.84699763248397
 10
12.32375667331104
 20
25.83499763248397
 10
12.29475667331104
 20
25.83499763248397
 10
12.29475667331104
 20
25.79699763248398
 10
12.31719372129636
 20
25.69483939866762
 42
0.3541185725307129
 10
12.33675667331104
 20
25.67899763248398
 10
12.37870667331104
 20
25.67899763248397
 10
12.4453843428407
 20
25.74561996295431
 42
0.1989123673796786
 10
12.45270667331104
 20
25.76329763248397
 10
12.45270667331104
 20
25.83499763248397
 10
12.42370667331104
 20
25.83499763248398
 10
12.45270667331104
 20
25.91749763248397
 10
12.50570579834496
 20
25.90749763248397
 10
12.51625125289042
 20
25.93749763248399
 10
13.27875667331103
 20
25.93749763248398
 10
13.27875667331105
 20
25.56249763248398
 10
13.20875667331106
 20
25.56249763248398
 10
13.20875667331104
 20
25.79749763248399
 42
0.4142135623730777
 10
13.14875667331105
 20
25.85749763248398
 10
12.59270667331104
 20
25.85749763248399
 42
0.4142135623730951
 10
12.53270667331104
 20
25.79749763248398
 10
12.53270667331104
 20
25.76122535167642
 42
-0.1990202627215647
  0
LINE
  5
89F4
330
17
100
AcDbEntity
  8
R-SWTS-DET3
100
AcDbLine
 10
12.06624350041452
 20
25.56240163248395
 30
0.0
 11
12.06624350041452
 21
27.93740163248395
 31
0.0
  0
LINE
  5
89F5
330
17
100
AcDbEntity
  8
R-SWTS-DET3
100
AcDbLine
 10
11.81624350041452
 20
25.56240163248395
 30
0.0
 11
11.81624350041452
 21
27.93740163248395
 31
0.0
  0
LINE
  5
89F6
330
17
100
AcDbEntity
  8
R-SWTS-DET2
100
AcDbLine
 10
11.815030327518
 20
26.12411673726402
 30
0.0
 11
11.56861327715906
 21
26.01666541952716
 31
0.0
  0
LINE
  5
89F7
330
17
100
AcDbEntity
  8
R-SWTS-DET2
100
AcDbLine
 10
11.56861327715906
 20
26.01666541952716
 30
0.0
 11
11.30954350041452
 21
25.96727058938211
 31
0.0
  0
LINE
  5
89F8
330
17
100
AcDbEntity
  8
R-SWTS-DET2
100
AcDbLine
 10
12.06745667331104
 20
26.12411673726402
 30
0.0
 11
12.31387372366998
 21
26.01666541952715
 31
0.0
  0
LINE
  5
89F9
330
17
100
AcDbEntity
  8
R-SWTS-DET3
100
AcDbLine
 10
12.06624350041452
 20
25.56240163248395
 30
0.0
 11
11.81624350041452
 21
25.56240163248395
 31
0.0
  0
LINE
  5
89FA
330
17
100
AcDbEntity
  8
R-SWTS-DET2
100
AcDbLine
 10
11.77342594810328
 20
25.61384589515255
 30
0.0
 11
11.81675667331104
 21
25.79414728493495
 31
0.0
  0
ARC
  5
89FB
330
17
100
AcDbEntity
  8
R-SWTS-DET2
100
AcDbCircle
 10
11.72129350041452
 20
25.62582318986481
 30
0.0
 40
0.0534906318026363
100
AcDbArc
 50
192.5775302134595
 51
347.0609815902198
  0
LINE
  5
89FC
330
17
100
AcDbEntity
  8
R-SWTS-DET2
100
AcDbLine
 10
11.66908652414295
 20
25.61417504326441
 30
0.0
 11
11.62875667331104
 21
25.79493337655531
 31
0.0
  0
LINE
  5
89FD
330
17
100
AcDbEntity
  8
R-SWTS-DET2
100
AcDbLine
 10
12.10906105272577
 20
25.61384589515255
 30
0.0
 11
12.065730327518
 21
25.79414728493495
 31
0.0
  0
ARC
  5
89FE
330
17
100
AcDbEntity
  8
R-SWTS-DET2
100
AcDbCircle
 10
12.16119350041452
 20
25.62582318986481
 30
0.0
 40
0.0534906318026363
100
AcDbArc
 50
192.9390184097802
 51
347.4224697865404
  0
LINE
  5
89FF
330
17
100
AcDbEntity
  8
R-SWTS-DET2
100
AcDbLine
 10
12.2134004766861
 20
25.61417504326441
 30
0.0
 11
12.253730327518
 21
25.79493337655531
 31
0.0
  0
LINE
  5
8A00
330
17
100
AcDbEntity
  8
R-SWTS-DET2
100
AcDbLine
 10
12.31387372366998
 20
26.01666541952715
 30
0.0
 11
12.57294350041453
 21
25.96727058938211
 31
0.0
  0
LINE
  5
8A01
330
17
100
AcDbEntity
  8
R-SWTS-DET1
100
AcDbLine
 10
12.31624350041452
 20
26.01621359252808
 30
0.0
 11
12.31624350041452
 21
27.93740163248395
 31
0.0
  0
LINE
  5
8A02
330
17
100
AcDbEntity
  8
R-SWTS-DET2
100
AcDbLine
 10
12.57294350041453
 20
25.96727058938211
 30
0.0
 11
12.57294350041453
 21
25.93740163248395
 31
0.0
  0
LINE
  5
8A03
330
17
100
AcDbEntity
  8
R-SWTS-DET2
100
AcDbLine
 10
11.30954350041452
 20
25.96727058938211
 30
0.0
 11
11.30954350041452
 21
25.93740163248396
 31
0.0
  0
LINE
  5
8A04
330
17
100
AcDbEntity
  8
R-SWTS-DET2
100
AcDbLine
 10
12.19124350041452
 20
25.12490163248396
 30
0.0
 11
11.69124350041452
 21
25.12490163248396
 31
0.0
  0
LINE
  5
8A05
330
17
100
AcDbEntity
  8
R-SWTS-DET2
100
AcDbLine
 10
11.69124350041452
 20
25.12490163248396
 30
0.0
 11
11.69124350041452
 21
25.56240163248395
 31
0.0
  0
LINE
  5
8A06
330
17
100
AcDbEntity
  8
R-SWTS-DET2
100
AcDbLine
 10
12.19124350041452
 20
25.12490163248396
 30
0.0
 11
12.19124350041452
 21
25.56240163248395
 31
0.0
  0
LINE
  5
8A07
330
17
100
AcDbEntity
  8
R-SWTS-DET2
100
AcDbLine
 10
12.19124350041452
 20
25.56240163248395
 30
0.0
 11
11.69124350041452
 21
25.56240163248395
 31
0.0
  0
LWPOLYLINE
  5
8A08
330
17
100
AcDbEntity
  8
R-SWTS-DET1
100
AcDbPolyline
 90
       38
 70
     1
 43
0.0
 10
11.52825167331107
 20
25.62890163248397
 10
11.59025167331107
 20
25.62890163248397
 10
11.59025167331107
 20
25.60690163248396
 42
0.4142135623731089
 10
11.62825667331106
 20
25.64490663248396
 10
11.62825667331106
 20
25.84690163248397
 42
0.4142135623730951
 10
11.60825667331107
 20
25.86690163248397
 10
11.57925667331106
 20
25.86690163248397
 42
0.4142135623730951
 10
11.55925667331106
 20
25.84690163248397
 10
11.55925667331107
 20
25.83490163248397
 10
11.58825667331107
 20
25.83490163248397
 10
11.58825667331107
 20
25.79690163248397
 10
11.56581962532574
 20
25.69474339866761
 42
-0.354118572530723
 10
11.54625667331107
 20
25.67890163248397
 10
11.50430667331107
 20
25.67890163248397
 10
11.4376290037814
 20
25.7455239629543
 42
-0.1989123673796528
 10
11.43030667331107
 20
25.76320163248396
 10
11.43030667331107
 20
25.83490163248397
 10
11.45930667331106
 20
25.83490163248397
 10
11.43030667331107
 20
25.91740163248397
 10
11.37730754827714
 20
25.90740163248396
 10
11.36676209373169
 20
25.93740163248397
 10
11.30225667331106
 20
25.93740163248397
 10
11.30225667331106
 20
23.93740163248398
 10
11.42464325809096
 20
23.93740163248397
 10
11.43948945194505
 20
23.98051811016711
 42
0.5150338432752284
 10
11.42530667331106
 20
24.00040163248397
 10
11.37264433021834
 20
24.00040163248397
 42
-0.4206351665632423
 10
11.35264911511612
 20
24.02083909450815
 10
11.35264911511612
 20
25.33138375316585
 10
11.37819142660624
 20
25.62333370943131
 42
-0.9572917422548094
 10
11.4637495260966
 20
25.6195981621341
 10
11.4637495260966
 20
25.4200254541573
 42
0.414213562373108
 10
11.5037495260966
 20
25.3800254541573
 10
11.57025167331107
 20
25.3800254541573
 42
0.4142135623730951
 10
11.59025167331107
 20
25.4000254541573
 10
11.59025167331107
 20
25.4220254541573
 42
0.4142135623730951
 10
11.57025167331107
 20
25.4420254541573
 10
11.52825167331107
 20
25.4420254541573
  0
LINE
  5
8A09
330
17
100
AcDbEntity
  8
R-SWTS-DET3
100
AcDbLine
 10
12.06624350041452
 20
24.31240163248397
 30
0.0
 11
12.06624350041452
 21
21.93740163248397
 31
0.0
  0
LINE
  5
8A0A
330
17
100
AcDbEntity
  8
R-SWTS-DET3
100
AcDbLine
 10
11.81624350041452
 20
24.31240163248397
 30
0.0
 11
11.81624350041452
 21
21.93740163248397
 31
0.0
  0
LINE
  5
8A0B
330
17
100
AcDbEntity
  8
R-SWTS-DET2
100
AcDbLine
 10
11.815030327518
 20
23.75068652770391
 30
0.0
 11
11.56861327715906
 21
23.85813784544076
 31
0.0
  0
LINE
  5
8A0C
330
17
100
AcDbEntity
  8
R-SWTS-DET2
100
AcDbLine
 10
11.56861327715906
 20
23.85813784544076
 30
0.0
 11
11.30954350041452
 21
23.90753267558581
 31
0.0
  0
LINE
  5
8A0D
330
17
100
AcDbEntity
  8
R-SWTS-DET2
100
AcDbLine
 10
12.06745667331104
 20
23.75068652770391
 30
0.0
 11
12.31387372366998
 21
23.85813784544076
 31
0.0
  0
LINE
  5
8A0E
330
17
100
AcDbEntity
  8
R-SWTS-DET3
100
AcDbLine
 10
12.06624350041452
 20
24.31240163248397
 30
0.0
 11
11.81624350041452
 21
24.31240163248397
 31
0.0
  0
LINE
  5
8A0F
330
17
100
AcDbEntity
  8
R-SWTS-DET2
100
AcDbLine
 10
11.77342594810328
 20
24.26095736981537
 30
0.0
 11
11.81675667331104
 21
24.08065598003297
 31
0.0
  0
ARC
  5
8A10
330
17
100
AcDbEntity
  8
R-SWTS-DET2
100
AcDbCircle
 10
11.72129350041452
 20
24.24898007510311
 30
0.0
 40
0.0534906318026363
100
AcDbArc
 50
12.93901840978022
 51
167.4224697865404
  0
LINE
  5
8A11
330
17
100
AcDbEntity
  8
R-SWTS-DET2
100
AcDbLine
 10
11.66908652414295
 20
24.26062822170352
 30
0.0
 11
11.62875667331104
 21
24.07986988841261
 31
0.0
  0
LINE
  5
8A12
330
17
100
AcDbEntity
  8
R-SWTS-DET2
100
AcDbLine
 10
12.10906105272577
 20
24.26095736981537
 30
0.0
 11
12.065730327518
 21
24.08065598003297
 31
0.0
  0
ARC
  5
8A13
330
17
100
AcDbEntity
  8
R-SWTS-DET2
100
AcDbCircle
 10
12.16119350041452
 20
24.24898007510311
 30
0.0
 40
0.0534906318026363
100
AcDbArc
 50
12.57753021345956
 51
167.0609815902198
  0
LINE
  5
8A14
330
17
100
AcDbEntity
  8
R-SWTS-DET2
100
AcDbLine
 10
12.2134004766861
 20
24.26062822170352
 30
0.0
 11
12.253730327518
 21
24.07986988841261
 31
0.0
  0
LINE
  5
8A15
330
17
100
AcDbEntity
  8
R-SWTS-DET2
100
AcDbLine
 10
12.31387372366998
 20
23.85813784544076
 30
0.0
 11
12.57294350041453
 21
23.90753267558581
 31
0.0
  0
LINE
  5
8A16
330
17
100
AcDbEntity
  8
R-SWTS-DET1
100
AcDbLine
 10
12.31624350041452
 20
23.85858967243985
 30
0.0
 11
12.31624350041452
 21
21.93740163248397
 31
0.0
  0
LINE
  5
8A17
330
17
100
AcDbEntity
  8
R-SWTS-DET2
100
AcDbLine
 10
12.57294350041453
 20
23.90753267558581
 30
0.0
 11
12.57294350041453
 21
23.93740163248397
 31
0.0
  0
LINE
  5
8A18
330
17
100
AcDbEntity
  8
R-SWTS-DET2
100
AcDbLine
 10
11.30954350041452
 20
23.90753267558581
 30
0.0
 11
11.30954350041452
 21
23.93740163248397
 31
0.0
  0
LWPOLYLINE
  5
8A53
330
17
100
AcDbEntity
  8
R-SWTS-DET1
100
AcDbPolyline
 90
       54
 70
     1
 43
0.0
 10
13.35039410859938
 20
17.44811128198061
 10
13.39405436263724
 20
17.37248950371562
 42
-0.131652497587137
 10
13.39539410859938
 20
17.36748950371564
 10
13.3953941085994
 20
16.5801592819806
 10
13.35039410859938
 20
16.5801592819806
 10
13.35039410859938
 20
16.47515928198063
 10
13.3953941085994
 20
16.47515928198063
 10
13.35039410859938
 20
15.76911128198443
 10
12.30289297949412
 20
15.76911128198443
 42
0.4142135623730951
 10
12.29289297949412
 20
15.75911128198443
 10
12.29289297949412
 20
15.71018559996181
 42
-0.4142135623731476
 10
12.28289297949412
 20
15.70018559996181
 10
12.20351022159935
 20
15.70018559996182
 42
-0.3152987888785061
 10
12.19411329539151
 20
15.70676539852855
 10
12.17381610041025
 20
15.76253148341768
 42
0.3152987888788812
 10
12.16441917420244
 20
15.76911128198443
 10
11.35039410859938
 20
15.7691112819844
 10
11.30539410859936
 20
16.47515928198063
 10
11.35039410859937
 20
16.47515927401567
 10
11.35039410859937
 20
16.58015927401565
 10
11.30539410859936
 20
16.5801592819806
 10
11.30539410859938
 20
17.36748950371564
 42
-0.1316524975872394
 10
11.30673385456152
 20
17.37248950371562
 10
11.35039410859938
 20
17.44811128198061
 10
11.29839410859936
 20
17.44811128198061
 42
-0.4142135623730951
 10
11.28839410859937
 20
17.4581112819806
 10
11.28839410859937
 20
17.52811128198062
 42
-0.4142135623730951
 10
11.29839410859936
 20
17.53811128198061
 10
11.34039410859937
 20
17.53811128198061
 42
0.4142135623733032
 10
11.35039410859937
 20
17.54811128198063
 10
11.35039410859938
 20
17.6331112819806
 42
0.4142135623730951
 10
11.34039410859938
 20
17.6431112819806
 10
11.23539410859933
 20
17.6431112819806
 42
0.4142135623735113
 10
11.22539410859935
 20
17.63311128198061
 10
11.22539410859935
 20
15.6441112819844
 10
11.35039410859938
 20
15.6441112819844
 10
11.35039410859938
 20
15.68911128198442
 10
12.12289297949413
 20
15.68911128198443
 10
12.12289297949412
 20
15.6441112819844
 10
12.37289297949413
 20
15.64411128198441
 10
12.37289297949413
 20
15.68911128198442
 10
13.35039410859938
 20
15.68911128198442
 10
13.35039410859938
 20
15.6441112819844
 10
13.47539410859941
 20
15.6441112819844
 10
13.47539410859942
 20
17.63311128198061
 42
0.4142135623739275
 10
13.46539410859943
 20
17.6431112819806
 10
13.36039410859937
 20
17.6431112819806
 42
0.4142135623735113
 10
13.35039410859938
 20
17.63311128198061
 10
13.35039410859939
 20
17.54811128198063
 42
0.4142135623730951
 10
13.36039410859938
 20
17.53811128198061
 10
13.4023941085994
 20
17.53811128198061
 42
-0.4142135623730951
 10
13.41239410859939
 20
17.52811128198062
 10
13.41239410859939
 20
17.4581112819806
 42
-0.4142135623730951
 10
13.4023941085994
 20
17.44811128198061
  0
LWPOLYLINE
  5
8A54
330
17
100
AcDbEntity
  8
R-SWTS-DET1
100
AcDbPolyline
 90
       79
 70
     1
 43
0.0
 10
11.49774410859939
 20
17.4689112819806
 10
11.49774410859939
 20
17.54061128198061
 10
11.52674410859939
 20
17.54061128198061
 10
11.49774410859939
 20
17.6231112819806
 10
11.44474498356547
 20
17.61311128198061
 10
11.43419952902002
 20
17.64311128198061
 10
11.36039410859941
 20
17.64311128198061
 42
0.4142135623733032
 10
11.35039410859938
 20
17.6331112819806
 10
11.35039410859941
 20
17.54811128198062
 42
-0.4142135623733032
 10
11.34039410859941
 20
17.53811128198062
 10
11.31545309244803
 20
17.53811128198063
 42
0.5773502691905536
 10
11.30679283841018
 20
17.52311128198061
 10
11.40434539729344
 20
17.35414529358646
 42
0.2679491924309027
 10
11.41306456116064
 20
17.34911128198063
 10
11.46568910859941
 20
17.34911128198063
 42
-0.4142135623730951
 10
11.52568910859941
 20
17.28911128198063
 10
11.52568910859941
 20
16.86811128198059
 42
0.4142135623730951
 10
11.6956891085994
 20
16.69811128198059
 10
12.36179910859936
 20
16.69811128198058
 42
-0.4142135623730257
 10
12.42179910859938
 20
16.63811128198058
 10
12.42179910859938
 20
15.82311128198061
 42
0.9999999999999998
 10
12.49179910859937
 20
15.82311128198061
 10
12.49179910859938
 20
17.32338504575339
 42
-0.1990202627215353
 10
12.49766284525522
 20
17.33753305121934
 10
12.55895949115635
 20
17.39877882403585
 42
0.1990202627214278
 10
12.58974410859938
 20
17.47305585273197
 10
12.58974410859941
 20
17.50311128198059
 42
-0.4142135623730951
 10
12.6597441085994
 20
17.57311128198058
 10
13.20264433545785
 20
17.57311128198058
 42
-0.362554880954596
 10
13.27151922202765
 20
17.51561128198042
 42
0.3625548809546137
 10
13.34039410859935
 20
17.4581112819806
 10
13.37239410859935
 20
17.4581112819806
 42
0.4142135623729794
 10
13.41239410859935
 20
17.49811128198058
 10
13.41239410859937
 20
17.5381112819806
 10
13.35039410859936
 20
17.5381112819806
 10
13.35039410859939
 20
17.63311128198061
 42
0.4142135623726789
 10
13.34039410859939
 20
17.6431112819806
 10
12.58328868817876
 20
17.6431112819806
 10
12.57274323363331
 20
17.61311128198057
 10
12.51974410859939
 20
17.62311128198056
 10
12.49074410859939
 20
17.54061128198058
 10
12.51974410859939
 20
17.54061128198058
 10
12.51974410859939
 20
17.46891128198059
 42
-0.1989123673795612
 10
12.51242177812904
 20
17.4512336124509
 10
12.44574410859937
 20
17.38461128198057
 10
12.40379410859939
 20
17.38461128198057
 42
-0.3541185725306532
 10
12.38423115658469
 20
17.40045304816423
 10
12.36179410859939
 20
17.50261128198057
 10
12.36179410859939
 20
17.54061128198058
 10
12.39079410859938
 20
17.54061128198058
 10
12.39079410859938
 20
17.55261128198058
 42
0.4142135623730951
 10
12.37079410859937
 20
17.57261128198056
 10
12.34179410859938
 20
17.57261128198059
 42
0.4142135623730951
 10
12.32179410859938
 20
17.55261128198055
 10
12.32179410859938
 20
17.35061628198057
 42
0.4142135623730951
 10
12.35979910859938
 20
17.31261128198057
 10
12.35979910859938
 20
17.33461128198056
 10
12.39679910859939
 20
17.33461128198056
 42
-0.4142135623730951
 10
12.42179910859939
 20
17.30961128198056
 10
12.42179910859938
 20
16.82811128198057
 42
-0.4142135623731645
 10
12.36179910859937
 20
16.76811128198059
 10
11.6956891085994
 20
16.7681112819806
 42
-0.4142135623730951
 10
11.5956891085994
 20
16.86811128198059
 10
11.5956891085994
 20
17.3096112819806
 42
-0.4142135623730951
 10
11.62068910859941
 20
17.33461128198061
 10
11.65768910859942
 20
17.33461128198059
 10
11.65768910859942
 20
17.31261128198059
 42
0.4142135623730951
 10
11.69569410859941
 20
17.35061628198058
 10
11.69569410859941
 20
17.55261128198059
 42
0.4142135623730951
 10
11.67569410859941
 20
17.57261128198062
 10
11.64669410859942
 20
17.5726112819806
 42
0.414213562372991
 10
11.6266941085994
 20
17.55261128198061
 10
11.6266941085994
 20
17.54061128198061
 10
11.65569410859939
 20
17.54061128198061
 10
11.65569410859939
 20
17.50261128198061
 10
11.6332570606141
 20
17.40045304816424
 42
-0.3541185725307327
 10
11.61369410859939
 20
17.38461128198062
 10
11.57174410859941
 20
17.38461128198062
 10
11.50506643906975
 20
17.45123361245094
 42
-0.1989123673796441
  0
LWPOLYLINE
  5
8A55
330
17
100
AcDbEntity
  8
R-SWTS-DET2
  6
HIDDEN
100
AcDbPolyline
 90
       47
 70
     1
 43
0.0
 10
11.47097770820486
 20
17.38634017389267
 42
0.6680280733072436
 10
11.43684144486071
 20
17.37219219339953
 10
11.43683961799906
 20
15.90911135689833
 42
0.4142139280914197
 10
11.496839617999
 20
15.84911128197991
 10
12.26484150511539
 20
15.84911128197995
 42
0.4142135623730951
 10
12.32484150511539
 20
15.90911128197995
 10
12.32484150511533
 20
17.10311128198392
 42
-0.9999999999996445
 10
12.40484150511538
 20
17.10311128198392
 10
12.40484150511538
 20
15.90911128197995
 42
-0.3792048116104194
 10
12.28173859067896
 20
15.77013470661756
 42
0.4827078497312515
 10
12.2735485991546
 20
15.75678760694101
 10
12.28674474892859
 20
15.72053148341313
 42
-0.5205670505519691
 10
12.27734782272074
 20
15.70711128197988
 10
12.21126728698193
 20
15.70711128197987
 42
-0.3152987888790578
 10
12.20187036077406
 20
15.71369108054662
 10
12.18409390790106
 20
15.76253148341316
 42
0.3152987888787907
 10
12.17469698169322
 20
15.76911128197989
 10
11.35683944501786
 20
15.76911128197984
 10
11.35684150511486
 20
17.43642444839705
 10
11.30679283841017
 20
17.52311128198065
 42
-0.5773502691902963
 10
11.31545309244803
 20
17.53811128198067
 10
11.34039410859942
 20
17.53811128198065
 42
0.4142135623730951
 10
11.35039410859942
 20
17.54811128198066
 10
11.35039410859938
 20
17.6331112819806
 42
-0.4142135623735113
 10
11.3603941085994
 20
17.64311128198063
 10
11.43419952902003
 20
17.64311128198064
 10
11.44474498356548
 20
17.61311128198061
 10
11.49774410859937
 20
17.6231112819806
 10
11.52674410859939
 20
17.54061128198062
 10
11.4977441085994
 20
17.54061128198062
 10
11.4977441085994
 20
17.4689112819806
 42
0.1989123673795624
 10
11.50506643906974
 20
17.45123361245094
 10
11.57174410859941
 20
17.38461128198062
 10
11.61369410859939
 20
17.38461128198062
 42
0.3541185725307185
 10
11.63325706061409
 20
17.40045304816426
 10
11.6556941085994
 20
17.50261128198061
 10
11.6556941085994
 20
17.54061128198062
 10
11.6266941085994
 20
17.54061128198062
 10
11.6266941085994
 20
17.55261128198061
 42
-0.414213562372991
 10
11.64669410859941
 20
17.57261128198062
 10
11.67569410859941
 20
17.57261128198063
 42
-0.414213562372887
 10
11.6956941085994
 20
17.55261128198059
 10
11.69569410859942
 20
17.3506162819806
 42
-0.4142135623731497
 10
11.65768910859942
 20
17.3126112819806
 10
11.65768910859942
 20
17.33461128198061
 10
11.53102897603504
 20
17.33461128198061
 42
-0.1988044764924175
 10
11.5168927126909
 20
17.34046327651467
1001
MCAD_NO_VIS
1070
     1
  0
LINE
  5
8A6C
330
17
100
AcDbEntity
  8
R-SWTS-DET1
  6
Continuous
100
AcDbLine
 10
11.27825667331106
 20
19.6431112819806
 30
0.0
 11
11.27825667331106
 21
17.6431112819806
 31
0.0
  0
LINE
  5
8A6D
330
17
100
AcDbEntity
  8
R-SWTS-DET3
100
AcDbLine
 10
12.13430728149592
 20
17.2681112819806
 30
0.0
 11
12.13430728149592
 21
19.6431112819806
 31
0.0
  0
LINE
  5
8A6E
330
17
100
AcDbEntity
  8
R-SWTS-DET3
100
AcDbLine
 10
11.88430728149592
 20
17.2681112819806
 30
0.0
 11
11.88430728149592
 21
19.6431112819806
 31
0.0
  0
LINE
  5
8A6F
330
17
100
AcDbEntity
  8
R-SWTS-DET2
100
AcDbLine
 10
11.8830941085994
 20
17.82982638676066
 30
0.0
 11
11.63667705824046
 21
17.7223750690238
 31
0.0
  0
LINE
  5
8A70
330
17
100
AcDbEntity
  8
R-SWTS-DET2
100
AcDbLine
 10
11.63667705824046
 20
17.7223750690238
 30
0.0
 11
11.37760728149592
 21
17.67298023887876
 31
0.0
  0
LINE
  5
8A71
330
17
100
AcDbEntity
  8
R-SWTS-DET2
100
AcDbLine
 10
12.13552045439244
 20
17.82982638676066
 30
0.0
 11
12.38193750475138
 21
17.7223750690238
 31
0.0
  0
LINE
  5
8A72
330
17
100
AcDbEntity
  8
R-SWTS-DET3
100
AcDbLine
 10
12.13430728149592
 20
17.2681112819806
 30
0.0
 11
11.88430728149592
 21
17.2681112819806
 31
0.0
  0
LINE
  5
8A73
330
17
100
AcDbEntity
  8
R-SWTS-DET2
100
AcDbLine
 10
11.84148972918468
 20
17.3195555446492
 30
0.0
 11
11.88482045439244
 21
17.4998569344316
 31
0.0
  0
ARC
  5
8A74
330
17
100
AcDbEntity
  8
R-SWTS-DET2
100
AcDbCircle
 10
11.78935728149592
 20
17.33153283936146
 30
0.0
 40
0.0534906318026363
100
AcDbArc
 50
192.5775302134595
 51
347.0609815902198
  0
LINE
  5
8A75
330
17
100
AcDbEntity
  8
R-SWTS-DET2
100
AcDbLine
 10
11.73715030522435
 20
17.31988469276106
 30
0.0
 11
11.69682045439244
 21
17.50064302605196
 31
0.0
  0
LINE
  5
8A76
330
17
100
AcDbEntity
  8
R-SWTS-DET2
100
AcDbLine
 10
12.17712483380717
 20
17.3195555446492
 30
0.0
 11
12.1337941085994
 21
17.4998569344316
 31
0.0
  0
ARC
  5
8A77
330
17
100
AcDbEntity
  8
R-SWTS-DET2
100
AcDbCircle
 10
12.22925728149592
 20
17.33153283936146
 30
0.0
 40
0.0534906318026363
100
AcDbArc
 50
192.9390184097802
 51
347.4224697865404
  0
LINE
  5
8A78
330
17
100
AcDbEntity
  8
R-SWTS-DET2
100
AcDbLine
 10
12.2814642577675
 20
17.31988469276106
 30
0.0
 11
12.3217941085994
 21
17.50064302605196
 31
0.0
  0
LINE
  5
8A79
330
17
100
AcDbEntity
  8
R-SWTS-DET2
100
AcDbLine
 10
12.38193750475138
 20
17.7223750690238
 30
0.0
 11
12.64100728149593
 21
17.67298023887876
 31
0.0
  0
LINE
  5
8A7A
330
17
100
AcDbEntity
  8
R-SWTS-DET1
100
AcDbLine
 10
12.38430728149592
 20
17.72192324202473
 30
0.0
 11
12.38430728149592
 21
19.6431112819806
 31
0.0
  0
LINE
  5
8A7B
330
17
100
AcDbEntity
  8
R-SWTS-DET2
100
AcDbLine
 10
12.64100728149593
 20
17.67298023887876
 30
0.0
 11
12.64100728149593
 21
17.6431112819806
 31
0.0
  0
LINE
  5
8A7C
330
17
100
AcDbEntity
  8
R-SWTS-DET2
100
AcDbLine
 10
11.37760728149592
 20
17.67298023887876
 30
0.0
 11
11.37760728149592
 21
17.6431112819806
 31
0.0
  0
LINE
  5
8A85
330
17
100
AcDbEntity
  8
R-SWTS-DET2
100
AcDbLine
 10
11.79321886063147
 20
16.76879108439475
 30
0.0
 11
11.79321886063147
 21
17.26879108439475
 31
0.0
  0
LINE
  5
8A86
330
17
100
AcDbEntity
  8
R-SWTS-DET2
100
AcDbLine
 10
11.79321886063147
 20
17.26879108439475
 30
0.0
 11
12.23071886063147
 21
17.26879108439475
 31
0.0
  0
LINE
  5
8A87
330
17
100
AcDbEntity
  8
R-SWTS-DET2
100
AcDbLine
 10
11.79321886063147
 20
16.76879108439475
 30
0.0
 11
12.23071886063147
 21
16.76879108439475
 31
0.0
  0
LINE
  5
8A88
330
17
100
AcDbEntity
  8
R-SWTS-DET2
100
AcDbLine
 10
12.23071886063147
 20
16.76879108439475
 30
0.0
 11
12.23071886063147
 21
17.26879108439475
 31
0.0
  0
LINE
  5
8ABF
330
17
100
AcDbEntity
  8
0
100
AcDbLine
 10
58.26646050287326
 20
26.05116690535491
 30
0.0
 11
33.94646050287327
 21
26.05116690535491
 31
0.0
  0
LINE
  5
8AC0
330
17
100
AcDbEntity
  8
0
100
AcDbLine
 10
58.26646050287326
 20
25.79516690535492
 30
0.0
 11
33.94646050287327
 21
25.79516690535492
 31
0.0
  0
LINE
  5
8AC1
330
17
100
AcDbEntity
  8
0
 62
     2
100
AcDbLine
 10
34.74303712887553
 20
31.80473892251486
 30
0.0
 11
32.91325862165553
 21
31.80473892251486
 31
0.0
  0
LINE
  5
8AC2
330
17
100
AcDbEntity
  8
0
100
AcDbLine
 10
33.69046050287327
 20
36.29116690535492
 30
0.0
 11
58.52246050287325
 21
36.29116690535491
 31
0.0
  0
LINE
  5
8AC3
330
17
100
AcDbEntity
  8
0
100
AcDbLine
 10
58.52246050287325
 20
21.44316690535491
 30
0.0
 11
33.69046050287327
 21
21.44316690535491
 31
0.0
  0
LINE
  5
8AC4
330
17
100
AcDbEntity
  8
0
100
AcDbLine
 10
33.69046050287327
 20
36.54716690535491
 30
0.0
 11
58.52246050287326
 21
36.54716690535491
 31
0.0
  0
LINE
  5
8AC5
330
17
100
AcDbEntity
  8
0
100
AcDbLine
 10
58.52246050287326
 20
21.18716690535491
 30
0.0
 11
33.69046050287327
 21
21.18716690535491
 31
0.0
  0
LINE
  5
8AC6
330
17
100
AcDbEntity
  8
0
100
AcDbLine
 10
33.94646050287327
 20
21.44316690535491
 30
0.0
 11
33.94646050287327
 21
36.29116690535492
 31
0.0
  0
LINE
  5
8AC7
330
17
100
AcDbEntity
  8
0
100
AcDbLine
 10
33.69046050287327
 20
21.18716690535491
 30
0.0
 11
33.69046050287327
 21
36.54716690535491
 31
0.0
  0
TEXT
  5
8AC8
330
17
100
AcDbEntity
  8
0
  6
Continuous
 62
     2
100
AcDbText
 10
29.36152750610853
 20
31.53123796223553
 30
0.0
 40
0.375
  1
DETAIL 4
 72
     1
 11
30.49701522780021
 21
31.53123796223553
 31
0.0
100
AcDbText
  0
TEXT
  5
8AC9
330
17
100
AcDbEntity
  8
0
  6
Continuous
 62
     2
100
AcDbText
 10
41.97170581873473
 20
19.61912453736283
 30
0.0
 40
0.375
  1
DETAIL 3
 72
     1
 11
43.10719354042641
 21
19.61912453736283
 31
0.0
100
AcDbText
  0
TEXT
  5
8ACA
330
17
100
AcDbEntity
  8
0
  6
Continuous
100
AcDbText
 10
43.00261844179844
 20
17.88982947226269
 30
0.0
 40
0.5
  1
TYPICAL ELEVATION
 72
     1
 11
46.51557887836051
 21
17.88982947226269
 31
0.0
100
AcDbText
  0
MTEXT
  5
8ACB
330
17
100
AcDbEntity
  8
0
100
AcDbMText
 10
46.68311824621625
 20
17.46004672917475
 30
0.0
 40
0.375
 41
15.25
 71
     2
 72
     5
  1
ELEVATION SCALE: 1/8" = 1'-0"
 73
     1
 44
1.0
1001
ACAD
1000
MTEXTBEGIN
1070
    73
1070
     1
1070
    44
1040
1.0
1070
    74
1070
     0
1000
MTEXTEND
  0
LINE
  5
8ACC
330
17
100
AcDbEntity
  8
0
100
AcDbLine
 10
52.25046050287327
 20
36.29116690535492
 30
0.0
 11
52.25046050287327
 21
26.05116690535491
 31
0.0
  0
LINE
  5
8ACD
330
17
100
AcDbEntity
  8
0
100
AcDbLine
 10
46.10646050287326
 20
36.29116690535491
 30
0.0
 11
46.10646050287326
 21
26.05116690535492
 31
0.0
  0
LINE
  5
8ACE
330
17
100
AcDbEntity
  8
0
100
AcDbLine
 10
39.96246050287327
 20
36.29116690535492
 30
0.0
 11
39.96246050287328
 21
26.05116690535492
 31
0.0
  0
LINE
  5
8ACF
330
17
100
AcDbEntity
  8
0
  6
HIDDEN
100
AcDbLine
 10
40.09046050287327
 20
26.05116690535492
 30
0.0
 11
40.09046050287326
 21
36.29116690535492
 31
0.0
  0
LINE
  5
8AD0
330
17
100
AcDbEntity
  8
0
  6
HIDDEN
100
AcDbLine
 10
39.83446050287328
 20
26.05116690535492
 30
0.0
 11
39.83446050287327
 21
36.29116690535492
 31
0.0
  0
LINE
  5
8AD1
330
17
100
AcDbEntity
  8
0
  6
HIDDEN
100
AcDbLine
 10
45.97846050287326
 20
26.05116690535491
 30
0.0
 11
45.97846050287325
 21
36.29116690535491
 31
0.0
  0
LINE
  5
8AD2
330
17
100
AcDbEntity
  8
0
  6
HIDDEN
100
AcDbLine
 10
46.23446050287326
 20
26.05116690535491
 30
0.0
 11
46.23446050287325
 21
36.29116690535491
 31
0.0
  0
LINE
  5
8AD3
330
17
100
AcDbEntity
  8
0
  6
HIDDEN
100
AcDbLine
 10
52.37846050287327
 20
26.05116690535491
 30
0.0
 11
52.37846050287327
 21
36.29116690535492
 31
0.0
  0
LINE
  5
8AD4
330
17
100
AcDbEntity
  8
0
  6
HIDDEN
100
AcDbLine
 10
52.12246050287326
 20
26.05116690535491
 30
0.0
 11
52.12246050287326
 21
36.29116690535492
 31
0.0
  0
TEXT
  5
8AD5
330
17
100
AcDbEntity
  8
0
  6
Continuous
 62
     2
100
AcDbText
 10
41.77169092811431
 20
31.53123796223553
 30
0.0
 40
0.375
  1
DETAIL 5
 72
     1
 11
42.90717864980599
 21
31.53123796223553
 31
0.0
100
AcDbText
  0
TEXT
  5
8AD6
330
17
100
AcDbEntity
  8
0
  6
Continuous
 62
     2
100
AcDbText
 10
41.94860781778214
 20
27.10285117526824
 30
0.0
 40
0.375
  1
DETAIL 2
 72
     1
 11
43.08409553947382
 21
27.10285117526824
 31
0.0
100
AcDbText
  0
LINE
  5
8AD7
330
17
100
AcDbEntity
  8
0
 62
     2
100
AcDbLine
 10
43.06720671110525
 20
26.80889887279271
 30
0.0
 11
43.06720671110525
 21
25.14646826375862
 31
0.0
  0
LINE
  5
8AD8
330
17
100
AcDbEntity
  8
0
  6
HIDDEN
100
AcDbLine
 10
40.09046050287326
 20
21.44316690535491
 30
0.0
 11
40.09046050287327
 21
25.79516690535492
 31
0.0
  0
LINE
  5
8AD9
330
17
100
AcDbEntity
  8
0
  6
HIDDEN
100
AcDbLine
 10
39.83446050287327
 20
21.44316690535491
 30
0.0
 11
39.83446050287328
 21
25.79516690535492
 31
0.0
  0
LINE
  5
8ADA
330
17
100
AcDbEntity
  8
0
100
AcDbLine
 10
39.96246050287328
 20
25.79516690535492
 30
0.0
 11
39.96246050287327
 21
21.44316690535492
 31
0.0
  0
LINE
  5
8ADB
330
17
100
AcDbEntity
  8
0
 62
     2
100
AcDbLine
 10
43.06720671110531
 20
22.09410649510143
 30
0.0
 11
43.06720671110531
 21
20.43167588606734
 31
0.0
  0
LINE
  5
8ADC
330
17
100
AcDbEntity
  8
0
  6
HIDDEN
100
AcDbLine
 10
46.23446050287325
 20
21.44316690535491
 30
0.0
 11
46.23446050287326
 21
25.79516690535492
 31
0.0
  0
LINE
  5
8ADD
330
17
100
AcDbEntity
  8
0
  6
HIDDEN
100
AcDbLine
 10
45.97846050287326
 20
21.44316690535491
 30
0.0
 11
45.97846050287326
 21
25.79516690535492
 31
0.0
  0
LINE
  5
8ADE
330
17
100
AcDbEntity
  8
0
100
AcDbLine
 10
46.10646050287326
 20
25.79516690535492
 30
0.0
 11
46.10646050287326
 21
21.44316690535491
 31
0.0
  0
LINE
  5
8ADF
330
17
100
AcDbEntity
  8
0
  6
HIDDEN
100
AcDbLine
 10
52.37846050287327
 20
21.44316690535491
 30
0.0
 11
52.37846050287327
 21
25.79516690535492
 31
0.0
  0
LINE
  5
8AE0
330
17
100
AcDbEntity
  8
0
  6
HIDDEN
100
AcDbLine
 10
52.12246050287326
 20
21.44316690535491
 30
0.0
 11
52.12246050287326
 21
25.79516690535492
 31
0.0
  0
LINE
  5
8AE1
330
17
100
AcDbEntity
  8
0
100
AcDbLine
 10
52.25046050287327
 20
25.79516690535492
 30
0.0
 11
52.25046050287327
 21
21.44316690535492
 31
0.0
  0
LINE
  5
8AE2
330
17
100
AcDbEntity
  8
0
 62
     2
100
AcDbLine
 10
47.17931411160395
 20
31.80473892251486
 30
0.0
 11
45.34953560438395
 21
31.80473892251486
 31
0.0
  0
TEXT
  5
8AE3
330
17
100
AcDbEntity
  8
0
  6
Continuous
 62
     2
100
AcDbText
 10
41.97170551572293
 20
37.44269683579567
 30
0.0
 40
0.375
  1
DETAIL 1
 72
     1
 11
43.1071932374146
 21
37.44269683579567
 31
0.0
100
AcDbText
  0
LINE
  5
8AE4
330
17
100
AcDbEntity
  8
0
 62
     2
100
AcDbLine
 10
43.06720671110525
 20
37.06085513633438
 30
0.0
 11
43.06720671110525
 21
35.3984245273003
 31
0.0
  0
LINE
  5
8AE5
330
17
100
AcDbEntity
  8
0
100
AcDbLine
 10
58.26646050287326
 20
21.44316690535491
 30
0.0
 11
58.26646050287326
 21
36.29116690535492
 31
0.0
  0
LINE
  5
8AE6
330
17
100
AcDbEntity
  8
0
100
AcDbLine
 10
58.52246050287326
 20
21.18716690535491
 30
0.0
 11
58.52246050287326
 21
36.54716690535491
 31
0.0
  0
TEXT
  5
8AE7
330
17
100
AcDbEntity
  8
0
  6
Continuous
 62
     2
100
AcDbText
 10
60.94728256043545
 20
31.53123796223553
 30
0.0
 40
0.375
  1
DETAIL 4 OPP.
 72
     1
 11
62.78148276507391
 21
31.53123796223553
 31
0.0
100
AcDbText
  0
LINE
  5
8AE8
330
17
100
AcDbEntity
  8
0
 62
     2
100
AcDbLine
 10
59.40769409163749
 20
31.80473892251486
 30
0.0
 11
57.57791558441749
 21
31.80473892251486
 31
0.0
  0
MTEXT
  5
8CD9
102
{ACAD_XDICTIONARY
360
8CDA
102
}
330
17
100
AcDbEntity
  8
TEXT
100
AcDbMText
 10
1.000000084398437
 20
2.0
 30
0.0
 40
0.375
 41
15.4571868900598
 71
     1
 72
     5
  1
ENGINEERING CHANGE:  97910-094 (MARCH 2017)\PFILE NAME:  KCDC031 SHEET 06 OF 08.DWG
 73
     1
 44
1.0
1001
ACAD
1000
ACAD_MTEXT_COLUMN_INFO_BEGIN
1070
    75
1070
     2
1070
    79
1070
     0
1070
    76
1070
     1
1070
    78
1070
     0
1070
    48
1040
15.4571868900598
1070
    49
1040
1.25
1070
    50
1070
     1
1040
0.0
1000
ACAD_MTEXT_COLUMN_INFO_END
1000
MTEXTBEGIN
1070
    73
1070
     1
1070
    44
1040
1.0
1070
    74
1070
     0
1000
MTEXTEND
  0
INSERT
  5
9246
330
17
100
AcDbEntity
  8
0
100
AcDbBlockReference
  2
Kawneer Logo English
 10
1.000000084398437
 20
2.5
 30
0.0
 41
5.337
 42
5.337
 43
5.337
  0
ENDSEC
  0
SECTION
  2
OBJECTS
  0
DICTIONARY
  5
C
330
0
100
AcDbDictionary
281
     1
  3
ACAD_CIP_PREVIOUS_PRODUCT_INFO
350
8CB3
  3
ACAD_COLOR
350
8C19
  3
ACAD_FIELDLIST
350
8CD7
  3
ACAD_GROUP
350
D
  3
ACAD_LAYOUT
350
485C
  3
ACAD_MATERIAL
350
8BE7
  3
ACAD_MLEADERSTYLE
350
8C2E
  3
ACAD_MLINESTYLE
350
1A
  3
ACAD_PLOTSETTINGS
350
485D
  3
ACAD_PLOTSTYLENAME
350
485A
  3
ACAD_SCALELIST
350
8C1C
  3
ACAD_TABLESTYLE
350
8C1A
  3
ACAD_VISUALSTYLE
350
8C00
  3
ACDB_RECOMPOSE_DATA
350
92D9
  3
ACDBVARIABLEDICTIONARY
350
3E
  3
DWGPROPS
350
92DA
  0
DICTIONARY
  5
8C6E
330
8
100
AcDbDictionary
280
     1
281
     1
  0
DICTIONARY
  5
8C4D
330
2
100
AcDbDictionary
280
     1
281
     1
  3
ACAD_LAYERSTATES
360
8C4E
  0
DICTIONARY
  5
8C5D
330
E
100
AcDbDictionary
280
     1
281
     1
  3
ADSK_XREC_LAYER_RECONCILED
360
8C5E
  0
DICTIONARY
  5
8C5F
330
65A3
100
AcDbDictionary
280
     1
281
     1
  3
ADSK_XREC_LAYER_RECONCILED
360
8C60
  0
DICTIONARY
  5
8C61
330
65A4
100
AcDbDictionary
280
     1
281
     1
  3
ADSK_XREC_LAYER_RECONCILED
360
8C62
  0
DICTIONARY
  5
8C63
330
65A5
100
AcDbDictionary
280
     1
281
     1
  3
ADSK_XREC_LAYER_RECONCILED
360
8C64
  0
DICTIONARY
  5
8C65
330
65A6
100
AcDbDictionary
280
     1
281
     1
  3
ADSK_XREC_LAYER_RECONCILED
360
8C66
  0
DICTIONARY
  5
8C67
330
65A7
100
AcDbDictionary
280
     1
281
     1
  3
ADSK_XREC_LAYER_RECONCILED
360
8C68
  0
DICTIONARY
  5
8CC8
330
8CC7
100
AcDbDictionary
280
     1
281
     1
  0
DICTIONARY
  5
4A11
330
17
100
AcDbDictionary
280
     1
281
     1
  3
ACAD_LAYOUTSELFREF
360
8BDF
  0
DICTIONARY
  5
4A0F
330
14
100
AcDbDictionary
280
     1
281
     1
  3
ACAD_LAYOUTSELFREF
360
8BDE
  0
DICTIONARY
  5
9242
330
9238
100
AcDbDictionary
280
     1
281
     1
  3
ACAD_SORTENTS
360
9243
  0
DICTIONARY
  5
92D7
330
9239
100
AcDbDictionary
280
     1
281
     1
  3
ACAD_MTEXT_2008_RT
360
92D8
  0
DICTIONARY
  5
8CDA
330
8CD9
100
AcDbDictionary
280
     1
281
     1
  0
XRECORD
  5
8CB3
102
{ACAD_REACTORS
330
C
102
}
330
C
100
AcDbXrecord
280
     1
300
ACD
300
2012
300
85730ACD_2012_0F
  0
DICTIONARY
  5
8C19
102
{ACAD_REACTORS
330
C
102
}
330
C
100
AcDbDictionary
281
     1
  0
FIELDLIST
  5
8CD7
102
{ACAD_REACTORS
330
C
102
}
330
C
100
AcDbIdSet
 90
        0
100
AcDbFieldList
  0
DICTIONARY
  5
D
102
{ACAD_REACTORS
330
C
102
}
330
C
100
AcDbDictionary
281
     1
  0
DICTIONARY
  5
485C
102
{ACAD_REACTORS
330
C
102
}
330
C
100
AcDbDictionary
281
     1
  3
Layout1
350
485F
  3
Model
350
485E
  0
DICTIONARY
  5
8BE7
102
{ACAD_REACTORS
330
C
102
}
330
C
100
AcDbDictionary
281
     1
  3
ByBlock
350
8BF0
  3
ByLayer
350
8BE8
  3
Global
350
8BF8
  0
DICTIONARY
  5
8C2E
102
{ACAD_REACTORS
330
C
102
}
330
C
100
AcDbDictionary
281
     1
  3
Standard
350
8C2F
  0
DICTIONARY
  5
1A
102
{ACAD_REACTORS
330
C
102
}
330
C
100
AcDbDictionary
281
     1
  3
STANDARD
350
1B
  0
DICTIONARY
  5
485D
102
{ACAD_REACTORS
330
C
102
}
330
C
100
AcDbDictionary
281
     1
  0
ACDBDICTIONARYWDFLT
  5
485A
102
{ACAD_REACTORS
330
C
102
}
330
C
100
AcDbDictionary
281
     1
  3
Normal
350
485B
100
AcDbDictionaryWithDefault
340
485B
  0
DICTIONARY
  5
8C1C
102
{ACAD_REACTORS
330
C
102
}
330
C
100
AcDbDictionary
281
     1
  3
A0
350
8C1D
  3
A1
350
9216
  3
A2
350
9217
  3
A3
350
9218
  3
A4
350
9219
  3
A5
350
921A
  3
A6
350
921B
  3
A7
350
921C
  3
A8
350
921D
  3
A9
350
921E
  3
B0
350
921F
  3
B1
350
9220
  3
B2
350
9221
  3
B3
350
9222
  3
B4
350
9223
  3
B5
350
9224
  3
B6
350
9225
  0
DICTIONARY
  5
8C1A
102
{ACAD_REACTORS
330
C
102
}
330
C
100
AcDbDictionary
281
     1
  3
Standard
350
8C1B
  0
DICTIONARY
  5
8C00
102
{ACAD_REACTORS
330
C
102
}
330
C
100
AcDbDictionary
281
     1
  3
2dWireframe
350
8C06
  3
3D Hidden
350
9236
  3
3dWireframe
350
9237
  3
Basic
350
8C05
  3
Brighten
350
8C0C
  3
ColorChange
350
8C10
  3
Conceptual
350
8C09
  3
Dim
350
8C0B
  3
EdgeColorOff
350
8C18
  3
Facepattern
350
8C0F
  3
Flat
350
8C01
  3
FlatWithEdges
350
8C02
  3
Gouraud
350
8C03
  3
GouraudWithEdges
350
8C04
  3
Hidden
350
8C08
  3
JitterOff
350
8C16
  3
Linepattern
350
8C0E
  3
OverhangOff
350
8C17
  3
Realistic
350
8C0A
  3
Shaded
350
8C15
  3
Shaded with edges
350
8C14
  3
Shades of Gray
350
8C11
  3
Sketchy
350
8C12
  3
Thicken
350
8C0D
  3
Wireframe
350
8C07
  3
X-Ray
350
8C13
  0
XRECORD
  5
92D9
102
{ACAD_REACTORS
330
C
102
}
330
C
100
AcDbXrecord
280
     1
 90
        1
330
8C1B
330
8CD9
330
9239
  0
DICTIONARY
  5
3E
102
{ACAD_REACTORS
330
C
102
}
330
C
100
AcDbDictionary
281
     1
  3
CANNOSCALE
350
8CAB
  3
CMLEADERSTYLE
350
8CAA
  3
CTABLESTYLE
350
8CA9
  3
DIMADEC
350
3F
  3
DIMASSOC
350
8CAE
  3
INDEXCTL
350
8CAD
  3
LAYEREVAL
350
920B
  3
LAYERNOTIFY
350
920C
  3
LIGHTINGUNITS
350
920A
  3
MSLTSCALE
350
9209
  3
SORTENTS
350
8CAC
  3
XCLIPFRAME
350
92D5
  0
XRECORD
  5
92DA
102
{ACAD_REACTORS
330
C
102
}
330
C
100
AcDbXrecord
280
     1
  1
DWGPROPS COOKIE
  2

  3

  4

  6

  7

  8
quadiss
  9

300
=
301
=
302
=
303
=
304
=
305
=
306
=
307
=
308
=
309
=
 40
0.8808860763888889
 41
2450777.537570949
 42
2457807.531145787
  1

 90
        0
  0
DICTIONARY
  5
8C4E
102
{ACAD_REACTORS
330
8C4D
102
}
330
8C4D
100
AcDbDictionary
281
     1
  0
XRECORD
  5
8C5E
102
{ACAD_REACTORS
330
8C5D
102
}
330
8C5D
100
AcDbXrecord
280
     1
290
     1
  0
XRECORD
  5
8C60
102
{ACAD_REACTORS
330
8C5F
102
}
330
8C5F
100
AcDbXrecord
280
     1
290
     1
  0
XRECORD
  5
8C62
102
{ACAD_REACTORS
330
8C61
102
}
330
8C61
100
AcDbXrecord
280
     1
290
     1
  0
XRECORD
  5
8C64
102
{ACAD_REACTORS
330
8C63
102
}
330
8C63
100
AcDbXrecord
280
     1
290
     1
  0
XRECORD
  5
8C66
102
{ACAD_REACTORS
330
8C65
102
}
330
8C65
100
AcDbXrecord
280
     1
290
     1
  0
XRECORD
  5
8C68
102
{ACAD_REACTORS
330
8C67
102
}
330
8C67
100
AcDbXrecord
280
     1
290
     1
  0
XRECORD
  5
8BDF
102
{ACAD_REACTORS
330
4A11
102
}
330
4A11
100
AcDbXrecord
280
     1
340
17
  0
XRECORD
  5
8BDE
102
{ACAD_REACTORS
330
4A0F
102
}
330
4A0F
100
AcDbXrecord
280
     1
340
14
  0
SORTENTSTABLE
  5
9243
102
{ACAD_REACTORS
330
9242
102
}
330
9242
100
AcDbSortentsTable
330
9238
  0
XRECORD
  5
92D8
102
{ACAD_REACTORS
330
92D7
102
}
330
92D7
100
AcDbXrecord
280
     1
 40
102645.0
  1
\pxqr;{\fArial TUR|b0|i0|c0|p34;\T1.05;AN ARCONIC COMPANY}
  0
LAYOUT
  5
485F
102
{ACAD_XDICTIONARY
360
92DD
102
}
102
{ACAD_REACTORS
330
485C
102
}
330
485C
100
AcDbPlotSettings
  1

  2
\\NOAKCI-SRV7\Marketing Communications - HP4550hdn
  4

  6

 40
0.0
 41
0.0
 42
0.0
 43
0.0
 44
0.0
 45
0.0
 46
0.0
 47
0.0
 48
0.0
 49
0.0
140
0.0
141
0.0
142
1.0
143
1.0
 70
   688
 72
     0
 73
     0
 74
     5
  7
monochrome.ctb
 75
    16
147
1.0
148
0.0
149
0.0
100
AcDbLayout
  1
Layout1
 70
     1
 71
     1
 10
0.0
 20
0.0
 11
12.0
 21
9.0
 12
0.0
 22
0.0
 32
0.0
 14
1.000000000000000E+20
 24
1.000000000000000E+20
 34
1.000000000000000E+20
 15
-1.000000000000000E+20
 25
-1.000000000000000E+20
 35
-1.000000000000000E+20
146
0.0
 13
0.0
 23
0.0
 33
0.0
 16
1.0
 26
0.0
 36
0.0
 17
0.0
 27
1.0
 37
0.0
 76
     0
330
14
  0
LAYOUT
  5
485E
102
{ACAD_XDICTIONARY
360
92DB
102
}
102
{ACAD_REACTORS
330
485C
102
}
330
485C
100
AcDbPlotSettings
  1

  2
\\KWRKCI-HUB03\KCI_MKT_HP9000_PCL6
  4
11x17
  6

 40
3.174999952316284
 41
3.174999952316284
 42
3.17498779296875
 43
3.17498779296875
 44
279.3999938964844
 45
431.8000183105469
 46
0.0
 47
0.0
 48
0.0
 49
0.0
140
0.0
141
0.0
142
1.0
143
4.051530155393382
 70
 11952
 72
     0
 73
     1
 74
     1
  7
monochrome.ctb
 75
     0
147
0.2468203275418804
148
0.0525966469568914
149
0.0326778140019542
100
AcDbLayout
  1
Model
 70
     1
 71
     0
 10
0.0
 20
0.0
 11
12.0
 21
9.0
 12
0.0
 22
0.0
 32
0.0
 14
0.0
 24
0.0
 34
0.0
 15
0.0
 25
0.0
 35
0.0
146
0.0
 13
0.0
 23
0.0
 33
0.0
 16
1.0
 26
0.0
 36
0.0
 17
0.0
 27
1.0
 37
0.0
 76
     0
330
17
331
8BB8
  0
MATERIAL
  5
8BF0
102
{ACAD_XDICTIONARY
360
8BF1
102
}
102
{ACAD_REACTORS
330
8BE7
102
}
330
8BE7
100
AcDbMaterial
  1
ByBlock
 72
     0
 43
0.0208333333333333
 43
0.0
 43
0.0
 43
0.0
 43
0.0
 43
0.0208333333333333
 43
0.0
 43
0.0
 43
0.0
 43
0.0
 43
1.0
 43
0.0
 43
0.0
 43
0.0
 43
0.0
 43
1.0
 77
     0
 47
0.0208333333333333
 47
0.0
 47
0.0
 47
0.0
 47
0.0
 47
0.0208333333333333
 47
0.0
 47
0.0
 47
0.0
 47
0.0
 47
1.0
 47
0.0
 47
0.0
 47
0.0
 47
0.0
 47
1.0
171
     0
 49
0.0208333333333333
 49
0.0
 49
0.0
 49
0.0
 49
0.0
 49
0.0208333333333333
 49
0.0
 49
0.0
 49
0.0
 49
0.0
 49
1.0
 49
0.0
 49
0.0
 49
0.0
 49
0.0
 49
1.0
175
     0
142
0.0208333333333333
142
0.0
142
0.0
142
0.0
142
0.0
142
0.0208333333333333
142
0.0
142
0.0
142
0.0
142
0.0
142
1.0
142
0.0
142
0.0
142
0.0
142
0.0
142
1.0
179
     0
144
0.0208333333333333
144
0.0
144
0.0
144
0.0
144
0.0
144
0.0208333333333333
144
0.0
144
0.0
144
0.0
144
0.0
144
1.0
144
0.0
144
0.0
144
0.0
144
0.0
144
1.0
147
0.0208333333333333
147
0.0
147
0.0
147
0.0
147
0.0
147
0.0208333333333333
147
0.0
147
0.0
147
0.0
147
0.0
147
1.0
147
0.0
147
0.0
147
0.0
147
0.0
147
1.0
  0
MATERIAL
  5
8BE8
102
{ACAD_XDICTIONARY
360
8BE9
102
}
102
{ACAD_REACTORS
330
8BE7
102
}
330
8BE7
100
AcDbMaterial
  1
ByLayer
 72
     0
 43
0.0208333333333333
 43
0.0
 43
0.0
 43
0.0
 43
0.0
 43
0.0208333333333333
 43
0.0
 43
0.0
 43
0.0
 43
0.0
 43
1.0
 43
0.0
 43
0.0
 43
0.0
 43
0.0
 43
1.0
 77
     0
 47
0.0208333333333333
 47
0.0
 47
0.0
 47
0.0
 47
0.0
 47
0.0208333333333333
 47
0.0
 47
0.0
 47
0.0
 47
0.0
 47
1.0
 47
0.0
 47
0.0
 47
0.0
 47
0.0
 47
1.0
171
     0
 49
0.0208333333333333
 49
0.0
 49
0.0
 49
0.0
 49
0.0
 49
0.0208333333333333
 49
0.0
 49
0.0
 49
0.0
 49
0.0
 49
1.0
 49
0.0
 49
0.0
 49
0.0
 49
0.0
 49
1.0
175
     0
142
0.0208333333333333
142
0.0
142
0.0
142
0.0
142
0.0
142
0.0208333333333333
142
0.0
142
0.0
142
0.0
142
0.0
142
1.0
142
0.0
142
0.0
142
0.0
142
0.0
142
1.0
179
     0
144
0.0208333333333333
144
0.0
144
0.0
144
0.0
144
0.0
144
0.0208333333333333
144
0.0
144
0.0
144
0.0
144
0.0
144
1.0
144
0.0
144
0.0
144
0.0
144
0.0
144
1.0
147
0.0208333333333333
147
0.0
147
0.0
147
0.0
147
0.0
147
0.0208333333333333
147
0.0
147
0.0
147
0.0
147
0.0
147
1.0
147
0.0
147
0.0
147
0.0
147
0.0
147
1.0
  0
MATERIAL
  5
8BF8
102
{ACAD_XDICTIONARY
360
8BF9
102
}
102
{ACAD_REACTORS
330
8BE7
102
}
330
8BE7
100
AcDbMaterial
  1
Global
 72
     0
 43
0.0208333333333333
 43
0.0
 43
0.0
 43
0.0
 43
0.0
 43
0.0208333333333333
 43
0.0
 43
0.0
 43
0.0
 43
0.0
 43
1.0
 43
0.0
 43
0.0
 43
0.0
 43
0.0
 43
1.0
 77
     0
 47
0.0208333333333333
 47
0.0
 47
0.0
 47
0.0
 47
0.0
 47
0.0208333333333333
 47
0.0
 47
0.0
 47
0.0
 47
0.0
 47
1.0
 47
0.0
 47
0.0
 47
0.0
 47
0.0
 47
1.0
171
     0
 49
0.0208333333333333
 49
0.0
 49
0.0
 49
0.0
 49
0.0
 49
0.0208333333333333
 49
0.0
 49
0.0
 49
0.0
 49
0.0
 49
1.0
 49
0.0
 49
0.0
 49
0.0
 49
0.0
 49
1.0
175
     0
142
0.0208333333333333
142
0.0
142
0.0
142
0.0
142
0.0
142
0.0208333333333333
142
0.0
142
0.0
142
0.0
142
0.0
142
1.0
142
0.0
142
0.0
142
0.0
142
0.0
142
1.0
179
     0
144
0.0208333333333333
144
0.0
144
0.0
144
0.0
144
0.0
144
0.0208333333333333
144
0.0
144
0.0
144
0.0
144
0.0
144
1.0
144
0.0
144
0.0
144
0.0
144
0.0
144
1.0
147
0.0208333333333333
147
0.0
147
0.0
147
0.0
147
0.0
147
0.0208333333333333
147
0.0
147
0.0
147
0.0
147
0.0
147
1.0
147
0.0
147
0.0
147
0.0
147
0.0
147
1.0
  0
MLEADERSTYLE
  5
8C2F
102
{ACAD_REACTORS
330
8C2E
102
}
330
8C2E
100
AcDbMLeaderStyle
170
     2
171
     1
172
     0
 90
        2
 40
0.0
 41
0.0
173
     1
 91
-1056964608
340
11
 92
       -2
290
     1
 42
0.09
291
     1
 43
0.36
  3
Standard
 44
0.18
300

342
F
174
     1
178
     6
175
     1
176
     0
 93
-1056964608
 45
0.18
292
     0
297
     0
 46
0.18
 94
-1056964608
 47
1.0
 49
1.0
140
1.0
293
     1
141
0.0
294
     1
177
     0
142
1.0
295
     0
296
     0
143
0.125
1001
ACAD_MLEADERVER
1070
     2
  0
MLINESTYLE
  5
1B
102
{ACAD_REACTORS
330
1A
102
}
330
1A
100
AcDbMlineStyle
  2
STANDARD
 70
     0
  3

 62
   256
 51
90.0
 52
90.0
 71
     2
 49
0.5
 62
   256
  6
BYLAYER
 49
-0.5
 62
   256
  6
BYLAYER
  0
ACDBPLACEHOLDER
  5
485B
102
{ACAD_REACTORS
330
485A
102
}
330
485A
  0
SCALE
  5
8C1D
102
{ACAD_REACTORS
330
8C1C
102
}
330
8C1C
100
AcDbScale
 70
     0
300
1:1
140
1.0
141
1.0
290
     1
  0
SCALE
  5
9216
102
{ACAD_REACTORS
330
8C1C
102
}
330
8C1C
100
AcDbScale
 70
     0
300
1/128" = 1'-0"
140
0.0078125
141
12.0
290
     0
  0
SCALE
  5
9217
102
{ACAD_REACTORS
330
8C1C
102
}
330
8C1C
100
AcDbScale
 70
     0
300
1/64" = 1'-0"
140
0.015625
141
12.0
290
     0
  0
SCALE
  5
9218
102
{ACAD_REACTORS
330
8C1C
102
}
330
8C1C
100
AcDbScale
 70
     0
300
1/32" = 1'-0"
140
0.03125
141
12.0
290
     0
  0
SCALE
  5
9219
102
{ACAD_REACTORS
330
8C1C
102
}
330
8C1C
100
AcDbScale
 70
     0
300
1/16" = 1'-0"
140
0.0625
141
12.0
290
     0
  0
SCALE
  5
921A
102
{ACAD_REACTORS
330
8C1C
102
}
330
8C1C
100
AcDbScale
 70
     0
300
3/32" = 1'-0"
140
0.09375
141
12.0
290
     0
  0
SCALE
  5
921B
102
{ACAD_REACTORS
330
8C1C
102
}
330
8C1C
100
AcDbScale
 70
     0
300
1/8" = 1'-0"
140
0.125
141
12.0
290
     0
  0
SCALE
  5
921C
102
{ACAD_REACTORS
330
8C1C
102
}
330
8C1C
100
AcDbScale
 70
     0
300
3/16" = 1'-0"
140
0.1875
141
12.0
290
     0
  0
SCALE
  5
921D
102
{ACAD_REACTORS
330
8C1C
102
}
330
8C1C
100
AcDbScale
 70
     0
300
1/4" = 1'-0"
140
0.25
141
12.0
290
     0
  0
SCALE
  5
921E
102
{ACAD_REACTORS
330
8C1C
102
}
330
8C1C
100
AcDbScale
 70
     0
300
3/8" = 1'-0"
140
0.375
141
12.0
290
     0
  0
SCALE
  5
921F
102
{ACAD_REACTORS
330
8C1C
102
}
330
8C1C
100
AcDbScale
 70
     0
300
1/2" = 1'-0"
140
0.5
141
12.0
290
     0
  0
SCALE
  5
9220
102
{ACAD_REACTORS
330
8C1C
102
}
330
8C1C
100
AcDbScale
 70
     0
300
3/4" = 1'-0"
140
0.75
141
12.0
290
     0
  0
SCALE
  5
9221
102
{ACAD_REACTORS
330
8C1C
102
}
330
8C1C
100
AcDbScale
 70
     0
300
1" = 1'-0"
140
1.0
141
12.0
290
     0
  0
SCALE
  5
9222
102
{ACAD_REACTORS
330
8C1C
102
}
330
8C1C
100
AcDbScale
 70
     0
300
1-1/2" = 1'-0"
140
1.5
141
12.0
290
     0
  0
SCALE
  5
9223
102
{ACAD_REACTORS
330
8C1C
102
}
330
8C1C
100
AcDbScale
 70
     0
300
3" = 1'-0"
140
3.0
141
12.0
290
     0
  0
SCALE
  5
9224
102
{ACAD_REACTORS
330
8C1C
102
}
330
8C1C
100
AcDbScale
 70
     0
300
6" = 1'-0"
140
6.0
141
12.0
290
     0
  0
SCALE
  5
9225
102
{ACAD_REACTORS
330
8C1C
102
}
330
8C1C
100
AcDbScale
 70
     0
300
1'-0" = 1'-0"
140
12.0
141
12.0
290
     0
  0
TABLESTYLE
  5
8C1B
102
{ACAD_XDICTIONARY
360
8C6A
102
}
102
{ACAD_REACTORS
330
8C1A
102
}
330
8C1A
100
AcDbTableStyle
  3
Standard
 70
     0
 71
     0
 40
0.06
 41
0.06
280
     0
281
     0
  7
STANDARD
140
0.18
170
     2
 62
     0
 63
     7
283
     0
274
    -2
284
     1
 64
     0
275
    -2
285
     1
 65
     0
276
    -2
286
     1
 66
     0
277
    -2
287
     1
 67
     0
278
    -2
288
     1
 68
     0
279
    -2
289
     1
 69
     0
  7
STANDARD
140
0.25
170
     5
 62
     0
 63
     7
283
     0
274
    -2
284
     1
 64
     0
275
    -2
285
     1
 65
     0
276
    -2
286
     1
 66
     0
277
    -2
287
     1
 67
     0
278
    -2
288
     1
 68
     0
279
    -2
289
     1
 69
     0
  7
STANDARD
140
0.18
170
     5
 62
     0
 63
     7
283
     0
274
    -2
284
     1
 64
     0
275
    -2
285
     1
 65
     0
276
    -2
286
     1
 66
     0
277
    -2
287
     1
 67
     0
278
    -2
288
     1
 68
     0
279
    -2
289
     1
 69
     0
  0
VISUALSTYLE
  5
8C06
102
{ACAD_XDICTIONARY
360
92EC
102
}
102
{ACAD_REACTORS
330
8C00
102
}
330
8C00
100
AcDbVisualStyle
  2
2dWireframe
 70
     4
 71
     0
 72
     2
 73
     0
 90
        0
 40
-0.6
 41
-30.0
 62
     5
 63
     7
 74
     1
 91
        4
 64
     7
 65
   257
 75
     1
175
     1
 42
1.0
 92
        0
 66
   257
 43
1.0
 76
     1
 77
     6
 78
     2
 67
     7
 79
     5
170
     0
171
     0
290
     0
174
     0
 93
        1
 44
0.0
173
     0
291
     0
 45
0.0
1001
ACAD
1000
AcDbSavedByObjectVersion
1070
     0
  0
VISUALSTYLE
  5
9236
102
{ACAD_XDICTIONARY
360
9313
102
}
102
{ACAD_REACTORS
330
8C00
102
}
330
8C00
100
AcDbVisualStyle
  2
3D Hidden
 70
     6
 71
     1
 72
     2
 73
     2
 90
        0
 40
-0.6
 41
-30.0
 62
     5
 63
     7
 74
     2
 91
        2
 64
     7
 65
   257
 75
     2
175
     1
 42
40.0
 92
        0
 66
   257
 43
1.0
 76
     1
 77
     6
 78
     2
 67
     7
 79
     3
170
     0
171
     0
290
     0
174
     0
 93
        1
 44
0.0
173
     0
291
     0
 45
0.0
1001
ACAD
1000
AcDbSavedByObjectVersion
1070
     0
  0
VISUALSTYLE
  5
9237
102
{ACAD_XDICTIONARY
360
9315
102
}
102
{ACAD_REACTORS
330
8C00
102
}
330
8C00
100
AcDbVisualStyle
  2
3dWireframe
 70
     5
 71
     0
 72
     2
 73
     0
 90
        0
 40
-0.6
 41
-30.0
 62
     5
 63
     7
 74
     1
 91
        4
 64
     7
 65
   257
 75
     1
175
     1
 42
1.0
 92
        0
 66
   257
 43
1.0
 76
     1
 77
     6
 78
     2
 67
     7
 79
     5
170
     0
171
     0
290
     0
174
     0
 93
        1
 44
0.0
173
     0
291
     0
 45
0.0
1001
ACAD
1000
AcDbSavedByObjectVersion
1070
     0
  0
VISUALSTYLE
  5
8C05
102
{ACAD_XDICTIONARY
360
92EA
102
}
102
{ACAD_REACTORS
330
8C00
102
}
330
8C00
100
AcDbVisualStyle
  2
Basic
 70
     7
 71
     1
 72
     0
 73
     1
 90
        0
 40
-0.6
 41
-30.0
 62
     5
 63
     7
 74
     0
 91
        4
 64
     7
 65
   257
 75
     1
175
     1
 42
1.0
 92
        8
 66
     7
 43
1.0
 76
     1
 77
     6
 78
     2
 67
     7
 79
     5
170
     0
171
     0
290
     0
174
     0
 93
        1
 44
0.0
173
     0
291
     1
 45
0.0
1001
ACAD
1000
AcDbSavedByObjectVersion
1070
     0
  0
VISUALSTYLE
  5
8C0C
102
{ACAD_XDICTIONARY
360
92F8
102
}
102
{ACAD_REACTORS
330
8C00
102
}
330
8C00
100
AcDbVisualStyle
  2
Brighten
 70
    12
 71
     2
 72
     2
 73
     0
 90
        0
 40
-0.6
 41
-30.0
 62
     5
 63
     7
 74
     1
 91
        4
 64
     7
 65
   257
 75
     1
175
     1
 42
1.0
 92
        8
 66
     7
 43
1.0
 76
     1
 77
     6
 78
     2
 67
     7
 79
     5
170
     0
171
     0
290
     0
174
     0
 93
        1
 44
50.0
173
     0
291
     1
 45
0.0
1001
ACAD
1000
AcDbSavedByObjectVersion
1070
     0
  0
VISUALSTYLE
  5
8C10
102
{ACAD_XDICTIONARY
360
9300
102
}
102
{ACAD_REACTORS
330
8C00
102
}
330
8C00
100
AcDbVisualStyle
  2
ColorChange
 70
    16
 71
     2
 72
     2
 73
     3
 90
        0
 40
-0.6
 41
-30.0
 62
     5
 63
     8
 74
     1
 91
        4
 64
     7
 65
   257
 75
     1
175
     1
 42
1.0
 92
        8
 66
     8
 43
1.0
 76
     1
 77
     6
 78
     2
 67
     7
 79
     5
170
     0
171
     0
290
     0
174
     0
 93
        1
 44
0.0
173
     0
291
     1
 45
0.0
1001
ACAD
1000
AcDbSavedByObjectVersion
1070
     0
  0
VISUALSTYLE
  5
8C09
102
{ACAD_XDICTIONARY
360
92F2
102
}
102
{ACAD_REACTORS
330
8C00
102
}
330
8C00
100
AcDbVisualStyle
  2
Conceptual
 70
     9
 71
     3
 72
     2
 73
     0
 90
        0
 40
-0.6
 41
-30.0
 62
     5
 63
     7
 74
     2
 91
        2
 64
     7
 65
   257
 75
     1
175
     1
 42
179.0
 92
        8
 66
     7
 43
1.0
 76
     1
 77
     6
 78
     2
 67
     7
 79
     3
170
     0
171
     0
290
     0
174
     0
 93
        1
 44
0.0
173
     0
291
     0
 45
0.0
1001
ACAD
1000
AcDbSavedByObjectVersion
1070
     0
  0
VISUALSTYLE
  5
8C0B
102
{ACAD_XDICTIONARY
360
92F6
102
}
102
{ACAD_REACTORS
330
8C00
102
}
330
8C00
100
AcDbVisualStyle
  2
Dim
 70
    11
 71
     2
 72
     2
 73
     0
 90
        0
 40
-0.6
 41
-30.0
 62
     5
 63
     7
 74
     1
 91
        4
 64
     7
 65
   257
 75
     1
175
     1
 42
1.0
 92
        8
 66
     7
 43
1.0
 76
     1
 77
     6
 78
     2
 67
     7
 79
     5
170
     0
171
     0
290
     0
174
     0
 93
        1
 44
-50.0
173
     0
291
     1
 45
0.0
1001
ACAD
1000
AcDbSavedByObjectVersion
1070
     0
  0
VISUALSTYLE
  5
8C18
102
{ACAD_XDICTIONARY
360
9310
102
}
102
{ACAD_REACTORS
330
8C00
102
}
330
8C00
100
AcDbVisualStyle
  2
EdgeColorOff
 70
    22
 71
     2
 72
     2
 73
     0
 90
        0
 40
-0.6
 41
-30.0
 62
     5
 63
     7
 74
     1
 91
        4
 64
     7
 65
   257
 75
     1
175
     1
 42
1.0
 92
        8
 66
     7
 43
1.0
 76
     1
 77
     6
 78
     2
 67
     7
 79
     5
170
     0
171
     0
290
     0
174
     0
 93
        1
 44
0.0
173
     0
291
     1
 45
0.0
1001
ACAD
1000
AcDbSavedByObjectVersion
1070
     0
  0
VISUALSTYLE
  5
8C0F
102
{ACAD_XDICTIONARY
360
92FE
102
}
102
{ACAD_REACTORS
330
8C00
102
}
330
8C00
100
AcDbVisualStyle
  2
Facepattern
 70
    15
 71
     2
 72
     2
 73
     0
 90
        0
 40
-0.6
 41
-30.0
 62
     5
 63
     7
 74
     1
 91
        4
 64
     7
 65
   257
 75
     1
175
     1
 42
1.0
 92
        8
 66
     7
 43
1.0
 76
     1
 77
     6
 78
     2
 67
     7
 79
     5
170
     0
171
     0
290
     0
174
     0
 93
        1
 44
0.0
173
     0
291
     1
 45
0.0
1001
ACAD
1000
AcDbSavedByObjectVersion
1070
     0
  0
VISUALSTYLE
  5
8C01
102
{ACAD_XDICTIONARY
360
92E2
102
}
102
{ACAD_REACTORS
330
8C00
102
}
330
8C00
100
AcDbVisualStyle
  2
Flat
 70
     0
 71
     2
 72
     1
 73
     1
 90
        2
 40
-0.6
 41
30.0
 62
     5
 63
     7
 74
     0
 91
        0
 64
     7
 65
   257
 75
     1
175
     1
 42
1.0
 92
        8
 66
     7
 43
1.0
 76
     1
 77
     6
 78
     2
 67
     7
 79
     5
170
     0
171
     0
290
     0
174
     0
 93
       13
 44
0.0
173
     0
291
     1
 45
0.0
1001
ACAD
1000
AcDbSavedByObjectVersion
1070
     0
  0
VISUALSTYLE
  5
8C02
102
{ACAD_XDICTIONARY
360
92E4
102
}
102
{ACAD_REACTORS
330
8C00
102
}
330
8C00
100
AcDbVisualStyle
  2
FlatWithEdges
 70
     1
 71
     2
 72
     1
 73
     1
 90
        2
 40
-0.6
 41
30.0
 62
     5
 63
     7
 74
     1
 91
        0
 64
     7
 65
   257
 75
     1
175
     1
 42
1.0
 92
        0
 66
   257
 43
1.0
 76
     1
 77
     6
 78
     2
 67
     7
 79
     5
170
     0
171
     0
290
     0
174
     0
 93
       13
 44
0.0
173
     0
291
     1
 45
0.0
1001
ACAD
1000
AcDbSavedByObjectVersion
1070
     0
  0
VISUALSTYLE
  5
8C03
102
{ACAD_XDICTIONARY
360
92E6
102
}
102
{ACAD_REACTORS
330
8C00
102
}
330
8C00
100
AcDbVisualStyle
  2
Gouraud
 70
     2
 71
     2
 72
     2
 73
     1
 90
        2
 40
-0.6
 41
30.0
 62
     5
 63
     7
 74
     0
 91
        0
 64
     7
 65
   257
 75
     1
175
     1
 42
1.0
 92
        0
 66
     7
 43
1.0
 76
     1
 77
     6
 78
     2
 67
     7
 79
     5
170
     0
171
     0
290
     0
174
     0
 93
       13
 44
0.0
173
     0
291
     1
 45
0.0
1001
ACAD
1000
AcDbSavedByObjectVersion
1070
     0
  0
VISUALSTYLE
  5
8C04
102
{ACAD_XDICTIONARY
360
92E8
102
}
102
{ACAD_REACTORS
330
8C00
102
}
330
8C00
100
AcDbVisualStyle
  2
GouraudWithEdges
 70
     3
 71
     2
 72
     2
 73
     1
 90
        2
 40
-0.6
 41
30.0
 62
     5
 63
     7
 74
     1
 91
        0
 64
     7
 65
   257
 75
     1
175
     1
 42
1.0
 92
        0
 66
   257
 43
1.0
 76
     1
 77
     6
 78
     2
 67
     7
 79
     5
170
     0
171
     0
290
     0
174
     0
 93
       13
 44
0.0
173
     0
291
     1
 45
0.0
1001
ACAD
1000
AcDbSavedByObjectVersion
1070
     0
  0
VISUALSTYLE
  5
8C08
102
{ACAD_XDICTIONARY
360
92F0
102
}
102
{ACAD_REACTORS
330
8C00
102
}
330
8C00
100
AcDbVisualStyle
  2
Hidden
 70
     6
 71
     1
 72
     2
 73
     2
 90
        0
 40
-0.6
 41
-30.0
 62
     5
 63
     7
 74
     2
 91
        2
 64
     7
 65
   257
 75
     2
175
     1
 42
40.0
 92
        0
 66
   257
 43
1.0
 76
     1
 77
     6
 78
     2
 67
     7
 79
     3
170
     0
171
     0
290
     0
174
     0
 93
        1
 44
0.0
173
     0
291
     0
 45
0.0
1001
ACAD
1000
AcDbSavedByObjectVersion
1070
     0
  0
VISUALSTYLE
  5
8C16
102
{ACAD_XDICTIONARY
360
930C
102
}
102
{ACAD_REACTORS
330
8C00
102
}
330
8C00
100
AcDbVisualStyle
  2
JitterOff
 70
    20
 71
     2
 72
     2
 73
     0
 90
        0
 40
-0.6
 41
-30.0
 62
     5
 63
     7
 74
     1
 91
        4
 64
     7
 65
   257
 75
     1
175
     1
 42
1.0
 92
       10
 66
     7
 43
1.0
 76
     1
 77
     6
 78
     2
 67
     7
 79
     5
170
     0
171
     0
290
     0
174
     0
 93
        1
 44
0.0
173
     0
291
     1
 45
0.0
1001
ACAD
1000
AcDbSavedByObjectVersion
1070
     0
  0
VISUALSTYLE
  5
8C0E
102
{ACAD_XDICTIONARY
360
92FC
102
}
102
{ACAD_REACTORS
330
8C00
102
}
330
8C00
100
AcDbVisualStyle
  2
Linepattern
 70
    14
 71
     2
 72
     2
 73
     0
 90
        0
 40
-0.6
 41
-30.0
 62
     5
 63
     7
 74
     1
 91
        4
 64
     7
 65
   257
 75
     7
175
     7
 42
1.0
 92
        8
 66
     7
 43
1.0
 76
     1
 77
     6
 78
     2
 67
     7
 79
     5
170
     0
171
     0
290
     0
174
     0
 93
        1
 44
0.0
173
     0
291
     1
 45
0.0
1001
ACAD
1000
AcDbSavedByObjectVersion
1070
     0
  0
VISUALSTYLE
  5
8C17
102
{ACAD_XDICTIONARY
360
930E
102
}
102
{ACAD_REACTORS
330
8C00
102
}
330
8C00
100
AcDbVisualStyle
  2
OverhangOff
 70
    21
 71
     2
 72
     2
 73
     0
 90
        0
 40
-0.6
 41
-30.0
 62
     5
 63
     7
 74
     1
 91
        4
 64
     7
 65
   257
 75
     1
175
     1
 42
1.0
 92
        9
 66
     7
 43
1.0
 76
     1
 77
     6
 78
     2
 67
     7
 79
     5
170
     0
171
     0
290
     0
174
     0
 93
        1
 44
0.0
173
     0
291
     1
 45
0.0
1001
ACAD
1000
AcDbSavedByObjectVersion
1070
     0
  0
VISUALSTYLE
  5
8C0A
102
{ACAD_XDICTIONARY
360
92F4
102
}
102
{ACAD_REACTORS
330
8C00
102
}
330
8C00
100
AcDbVisualStyle
  2
Realistic
 70
     8
 71
     2
 72
     2
 73
     0
 90
        2
 40
-0.6
 41
30.0
 62
     5
 63
     7
 74
     0
 91
        0
 64
     7
 65
   257
 75
     1
175
     1
 42
1.0
 92
        8
 66
   257
 43
1.0
 76
     1
 77
     6
 78
     2
 67
     7
 79
     3
170
     0
171
     0
290
     0
174
     0
 93
       13
 44
0.0
173
     0
291
     0
 45
0.0
1001
ACAD
1000
AcDbSavedByObjectVersion
1070
     0
  0
VISUALSTYLE
  5
8C15
102
{ACAD_XDICTIONARY
360
930A
102
}
102
{ACAD_REACTORS
330
8C00
102
}
330
8C00
100
AcDbVisualStyle
  2
Shaded
 70
    27
 71
     2
 72
     2
 73
     1
 90
        2
 40
-0.6
 41
30.0
 62
     5
 63
     7
 74
     0
 91
        4
 64
     7
 65
   257
 75
     1
175
     1
 42
1.0
 92
        8
 66
   257
 43
1.0
 76
     1
 77
     6
 78
     2
 67
     8
 79
     3
170
     0
171
     0
290
     0
174
     0
 93
        5
 44
0.0
173
     0
291
     0
 45
0.0
1001
ACAD
1000
AcDbSavedByObjectVersion
1070
     0
  0
VISUALSTYLE
  5
8C14
102
{ACAD_XDICTIONARY
360
9308
102
}
102
{ACAD_REACTORS
330
8C00
102
}
330
8C00
100
AcDbVisualStyle
  2
Shaded with edges
 70
    26
 71
     2
 72
     2
 73
     1
 90
        2
 40
-0.6
 41
30.0
 62
     5
 63
     7
 74
     1
 91
       10
 64
     7
 65
   257
 75
     2
175
     1
 42
1.0
 92
        8
 66
   257
 43
1.0
 76
     1
 77
     6
 78
     2
 67
     7
 79
     3
170
     0
171
     0
290
     0
174
     0
 93
        5
 44
0.0
173
     0
291
     0
 45
0.0
1001
ACAD
1000
AcDbSavedByObjectVersion
1070
     0
  0
VISUALSTYLE
  5
8C11
102
{ACAD_XDICTIONARY
360
9302
102
}
102
{ACAD_REACTORS
330
8C00
102
}
330
8C00
100
AcDbVisualStyle
  2
Shades of Gray
 70
    23
 71
     2
 72
     2
 73
     3
 90
        0
 40
-0.6
 41
-30.0
 62
     5
 63
     7
 74
     2
 91
        2
 64
     7
 65
     7
 75
     1
175
     1
 42
40.0
 92
        8
 66
     7
 43
1.0
 76
     1
 77
     6
 78
     2
 67
     7
 79
     3
170
     0
171
     0
290
     0
174
     0
 93
        1
 44
0.0
173
     0
291
     0
 45
0.0
1001
ACAD
1000
AcDbSavedByObjectVersion
1070
     0
  0
VISUALSTYLE
  5
8C12
102
{ACAD_XDICTIONARY
360
9304
102
}
102
{ACAD_REACTORS
330
8C00
102
}
330
8C00
100
AcDbVisualStyle
  2
Sketchy
 70
    24
 71
     1
 72
     2
 73
     2
 90
        0
 40
-0.6
 41
-30.0
 62
     5
 63
     7
 74
     2
 91
        2
 64
     7
 65
     7
 75
     1
175
     1
 42
40.0
 92
       11
 66
     7
 43
1.0
 76
     1
 77
     6
 78
     2
 67
     7
 79
     6
170
     0
171
     0
290
     0
174
     0
 93
        1
 44
0.0
173
     0
291
     0
 45
0.0
1001
ACAD
1000
AcDbSavedByObjectVersion
1070
     0
  0
VISUALSTYLE
  5
8C0D
102
{ACAD_XDICTIONARY
360
92FA
102
}
102
{ACAD_REACTORS
330
8C00
102
}
330
8C00
100
AcDbVisualStyle
  2
Thicken
 70
    13
 71
     2
 72
     2
 73
     0
 90
        0
 40
-0.6
 41
-30.0
 62
     5
 63
     7
 74
     1
 91
        4
 64
     7
 65
   257
 75
     1
175
     1
 42
1.0
 92
       12
 66
     7
 43
1.0
 76
     1
 77
     6
 78
     2
 67
     7
 79
     5
170
     0
171
     0
290
     0
174
     0
 93
        1
 44
0.0
173
     0
291
     1
 45
0.0
1001
ACAD
1000
AcDbSavedByObjectVersion
1070
     0
  0
VISUALSTYLE
  5
8C07
102
{ACAD_XDICTIONARY
360
92EE
102
}
102
{ACAD_REACTORS
330
8C00
102
}
330
8C00
100
AcDbVisualStyle
  2
Wireframe
 70
     5
 71
     0
 72
     2
 73
     0
 90
        0
 40
-0.6
 41
-30.0
 62
     5
 63
     7
 74
     1
 91
        4
 64
     7
 65
   257
 75
     1
175
     1
 42
1.0
 92
        0
 66
   257
 43
1.0
 76
     1
 77
     6
 78
     2
 67
     7
 79
     3
170
     0
171
     0
290
     0
174
     0
 93
        1
 44
0.0
173
     0
291
     0
 45
0.0
1001
ACAD
1000
AcDbSavedByObjectVersion
1070
     0
  0
VISUALSTYLE
  5
8C13
102
{ACAD_XDICTIONARY
360
9306
102
}
102
{ACAD_REACTORS
330
8C00
102
}
330
8C00
100
AcDbVisualStyle
  2
X-Ray
 70
    25
 71
     2
 72
     2
 73
     1
 90
        1
 40
0.5
 41
-30.0
 62
     5
 63
     7
 74
     1
 91
        0
 64
     7
 65
   257
 75
     1
175
     1
 42
1.0
 92
        8
 66
     7
 43
1.0
 76
     1
 77
     6
 78
     2
 67
     7
 79
     3
170
     0
171
     0
290
     0
174
     0
 93
       13
 44
0.0
173
     0
291
     0
 45
0.0
1001
ACAD
1000
AcDbSavedByObjectVersion
1070
     0
  0
DICTIONARYVAR
  5
8CAB
102
{ACAD_REACTORS
330
3E
102
}
330
3E
100
DictionaryVariables
280
     0
  1
1:1
  0
DICTIONARYVAR
  5
8CAA
102
{ACAD_REACTORS
330
3E
102
}
330
3E
100
DictionaryVariables
280
     0
  1
STANDARD
  0
DICTIONARYVAR
  5
8CA9
102
{ACAD_REACTORS
330
3E
102
}
330
3E
100
DictionaryVariables
280
     0
  1
STANDARD
  0
DICTIONARYVAR
  5
3F
102
{ACAD_REACTORS
330
3E
102
}
330
3E
100
DictionaryVariables
280
     0
  1
0
  0
DICTIONARYVAR
  5
8CAE
102
{ACAD_REACTORS
330
3E
102
}
330
3E
100
DictionaryVariables
280
     0
  1
1
  0
DICTIONARYVAR
  5
8CAD
102
{ACAD_REACTORS
330
3E
102
}
330
3E
100
DictionaryVariables
280
     0
  1
0
  0
DICTIONARYVAR
  5
920B
102
{ACAD_REACTORS
330
3E
102
}
330
3E
100
DictionaryVariables
280
     0
  1
1
  0
DICTIONARYVAR
  5
920C
102
{ACAD_REACTORS
330
3E
102
}
330
3E
100
DictionaryVariables
280
     0
  1
15
  0
DICTIONARYVAR
  5
920A
102
{ACAD_REACTORS
330
3E
102
}
330
3E
100
DictionaryVariables
280
     0
  1
0
  0
DICTIONARYVAR
  5
9209
102
{ACAD_REACTORS
330
3E
102
}
330
3E
100
DictionaryVariables
280
     0
  1
0
  0
DICTIONARYVAR
  5
8CAC
102
{ACAD_REACTORS
330
3E
102
}
330
3E
100
DictionaryVariables
280
     0
  1
127
  0
DICTIONARYVAR
  5
92D5
102
{ACAD_REACTORS
330
3E
102
}
330
3E
100
DictionaryVariables
280
     0
  1
2
  0
DICTIONARY
  5
92DD
330
485F
100
AcDbDictionary
280
     1
281
     1
  3
ACAD_XREC_ROUNDTRIP
360
92DE
  0
DICTIONARY
  5
92DB
330
485E
100
AcDbDictionary
280
     1
281
     1
  3
ACAD_XREC_ROUNDTRIP
360
92DC
  0
DICTIONARY
  5
8BF1
330
8BF0
100
AcDbDictionary
280
     1
281
     1
  3
ACAD_XREC_ROUNDTRIP
360
92E0
  3
BUMPTILE
360
8BF3
  3
DIFFUSETILE
360
8BF2
  3
OPACITYTILE
360
8BF6
  3
REFLECTIONTILE
360
8BF5
  3
REFRACTIONTILE
360
8BF7
  3
SPECULARTILE
360
8BF4
  0
DICTIONARY
  5
8BE9
330
8BE8
100
AcDbDictionary
280
     1
281
     1
  3
ACAD_XREC_ROUNDTRIP
360
92DF
  3
BUMPTILE
360
8BEB
  3
DIFFUSETILE
360
8BEA
  3
OPACITYTILE
360
8BEE
  3
REFLECTIONTILE
360
8BED
  3
REFRACTIONTILE
360
8BEF
  3
SPECULARTILE
360
8BEC
  0
DICTIONARY
  5
8BF9
330
8BF8
100
AcDbDictionary
280
     1
281
     1
  3
ACAD_XREC_ROUNDTRIP
360
92E1
  3
BUMPTILE
360
8BFB
  3
DIFFUSETILE
360
8BFA
  3
OPACITYTILE
360
8BFE
  3
REFLECTIONTILE
360
8BFD
  3
REFRACTIONTILE
360
8BFF
  3
SPECULARTILE
360
8BFC
  0
DICTIONARY
  5
8C6A
330
8C1B
100
AcDbDictionary
280
     1
281
     1
  3
ACAD_ROUNDTRIP_2008_TABLESTYLE_CELLSTYLEMAP
360
92D6
  3
ACAD_XREC_ROUNDTRIP
360
9312
  0
DICTIONARY
  5
92EC
330
8C06
100
AcDbDictionary
280
     1
281
     1
  3
ACAD_XREC_ROUNDTRIP
360
92ED
  0
DICTIONARY
  5
9313
330
9236
100
AcDbDictionary
280
     1
281
     1
  3
ACAD_XREC_ROUNDTRIP
360
9314
  0
DICTIONARY
  5
9315
330
9237
100
AcDbDictionary
280
     1
281
     1
  3
ACAD_XREC_ROUNDTRIP
360
9316
  0
DICTIONARY
  5
92EA
330
8C05
100
AcDbDictionary
280
     1
281
     1
  3
ACAD_XREC_ROUNDTRIP
360
92EB
  0
DICTIONARY
  5
92F8
330
8C0C
100
AcDbDictionary
280
     1
281
     1
  3
ACAD_XREC_ROUNDTRIP
360
92F9
  0
DICTIONARY
  5
9300
330
8C10
100
AcDbDictionary
280
     1
281
     1
  3
ACAD_XREC_ROUNDTRIP
360
9301
  0
DICTIONARY
  5
92F2
330
8C09
100
AcDbDictionary
280
     1
281
     1
  3
ACAD_XREC_ROUNDTRIP
360
92F3
  0
DICTIONARY
  5
92F6
330
8C0B
100
AcDbDictionary
280
     1
281
     1
  3
ACAD_XREC_ROUNDTRIP
360
92F7
  0
DICTIONARY
  5
9310
330
8C18
100
AcDbDictionary
280
     1
281
     1
  3
ACAD_XREC_ROUNDTRIP
360
9311
  0
DICTIONARY
  5
92FE
330
8C0F
100
AcDbDictionary
280
     1
281
     1
  3
ACAD_XREC_ROUNDTRIP
360
92FF
  0
DICTIONARY
  5
92E2
330
8C01
100
AcDbDictionary
280
     1
281
     1
  3
ACAD_XREC_ROUNDTRIP
360
92E3
  0
DICTIONARY
  5
92E4
330
8C02
100
AcDbDictionary
280
     1
281
     1
  3
ACAD_XREC_ROUNDTRIP
360
92E5
  0
DICTIONARY
  5
92E6
330
8C03
100
AcDbDictionary
280
     1
281
     1
  3
ACAD_XREC_ROUNDTRIP
360
92E7
  0
DICTIONARY
  5
92E8
330
8C04
100
AcDbDictionary
280
     1
281
     1
  3
ACAD_XREC_ROUNDTRIP
360
92E9
  0
DICTIONARY
  5
92F0
330
8C08
100
AcDbDictionary
280
     1
281
     1
  3
ACAD_XREC_ROUNDTRIP
360
92F1
  0
DICTIONARY
  5
930C
330
8C16
100
AcDbDictionary
280
     1
281
     1
  3
ACAD_XREC_ROUNDTRIP
360
930D
  0
DICTIONARY
  5
92FC
330
8C0E
100
AcDbDictionary
280
     1
281
     1
  3
ACAD_XREC_ROUNDTRIP
360
92FD
  0
DICTIONARY
  5
930E
330
8C17
100
AcDbDictionary
280
     1
281
     1
  3
ACAD_XREC_ROUNDTRIP
360
930F
  0
DICTIONARY
  5
92F4
330
8C0A
100
AcDbDictionary
280
     1
281
     1
  3
ACAD_XREC_ROUNDTRIP
360
92F5
  0
DICTIONARY
  5
930A
330
8C15
100
AcDbDictionary
280
     1
281
     1
  3
ACAD_XREC_ROUNDTRIP
360
930B
  0
DICTIONARY
  5
9308
330
8C14
100
AcDbDictionary
280
     1
281
     1
  3
ACAD_XREC_ROUNDTRIP
360
9309
  0
DICTIONARY
  5
9302
330
8C11
100
AcDbDictionary
280
     1
281
     1
  3
ACAD_XREC_ROUNDTRIP
360
9303
  0
DICTIONARY
  5
9304
330
8C12
100
AcDbDictionary
280
     1
281
     1
  3
ACAD_XREC_ROUNDTRIP
360
9305
  0
DICTIONARY
  5
92FA
330
8C0D
100
AcDbDictionary
280
     1
281
     1
  3
ACAD_XREC_ROUNDTRIP
360
92FB
  0
DICTIONARY
  5
92EE
330
8C07
100
AcDbDictionary
280
     1
281
     1
  3
ACAD_XREC_ROUNDTRIP
360
92EF
  0
DICTIONARY
  5
9306
330
8C13
100
AcDbDictionary
280
     1
281
     1
  3
ACAD_XREC_ROUNDTRIP
360
9307
  0
XRECORD
  5
92DE
102
{ACAD_REACTORS
330
92DD
102
}
330
92DD
100
AcDbXrecord
280
     1
102
SHADEPLOT
 70
     0
102
SHADEPLOTRESLEVEL
 70
     2
102
SHADEPLOTCUSTOMDPI
 70
   300
  0
XRECORD
  5
92DC
102
{ACAD_REACTORS
330
92DB
102
}
330
92DB
100
AcDbXrecord
280
     1
102
SHADEPLOT
 70
     0
102
SHADEPLOTRESLEVEL
 70
     2
102
SHADEPLOTCUSTOMDPI
 70
   300
  0
XRECORD
  5
92E0
102
{ACAD_REACTORS
330
8BF1
102
}
330
8BF1
100
AcDbXrecord
280
     1
102
MATERIAL
148
0.0
149
0.0
149
0.0
 93
        0
 94
      127
282
     0
 72
     0
 77
     0
171
     0
175
     0
179
     0
273
     0
  0
XRECORD
  5
8BF3
102
{ACAD_REACTORS
330
8BF1
102
}
330
8BF1
100
AcDbXrecord
280
     1
270
     1
271
     1
  0
XRECORD
  5
8BF2
102
{ACAD_REACTORS
330
8BF1
102
}
330
8BF1
100
AcDbXrecord
280
     1
270
     1
271
     1
  0
XRECORD
  5
8BF6
102
{ACAD_REACTORS
330
8BF1
102
}
330
8BF1
100
AcDbXrecord
280
     1
270
     1
271
     1
  0
XRECORD
  5
8BF5
102
{ACAD_REACTORS
330
8BF1
102
}
330
8BF1
100
AcDbXrecord
280
     1
270
     1
271
     1
  0
XRECORD
  5
8BF7
102
{ACAD_REACTORS
330
8BF1
102
}
330
8BF1
100
AcDbXrecord
280
     1
270
     1
271
     1
  0
XRECORD
  5
8BF4
102
{ACAD_REACTORS
330
8BF1
102
}
330
8BF1
100
AcDbXrecord
280
     1
270
     1
271
     1
  0
XRECORD
  5
92DF
102
{ACAD_REACTORS
330
8BE9
102
}
330
8BE9
100
AcDbXrecord
280
     1
102
MATERIAL
148
0.0
149
0.0
149
0.0
 93
        0
 94
      127
282
     0
 72
     0
 77
     0
171
     0
175
     0
179
     0
273
     0
  0
XRECORD
  5
8BEB
102
{ACAD_REACTORS
330
8BE9
102
}
330
8BE9
100
AcDbXrecord
280
     1
270
     1
271
     1
  0
XRECORD
  5
8BEA
102
{ACAD_REACTORS
330
8BE9
102
}
330
8BE9
100
AcDbXrecord
280
     1
270
     1
271
     1
  0
XRECORD
  5
8BEE
102
{ACAD_REACTORS
330
8BE9
102
}
330
8BE9
100
AcDbXrecord
280
     1
270
     1
271
     1
  0
XRECORD
  5
8BED
102
{ACAD_REACTORS
330
8BE9
102
}
330
8BE9
100
AcDbXrecord
280
     1
270
     1
271
     1
  0
XRECORD
  5
8BEF
102
{ACAD_REACTORS
330
8BE9
102
}
330
8BE9
100
AcDbXrecord
280
     1
270
     1
271
     1
  0
XRECORD
  5
8BEC
102
{ACAD_REACTORS
330
8BE9
102
}
330
8BE9
100
AcDbXrecord
280
     1
270
     1
271
     1
  0
XRECORD
  5
92E1
102
{ACAD_REACTORS
330
8BF9
102
}
330
8BF9
100
AcDbXrecord
280
     1
102
MATERIAL
148
0.0
149
0.0
149
0.0
 93
        0
 94
      127
282
     0
 72
     0
 77
     0
171
     0
175
     0
179
     0
273
     0
  0
XRECORD
  5
8BFB
102
{ACAD_REACTORS
330
8BF9
102
}
330
8BF9
100
AcDbXrecord
280
     1
270
     1
271
     1
  0
XRECORD
  5
8BFA
102
{ACAD_REACTORS
330
8BF9
102
}
330
8BF9
100
AcDbXrecord
280
     1
270
     1
271
     1
  0
XRECORD
  5
8BFE
102
{ACAD_REACTORS
330
8BF9
102
}
330
8BF9
100
AcDbXrecord
280
     1
270
     1
271
     1
  0
XRECORD
  5
8BFD
102
{ACAD_REACTORS
330
8BF9
102
}
330
8BF9
100
AcDbXrecord
280
     1
270
     1
271
     1
  0
XRECORD
  5
8BFF
102
{ACAD_REACTORS
330
8BF9
102
}
330
8BF9
100
AcDbXrecord
280
     1
270
     1
271
     1
  0
XRECORD
  5
8BFC
102
{ACAD_REACTORS
330
8BF9
102
}
330
8BF9
100
AcDbXrecord
280
     1
270
     1
271
     1
  0
CELLSTYLEMAP
  5
92D6
102
{ACAD_REACTORS
330
8C6A
102
}
330
8C6A
100
AcDbCellStyleMap
 90
        3
300
CELLSTYLE
  1
TABLEFORMAT_BEGIN
 90
        5
170
     1
 91
        0
 92
    32768
 62
   257
 93
        1
300
CONTENTFORMAT
  1
CONTENTFORMAT_BEGIN
 90
        0
 91
        0
 92
      512
 93
        0
300

 40
0.0
140
1.0
 94
        5
 62
     0
340
F
144
0.25
309
CONTENTFORMAT_END
171
     0
 94
        0
309
TABLEFORMAT_END
  1
CELLSTYLE_BEGIN
 90
        1
 91
        1
300
_TITLE
309
CELLSTYLE_END
300
CELLSTYLE
  1
TABLEFORMAT_BEGIN
 90
        5
170
     1
 91
        0
 92
        0
 62
   257
 93
        1
300
CONTENTFORMAT
  1
CONTENTFORMAT_BEGIN
 90
        0
 91
        0
 92
      512
 93
        0
300

 40
0.0
140
1.0
 94
        5
 62
     0
340
F
144
0.18
309
CONTENTFORMAT_END
171
     0
 94
        0
309
TABLEFORMAT_END
  1
CELLSTYLE_BEGIN
 90
        2
 91
        1
300
_HEADER
309
CELLSTYLE_END
300
CELLSTYLE
  1
TABLEFORMAT_BEGIN
 90
        5
170
     1
 91
        0
 92
        0
 62
   257
 93
        1
300
CONTENTFORMAT
  1
CONTENTFORMAT_BEGIN
 90
        0
 91
        0
 92
      512
 93
        0
300

 40
0.0
140
1.0
 94
        2
 62
     0
340
F
144
0.18
309
CONTENTFORMAT_END
171
     0
 94
        0
309
TABLEFORMAT_END
  1
CELLSTYLE_BEGIN
 90
        3
 91
        2
300
_DATA
309
CELLSTYLE_END
  0
XRECORD
  5
9312
102
{ACAD_REACTORS
330
8C6A
102
}
330
8C6A
100
AcDbXrecord
280
     1
102
ACAD_ROUNDTRIP_PRE2007_TABLESTYLE
 90
      512
 91
        0
  1

 92
      512
 93
        0
  2

 94
      512
 95
        0
  3

  0
XRECORD
  5
92ED
102
{ACAD_REACTORS
330
92EC
102
}
330
92EC
100
AcDbXrecord
280
     1
102
RTVSPropertyOp0
 70
     1
102
RTVSPropertyOp1
 70
     1
102
RTVSPropertyOp2
 70
     1
102
RTVSPropertyOp3
 70
     1
102
RTVSPropertyOp4
 70
     1
102
RTVSPropertyOp5
 70
     1
102
RTVSPropertyOp6
 70
     1
102
RTVSPropertyOp7
 70
     1
102
RTVSPropertyOp8
 70
     1
102
RTVSPropertyOp9
 70
     1
102
RTVSPropertyOp10
 70
     1
102
RTVSPropertyOp11
 70
     1
102
RTVSPropertyOp12
 70
     1
102
RTVSPropertyOp13
 70
     1
102
RTVSPropertyOp14
 70
     1
102
RTVSPropertyOp15
 70
     1
102
RTVSPropertyOp16
 70
     1
102
RTVSPropertyOp17
 70
     1
102
RTVSPropertyOp18
 70
     1
102
RTVSPropertyOp19
 70
     1
102
RTVSPropertyOp20
 70
     1
102
RTVSPropertyOp21
 70
     1
102
RTVSPropertyOp22
 70
     1
102
RTVSPropertyOp23
 70
     1
102
RTVSPropertyOp24
 70
     1
102
RTVSPropertyOp25
 70
     1
102
RTVSPropertyOp26
 70
     1
102
RTVSPropertyOp27
 70
     1
102
RTVSPropertyOp28
 70
     1
102
RTVSPropertyOp29
 70
     1
102
RTVSPropertyOp30
 70
     1
102
RTVSPropertyOp31
 70
     1
102
RTVSPropertyOp32
 70
     1
  0
XRECORD
  5
9314
102
{ACAD_REACTORS
330
9313
102
}
330
9313
100
AcDbXrecord
280
     1
102
RTVSPropertyOp0
 70
     1
102
RTVSPropertyOp1
 70
     1
102
RTVSPropertyOp2
 70
     1
102
RTVSPropertyOp3
 70
     1
102
RTVSPropertyOp4
 70
     1
102
RTVSPropertyOp5
 70
     1
102
RTVSPropertyOp6
 70
     1
102
RTVSPropertyOp7
 70
     1
102
RTVSPropertyOp8
 70
     1
102
RTVSPropertyOp9
 70
     1
102
RTVSPropertyOp10
 70
     1
102
RTVSPropertyOp11
 70
     1
102
RTVSPropertyOp12
 70
     1
102
RTVSPropertyOp13
 70
     1
102
RTVSPropertyOp14
 70
     1
102
RTVSPropertyOp15
 70
     1
102
RTVSPropertyOp16
 70
     1
102
RTVSPropertyOp17
 70
     1
102
RTVSPropertyOp18
 70
     1
102
RTVSPropertyOp19
 70
     1
102
RTVSPropertyOp20
 70
     1
102
RTVSPropertyOp21
 70
     1
102
RTVSPropertyOp22
 70
     1
102
RTVSPropertyOp23
 70
     1
102
RTVSPropertyOp24
 70
     1
102
RTVSPropertyOp25
 70
     1
102
RTVSPropertyOp26
 70
     1
102
RTVSPropertyOp27
 70
     1
102
RTVSPropertyOp28
 70
     1
102
RTVSPropertyOp29
 70
     1
102
RTVSPropertyOp30
 70
     1
102
RTVSPropertyOp31
 70
     1
102
RTVSPropertyOp32
 70
     1
  0
XRECORD
  5
9316
102
{ACAD_REACTORS
330
9315
102
}
330
9315
100
AcDbXrecord
280
     1
102
RTVSPropertyOp0
 70
     1
102
RTVSPropertyOp1
 70
     1
102
RTVSPropertyOp2
 70
     1
102
RTVSPropertyOp3
 70
     1
102
RTVSPropertyOp4
 70
     1
102
RTVSPropertyOp5
 70
     1
102
RTVSPropertyOp6
 70
     1
102
RTVSPropertyOp7
 70
     1
102
RTVSPropertyOp8
 70
     1
102
RTVSPropertyOp9
 70
     1
102
RTVSPropertyOp10
 70
     1
102
RTVSPropertyOp11
 70
     1
102
RTVSPropertyOp12
 70
     1
102
RTVSPropertyOp13
 70
     1
102
RTVSPropertyOp14
 70
     1
102
RTVSPropertyOp15
 70
     1
102
RTVSPropertyOp16
 70
     1
102
RTVSPropertyOp17
 70
     1
102
RTVSPropertyOp18
 70
     1
102
RTVSPropertyOp19
 70
     1
102
RTVSPropertyOp20
 70
     1
102
RTVSPropertyOp21
 70
     1
102
RTVSPropertyOp22
 70
     1
102
RTVSPropertyOp23
 70
     1
102
RTVSPropertyOp24
 70
     1
102
RTVSPropertyOp25
 70
     1
102
RTVSPropertyOp26
 70
     1
102
RTVSPropertyOp27
 70
     1
102
RTVSPropertyOp28
 70
     1
102
RTVSPropertyOp29
 70
     1
102
RTVSPropertyOp30
 70
     1
102
RTVSPropertyOp31
 70
     1
102
RTVSPropertyOp32
 70
     1
  0
XRECORD
  5
92EB
102
{ACAD_REACTORS
330
92EA
102
}
330
92EA
100
AcDbXrecord
280
     1
102
RTVSPropertyOp0
 70
     1
102
RTVSPropertyOp1
 70
     1
102
RTVSPropertyOp2
 70
     1
102
RTVSPropertyOp3
 70
     1
102
RTVSPropertyOp4
 70
     1
102
RTVSPropertyOp5
 70
     1
102
RTVSPropertyOp6
 70
     1
102
RTVSPropertyOp7
 70
     1
102
RTVSPropertyOp8
 70
     1
102
RTVSPropertyOp9
 70
     1
102
RTVSPropertyOp10
 70
     1
102
RTVSPropertyOp11
 70
     1
102
RTVSPropertyOp12
 70
     1
102
RTVSPropertyOp13
 70
     1
102
RTVSPropertyOp14
 70
     1
102
RTVSPropertyOp15
 70
     1
102
RTVSPropertyOp16
 70
     1
102
RTVSPropertyOp17
 70
     1
102
RTVSPropertyOp18
 70
     1
102
RTVSPropertyOp19
 70
     1
102
RTVSPropertyOp20
 70
     1
102
RTVSPropertyOp21
 70
     1
102
RTVSPropertyOp22
 70
     1
102
RTVSPropertyOp23
 70
     1
102
RTVSPropertyOp24
 70
     1
102
RTVSPropertyOp25
 70
     1
102
RTVSPropertyOp26
 70
     1
102
RTVSPropertyOp27
 70
     1
102
RTVSPropertyOp28
 70
     1
102
RTVSPropertyOp29
 70
     1
102
RTVSPropertyOp30
 70
     1
102
RTVSPropertyOp31
 70
     1
102
RTVSPropertyOp32
 70
     1
  0
XRECORD
  5
92F9
102
{ACAD_REACTORS
330
92F8
102
}
330
92F8
100
AcDbXrecord
280
     1
102
RTVSPropertyOp0
 70
     1
102
RTVSPropertyOp1
 70
     1
102
RTVSPropertyOp2
 70
     1
102
RTVSPropertyOp3
 70
     1
102
RTVSPropertyOp4
 70
     1
102
RTVSPropertyOp5
 70
     1
102
RTVSPropertyOp6
 70
     1
102
RTVSPropertyOp7
 70
     1
102
RTVSPropertyOp8
 70
     1
102
RTVSPropertyOp9
 70
     1
102
RTVSPropertyOp10
 70
     1
102
RTVSPropertyOp11
 70
     1
102
RTVSPropertyOp12
 70
     1
102
RTVSPropertyOp13
 70
     1
102
RTVSPropertyOp14
 70
     1
102
RTVSPropertyOp15
 70
     1
102
RTVSPropertyOp16
 70
     1
102
RTVSPropertyOp17
 70
     1
102
RTVSPropertyOp18
 70
     1
102
RTVSPropertyOp19
 70
     1
102
RTVSPropertyOp20
 70
     1
102
RTVSPropertyOp21
 70
     1
102
RTVSPropertyOp22
 70
     1
102
RTVSPropertyOp23
 70
     1
102
RTVSPropertyOp24
 70
     1
102
RTVSPropertyOp25
 70
     1
102
RTVSPropertyOp26
 70
     1
102
RTVSPropertyOp27
 70
     1
102
RTVSPropertyOp28
 70
     1
102
RTVSPropertyOp29
 70
     1
102
RTVSPropertyOp30
 70
     1
102
RTVSPropertyOp31
 70
     1
102
RTVSPropertyOp32
 70
     1
  0
XRECORD
  5
9301
102
{ACAD_REACTORS
330
9300
102
}
330
9300
100
AcDbXrecord
280
     1
102
RTVSPropertyOp0
 70
     1
102
RTVSPropertyOp1
 70
     1
102
RTVSPropertyOp2
 70
     1
102
RTVSPropertyOp3
 70
     1
102
RTVSPropertyOp4
 70
     1
102
RTVSPropertyOp5
 70
     1
102
RTVSPropertyOp6
 70
     1
102
RTVSPropertyOp7
 70
     1
102
RTVSPropertyOp8
 70
     1
102
RTVSPropertyOp9
 70
     1
102
RTVSPropertyOp10
 70
     1
102
RTVSPropertyOp11
 70
     1
102
RTVSPropertyOp12
 70
     1
102
RTVSPropertyOp13
 70
     1
102
RTVSPropertyOp14
 70
     1
102
RTVSPropertyOp15
 70
     1
102
RTVSPropertyOp16
 70
     1
102
RTVSPropertyOp17
 70
     1
102
RTVSPropertyOp18
 70
     1
102
RTVSPropertyOp19
 70
     1
102
RTVSPropertyOp20
 70
     1
102
RTVSPropertyOp21
 70
     1
102
RTVSPropertyOp22
 70
     1
102
RTVSPropertyOp23
 70
     1
102
RTVSPropertyOp24
 70
     1
102
RTVSPropertyOp25
 70
     1
102
RTVSPropertyOp26
 70
     1
102
RTVSPropertyOp27
 70
     1
102
RTVSPropertyOp28
 70
     1
102
RTVSPropertyOp29
 70
     1
102
RTVSPropertyOp30
 70
     1
102
RTVSPropertyOp31
 70
     1
102
RTVSPropertyOp32
 70
     1
  0
XRECORD
  5
92F3
102
{ACAD_REACTORS
330
92F2
102
}
330
92F2
100
AcDbXrecord
280
     1
102
RTVSPropertyOp0
 70
     1
102
RTVSPropertyOp1
 70
     1
102
RTVSPropertyOp2
 70
     1
102
RTVSPropertyOp3
 70
     1
102
RTVSPropertyOp4
 70
     1
102
RTVSPropertyOp5
 70
     1
102
RTVSPropertyOp6
 70
     1
102
RTVSPropertyOp7
 70
     1
102
RTVSPropertyOp8
 70
     1
102
RTVSPropertyOp9
 70
     1
102
RTVSPropertyOp10
 70
     1
102
RTVSPropertyOp11
 70
     1
102
RTVSPropertyOp12
 70
     1
102
RTVSPropertyOp13
 70
     1
102
RTVSPropertyOp14
 70
     1
102
RTVSPropertyOp15
 70
     1
102
RTVSPropertyOp16
 70
     1
102
RTVSPropertyOp17
 70
     1
102
RTVSPropertyOp18
 70
     1
102
RTVSPropertyOp19
 70
     1
102
RTVSPropertyOp20
 70
     1
102
RTVSPropertyOp21
 70
     1
102
RTVSPropertyOp22
 70
     1
102
RTVSPropertyOp23
 70
     1
102
RTVSPropertyOp24
 70
     1
102
RTVSPropertyOp25
 70
     1
102
RTVSPropertyOp26
 70
     1
102
RTVSPropertyOp27
 70
     1
102
RTVSPropertyOp28
 70
     1
102
RTVSPropertyOp29
 70
     1
102
RTVSPropertyOp30
 70
     1
102
RTVSPropertyOp31
 70
     1
102
RTVSPropertyOp32
 70
     1
  0
XRECORD
  5
92F7
102
{ACAD_REACTORS
330
92F6
102
}
330
92F6
100
AcDbXrecord
280
     1
102
RTVSPropertyOp0
 70
     1
102
RTVSPropertyOp1
 70
     1
102
RTVSPropertyOp2
 70
     1
102
RTVSPropertyOp3
 70
     1
102
RTVSPropertyOp4
 70
     1
102
RTVSPropertyOp5
 70
     1
102
RTVSPropertyOp6
 70
     1
102
RTVSPropertyOp7
 70
     1
102
RTVSPropertyOp8
 70
     1
102
RTVSPropertyOp9
 70
     1
102
RTVSPropertyOp10
 70
     1
102
RTVSPropertyOp11
 70
     1
102
RTVSPropertyOp12
 70
     1
102
RTVSPropertyOp13
 70
     1
102
RTVSPropertyOp14
 70
     1
102
RTVSPropertyOp15
 70
     1
102
RTVSPropertyOp16
 70
     1
102
RTVSPropertyOp17
 70
     1
102
RTVSPropertyOp18
 70
     1
102
RTVSPropertyOp19
 70
     1
102
RTVSPropertyOp20
 70
     1
102
RTVSPropertyOp21
 70
     1
102
RTVSPropertyOp22
 70
     1
102
RTVSPropertyOp23
 70
     1
102
RTVSPropertyOp24
 70
     1
102
RTVSPropertyOp25
 70
     1
102
RTVSPropertyOp26
 70
     1
102
RTVSPropertyOp27
 70
     1
102
RTVSPropertyOp28
 70
     1
102
RTVSPropertyOp29
 70
     1
102
RTVSPropertyOp30
 70
     1
102
RTVSPropertyOp31
 70
     1
102
RTVSPropertyOp32
 70
     1
  0
XRECORD
  5
9311
102
{ACAD_REACTORS
330
9310
102
}
330
9310
100
AcDbXrecord
280
     1
102
RTVSPropertyOp0
 70
     0
102
RTVSPropertyOp1
 70
     0
102
RTVSPropertyOp2
 70
     0
102
RTVSPropertyOp3
 70
     0
102
RTVSPropertyOp4
 70
     0
102
RTVSPropertyOp5
 70
     0
102
RTVSPropertyOp6
 70
     0
102
RTVSPropertyOp7
 70
     0
102
RTVSPropertyOp8
 70
     0
102
RTVSPropertyOp9
 70
     0
102
RTVSPropertyOp10
 70
     0
102
RTVSPropertyOp11
 70
     0
102
RTVSPropertyOp12
 70
     0
102
RTVSPropertyOp13
 70
     0
102
RTVSPropertyOp14
 70
     2
102
RTVSPropertyOp15
 70
     0
102
RTVSPropertyOp16
 70
     0
102
RTVSPropertyOp17
 70
     0
102
RTVSPropertyOp18
 70
     0
102
RTVSPropertyOp19
 70
     0
102
RTVSPropertyOp20
 70
     0
102
RTVSPropertyOp21
 70
     0
102
RTVSPropertyOp22
 70
     0
102
RTVSPropertyOp23
 70
     0
102
RTVSPropertyOp24
 70
     0
102
RTVSPropertyOp25
 70
     0
102
RTVSPropertyOp26
 70
     0
102
RTVSPropertyOp27
 70
     0
102
RTVSPropertyOp28
 70
     1
102
RTVSPropertyOp29
 70
     1
102
RTVSPropertyOp30
 70
     1
102
RTVSPropertyOp31
 70
     1
102
RTVSPropertyOp32
 70
     1
  0
XRECORD
  5
92FF
102
{ACAD_REACTORS
330
92FE
102
}
330
92FE
100
AcDbXrecord
280
     1
102
RTVSPropertyOp0
 70
     1
102
RTVSPropertyOp1
 70
     1
102
RTVSPropertyOp2
 70
     1
102
RTVSPropertyOp3
 70
     1
102
RTVSPropertyOp4
 70
     1
102
RTVSPropertyOp5
 70
     1
102
RTVSPropertyOp6
 70
     1
102
RTVSPropertyOp7
 70
     1
102
RTVSPropertyOp8
 70
     1
102
RTVSPropertyOp9
 70
     1
102
RTVSPropertyOp10
 70
     1
102
RTVSPropertyOp11
 70
     1
102
RTVSPropertyOp12
 70
     1
102
RTVSPropertyOp13
 70
     1
102
RTVSPropertyOp14
 70
     1
102
RTVSPropertyOp15
 70
     1
102
RTVSPropertyOp16
 70
     1
102
RTVSPropertyOp17
 70
     1
102
RTVSPropertyOp18
 70
     1
102
RTVSPropertyOp19
 70
     1
102
RTVSPropertyOp20
 70
     1
102
RTVSPropertyOp21
 70
     1
102
RTVSPropertyOp22
 70
     1
102
RTVSPropertyOp23
 70
     1
102
RTVSPropertyOp24
 70
     1
102
RTVSPropertyOp25
 70
     1
102
RTVSPropertyOp26
 70
     1
102
RTVSPropertyOp27
 70
     1
102
RTVSPropertyOp28
 70
     1
102
RTVSPropertyOp29
 70
     1
102
RTVSPropertyOp30
 70
     1
102
RTVSPropertyOp31
 70
     1
102
RTVSPropertyOp32
 70
     1
  0
XRECORD
  5
92E3
102
{ACAD_REACTORS
330
92E2
102
}
330
92E2
100
AcDbXrecord
280
     1
102
RTVSPropertyOp0
 70
     1
102
RTVSPropertyOp1
 70
     1
102
RTVSPropertyOp2
 70
     1
102
RTVSPropertyOp3
 70
     1
102
RTVSPropertyOp4
 70
     1
102
RTVSPropertyOp5
 70
     1
102
RTVSPropertyOp6
 70
     1
102
RTVSPropertyOp7
 70
     1
102
RTVSPropertyOp8
 70
     1
102
RTVSPropertyOp9
 70
     1
102
RTVSPropertyOp10
 70
     1
102
RTVSPropertyOp11
 70
     1
102
RTVSPropertyOp12
 70
     1
102
RTVSPropertyOp13
 70
     1
102
RTVSPropertyOp14
 70
     1
102
RTVSPropertyOp15
 70
     1
102
RTVSPropertyOp16
 70
     1
102
RTVSPropertyOp17
 70
     1
102
RTVSPropertyOp18
 70
     1
102
RTVSPropertyOp19
 70
     1
102
RTVSPropertyOp20
 70
     1
102
RTVSPropertyOp21
 70
     1
102
RTVSPropertyOp22
 70
     1
102
RTVSPropertyOp23
 70
     1
102
RTVSPropertyOp24
 70
     1
102
RTVSPropertyOp25
 70
     1
102
RTVSPropertyOp26
 70
     1
102
RTVSPropertyOp27
 70
     1
102
RTVSPropertyOp28
 70
     1
102
RTVSPropertyOp29
 70
     1
102
RTVSPropertyOp30
 70
     1
102
RTVSPropertyOp31
 70
     1
102
RTVSPropertyOp32
 70
     1
  0
XRECORD
  5
92E5
102
{ACAD_REACTORS
330
92E4
102
}
330
92E4
100
AcDbXrecord
280
     1
102
RTVSPropertyOp0
 70
     1
102
RTVSPropertyOp1
 70
     1
102
RTVSPropertyOp2
 70
     1
102
RTVSPropertyOp3
 70
     1
102
RTVSPropertyOp4
 70
     1
102
RTVSPropertyOp5
 70
     1
102
RTVSPropertyOp6
 70
     1
102
RTVSPropertyOp7
 70
     1
102
RTVSPropertyOp8
 70
     1
102
RTVSPropertyOp9
 70
     1
102
RTVSPropertyOp10
 70
     1
102
RTVSPropertyOp11
 70
     1
102
RTVSPropertyOp12
 70
     1
102
RTVSPropertyOp13
 70
     1
102
RTVSPropertyOp14
 70
     1
102
RTVSPropertyOp15
 70
     1
102
RTVSPropertyOp16
 70
     1
102
RTVSPropertyOp17
 70
     1
102
RTVSPropertyOp18
 70
     1
102
RTVSPropertyOp19
 70
     1
102
RTVSPropertyOp20
 70
     1
102
RTVSPropertyOp21
 70
     1
102
RTVSPropertyOp22
 70
     1
102
RTVSPropertyOp23
 70
     1
102
RTVSPropertyOp24
 70
     1
102
RTVSPropertyOp25
 70
     1
102
RTVSPropertyOp26
 70
     1
102
RTVSPropertyOp27
 70
     1
102
RTVSPropertyOp28
 70
     1
102
RTVSPropertyOp29
 70
     1
102
RTVSPropertyOp30
 70
     1
102
RTVSPropertyOp31
 70
     1
102
RTVSPropertyOp32
 70
     1
  0
XRECORD
  5
92E7
102
{ACAD_REACTORS
330
92E6
102
}
330
92E6
100
AcDbXrecord
280
     1
102
RTVSPropertyOp0
 70
     1
102
RTVSPropertyOp1
 70
     1
102
RTVSPropertyOp2
 70
     1
102
RTVSPropertyOp3
 70
     1
102
RTVSPropertyOp4
 70
     1
102
RTVSPropertyOp5
 70
     1
102
RTVSPropertyOp6
 70
     1
102
RTVSPropertyOp7
 70
     1
102
RTVSPropertyOp8
 70
     1
102
RTVSPropertyOp9
 70
     1
102
RTVSPropertyOp10
 70
     1
102
RTVSPropertyOp11
 70
     1
102
RTVSPropertyOp12
 70
     1
102
RTVSPropertyOp13
 70
     1
102
RTVSPropertyOp14
 70
     1
102
RTVSPropertyOp15
 70
     1
102
RTVSPropertyOp16
 70
     1
102
RTVSPropertyOp17
 70
     1
102
RTVSPropertyOp18
 70
     1
102
RTVSPropertyOp19
 70
     1
102
RTVSPropertyOp20
 70
     1
102
RTVSPropertyOp21
 70
     1
102
RTVSPropertyOp22
 70
     1
102
RTVSPropertyOp23
 70
     1
102
RTVSPropertyOp24
 70
     1
102
RTVSPropertyOp25
 70
     1
102
RTVSPropertyOp26
 70
     1
102
RTVSPropertyOp27
 70
     1
102
RTVSPropertyOp28
 70
     1
102
RTVSPropertyOp29
 70
     1
102
RTVSPropertyOp30
 70
     1
102
RTVSPropertyOp31
 70
     1
102
RTVSPropertyOp32
 70
     1
  0
XRECORD
  5
92E9
102
{ACAD_REACTORS
330
92E8
102
}
330
92E8
100
AcDbXrecord
280
     1
102
RTVSPropertyOp0
 70
     1
102
RTVSPropertyOp1
 70
     1
102
RTVSPropertyOp2
 70
     1
102
RTVSPropertyOp3
 70
     1
102
RTVSPropertyOp4
 70
     1
102
RTVSPropertyOp5
 70
     1
102
RTVSPropertyOp6
 70
     1
102
RTVSPropertyOp7
 70
     1
102
RTVSPropertyOp8
 70
     1
102
RTVSPropertyOp9
 70
     1
102
RTVSPropertyOp10
 70
     1
102
RTVSPropertyOp11
 70
     1
102
RTVSPropertyOp12
 70
     1
102
RTVSPropertyOp13
 70
     1
102
RTVSPropertyOp14
 70
     1
102
RTVSPropertyOp15
 70
     1
102
RTVSPropertyOp16
 70
     1
102
RTVSPropertyOp17
 70
     1
102
RTVSPropertyOp18
 70
     1
102
RTVSPropertyOp19
 70
     1
102
RTVSPropertyOp20
 70
     1
102
RTVSPropertyOp21
 70
     1
102
RTVSPropertyOp22
 70
     1
102
RTVSPropertyOp23
 70
     1
102
RTVSPropertyOp24
 70
     1
102
RTVSPropertyOp25
 70
     1
102
RTVSPropertyOp26
 70
     1
102
RTVSPropertyOp27
 70
     1
102
RTVSPropertyOp28
 70
     1
102
RTVSPropertyOp29
 70
     1
102
RTVSPropertyOp30
 70
     1
102
RTVSPropertyOp31
 70
     1
102
RTVSPropertyOp32
 70
     1
  0
XRECORD
  5
92F1
102
{ACAD_REACTORS
330
92F0
102
}
330
92F0
100
AcDbXrecord
280
     1
102
RTVSPropertyOp0
 70
     1
102
RTVSPropertyOp1
 70
     1
102
RTVSPropertyOp2
 70
     1
102
RTVSPropertyOp3
 70
     1
102
RTVSPropertyOp4
 70
     1
102
RTVSPropertyOp5
 70
     1
102
RTVSPropertyOp6
 70
     1
102
RTVSPropertyOp7
 70
     1
102
RTVSPropertyOp8
 70
     1
102
RTVSPropertyOp9
 70
     1
102
RTVSPropertyOp10
 70
     1
102
RTVSPropertyOp11
 70
     1
102
RTVSPropertyOp12
 70
     1
102
RTVSPropertyOp13
 70
     1
102
RTVSPropertyOp14
 70
     1
102
RTVSPropertyOp15
 70
     1
102
RTVSPropertyOp16
 70
     1
102
RTVSPropertyOp17
 70
     1
102
RTVSPropertyOp18
 70
     1
102
RTVSPropertyOp19
 70
     1
102
RTVSPropertyOp20
 70
     1
102
RTVSPropertyOp21
 70
     1
102
RTVSPropertyOp22
 70
     1
102
RTVSPropertyOp23
 70
     1
102
RTVSPropertyOp24
 70
     1
102
RTVSPropertyOp25
 70
     1
102
RTVSPropertyOp26
 70
     1
102
RTVSPropertyOp27
 70
     1
102
RTVSPropertyOp28
 70
     1
102
RTVSPropertyOp29
 70
     1
102
RTVSPropertyOp30
 70
     1
102
RTVSPropertyOp31
 70
     1
102
RTVSPropertyOp32
 70
     1
  0
XRECORD
  5
930D
102
{ACAD_REACTORS
330
930C
102
}
330
930C
100
AcDbXrecord
280
     1
102
RTVSPropertyOp0
 70
     0
102
RTVSPropertyOp1
 70
     0
102
RTVSPropertyOp2
 70
     0
102
RTVSPropertyOp3
 70
     0
102
RTVSPropertyOp4
 70
     0
102
RTVSPropertyOp5
 70
     0
102
RTVSPropertyOp6
 70
     0
102
RTVSPropertyOp7
 70
     0
102
RTVSPropertyOp8
 70
     0
102
RTVSPropertyOp9
 70
     0
102
RTVSPropertyOp10
 70
     0
102
RTVSPropertyOp11
 70
     0
102
RTVSPropertyOp12
 70
     0
102
RTVSPropertyOp13
 70
     0
102
RTVSPropertyOp14
 70
     2
102
RTVSPropertyOp15
 70
     0
102
RTVSPropertyOp16
 70
     0
102
RTVSPropertyOp17
 70
     0
102
RTVSPropertyOp18
 70
     0
102
RTVSPropertyOp19
 70
     0
102
RTVSPropertyOp20
 70
     0
102
RTVSPropertyOp21
 70
     0
102
RTVSPropertyOp22
 70
     0
102
RTVSPropertyOp23
 70
     0
102
RTVSPropertyOp24
 70
     0
102
RTVSPropertyOp25
 70
     0
102
RTVSPropertyOp26
 70
     0
102
RTVSPropertyOp27
 70
     0
102
RTVSPropertyOp28
 70
     1
102
RTVSPropertyOp29
 70
     1
102
RTVSPropertyOp30
 70
     1
102
RTVSPropertyOp31
 70
     1
102
RTVSPropertyOp32
 70
     1
  0
XRECORD
  5
92FD
102
{ACAD_REACTORS
330
92FC
102
}
330
92FC
100
AcDbXrecord
280
     1
102
RTVSPropertyOp0
 70
     1
102
RTVSPropertyOp1
 70
     1
102
RTVSPropertyOp2
 70
     1
102
RTVSPropertyOp3
 70
     1
102
RTVSPropertyOp4
 70
     1
102
RTVSPropertyOp5
 70
     1
102
RTVSPropertyOp6
 70
     1
102
RTVSPropertyOp7
 70
     1
102
RTVSPropertyOp8
 70
     1
102
RTVSPropertyOp9
 70
     1
102
RTVSPropertyOp10
 70
     1
102
RTVSPropertyOp11
 70
     1
102
RTVSPropertyOp12
 70
     1
102
RTVSPropertyOp13
 70
     1
102
RTVSPropertyOp14
 70
     1
102
RTVSPropertyOp15
 70
     1
102
RTVSPropertyOp16
 70
     1
102
RTVSPropertyOp17
 70
     1
102
RTVSPropertyOp18
 70
     1
102
RTVSPropertyOp19
 70
     1
102
RTVSPropertyOp20
 70
     1
102
RTVSPropertyOp21
 70
     1
102
RTVSPropertyOp22
 70
     1
102
RTVSPropertyOp23
 70
     1
102
RTVSPropertyOp24
 70
     1
102
RTVSPropertyOp25
 70
     1
102
RTVSPropertyOp26
 70
     1
102
RTVSPropertyOp27
 70
     1
102
RTVSPropertyOp28
 70
     1
102
RTVSPropertyOp29
 70
     1
102
RTVSPropertyOp30
 70
     1
102
RTVSPropertyOp31
 70
     1
102
RTVSPropertyOp32
 70
     1
  0
XRECORD
  5
930F
102
{ACAD_REACTORS
330
930E
102
}
330
930E
100
AcDbXrecord
280
     1
102
RTVSPropertyOp0
 70
     0
102
RTVSPropertyOp1
 70
     0
102
RTVSPropertyOp2
 70
     0
102
RTVSPropertyOp3
 70
     0
102
RTVSPropertyOp4
 70
     0
102
RTVSPropertyOp5
 70
     0
102
RTVSPropertyOp6
 70
     0
102
RTVSPropertyOp7
 70
     0
102
RTVSPropertyOp8
 70
     0
102
RTVSPropertyOp9
 70
     0
102
RTVSPropertyOp10
 70
     0
102
RTVSPropertyOp11
 70
     0
102
RTVSPropertyOp12
 70
     0
102
RTVSPropertyOp13
 70
     0
102
RTVSPropertyOp14
 70
     2
102
RTVSPropertyOp15
 70
     0
102
RTVSPropertyOp16
 70
     0
102
RTVSPropertyOp17
 70
     0
102
RTVSPropertyOp18
 70
     0
102
RTVSPropertyOp19
 70
     0
102
RTVSPropertyOp20
 70
     0
102
RTVSPropertyOp21
 70
     0
102
RTVSPropertyOp22
 70
     0
102
RTVSPropertyOp23
 70
     0
102
RTVSPropertyOp24
 70
     0
102
RTVSPropertyOp25
 70
     0
102
RTVSPropertyOp26
 70
     0
102
RTVSPropertyOp27
 70
     0
102
RTVSPropertyOp28
 70
     1
102
RTVSPropertyOp29
 70
     1
102
RTVSPropertyOp30
 70
     1
102
RTVSPropertyOp31
 70
     1
102
RTVSPropertyOp32
 70
     1
  0
XRECORD
  5
92F5
102
{ACAD_REACTORS
330
92F4
102
}
330
92F4
100
AcDbXrecord
280
     1
102
RTVSPropertyOp0
 70
     1
102
RTVSPropertyOp1
 70
     1
102
RTVSPropertyOp2
 70
     1
102
RTVSPropertyOp3
 70
     1
102
RTVSPropertyOp4
 70
     1
102
RTVSPropertyOp5
 70
     1
102
RTVSPropertyOp6
 70
     1
102
RTVSPropertyOp7
 70
     1
102
RTVSPropertyOp8
 70
     1
102
RTVSPropertyOp9
 70
     1
102
RTVSPropertyOp10
 70
     1
102
RTVSPropertyOp11
 70
     1
102
RTVSPropertyOp12
 70
     1
102
RTVSPropertyOp13
 70
     1
102
RTVSPropertyOp14
 70
     1
102
RTVSPropertyOp15
 70
     1
102
RTVSPropertyOp16
 70
     1
102
RTVSPropertyOp17
 70
     1
102
RTVSPropertyOp18
 70
     1
102
RTVSPropertyOp19
 70
     1
102
RTVSPropertyOp20
 70
     1
102
RTVSPropertyOp21
 70
     1
102
RTVSPropertyOp22
 70
     1
102
RTVSPropertyOp23
 70
     1
102
RTVSPropertyOp24
 70
     1
102
RTVSPropertyOp25
 70
     1
102
RTVSPropertyOp26
 70
     1
102
RTVSPropertyOp27
 70
     1
102
RTVSPropertyOp28
 70
     1
102
RTVSPropertyOp29
 70
     1
102
RTVSPropertyOp30
 70
     1
102
RTVSPropertyOp31
 70
     1
102
RTVSPropertyOp32
 70
     1
  0
XRECORD
  5
930B
102
{ACAD_REACTORS
330
930A
102
}
330
930A
100
AcDbXrecord
280
     1
102
RTVSPropertyOp0
 70
     1
102
RTVSPropertyOp1
 70
     1
102
RTVSPropertyOp2
 70
     1
102
RTVSPropertyOp3
 70
     1
102
RTVSPropertyOp4
 70
     1
102
RTVSPropertyOp5
 70
     1
102
RTVSPropertyOp6
 70
     1
102
RTVSPropertyOp7
 70
     1
102
RTVSPropertyOp8
 70
     1
102
RTVSPropertyOp9
 70
     1
102
RTVSPropertyOp10
 70
     1
102
RTVSPropertyOp11
 70
     1
102
RTVSPropertyOp12
 70
     1
102
RTVSPropertyOp13
 70
     1
102
RTVSPropertyOp14
 70
     1
102
RTVSPropertyOp15
 70
     1
102
RTVSPropertyOp16
 70
     1
102
RTVSPropertyOp17
 70
     1
102
RTVSPropertyOp18
 70
     1
102
RTVSPropertyOp19
 70
     1
102
RTVSPropertyOp20
 70
     1
102
RTVSPropertyOp21
 70
     1
102
RTVSPropertyOp22
 70
     1
102
RTVSPropertyOp23
 70
     1
102
RTVSPropertyOp24
 70
     1
102
RTVSPropertyOp25
 70
     1
102
RTVSPropertyOp26
 70
     1
102
RTVSPropertyOp27
 70
     1
102
RTVSPropertyOp28
 70
     1
102
RTVSPropertyOp29
 70
     1
102
RTVSPropertyOp30
 70
     1
102
RTVSPropertyOp31
 70
     1
102
RTVSPropertyOp32
 70
     1
  0
XRECORD
  5
9309
102
{ACAD_REACTORS
330
9308
102
}
330
9308
100
AcDbXrecord
280
     1
102
RTVSPropertyOp0
 70
     1
102
RTVSPropertyOp1
 70
     1
102
RTVSPropertyOp2
 70
     1
102
RTVSPropertyOp3
 70
     1
102
RTVSPropertyOp4
 70
     1
102
RTVSPropertyOp5
 70
     1
102
RTVSPropertyOp6
 70
     1
102
RTVSPropertyOp7
 70
     1
102
RTVSPropertyOp8
 70
     1
102
RTVSPropertyOp9
 70
     1
102
RTVSPropertyOp10
 70
     1
102
RTVSPropertyOp11
 70
     1
102
RTVSPropertyOp12
 70
     1
102
RTVSPropertyOp13
 70
     1
102
RTVSPropertyOp14
 70
     1
102
RTVSPropertyOp15
 70
     1
102
RTVSPropertyOp16
 70
     1
102
RTVSPropertyOp17
 70
     1
102
RTVSPropertyOp18
 70
     1
102
RTVSPropertyOp19
 70
     1
102
RTVSPropertyOp20
 70
     1
102
RTVSPropertyOp21
 70
     1
102
RTVSPropertyOp22
 70
     1
102
RTVSPropertyOp23
 70
     1
102
RTVSPropertyOp24
 70
     1
102
RTVSPropertyOp25
 70
     1
102
RTVSPropertyOp26
 70
     1
102
RTVSPropertyOp27
 70
     1
102
RTVSPropertyOp28
 70
     1
102
RTVSPropertyOp29
 70
     1
102
RTVSPropertyOp30
 70
     1
102
RTVSPropertyOp31
 70
     1
102
RTVSPropertyOp32
 70
     1
  0
XRECORD
  5
9303
102
{ACAD_REACTORS
330
9302
102
}
330
9302
100
AcDbXrecord
280
     1
102
RTVSPropertyOp0
 70
     1
102
RTVSPropertyOp1
 70
     1
102
RTVSPropertyOp2
 70
     1
102
RTVSPropertyOp3
 70
     1
102
RTVSPropertyOp4
 70
     1
102
RTVSPropertyOp5
 70
     1
102
RTVSPropertyOp6
 70
     1
102
RTVSPropertyOp7
 70
     1
102
RTVSPropertyOp8
 70
     1
102
RTVSPropertyOp9
 70
     1
102
RTVSPropertyOp10
 70
     1
102
RTVSPropertyOp11
 70
     1
102
RTVSPropertyOp12
 70
     1
102
RTVSPropertyOp13
 70
     1
102
RTVSPropertyOp14
 70
     1
102
RTVSPropertyOp15
 70
     1
102
RTVSPropertyOp16
 70
     1
102
RTVSPropertyOp17
 70
     1
102
RTVSPropertyOp18
 70
     1
102
RTVSPropertyOp19
 70
     1
102
RTVSPropertyOp20
 70
     1
102
RTVSPropertyOp21
 70
     1
102
RTVSPropertyOp22
 70
     1
102
RTVSPropertyOp23
 70
     1
102
RTVSPropertyOp24
 70
     1
102
RTVSPropertyOp25
 70
     1
102
RTVSPropertyOp26
 70
     1
102
RTVSPropertyOp27
 70
     1
102
RTVSPropertyOp28
 70
     1
102
RTVSPropertyOp29
 70
     1
102
RTVSPropertyOp30
 70
     1
102
RTVSPropertyOp31
 70
     1
102
RTVSPropertyOp32
 70
     1
  0
XRECORD
  5
9305
102
{ACAD_REACTORS
330
9304
102
}
330
9304
100
AcDbXrecord
280
     1
102
RTVSPropertyOp0
 70
     1
102
RTVSPropertyOp1
 70
     1
102
RTVSPropertyOp2
 70
     1
102
RTVSPropertyOp3
 70
     1
102
RTVSPropertyOp4
 70
     1
102
RTVSPropertyOp5
 70
     1
102
RTVSPropertyOp6
 70
     1
102
RTVSPropertyOp7
 70
     1
102
RTVSPropertyOp8
 70
     1
102
RTVSPropertyOp9
 70
     1
102
RTVSPropertyOp10
 70
     1
102
RTVSPropertyOp11
 70
     1
102
RTVSPropertyOp12
 70
     1
102
RTVSPropertyOp13
 70
     1
102
RTVSPropertyOp14
 70
     1
102
RTVSPropertyOp15
 70
     1
102
RTVSPropertyOp16
 70
     1
102
RTVSPropertyOp17
 70
     1
102
RTVSPropertyOp18
 70
     1
102
RTVSPropertyOp19
 70
     1
102
RTVSPropertyOp20
 70
     1
102
RTVSPropertyOp21
 70
     1
102
RTVSPropertyOp22
 70
     1
102
RTVSPropertyOp23
 70
     1
102
RTVSPropertyOp24
 70
     1
102
RTVSPropertyOp25
 70
     1
102
RTVSPropertyOp26
 70
     1
102
RTVSPropertyOp27
 70
     1
102
RTVSPropertyOp28
 70
     1
102
RTVSPropertyOp29
 70
     1
102
RTVSPropertyOp30
 70
     1
102
RTVSPropertyOp31
 70
     1
102
RTVSPropertyOp32
 70
     1
  0
XRECORD
  5
92FB
102
{ACAD_REACTORS
330
92FA
102
}
330
92FA
100
AcDbXrecord
280
     1
102
RTVSPropertyOp0
 70
     1
102
RTVSPropertyOp1
 70
     1
102
RTVSPropertyOp2
 70
     1
102
RTVSPropertyOp3
 70
     1
102
RTVSPropertyOp4
 70
     1
102
RTVSPropertyOp5
 70
     1
102
RTVSPropertyOp6
 70
     1
102
RTVSPropertyOp7
 70
     1
102
RTVSPropertyOp8
 70
     1
102
RTVSPropertyOp9
 70
     1
102
RTVSPropertyOp10
 70
     1
102
RTVSPropertyOp11
 70
     1
102
RTVSPropertyOp12
 70
     1
102
RTVSPropertyOp13
 70
     1
102
RTVSPropertyOp14
 70
     1
102
RTVSPropertyOp15
 70
     1
102
RTVSPropertyOp16
 70
     1
102
RTVSPropertyOp17
 70
     1
102
RTVSPropertyOp18
 70
     1
102
RTVSPropertyOp19
 70
     1
102
RTVSPropertyOp20
 70
     1
102
RTVSPropertyOp21
 70
     1
102
RTVSPropertyOp22
 70
     1
102
RTVSPropertyOp23
 70
     1
102
RTVSPropertyOp24
 70
     1
102
RTVSPropertyOp25
 70
     1
102
RTVSPropertyOp26
 70
     1
102
RTVSPropertyOp27
 70
     1
102
RTVSPropertyOp28
 70
     1
102
RTVSPropertyOp29
 70
     1
102
RTVSPropertyOp30
 70
     1
102
RTVSPropertyOp31
 70
     1
102
RTVSPropertyOp32
 70
     1
  0
XRECORD
  5
92EF
102
{ACAD_REACTORS
330
92EE
102
}
330
92EE
100
AcDbXrecord
280
     1
102
RTVSPropertyOp0
 70
     1
102
RTVSPropertyOp1
 70
     1
102
RTVSPropertyOp2
 70
     1
102
RTVSPropertyOp3
 70
     1
102
RTVSPropertyOp4
 70
     1
102
RTVSPropertyOp5
 70
     1
102
RTVSPropertyOp6
 70
     1
102
RTVSPropertyOp7
 70
     1
102
RTVSPropertyOp8
 70
     1
102
RTVSPropertyOp9
 70
     1
102
RTVSPropertyOp10
 70
     1
102
RTVSPropertyOp11
 70
     1
102
RTVSPropertyOp12
 70
     1
102
RTVSPropertyOp13
 70
     1
102
RTVSPropertyOp14
 70
     1
102
RTVSPropertyOp15
 70
     1
102
RTVSPropertyOp16
 70
     1
102
RTVSPropertyOp17
 70
     1
102
RTVSPropertyOp18
 70
     1
102
RTVSPropertyOp19
 70
     1
102
RTVSPropertyOp20
 70
     1
102
RTVSPropertyOp21
 70
     1
102
RTVSPropertyOp22
 70
     1
102
RTVSPropertyOp23
 70
     1
102
RTVSPropertyOp24
 70
     1
102
RTVSPropertyOp25
 70
     1
102
RTVSPropertyOp26
 70
     1
102
RTVSPropertyOp27
 70
     1
102
RTVSPropertyOp28
 70
     1
102
RTVSPropertyOp29
 70
     1
102
RTVSPropertyOp30
 70
     1
102
RTVSPropertyOp31
 70
     1
102
RTVSPropertyOp32
 70
     1
  0
XRECORD
  5
9307
102
{ACAD_REACTORS
330
9306
102
}
330
9306
100
AcDbXrecord
280
     1
102
RTVSPropertyOp0
 70
     1
102
RTVSPropertyOp1
 70
     1
102
RTVSPropertyOp2
 70
     1
102
RTVSPropertyOp3
 70
     1
102
RTVSPropertyOp4
 70
     1
102
RTVSPropertyOp5
 70
     1
102
RTVSPropertyOp6
 70
     1
102
RTVSPropertyOp7
 70
     1
102
RTVSPropertyOp8
 70
     1
102
RTVSPropertyOp9
 70
     1
102
RTVSPropertyOp10
 70
     1
102
RTVSPropertyOp11
 70
     1
102
RTVSPropertyOp12
 70
     1
102
RTVSPropertyOp13
 70
     1
102
RTVSPropertyOp14
 70
     1
102
RTVSPropertyOp15
 70
     1
102
RTVSPropertyOp16
 70
     1
102
RTVSPropertyOp17
 70
     1
102
RTVSPropertyOp18
 70
     1
102
RTVSPropertyOp19
 70
     1
102
RTVSPropertyOp20
 70
     1
102
RTVSPropertyOp21
 70
     1
102
RTVSPropertyOp22
 70
     1
102
RTVSPropertyOp23
 70
     1
102
RTVSPropertyOp24
 70
     1
102
RTVSPropertyOp25
 70
     1
102
RTVSPropertyOp26
 70
     1
102
RTVSPropertyOp27
 70
     1
102
RTVSPropertyOp28
 70
     1
102
RTVSPropertyOp29
 70
     1
102
RTVSPropertyOp30
 70
     1
102
RTVSPropertyOp31
 70
     1
102
RTVSPropertyOp32
 70
     1
  0
ENDSEC
  0
EOF
