  0
SECTION
  2
HEADER
  9
$ACADVER
  1
AC1015
  9
$ACADMAINTVER
 70
    20
  9
$DWGCODEPAGE
  3
ANSI_1252
  9
$INSBASE
 10
0.0
 20
0.0
 30
0.0
  9
$EXTMIN
 10
-0.0000000467853027
 20
0.0000000196675174
 30
0.0
  9
$EXTMAX
 10
54.52259448740081
 20
29.32390280504473
 30
0.0
  9
$LIMMIN
 10
0.0
 20
0.0
  9
$LIMMAX
 10
12.0
 20
9.0
  9
$ORTHOMODE
 70
     0
  9
$REGENMODE
 70
     1
  9
$FILLMODE
 70
     1
  9
$QTEXTMODE
 70
     0
  9
$MIRRTEXT
 70
     0
  9
$LTSCALE
 40
1.0
  9
$ATTMODE
 70
     1
  9
$TEXTSIZE
 40
0.2
  9
$TRACEWID
 40
0.05
  9
$TEXTSTYLE
  7
Standard
  9
$CLAYER
  8
0
  9
$CELTYPE
  6
ByLayer
  9
$CECOLOR
 62
   256
  9
$CELTSCALE
 40
1.0
  9
$DISPSILH
 70
     0
  9
$DIMSCALE
 40
1.0
  9
$DIMASZ
 40
0.18
  9
$DIMEXO
 40
0.0625
  9
$DIMDLI
 40
0.38
  9
$DIMRND
 40
0.0
  9
$DIMDLE
 40
0.0
  9
$DIMEXE
 40
0.18
  9
$DIMTP
 40
0.0
  9
$DIMTM
 40
0.0
  9
$DIMTXT
 40
0.18
  9
$DIMCEN
 40
0.09
  9
$DIMTSZ
 40
0.0
  9
$DIMTOL
 70
     0
  9
$DIMLIM
 70
     0
  9
$DIMTIH
 70
     0
  9
$DIMTOH
 70
     0
  9
$DIMSE1
 70
     0
  9
$DIMSE2
 70
     0
  9
$DIMTAD
 70
     1
  9
$DIMZIN
 70
     0
  9
$DIMBLK
  1

  9
$DIMASO
 70
     1
  9
$DIMSHO
 70
     1
  9
$DIMPOST
  1

  9
$DIMAPOST
  1

  9
$DIMALT
 70
     0
  9
$DIMALTD
 70
     2
  9
$DIMALTF
 40
25.4
  9
$DIMLFAC
 40
1.0
  9
$DIMTOFL
 70
     0
  9
$DIMTVP
 40
0.0
  9
$DIMTIX
 70
     0
  9
$DIMSOXD
 70
     0
  9
$DIMSAH
 70
     0
  9
$DIMBLK1
  1

  9
$DIMBLK2
  1

  9
$DIMSTYLE
  2
Standard
  9
$DIMCLRD
 70
     0
  9
$DIMCLRE
 70
     0
  9
$DIMCLRT
 70
     0
  9
$DIMTFAC
 40
1.0
  9
$DIMGAP
 40
0.09
  9
$DIMJUST
 70
     0
  9
$DIMSD1
 70
     0
  9
$DIMSD2
 70
     0
  9
$DIMTOLJ
 70
     1
  9
$DIMTZIN
 70
     0
  9
$DIMALTZ
 70
     0
  9
$DIMALTTZ
 70
     0
  9
$DIMUPT
 70
     0
  9
$DIMDEC
 70
     4
  9
$DIMTDEC
 70
     4
  9
$DIMALTU
 70
     2
  9
$DIMALTTD
 70
     2
  9
$DIMTXSTY
  7
Standard
  9
$DIMAUNIT
 70
     0
  9
$DIMADEC
 70
     0
  9
$DIMALTRND
 40
0.0
  9
$DIMAZIN
 70
     0
  9
$DIMDSEP
 70
    46
  9
$DIMATFIT
 70
     3
  9
$DIMFRAC
 70
     2
  9
$DIMLDRBLK
  1

  9
$DIMLUNIT
 70
     4
  9
$DIMLWD
 70
    -2
  9
$DIMLWE
 70
    -2
  9
$DIMTMOVE
 70
     0
  9
$LUNITS
 70
     2
  9
$LUPREC
 70
     5
  9
$SKETCHINC
 40
0.1
  9
$FILLETRAD
 40
0.0
  9
$AUNITS
 70
     0
  9
$AUPREC
 70
     0
  9
$MENU
  1
.
  9
$ELEVATION
 40
0.0
  9
$PELEVATION
 40
0.0
  9
$THICKNESS
 40
0.0
  9
$LIMCHECK
 70
     0
  9
$CHAMFERA
 40
0.0
  9
$CHAMFERB
 40
0.0
  9
$CHAMFERC
 40
0.0
  9
$CHAMFERD
 40
0.0
  9
$SKPOLY
 70
     0
  9
$TDCREATE
 40
2453567.586148889
  9
$TDUCREATE
 40
2453567.794482222
  9
$TDUPDATE
 40
2457807.532916759
  9
$TDUUPDATE
 40
2457807.741250093
  9
$TDINDWG
 40
0.0753165509
  9
$TDUSRTIMER
 40
0.0753165509
  9
$USRTIMER
 70
     1
  9
$ANGBASE
 50
0.0
  9
$ANGDIR
 70
     0
  9
$PDMODE
 70
     0
  9
$PDSIZE
 40
0.0
  9
$PLINEWID
 40
0.0
  9
$SPLFRAME
 70
     0
  9
$SPLINETYPE
 70
     6
  9
$SPLINESEGS
 70
     8
  9
$HANDSEED
  5
1187
  9
$SURFTAB1
 70
     6
  9
$SURFTAB2
 70
     6
  9
$SURFTYPE
 70
     6
  9
$SURFU
 70
     6
  9
$SURFV
 70
     6
  9
$UCSBASE
  2

  9
$UCSNAME
  2

  9
$UCSORG
 10
0.0
 20
0.0
 30
0.0
  9
$UCSXDIR
 10
1.0
 20
0.0
 30
0.0
  9
$UCSYDIR
 10
0.0
 20
1.0
 30
0.0
  9
$UCSORTHOREF
  2

  9
$UCSORTHOVIEW
 70
     0
  9
$UCSORGTOP
 10
0.0
 20
0.0
 30
0.0
  9
$UCSORGBOTTOM
 10
0.0
 20
0.0
 30
0.0
  9
$UCSORGLEFT
 10
0.0
 20
0.0
 30
0.0
  9
$UCSORGRIGHT
 10
0.0
 20
0.0
 30
0.0
  9
$UCSORGFRONT
 10
0.0
 20
0.0
 30
0.0
  9
$UCSORGBACK
 10
0.0
 20
0.0
 30
0.0
  9
$PUCSBASE
  2

  9
$PUCSNAME
  2

  9
$PUCSORG
 10
0.0
 20
0.0
 30
0.0
  9
$PUCSXDIR
 10
1.0
 20
0.0
 30
0.0
  9
$PUCSYDIR
 10
0.0
 20
1.0
 30
0.0
  9
$PUCSORTHOREF
  2

  9
$PUCSORTHOVIEW
 70
     0
  9
$PUCSORGTOP
 10
0.0
 20
0.0
 30
0.0
  9
$PUCSORGBOTTOM
 10
0.0
 20
0.0
 30
0.0
  9
$PUCSORGLEFT
 10
0.0
 20
0.0
 30
0.0
  9
$PUCSORGRIGHT
 10
0.0
 20
0.0
 30
0.0
  9
$PUCSORGFRONT
 10
0.0
 20
0.0
 30
0.0
  9
$PUCSORGBACK
 10
0.0
 20
0.0
 30
0.0
  9
$USERI1
 70
     0
  9
$USERI2
 70
     0
  9
$USERI3
 70
     0
  9
$USERI4
 70
     0
  9
$USERI5
 70
     0
  9
$USERR1
 40
0.0
  9
$USERR2
 40
0.0
  9
$USERR3
 40
0.0
  9
$USERR4
 40
0.0
  9
$USERR5
 40
0.0
  9
$WORLDVIEW
 70
     1
  9
$SHADEDGE
 70
     3
  9
$SHADEDIF
 70
    70
  9
$TILEMODE
 70
     1
  9
$MAXACTVP
 70
    64
  9
$PINSBASE
 10
0.0
 20
0.0
 30
0.0
  9
$PLIMCHECK
 70
     0
  9
$PEXTMIN
 10
0.0
 20
0.0
 30
0.0
  9
$PEXTMAX
 10
0.0
 20
0.0
 30
0.0
  9
$PLIMMIN
 10
0.0
 20
0.0
  9
$PLIMMAX
 10
12.0
 20
9.0
  9
$UNITMODE
 70
     0
  9
$VISRETAIN
 70
     1
  9
$PLINEGEN
 70
     0
  9
$PSLTSCALE
 70
     1
  9
$TREEDEPTH
 70
  3020
  9
$CMLSTYLE
  2
Standard
  9
$CMLJUST
 70
     0
  9
$CMLSCALE
 40
1.0
  9
$PROXYGRAPHICS
 70
     1
  9
$MEASUREMENT
 70
     0
  9
$CELWEIGHT
370
    -1
  9
$ENDCAPS
280
     0
  9
$JOINSTYLE
280
     0
  9
$LWDISPLAY
290
     0
  9
$INSUNITS
 70
     1
  9
$HYPERLINKBASE
  1

  9
$STYLESHEET
  1

  9
$XEDIT
290
     1
  9
$CEPSNTYPE
380
     0
  9
$PSTYLEMODE
290
     1
  9
$FINGERPRINTGUID
  2
{FDEAD576-A652-11D2-9A35-0060089B3A3F}
  9
$VERSIONGUID
  2
{41208A11-9655-47B2-A8F3-DDD5CFF1CC35}
  9
$EXTNAMES
290
     1
  9
$PSVPSCALE
 40
0.0
  9
$OLESTARTUP
290
     0
  0
ENDSEC
  0
SECTION
  2
CLASSES
  0
CLASS
  1
ACDBDICTIONARYWDFLT
  2
AcDbDictionaryWithDefault
  3
ObjectDBX Classes
 90
        0
280
     0
281
     0
  0
CLASS
  1
ACDBPLACEHOLDER
  2
AcDbPlaceHolder
  3
ObjectDBX Classes
 90
        0
280
     0
281
     0
  0
CLASS
  1
LAYOUT
  2
AcDbLayout
  3
ObjectDBX Classes
 90
        0
280
     0
281
     0
  0
CLASS
  1
DICTIONARYVAR
  2
AcDbDictionaryVar
  3
ObjectDBX Classes
 90
        0
280
     0
281
     0
  0
CLASS
  1
MATERIAL
  2
AcDbMaterial
  3
ObjectDBX Classes
 90
     1153
280
     0
281
     0
  0
CLASS
  1
VISUALSTYLE
  2
AcDbVisualStyle
  3
ObjectDBX Classes
 90
     4095
280
     0
281
     0
  0
CLASS
  1
TABLESTYLE
  2
AcDbTableStyle
  3
ObjectDBX Classes
 90
     4095
280
     0
281
     0
  0
CLASS
  1
SCALE
  2
AcDbScale
  3
ObjectDBX Classes
 90
     1153
280
     0
281
     0
  0
CLASS
  1
MLEADERSTYLE
  2
AcDbMLeaderStyle
  3
ACDB_MLEADERSTYLE_CLASS
 90
     4095
280
     0
281
     0
  0
CLASS
  1
SORTENTSTABLE
  2
AcDbSortentsTable
  3
ObjectDBX Classes
 90
        0
280
     0
281
     0
  0
CLASS
  1
CELLSTYLEMAP
  2
AcDbCellStyleMap
  3
ObjectDBX Classes
 90
     1152
280
     0
281
     0
  0
CLASS
  1
EXACXREFPANELOBJECT
  2
ExAcXREFPanelObject
  3
EXAC_ESW
 90
     1025
280
     0
281
     0
  0
CLASS
  1
NPOCOLLECTION
  2
AcDbImpNonPersistentObjectsCollection
  3
ObjectDBX Classes
 90
     1153
280
     0
281
     0
  0
CLASS
  1
FIELD
  2
AcDbField
  3
ObjectDBX Classes
 90
    33920
280
     0
281
     0
  0
CLASS
  1
FIELDLIST
  2
AcDbFieldList
  3
ObjectDBX Classes
 90
     1152
280
     0
281
     0
  0
ENDSEC
  0
SECTION
  2
TABLES
  0
TABLE
  2
VPORT
  5
8
102
{ACAD_XDICTIONARY
360
AA6
102
}
330
0
100
AcDbSymbolTable
 70
     1
  0
VPORT
  5
A12
330
8
100
AcDbSymbolTableRecord
100
AcDbViewportTableRecord
  2
*Active
 70
     0
 10
0.0
 20
0.0
 11
1.0
 21
1.0
 12
36.44500739663991
 22
14.66182388031426
 13
0.0
 23
0.0
 14
0.5
 24
0.5
 15
0.5
 25
0.5
 16
0.0
 26
0.0
 36
1.0
 17
0.0
 27
0.0
 37
0.0
 40
29.51724242444745
 41
2.681260945709281
 42
50.0
 43
0.0
 44
0.0
 50
0.0
 51
0.0
 71
     0
 72
  1000
 73
     1
 74
     3
 75
     0
 76
     0
 77
     0
 78
     0
281
     0
 65
     1
110
0.0
120
0.0
130
0.0
111
1.0
121
0.0
131
0.0
112
0.0
122
1.0
132
0.0
 79
     0
146
0.0
1001
ACAD_NAV_VCDISPLAY
1070
     3
  0
ENDTAB
  0
TABLE
  2
LTYPE
  5
5
330
0
100
AcDbSymbolTable
 70
     5
  0
LTYPE
  5
14
330
5
100
AcDbSymbolTableRecord
100
AcDbLinetypeTableRecord
  2
ByBlock
 70
     0
  3

 72
    65
 73
     0
 40
0.0
  0
LTYPE
  5
15
330
5
100
AcDbSymbolTableRecord
100
AcDbLinetypeTableRecord
  2
ByLayer
 70
     0
  3

 72
    65
 73
     0
 40
0.0
  0
LTYPE
  5
16
330
5
100
AcDbSymbolTableRecord
100
AcDbLinetypeTableRecord
  2
Continuous
 70
     0
  3
Solid line
 72
    65
 73
     0
 40
0.0
  0
LTYPE
  5
A2
330
5
100
AcDbSymbolTableRecord
100
AcDbLinetypeTableRecord
  2
HIDDEN
 70
     0
  3
DASHED LINE
 72
    65
 73
     2
 40
0.375
 49
0.25
 74
     0
 49
-0.125
 74
     0
  0
LTYPE
  5
A3
330
5
100
AcDbSymbolTableRecord
100
AcDbLinetypeTableRecord
  2
CENTER
 70
     0
  3
CENTER LINE
 72
    65
 73
     4
 40
2.0
 49
1.25
 74
     0
 49
-0.25
 74
     0
 49
0.25
 74
     0
 49
-0.25
 74
     0
  0
LTYPE
  5
108E
330
5
100
AcDbSymbolTableRecord
100
AcDbLinetypeTableRecord
  2
DASHED
 70
     0
  3
Dashed __ __ __ __ __ __ __ __ __ __ __ __ __ _
 72
    65
 73
     2
 40
0.75
 49
0.5
 74
     0
 49
-0.25
 74
     0
  0
LTYPE
  5
108F
330
5
100
AcDbSymbolTableRecord
100
AcDbLinetypeTableRecord
  2
DOT
 70
     0
  3
Dot . . . . . . . . . . . . . . . . . . . . . .
 72
    65
 73
     2
 40
0.25
 49
0.0
 74
     0
 49
-0.25
 74
     0
  0
ENDTAB
  0
TABLE
  2
LAYER
  5
2
102
{ACAD_XDICTIONARY
360
A83
102
}
330
0
100
AcDbSymbolTable
 70
    10
  0
LAYER
  5
10
102
{ACAD_XDICTIONARY
360
A93
102
}
330
2
100
AcDbSymbolTableRecord
100
AcDbLayerTableRecord
  2
0
 70
     0
 62
     7
  6
Continuous
370
    -3
390
F
  0
LAYER
  5
A4
330
2
100
AcDbSymbolTableRecord
100
AcDbLayerTableRecord
  2
DEFPOINTS
 70
     0
 62
     7
  6
Continuous
290
     0
370
    -3
390
F
  0
LAYER
  5
A5
102
{ACAD_XDICTIONARY
360
A95
102
}
330
2
100
AcDbSymbolTableRecord
100
AcDbLayerTableRecord
  2
HIDDEN
 70
     0
 62
     3
  6
HIDDEN
370
    -3
390
F
  0
LAYER
  5
A6
102
{ACAD_XDICTIONARY
360
A97
102
}
330
2
100
AcDbSymbolTableRecord
100
AcDbLayerTableRecord
  2
CENTER
 70
     0
 62
     1
  6
CENTER
370
    -3
390
F
  0
LAYER
  5
A7
102
{ACAD_XDICTIONARY
360
A99
102
}
330
2
100
AcDbSymbolTableRecord
100
AcDbLayerTableRecord
  2
R-SWTS-DET1
 70
     0
 62
     1
  6
Continuous
370
    -3
390
F
  0
LAYER
  5
A8
102
{ACAD_XDICTIONARY
360
A9B
102
}
330
2
100
AcDbSymbolTableRecord
100
AcDbLayerTableRecord
  2
PART_NUMBERS
 70
     0
 62
     6
  6
Continuous
370
    -3
390
F
  0
LAYER
  5
A9
102
{ACAD_XDICTIONARY
360
A9D
102
}
330
2
100
AcDbSymbolTableRecord
100
AcDbLayerTableRecord
  2
R-ANNO-DIMS
 70
     0
 62
     3
  6
Continuous
370
    -3
390
F
  0
LAYER
  5
AA
102
{ACAD_XDICTIONARY
360
A9F
102
}
330
2
100
AcDbSymbolTableRecord
100
AcDbLayerTableRecord
  2
R-SWTS-DET2
 70
     0
 62
     4
  6
Continuous
370
    -3
390
F
  0
LAYER
  5
B02
102
{ACAD_XDICTIONARY
360
B03
102
}
330
2
100
AcDbSymbolTableRecord
100
AcDbLayerTableRecord
  2
TEXT
 70
     0
 62
     3
  6
Continuous
370
    -3
390
F
  0
LAYER
  5
1090
330
2
100
AcDbSymbolTableRecord
100
AcDbLayerTableRecord
  2
Kawneer Logo-English
 70
     0
 62
     7
  6
Continuous
370
    -3
390
F
1001
AcAecLayerStandard
1000

1000

1001
AcCmTransparency
1071
        0
  0
ENDTAB
  0
TABLE
  2
STYLE
  5
3
330
0
100
AcDbSymbolTable
 70
     2
  0
STYLE
  5
11
330
3
100
AcDbSymbolTableRecord
100
AcDbTextStyleTableRecord
  2
Standard
 70
     0
 40
0.0
 41
1.0
 50
0.0
 71
     0
 42
0.2
  3
arial.ttf
  4

1001
ACAD
1000
Arial
1071
       34
  0
STYLE
  5
AB
330
3
100
AcDbSymbolTableRecord
100
AcDbTextStyleTableRecord
  2
MONOTXT
 70
     0
 40
0.0
 41
1.0
 50
0.0
 71
     0
 42
0.12
  3
swissk.ttf
  4

1001
ACAD
1000
Swis721 Blk BT
1071
       34
  0
ENDTAB
  0
TABLE
  2
VIEW
  5
6
330
0
100
AcDbSymbolTable
 70
     0
  0
ENDTAB
  0
TABLE
  2
UCS
  5
7
330
0
100
AcDbSymbolTable
 70
     0
  0
ENDTAB
  0
TABLE
  2
APPID
  5
9
330
0
100
AcDbSymbolTable
 70
    15
  0
APPID
  5
12
330
9
100
AcDbSymbolTableRecord
100
AcDbRegAppTableRecord
  2
ACAD
 70
     0
  0
APPID
  5
B06
330
9
100
AcDbSymbolTableRecord
100
AcDbRegAppTableRecord
  2
ACAD_NAV_VCDISPLAY
 70
     0
  0
APPID
  5
1091
330
9
100
AcDbSymbolTableRecord
100
AcDbRegAppTableRecord
  2
ACAD_EXEMPT_FROM_CAD_STANDARDS
 70
     0
  0
APPID
  5
1092
330
9
100
AcDbSymbolTableRecord
100
AcDbRegAppTableRecord
  2
GradientColor1ACI
 70
     0
  0
APPID
  5
1093
330
9
100
AcDbSymbolTableRecord
100
AcDbRegAppTableRecord
  2
GradientColor2ACI
 70
     0
  0
APPID
  5
1094
330
9
100
AcDbSymbolTableRecord
100
AcDbRegAppTableRecord
  2
ACAD_MLEADERVER
 70
     0
  0
APPID
  5
1095
330
9
100
AcDbSymbolTableRecord
100
AcDbRegAppTableRecord
  2
ACAD_PSEXT
 70
     0
  0
APPID
  5
1096
330
9
100
AcDbSymbolTableRecord
100
AcDbRegAppTableRecord
  2
ACAD_DSTYLE_DIMJAG
 70
     0
  0
APPID
  5
1097
330
9
100
AcDbSymbolTableRecord
100
AcDbRegAppTableRecord
  2
ACAD_DSTYLE_DIMTALN
 70
     0
  0
APPID
  5
1098
330
9
100
AcDbSymbolTableRecord
100
AcDbRegAppTableRecord
  2
ACAD_DSTYLE_DIMBREAK
 70
     0
  0
APPID
  5
1099
330
9
100
AcDbSymbolTableRecord
100
AcDbRegAppTableRecord
  2
AcDbDynamicBlockGUID
 70
     0
  0
APPID
  5
109A
330
9
100
AcDbSymbolTableRecord
100
AcDbRegAppTableRecord
  2
ACAUTHENVIRON
 70
     0
  0
APPID
  5
109B
330
9
100
AcDbSymbolTableRecord
100
AcDbRegAppTableRecord
  2
AcDbDynamicBlockTrueName
 70
     0
  0
APPID
  5
109C
330
9
100
AcDbSymbolTableRecord
100
AcDbRegAppTableRecord
  2
AcAecLayerStandard
 70
     0
  0
APPID
  5
109D
330
9
100
AcDbSymbolTableRecord
100
AcDbRegAppTableRecord
  2
AcCmTransparency
 70
     0
  0
ENDTAB
  0
TABLE
  2
DIMSTYLE
  5
A
330
0
100
AcDbSymbolTable
 70
     1
100
AcDbDimStyleTable
 71
     1
340
27
  0
DIMSTYLE
105
27
102
{ACAD_REACTORS
330
6A7
330
5C4
330
52D
330
525
330
521
330
512
330
504
330
4D0
330
4AE
330
462
330
443
330
413
330
40E
330
404
330
38B
330
38A
330
389
102
}
330
A
100
AcDbSymbolTableRecord
100
AcDbDimStyleTableRecord
  2
Standard
 70
     0
 73
     0
 74
     0
 77
     1
276
     2
277
     4
340
11
  0
ENDTAB
  0
TABLE
  2
BLOCK_RECORD
  5
1
330
0
100
AcDbSymbolTable
 70
     4
  0
BLOCK_RECORD
  5
1F
330
1
100
AcDbSymbolTableRecord
100
AcDbBlockTableRecord
  2
*Model_Space
340
22
  0
BLOCK_RECORD
  5
58
330
1
100
AcDbSymbolTableRecord
100
AcDbBlockTableRecord
  2
*Paper_Space
340
59
  0
BLOCK_RECORD
  5
5D
330
1
100
AcDbSymbolTableRecord
100
AcDbBlockTableRecord
  2
*Paper_Space0
340
5E
  0
BLOCK_RECORD
  5
65E
330
1
100
AcDbSymbolTableRecord
100
AcDbBlockTableRecord
  2
*D1
340
0
  0
BLOCK_RECORD
  5
66B
330
1
100
AcDbSymbolTableRecord
100
AcDbBlockTableRecord
  2
*D2
340
0
  0
BLOCK_RECORD
  5
10A0
102
{ACAD_XDICTIONARY
360
10AA
102
}
330
1
100
AcDbSymbolTableRecord
100
AcDbBlockTableRecord
  2
Kawneer Logo English
340
0
102
{BLKREFS
331
10AE
102
}
1001
ACAD
1000
DesignCenter Data
1002
{
1070
     1
1070
     1
1002
}
  0
ENDTAB
  0
ENDSEC
  0
SECTION
  2
BLOCKS
  0
BLOCK
  5
20
330
1F
100
AcDbEntity
  8
0
100
AcDbBlockBegin
  2
*Model_Space
 70
     0
 10
0.0
 20
0.0
 30
0.0
  3
*Model_Space
  1

  0
ENDBLK
  5
21
330
1F
100
AcDbEntity
  8
0
100
AcDbBlockEnd
  0
BLOCK
  5
5A
330
58
100
AcDbEntity
 67
     1
  8
0
100
AcDbBlockBegin
  2
*Paper_Space
 70
     0
 10
0.0
 20
0.0
 30
0.0
  3
*Paper_Space
  1

  0
ENDBLK
  5
5B
330
58
100
AcDbEntity
 67
     1
  8
0
100
AcDbBlockEnd
  0
BLOCK
  5
5F
330
5D
100
AcDbEntity
 67
     1
  8
0
100
AcDbBlockBegin
  2
*Paper_Space0
 70
     0
 10
0.0
 20
0.0
 30
0.0
  3
*Paper_Space0
  1

  0
ENDBLK
  5
60
330
5D
100
AcDbEntity
 67
     1
  8
0
100
AcDbBlockEnd
  0
BLOCK
  5
669
330
65E
100
AcDbEntity
  8
0
100
AcDbBlockBegin
  2
*D1
 70
     1
 10
0.0
 20
0.0
 30
0.0
  3
*D1
  1

  0
LINE
  5
FDB
330
65E
100
AcDbEntity
  8
R-ANNO-DIMS
 62
     0
370
    -2
100
AcDbLine
 10
6.929956638668784
 20
21.0157697314379
 30
0.0
 11
6.929956638668784
 21
21.67114502501053
 31
0.0
  0
LINE
  5
FDC
330
65E
100
AcDbEntity
  8
R-ANNO-DIMS
 62
     0
370
    -2
100
AcDbLine
 10
7.804956638668784
 20
21.5392697314379
 30
0.0
 11
7.804956638668784
 21
21.31114502501053
 31
0.0
  0
LINE
  5
FDD
330
65E
100
AcDbEntity
  8
R-ANNO-DIMS
 62
     0
370
    -2
100
AcDbLine
 10
7.624956638668784
 20
21.49114502501053
 30
0.0
 11
7.109956638668784
 21
21.49114502501053
 31
0.0
  0
LINE
  5
FDE
330
65E
100
AcDbEntity
  8
R-ANNO-DIMS
 62
     0
370
    -2
100
AcDbLine
 10
6.929956638668784
 20
21.49114502501053
 30
0.0
 11
5.86167219119266
 21
21.49114502501053
 31
0.0
  0
SOLID
  5
FDF
330
65E
100
AcDbEntity
  8
R-ANNO-DIMS
 62
     0
100
AcDbTrace
 10
7.624956638668784
 20
21.52114502501053
 30
0.0
 11
7.624956638668784
 21
21.46114502501053
 31
0.0
 12
7.804956638668784
 22
21.49114502501053
 32
0.0
 13
7.804956638668784
 23
21.49114502501053
 33
0.0
  0
SOLID
  5
FE0
330
65E
100
AcDbEntity
  8
R-ANNO-DIMS
 62
     0
100
AcDbTrace
 10
7.109956638668784
 20
21.52114502501053
 30
0.0
 11
7.109956638668784
 21
21.46114502501053
 31
0.0
 12
6.929956638668784
 22
21.49114502501053
 32
0.0
 13
6.929956638668784
 23
21.49114502501053
 33
0.0
  0
MTEXT
  5
FE1
330
65E
100
AcDbEntity
  8
R-ANNO-DIMS
 62
     0
100
AcDbMText
 10
6.239956638668786
 20
21.71040832651121
 30
0.0
 40
0.25
 41
0.0
 71
     5
 72
     1
  1
\A1;7/8"
 73
     1
 44
1.0
1001
ACAD
1000
MTEXTBEGIN
1070
    73
1070
     1
1070
    44
1040
1.0
1070
    74
1070
     0
1000
MTEXTEND
  0
POINT
  5
FE2
330
65E
100
AcDbEntity
  8
DEFPOINTS
 62
     0
100
AcDbPoint
 10
6.929956638668784
 20
20.9532697314379
 30
0.0
  0
POINT
  5
FE3
330
65E
100
AcDbEntity
  8
DEFPOINTS
 62
     0
100
AcDbPoint
 10
7.804956638668784
 20
21.6017697314379
 30
0.0
  0
POINT
  5
FE4
330
65E
100
AcDbEntity
  8
DEFPOINTS
 62
     0
100
AcDbPoint
 10
7.804956638668784
 20
21.49114502501053
 30
0.0
  0
ENDBLK
  5
66A
330
65E
100
AcDbEntity
  8
0
100
AcDbBlockEnd
  0
BLOCK
  5
676
330
66B
100
AcDbEntity
  8
0
100
AcDbBlockBegin
  2
*D2
 70
     1
 10
0.0
 20
0.0
 30
0.0
  3
*D2
  1

  0
LINE
  5
FE5
330
66B
100
AcDbEntity
  8
R-ANNO-DIMS
 62
     0
370
    -2
100
AcDbLine
 10
20.52395184744977
 20
14.39470349274576
 30
0.0
 11
20.84848265716839
 21
14.39470349274576
 31
0.0
  0
LINE
  5
FE6
330
66B
100
AcDbEntity
  8
R-ANNO-DIMS
 62
     0
370
    -2
100
AcDbLine
 10
17.99272068789552
 20
11.39520349274576
 30
0.0
 11
20.84848265716839
 21
11.39520349274576
 31
0.0
  0
LINE
  5
FE7
330
66B
100
AcDbEntity
  8
R-ANNO-DIMS
 62
     0
370
    -2
100
AcDbLine
 10
20.66848265716838
 20
14.21470349274576
 30
0.0
 11
20.66848265716838
 21
11.57520349274576
 31
0.0
  0
SOLID
  5
FE8
330
66B
100
AcDbEntity
  8
R-ANNO-DIMS
 62
     0
100
AcDbTrace
 10
20.63848265716838
 20
14.21470349274576
 30
0.0
 11
20.69848265716839
 21
14.21470349274576
 31
0.0
 12
20.66848265716838
 22
14.39470349274576
 32
0.0
 13
20.66848265716838
 23
14.39470349274576
 33
0.0
  0
SOLID
  5
FE9
330
66B
100
AcDbEntity
  8
R-ANNO-DIMS
 62
     0
100
AcDbTrace
 10
20.63848265716838
 20
11.57520349274576
 30
0.0
 11
20.69848265716839
 21
11.57520349274576
 31
0.0
 12
20.66848265716838
 22
11.39520349274576
 32
0.0
 13
20.66848265716838
 23
11.39520349274576
 33
0.0
  0
MTEXT
  5
FEA
330
66B
100
AcDbEntity
  8
R-ANNO-DIMS
 62
     0
100
AcDbMText
 10
20.45075414420795
 20
12.85570617155215
 30
0.0
 40
0.25
 41
0.0
 71
     5
 72
     1
  1
\A1;3"
 11
0.0000000000000001
 21
1.0
 31
0.0
 73
     1
 44
1.0
1001
ACAD
1000
MTEXTBEGIN
1070
    73
1070
     1
1070
    44
1040
1.0
1070
    74
1070
     0
1000
MTEXTEND
  0
POINT
  5
FEB
330
66B
100
AcDbEntity
  8
DEFPOINTS
 62
     0
100
AcDbPoint
 10
20.46145184744977
 20
14.39470349274576
 30
0.0
  0
POINT
  5
FEC
330
66B
100
AcDbEntity
  8
DEFPOINTS
 62
     0
100
AcDbPoint
 10
17.93022068789552
 20
11.39520349274576
 30
0.0
  0
POINT
  5
FED
330
66B
100
AcDbEntity
  8
DEFPOINTS
 62
     0
100
AcDbPoint
 10
20.66848265716838
 20
11.39520349274576
 30
0.0
  0
ENDBLK
  5
677
330
66B
100
AcDbEntity
  8
0
100
AcDbBlockEnd
  0
BLOCK
  5
10AC
330
10A0
100
AcDbEntity
  8
0
100
AcDbBlockBegin
  2
Kawneer Logo English
 70
     0
 10
0.0
 20
0.0
 30
0.0
  3
Kawneer Logo English
  1

  0
MTEXT
  5
10A1
102
{ACAD_XDICTIONARY
360
1145
102
}
330
10A0
100
AcDbEntity
  8
Kawneer Logo-English
100
AcDbMText
 10
1.510096758583198
 20
0.0372523876656778
 30
0.0
 40
0.036
 41
0.6125900866323382
 71
     3
 72
     5
  1
{\fArial TUR|b0|i0|c0|p34;\T1.05;AN ARCONIC COMPANY}
 73
     1
 44
1.0
1001
ACAD
1000
ACAD_MTEXT_COLUMN_INFO_BEGIN
1070
    75
1070
     2
1070
    79
1070
     0
1070
    76
1070
     1
1070
    78
1070
     0
1070
    48
1040
0.6125900866323382
1070
    49
1040
1.0
1070
    50
1070
     1
1040
0.0
1000
ACAD_MTEXT_COLUMN_INFO_END
1000
MTEXTBEGIN
1070
    73
1070
     1
1070
    44
1040
1.0
1070
    74
1070
     0
1000
MTEXTEND
  0
HATCH
  5
10A2
330
10A0
100
AcDbEntity
  8
Kawneer Logo-English
100
AcDbHatch
 10
0.0
 20
0.0
 30
0.0
210
0.0
220
0.0
230
1.0
  2
SOLID
 70
     1
 71
     0
 91
        1
 92
        1
 93
       81
 72
     1
 10
0.2706169776412204
 20
0.0336337282279411
 11
0.2687512969786691
 21
0.0350329887248546
 72
     1
 10
0.2687512969786696
 20
0.0350329887248547
 11
0.2633408230572721
 21
0.039137486182467
 72
     1
 10
0.2633408230572729
 20
0.0391374861824669
 11
0.2550385441089194
 21
0.0453875164020133
 72
     1
 10
0.2550385441089191
 20
0.0453875164020132
 11
0.2442175962661241
 21
0.053596511317238
 72
     1
 10
0.2442175962661235
 20
0.0535965113172379
 11
0.2314376837276472
 21
0.0632980507625037
 72
     1
 10
0.2314376837276479
 20
0.0632980507625037
 11
0.2172585106922595
 21
0.0741189986052996
 72
     1
 10
0.2172585106922598
 20
0.0741189986052996
 11
0.2019599292593419
 21
0.0856862187131167
 72
     1
 10
0.201959929259341
 20
0.0856862187131167
 11
0.1862882116939105
 21
0.0976265749534437
 72
     1
 10
0.1862882116939102
 20
0.0976265749534437
 11
0.1706164941284813
 21
0.1095669311937706
 72
     1
 10
0.1706164941284811
 20
0.1095669311937709
 11
0.1553179126955632
 21
0.1211341513015875
 72
     1
 10
0.1553179126955642
 20
0.1211341513015876
 11
0.1411387396601757
 21
0.131955099144384
 72
     1
 10
0.1411387396601755
 20
0.1319550991443839
 11
0.1284521111548274
 21
0.141749922622777
 72
     1
 10
0.1284521111548278
 20
0.1417499226227768
 11
0.117631163312031
 21
0.1499589175380016
 72
     1
 10
0.1176311633120304
 20
0.1499589175380017
 11
0.1094221683968068
 21
0.1563022317906752
 72
     1
 10
0.1094221683968062
 20
0.1563022317906754
 11
0.1041049785085351
 21
0.1604067292482882
 72
     1
 10
0.1041049785085351
 20
0.1604067292482878
 11
0.1023325818791119
 21
0.1618992737783286
 72
     1
 10
0.1023325818791116
 20
0.1618992737783289
 11
0.1043848306079176
 21
0.1636716704077524
 72
     1
 10
0.1043848306079194
 20
0.1636716704077524
 11
0.1100751566286996
 21
0.1683358720641301
 72
     1
 10
0.1100751566286986
 20
0.1683358720641301
 11
0.1189371397758159
 21
0.1757053106812067
 72
     1
 10
0.1189371397758161
 20
0.1757053106812067
 11
0.1304110758505067
 21
0.1851269980270901
 72
     1
 10
0.1304110758505059
 20
0.1851269980270902
 11
0.1439372606540007
 21
0.1963210820023967
 72
     1
 10
0.1439372606540017
 20
0.1963210820023967
 11
0.1589559899875385
 21
0.2087278584083611
 72
     1
 10
0.1589559899875379
 20
0.2087278584083611
 11
0.1750941277186041
 21
0.2220674751456017
 72
     1
 10
0.1750941277186047
 20
0.2220674751456017
 11
0.19169868561531
 21
0.2358735120484796
 72
     1
 10
0.1916986856153105
 20
0.2358735120484796
 11
0.208303243512014
 21
0.2495862649182301
 72
     1
 10
0.2083032435120131
 20
0.2495862649182304
 11
0.2244413812430811
 21
0.2628325976223432
 72
     1
 10
0.2244413812430812
 20
0.2628325976223429
 11
0.239460110576618
 21
0.2753326580614352
 72
     1
 10
0.2394601105766174
 20
0.2753326580614351
 11
0.2529862953801122
 21
0.2864334580036143
 72
     1
 10
0.2529862953801132
 20
0.2864334580036143
 11
0.2643669474216756
 21
0.2958551453494973
 72
     1
 10
0.2643669474216757
 20
0.2958551453494973
 11
0.2731356465356649
 21
0.3031312999334466
 72
     1
 10
0.273135646535664
 20
0.3031312999334466
 11
0.2788259725564443
 21
0.3077955015898243
 72
     1
 10
0.278825972556445
 20
0.3077955015898246
 11
0.2807849372521245
 21
0.3094746141861208
 72
     1
 10
0.2807849372521249
 20
0.3094746141861205
 11
0.2798520969208501
 21
0.3094746141861205
 72
     1
 10
0.2798520969208496
 20
0.3094746141861205
 11
0.2769602918938953
 21
0.3095678982192478
 72
     1
 10
0.2769602918938943
 20
0.3095678982192481
 11
0.2724826583037715
 21
0.3095678982192481
 72
     1
 10
0.2724826583037729
 20
0.3095678982192481
 11
0.2666057642167363
 21
0.3095678982192481
 72
     1
 10
0.266605764216735
 20
0.3095678982192481
 11
0.2597027457652953
 21
0.3095678982192481
 72
     1
 10
0.2597027457652956
 20
0.3095678982192481
 11
0.2519601710157094
 21
0.3095678982192481
 72
     1
 10
0.2519601710157104
 20
0.3095678982192481
 11
0.2437511761004851
 21
0.3095678982192481
 72
     1
 10
0.243751176100484
 20
0.3095678982192481
 11
0.2351690450527495
 21
0.3095678982192481
 72
     1
 10
0.2351690450527495
 20
0.3095678982192481
 11
0.2266801980381413
 21
0.3095678982192481
 72
     1
 10
0.2266801980381423
 20
0.3095678982192481
 11
0.2183779190897905
 21
0.3094746141861208
 72
     1
 10
0.2183779190897899
 20
0.3094746141861205
 11
0.2106353443402037
 21
0.3094746141861205
 72
     1
 10
0.2106353443402029
 20
0.3094746141861205
 11
0.2037323258887632
 21
0.3094746141861205
 72
     1
 10
0.203732325888764
 20
0.3094746141861205
 11
0.1978554318017273
 21
0.3094746141861205
 72
     1
 10
0.1978554318017278
 20
0.3094746141861205
 11
0.1932845141784786
 21
0.3094746141861205
 72
     1
 10
0.1932845141784787
 20
0.3094746141861205
 11
0.1903927091515244
 21
0.3094746141861205
 72
     1
 10
0.1903927091515234
 20
0.3094746141861205
 11
0.1893665847871204
 21
0.3094746141861205
 72
     1
 10
0.1893665847871206
 20
0.3094746141861205
 11
0.1879673242902067
 21
0.3077955015898243
 72
     1
 10
0.1879673242902076
 20
0.3077955015898246
 11
0.1841426789319786
 21
0.3030380159003196
 72
     1
 10
0.1841426789319787
 20
0.3030380159003192
 11
0.1780792167786874
 21
0.29576186131637
 72
     1
 10
0.1780792167786873
 20
0.29576186131637
 11
0.170243357995973
 21
0.2862468899373593
 72
     1
 10
0.170243357995973
 20
0.2862468899373593
 11
0.1610082387163447
 21
0.2750528059620528
 72
     1
 10
0.1610082387163438
 20
0.2750528059620528
 11
0.1507469950723126
 21
0.2624594614898328
 72
     1
 10
0.1507469950723133
 20
0.2624594614898328
 11
0.1396461951301336
 21
0.2491198447525922
 72
     1
 10
0.1396461951301333
 20
0.2491198447525922
 11
0.1282655430885727
 21
0.2352205238165866
 72
     1
 10
0.1282655430885726
 20
0.2352205238165868
 11
0.1168848910470102
 21
0.2214144869137089
 72
     1
 10
0.1168848910470102
 20
0.2214144869137087
 11
0.1058773751379587
 21
0.2079815861433408
 72
     1
 10
0.105877375137958
 20
0.2079815861433408
 11
0.0955228474608004
 21
0.1954815257042486
 72
     1
 10
0.0955228474608019
 20
0.1954815257042488
 11
0.0862877281811736
 21
0.1842874417289424
 72
     1
 10
0.0862877281811727
 20
0.1842874417289424
 11
0.0784518693984583
 21
0.1747724703499316
 72
     1
 10
0.0784518693984584
 20
0.1747724703499314
 11
0.0723884072451672
 21
0.1674963157659821
 72
     1
 10
0.0723884072451671
 20
0.1674963157659822
 11
0.0685637618869363
 21
0.1627388300764767
 72
     1
 10
0.0685637618869364
 20
0.1627388300764767
 11
0.0671645013900242
 21
0.1611530015133082
 72
     1
 10
0.0671645013900251
 20
0.1611530015133082
 11
0.0680040576881734
 21
0.1596604569832674
 72
     1
 10
0.0680040576881726
 20
0.1596604569832674
 11
0.0704294425494878
 21
0.1556492435587824
 72
     1
 10
0.0704294425494871
 20
0.1556492435587824
 11
0.0742540879077179
 21
0.1493059293061089
 72
     1
 10
0.0742540879077192
 20
0.1493059293061089
 11
0.0791048576303511
 21
0.1411902184240116
 72
     1
 10
0.0791048576303508
 20
0.1411902184240116
 11
0.0848884676842594
 21
0.1314886789787458
 72
     1
 10
0.0848884676842596
 20
0.1314886789787459
 11
0.0913250659700619
 21
0.1207610151690772
 72
     1
 10
0.0913250659700613
 20
0.1207610151690775
 11
0.0982280844214992
 21
0.1091937950612604
 72
     1
 10
0.0982280844214985
 20
0.1091937950612603
 11
0.1053176709391927
 21
0.0973467228540611
 72
     1
 10
0.105317670939193
 20
0.0973467228540612
 11
0.1124072574568872
 21
0.0854996506468619
 72
     1
 10
0.1124072574568871
 20
0.0854996506468617
 11
0.1193102759083267
 21
0.0739324305390446
 72
     1
 10
0.1193102759083278
 20
0.0739324305390448
 11
0.1257468741941283
 21
0.0632047667293762
 72
     1
 10
0.1257468741941277
 20
0.063204766729376
 11
0.1315304842480362
 21
0.0535032272841102
 72
     1
 10
0.1315304842480365
 20
0.0535032272841104
 11
0.1363812539706702
 21
0.0453875164020132
 72
     1
 10
0.1363812539706699
 20
0.0453875164020132
 11
0.1402058993288989
 21
0.0391374861824667
 72
     1
 10
0.1402058993288988
 20
0.0391374861824669
 11
0.1426312841902157
 21
0.0350329887248546
 72
     1
 10
0.1426312841902164
 20
0.0350329887248547
 11
0.1434708404883648
 21
0.0336337282279412
 72
     1
 10
0.143470840488364
 20
0.0336337282279411
 11
0.2706169776412211
 21
0.0336337282279411
 97
        0
 75
     0
 76
     1
 98
        1
 10
-0.3743130907707726
 20
-0.2500502867693841
1001
ACAD
1010
0.0
1020
0.0
1030
0.0
  0
HATCH
  5
10A3
330
10A0
100
AcDbEntity
  8
Kawneer Logo-English
100
AcDbHatch
 10
0.0
 20
0.0
 30
0.0
210
0.0
220
0.0
230
1.0
  2
SOLID
 70
     1
 71
     0
 91
        1
 92
        1
 93
       18
 72
     1
 10
0.0001865656044393
 20
0.2563959993365415
 11
-0.0000000024618153
 21
0.113671428651383
 72
     1
 10
-0.0000000024618159
 20
0.1136714286513832
 11
0.0012126899688416
 21
0.1152572572145516
 72
     1
 10
0.0012126899688421
 20
0.1152572572145516
 11
0.0045709151614355
 21
0.1197348908046738
 72
     1
 10
0.004570915161435
 20
0.119734890804674
 11
0.0098881050497044
 21
0.1268244773223682
 72
     1
 10
0.0098881050497044
 20
0.1268244773223682
 11
0.0166978394680158
 21
0.1359663125688683
 72
     1
 10
0.016697839468016
 20
0.1359663125688683
 11
0.0248135503501131
 21
0.1467872604116651
 72
     1
 10
0.024813550350113
 20
0.1467872604116652
 11
0.0338621015634867
 21
0.1588209006851195
 72
     1
 10
0.0338621015634872
 20
0.1588209006851194
 11
0.0434703569756247
 21
0.1716940972567221
 72
     1
 10
0.0434703569756247
 20
0.1716940972567224
 11
0.0534517485202732
 21
0.1850337139939626
 72
     1
 10
0.0534517485202724
 20
0.1850337139939624
 11
0.0634331400649208
 21
0.1983733307312025
 72
     1
 10
0.0634331400649222
 20
0.1983733307312024
 11
0.0730413954770597
 21
0.2112465273028051
 72
     1
 10
0.0730413954770595
 20
0.2112465273028053
 11
0.0820899466904331
 21
0.2233734516093873
 72
     1
 10
0.0820899466904321
 20
0.2233734516093873
 11
0.0902056575725293
 21
0.2341943994521837
 72
     1
 10
0.0902056575725308
 20
0.2341943994521837
 11
0.0970153919908422
 21
0.2433362346986839
 72
     1
 10
0.0970153919908405
 20
0.2433362346986839
 11
0.1022392978459834
 21
0.2503325371832507
 72
     1
 10
0.1022392978459843
 20
0.2503325371832508
 11
0.1056908070717041
 21
0.2549034548065008
 72
     1
 10
0.1056908070717046
 20
0.254903454806501
 11
0.1069034995023621
 21
0.2564892833696694
 72
     1
 10
0.1069034995023625
 20
0.2564892833696695
 11
0.0001865656044399
 21
0.2563959993365418
 97
        0
 75
     0
 76
     1
 98
        1
 10
-0.3743130907707726
 20
-0.2500502867693841
1001
ACAD
1010
0.0
1020
0.0
1030
0.0
  0
HATCH
  5
10A4
330
10A0
100
AcDbEntity
  8
Kawneer Logo-English
100
AcDbHatch
 10
0.0
 20
0.0
 30
0.0
210
0.0
220
0.0
230
1.0
  2
SOLID
 70
     1
 71
     0
 91
        2
 92
       16
 93
       76
 72
     1
 10
1.358402087941634
 20
0.1650709309046659
 11
1.358402087941634
 21
0.16796273593162
 72
     1
 10
1.358402087941634
 20
0.1679627359316202
 11
1.358402087941634
 21
0.1729067896873803
 72
     1
 10
1.358402087941634
 20
0.1729067896873803
 11
1.358402087941634
 21
0.1791568199069267
 72
     1
 10
1.358402087941634
 20
0.1791568199069267
 11
1.358402087941634
 21
0.1861531223914932
 72
     1
 10
1.358402087941634
 20
0.186153122391493
 11
1.358402087941634
 21
0.1931494248760595
 72
     1
 10
1.358402087941634
 20
0.1931494248760596
 11
1.358402087941634
 21
0.1994927391287338
 72
     1
 10
1.358402087941634
 20
0.1994927391287336
 11
1.358402087941634
 21
0.2044367928844937
 72
     1
 10
1.358402087941634
 20
0.2044367928844937
 11
1.358402087941634
 21
0.2072353138783208
 72
     1
 10
1.358402087941634
 20
0.2072353138783208
 11
1.359894632471676
 21
0.2072353138783208
 72
     1
 10
1.359894632471676
 20
0.2072353138783208
 11
1.362693153465502
 21
0.2072353138783208
 72
     1
 10
1.362693153465502
 20
0.2072353138783208
 11
1.366424514790605
 21
0.2072353138783208
 72
     1
 10
1.366424514790606
 20
0.2072353138783208
 11
1.371088716446983
 21
0.2072353138783208
 72
     1
 10
1.371088716446982
 20
0.2072353138783208
 11
1.376405906335254
 21
0.2072353138783208
 72
     1
 10
1.376405906335254
 20
0.2072353138783208
 11
1.382282800422289
 21
0.2072353138783208
 72
     1
 10
1.38228280042229
 20
0.2072353138783208
 11
1.388346262575581
 21
0.2072353138783208
 72
     1
 10
1.388346262575579
 20
0.2072353138783208
 11
1.394596292795125
 21
0.2072353138783208
 72
     1
 10
1.394596292795125
 20
0.2072353138783208
 11
1.400753038981545
 21
0.2072353138783208
 72
     1
 10
1.400753038981546
 20
0.2072353138783208
 11
1.406723217101709
 21
0.2072353138783208
 72
     1
 10
1.406723217101708
 20
0.2072353138783208
 11
1.412320259089362
 21
0.2072353138783208
 72
     1
 10
1.412320259089362
 20
0.2072353138783208
 11
1.417264312845122
 21
0.2072353138783208
 72
     1
 10
1.417264312845123
 20
0.2072353138783208
 11
1.421368810302735
 21
0.2072353138783208
 72
     1
 10
1.421368810302734
 20
0.2072353138783208
 11
1.424540467429071
 21
0.2072353138783208
 72
     1
 10
1.424540467429072
 20
0.2072353138783208
 11
1.426592716157878
 21
0.2072353138783208
 72
     1
 10
1.426592716157878
 20
0.2072353138783208
 11
1.427338988422898
 21
0.2072353138783208
 72
     1
 10
1.427338988422898
 20
0.2072353138783208
 11
1.430977065714873
 21
0.207142029845193
 72
     1
 10
1.430977065714872
 20
0.207142029845193
 11
1.434335290907465
 21
0.2068621777458102
 72
     1
 10
1.434335290907465
 20
0.2068621777458102
 11
1.435921119470633
 21
0.2066756096795552
 72
     1
 10
1.435921119470633
 20
0.206675609679555
 11
1.437413664000673
 21
0.2063957575801723
 72
     1
 10
1.437413664000674
 20
0.2063957575801723
 11
1.438906208530714
 21
0.2061159054807895
 72
     1
 10
1.438906208530714
 20
0.2061159054807898
 11
1.440398753060756
 21
0.2056494853151523
 72
     1
 10
1.440398753060756
 20
0.2056494853151521
 11
1.441704729524542
 21
0.2050897811163865
 72
     1
 10
1.441704729524542
 20
0.2050897811163866
 11
1.443010705988328
 21
0.204530076917621
 72
     1
 10
1.443010705988329
 20
0.204530076917621
 11
1.444223398418986
 21
0.2036905206194736
 72
     1
 10
1.444223398418985
 20
0.2036905206194736
 11
1.445436090849643
 21
0.2028509643213252
 72
     1
 10
1.445436090849643
 20
0.2028509643213252
 11
1.446555499247174
 21
0.2018248399569224
 72
     1
 10
1.446555499247173
 20
0.2018248399569223
 11
1.447581623611576
 21
0.2007054315593917
 72
     1
 10
1.447581623611578
 20
0.2007054315593915
 11
1.448607747975981
 21
0.1993061710624781
 72
     1
 10
1.448607747975981
 20
0.1993061710624781
 11
1.449540588307258
 21
0.1978136265324374
 72
     1
 10
1.449540588307256
 20
0.1978136265324373
 11
1.450380144605403
 21
0.1961345139361415
 72
     1
 10
1.450380144605404
 20
0.1961345139361415
 11
1.451126416870426
 21
0.1944554013398453
 72
     1
 10
1.451126416870426
 20
0.1944554013398454
 11
1.451592837036063
 21
0.1929628568098046
 72
     1
 10
1.451592837036062
 20
0.1929628568098046
 11
1.451965973168573
 21
0.1913770282466361
 72
     1
 10
1.451965973168574
 20
0.1913770282466361
 11
1.452245825267955
 21
0.1899777677497231
 72
     1
 10
1.452245825267954
 20
0.1899777677497231
 11
1.452432393334211
 21
0.188671791285937
 72
     1
 10
1.452432393334211
 20
0.1886717912859369
 11
1.452432393334211
 21
0.1874590988552789
 72
     1
 10
1.452432393334211
 20
0.1874590988552789
 11
1.452525677367338
 21
0.1863396904577482
 72
     1
 10
1.452525677367337
 20
0.1863396904577481
 11
1.452432393334211
 21
0.1844740097951972
 72
     1
 10
1.452432393334211
 20
0.1844740097951974
 11
1.452245825267955
 21
0.1827948971989012
 72
     1
 10
1.452245825267954
 20
0.1827948971989009
 11
1.451872689135445
 21
0.1810225005694773
 72
     1
 10
1.451872689135446
 20
0.1810225005694774
 11
1.451406268969809
 21
0.1794366720063093
 72
     1
 10
1.451406268969809
 20
0.1794366720063094
 11
1.450846564771043
 21
0.1779441274762682
 72
     1
 10
1.450846564771041
 20
0.1779441274762681
 11
1.450100292506021
 21
0.1764515829462274
 72
     1
 10
1.450100292506023
 20
0.1764515829462275
 11
1.449260736207875
 21
0.1750523224493141
 72
     1
 10
1.449260736207873
 20
0.1750523224493139
 11
1.448327895876597
 21
0.1737463459855283
 72
     1
 10
1.448327895876596
 20
0.1737463459855281
 11
1.44702191941281
 21
0.1723470854886151
 72
     1
 10
1.447021919412811
 20
0.1723470854886151
 11
1.445715942949025
 21
0.1711343930579568
 72
     1
 10
1.445715942949026
 20
0.1711343930579568
 11
1.444316682452114
 21
0.1700149846604262
 72
     1
 10
1.444316682452114
 20
0.1700149846604259
 11
1.442824137922072
 21
0.168988860296023
 72
     1
 10
1.442824137922072
 20
0.168988860296023
 11
1.441238309358904
 21
0.1682425880310024
 72
     1
 10
1.441238309358902
 20
0.1682425880310024
 11
1.439559196762608
 21
0.1674963157659821
 72
     1
 10
1.439559196762608
 20
0.1674963157659822
 11
1.437880084166311
 21
0.1669366115672166
 72
     1
 10
1.437880084166311
 20
0.1669366115672167
 11
1.436107687536888
 21
0.1664701914015788
 72
     1
 10
1.436107687536888
 20
0.1664701914015789
 11
1.434242006874337
 21
0.166003771235941
 72
     1
 10
1.434242006874337
 20
0.1660037712359412
 11
1.432376326211786
 21
0.1657239191365588
 72
     1
 10
1.432376326211785
 20
0.1657239191365585
 11
1.430417361516107
 21
0.1655373510703035
 72
     1
 10
1.430417361516108
 20
0.1655373510703037
 11
1.428458396820429
 21
0.1653507830040482
 72
     1
 10
1.428458396820428
 20
0.1653507830040482
 11
1.424353899362817
 21
0.1651642149377932
 72
     1
 10
1.424353899362817
 20
0.1651642149377932
 11
1.420156117872077
 21
0.1650709309046658
 72
     1
 10
1.420156117872076
 20
0.1650709309046659
 11
1.41773073301076
 21
0.1650709309046659
 72
     1
 10
1.417730733010761
 20
0.1650709309046659
 11
1.411107566658704
 21
0.1650709309046659
 72
     1
 10
1.411107566658702
 20
0.1650709309046659
 11
1.401779163345947
 21
0.1650709309046659
 72
     1
 10
1.401779163345949
 20
0.1650709309046659
 11
1.390958215503152
 21
0.1650709309046659
 72
     1
 10
1.390958215503152
 20
0.1650709309046659
 11
1.379950699594101
 21
0.1650709309046659
 72
     1
 10
1.379950699594099
 20
0.1650709309046659
 11
1.369969308049451
 21
0.1650709309046659
 72
     1
 10
1.369969308049451
 20
0.1650709309046659
 11
1.362320017332992
 21
0.1650709309046659
 72
     1
 10
1.362320017332992
 20
0.1650709309046659
 11
1.358402087941635
 21
0.1650709309046659
 97
        0
 92
        1
 93
      107
 72
     1
 10
1.443756978253348
 20
0.1485596570410883
 11
1.446928635379685
 21
0.1492126452729816
 72
     1
 10
1.446928635379685
 20
0.1492126452729817
 11
1.449540588307256
 21
0.1498656335048746
 72
     1
 10
1.449540588307256
 20
0.1498656335048745
 11
1.451872689135445
 21
0.1506119057698948
 72
     1
 10
1.451872689135446
 20
0.1506119057698946
 11
1.45401822189738
 21
0.1514514620680426
 72
     1
 10
1.45401822189738
 20
0.1514514620680425
 11
1.455883902559929
 21
0.1521977343330632
 72
     1
 10
1.455883902559929
 20
0.1521977343330631
 11
1.457563015156225
 21
0.1530372906312111
 72
     1
 10
1.457563015156225
 20
0.1530372906312111
 11
1.459148843719394
 21
0.1539701309624869
 72
     1
 10
1.459148843719394
 20
0.1539701309624866
 11
1.460641388249434
 21
0.1549029712937624
 72
     1
 10
1.460641388249434
 20
0.1549029712937622
 11
1.462133932779476
 21
0.155835811625038
 72
     1
 10
1.462133932779476
 20
0.155835811625038
 11
1.463439909243262
 21
0.1568619359894408
 72
     1
 10
1.463439909243262
 20
0.1568619359894408
 11
1.464745885707048
 21
0.1579813443869714
 72
     1
 10
1.464745885707047
 20
0.1579813443869716
 11
1.465865294104579
 21
0.1591007527845022
 72
     1
 10
1.465865294104579
 20
0.1591007527845025
 11
1.466984702502109
 21
0.1602201611820331
 72
     1
 10
1.466984702502108
 20
0.1602201611820328
 11
1.468010826866511
 21
0.1613395695795634
 72
     1
 10
1.468010826866511
 20
0.1613395695795637
 11
1.468943667197788
 21
0.1625522620102216
 72
     1
 10
1.468943667197788
 20
0.1625522620102216
 11
1.469876507529063
 21
0.1636716704077522
 72
     1
 10
1.469876507529063
 20
0.1636716704077524
 11
1.470622779794084
 21
0.1648843628384107
 72
     1
 10
1.470622779794084
 20
0.1648843628384107
 11
1.471462336092232
 21
0.1661903393021964
 72
     1
 10
1.471462336092232
 20
0.1661903393021967
 11
1.472115324324125
 21
0.1674030317328546
 72
     1
 10
1.472115324324124
 20
0.1674030317328546
 11
1.472768312556016
 21
0.1686157241635125
 72
     1
 10
1.472768312556017
 20
0.1686157241635125
 11
1.473328016754783
 21
0.1699217006272986
 72
     1
 10
1.473328016754782
 20
0.1699217006272989
 11
1.47379443692042
 21
0.1711343930579568
 72
     1
 10
1.47379443692042
 20
0.1711343930579568
 11
1.474260857086057
 21
0.1724403695217425
 72
     1
 10
1.474260857086058
 20
0.1724403695217424
 11
1.474727277251697
 21
0.1736530619524008
 72
     1
 10
1.474727277251697
 20
0.173653061952401
 11
1.475380265483589
 21
0.1760784468137175
 72
     1
 10
1.475380265483588
 20
0.1760784468137173
 11
1.475846685649225
 21
0.1785038316750338
 72
     1
 10
1.475846685649226
 20
0.1785038316750335
 11
1.476219821781737
 21
0.1808359325032223
 72
     1
 10
1.476219821781738
 20
0.1808359325032223
 11
1.47649967388112
 21
0.1830747492982838
 72
     1
 10
1.47649967388112
 20
0.1830747492982838
 11
1.476592957914248
 21
0.1851269980270901
 72
     1
 10
1.476592957914248
 20
0.1851269980270902
 11
1.476686241947374
 21
0.1870859627227688
 72
     1
 10
1.476686241947375
 20
0.1870859627227687
 11
1.476592957914249
 21
0.1888583593521923
 72
     1
 10
1.476592957914248
 20
0.1888583593521922
 11
1.476499673881119
 21
0.1906307559816158
 72
     1
 10
1.47649967388112
 20
0.1906307559816159
 11
1.476406389847991
 21
0.1924031526110394
 72
     1
 10
1.476406389847991
 20
0.1924031526110394
 11
1.476126537748608
 21
0.1940822652073352
 72
     1
 10
1.476126537748608
 20
0.1940822652073352
 11
1.475846685649226
 21
0.195761377803631
 72
     1
 10
1.475846685649226
 20
0.1957613778036309
 11
1.475566833549843
 21
0.1974404903999272
 72
     1
 10
1.475566833549843
 20
0.1974404903999272
 11
1.475100413384206
 21
0.1990263189630953
 72
     1
 10
1.475100413384205
 20
0.1990263189630952
 11
1.474633993218568
 21
0.2006121475262637
 72
     1
 10
1.474633993218568
 20
0.2006121475262639
 11
1.47416757305293
 21
0.2021046920563051
 72
     1
 10
1.474167573052932
 20
0.2021046920563049
 11
1.473514584821038
 21
0.2035972365863457
 72
     1
 10
1.473514584821037
 20
0.2035972365863459
 11
1.472954880622271
 21
0.2050897811163867
 72
     1
 10
1.472954880622272
 20
0.2050897811163866
 11
1.472208608357252
 21
0.2064890416133
 72
     1
 10
1.472208608357252
 20
0.2064890416133001
 11
1.471462336092232
 21
0.2078883021102135
 72
     1
 10
1.471462336092232
 20
0.2078883021102136
 11
1.470622779794083
 21
0.2091942785739993
 72
     1
 10
1.470622779794084
 20
0.2091942785739991
 11
1.469783223495935
 21
0.2105002550377848
 72
     1
 10
1.469783223495934
 20
0.2105002550377851
 11
1.468850383164659
 21
0.2118062315015707
 72
     1
 10
1.468850383164661
 20
0.2118062315015709
 11
1.467917542833386
 21
0.2130189239322288
 72
     1
 10
1.467917542833385
 20
0.2130189239322289
 11
1.466891418468982
 21
0.2141383323297595
 72
     1
 10
1.466891418468982
 20
0.2141383323297595
 11
1.465772010071451
 21
0.2153510247604178
 72
     1
 10
1.46577201007145
 20
0.215351024760418
 11
1.464652601673919
 21
0.2163771491248209
 72
     1
 10
1.46465260167392
 20
0.2163771491248209
 11
1.463533193276389
 21
0.2174032734892238
 72
     1
 10
1.463533193276389
 20
0.2174032734892238
 11
1.462227216812603
 21
0.2184293978536266
 72
     1
 10
1.462227216812602
 20
0.2184293978536266
 11
1.461014524381945
 21
0.2193622381849024
 72
     1
 10
1.461014524381946
 20
0.2193622381849023
 11
1.459615263885032
 21
0.2202950785161781
 72
     1
 10
1.459615263885031
 20
0.2202950785161782
 11
1.458309287421245
 21
0.2211346348143262
 72
     1
 10
1.458309287421246
 20
0.221134634814326
 11
1.456816742891206
 21
0.221974191112474
 72
     1
 10
1.456816742891206
 20
0.2219741911124738
 11
1.455417482394292
 21
0.2227204633774945
 72
     1
 10
1.455417482394291
 20
0.2227204633774944
 11
1.453831653831122
 21
0.2233734516093874
 72
     1
 10
1.453831653831123
 20
0.2233734516093873
 11
1.452339109301082
 21
0.2240264398412803
 72
     1
 10
1.452339109301082
 20
0.2240264398412803
 11
1.450659996704785
 21
0.2245861440400459
 72
     1
 10
1.450659996704787
 20
0.2245861440400457
 11
1.44907416814162
 21
0.2251458482388108
 72
     1
 10
1.449074168141619
 20
0.2251458482388109
 11
1.447301771512194
 21
0.2256122684044489
 72
     1
 10
1.447301771512194
 20
0.2256122684044488
 11
1.445249522783388
 21
0.2261719726032139
 72
     1
 10
1.445249522783388
 20
0.226171972603214
 11
1.44329055808771
 21
0.2265451087357246
 72
     1
 10
1.443290558087712
 20
0.2265451087357244
 11
1.441145025325778
 21
0.2269182448682345
 72
     1
 10
1.441145025325776
 20
0.2269182448682345
 11
1.438906208530714
 21
0.2271980969676173
 72
     1
 10
1.438906208530714
 20
0.2271980969676173
 11
1.436387539636271
 21
0.2273846650338724
 72
     1
 10
1.436387539636271
 20
0.2273846650338724
 11
1.433495734609316
 21
0.2275712331001274
 72
     1
 10
1.433495734609317
 20
0.2275712331001274
 11
1.430044225383597
 21
0.2276645171332552
 72
     1
 10
1.430044225383597
 20
0.2276645171332549
 11
1.42612629599224
 21
0.2277578011663822
 72
     1
 10
1.42612629599224
 20
0.2277578011663825
 11
1.426033011959112
 21
0.2277578011663825
 72
     1
 10
1.426033011959111
 20
0.2277578011663825
 11
1.33489451159349
 21
0.2277578011663825
 72
     1
 10
1.334894511593491
 20
0.2277578011663825
 11
1.334894511593491
 21
0.0926825211976832
 72
     1
 10
1.334894511593491
 20
0.0926825211976832
 11
1.358588656007891
 21
0.0926825211976832
 72
     1
 10
1.358588656007891
 20
0.0926825211976832
 11
1.358588656007891
 21
0.0947347699264896
 72
     1
 10
1.358588656007891
 20
0.0947347699264896
 11
1.358588656007891
 21
0.1001452438478876
 72
     1
 10
1.358588656007891
 20
0.1001452438478875
 11
1.358588656007891
 21
0.1079811026306024
 72
     1
 10
1.358588656007891
 20
0.1079811026306024
 11
1.358588656007891
 21
0.1170296538439752
 72
     1
 10
1.358588656007891
 20
0.1170296538439753
 11
1.358588656007891
 21
0.1262647731236032
 72
     1
 10
1.358588656007891
 20
0.1262647731236031
 11
1.358588656007891
 21
0.1347536201382103
 72
     1
 10
1.358588656007891
 20
0.1347536201382104
 11
1.358588656007891
 21
0.1412835024571394
 72
     1
 10
1.358588656007891
 20
0.1412835024571393
 11
1.358588656007891
 21
0.1448282957159864
 72
     1
 10
1.358588656007891
 20
0.1448282957159865
 11
1.362320017332992
 21
0.1448282957159865
 72
     1
 10
1.362320017332992
 20
0.1448282957159865
 11
1.369409603850688
 21
0.1448282957159865
 72
     1
 10
1.369409603850688
 20
0.1448282957159865
 11
1.378738007163443
 21
0.1448282957159865
 72
     1
 10
1.378738007163443
 20
0.1448282957159865
 11
1.388999250807475
 21
0.1448282957159865
 72
     1
 10
1.388999250807473
 20
0.1448282957159865
 11
1.399260494451505
 21
0.1448282957159865
 72
     1
 10
1.399260494451506
 20
0.1448282957159865
 11
1.408215761631749
 21
0.1448282957159865
 72
     1
 10
1.408215761631748
 20
0.1448282957159865
 11
1.414745643950677
 21
0.1448282957159865
 72
     1
 10
1.414745643950678
 20
0.1448282957159865
 11
1.41773073301076
 21
0.1448282957159865
 72
     1
 10
1.417730733010761
 20
0.1448282957159865
 11
1.420062833838949
 21
0.1420297747221594
 72
     1
 10
1.420062833838949
 20
0.1420297747221597
 11
1.425193455660966
 21
0.1359663125688683
 72
     1
 10
1.425193455660965
 20
0.1359663125688683
 11
1.432283042178659
 21
0.1275707495873888
 72
     1
 10
1.432283042178659
 20
0.1275707495873886
 11
1.440305469027628
 21
0.1180557782083779
 72
     1
 10
1.440305469027629
 20
0.1180557782083781
 11
1.448234611843471
 21
0.1087273748956225
 72
     1
 10
1.448234611843471
 20
0.1087273748956225
 11
1.455044346261782
 21
0.1006116640135252
 72
     1
 10
1.455044346261782
 20
0.1006116640135252
 11
1.459895115984414
 21
0.0948280539596167
 72
     1
 10
1.459895115984414
 20
0.0948280539596169
 11
1.461760796646965
 21
0.0926825211976832
 72
     1
 10
1.461760796646967
 20
0.0926825211976832
 11
1.49254452757906
 21
0.0926825211976832
 72
     1
 10
1.492544527579059
 20
0.0926825211976832
 11
1.490678846916508
 21
0.0948280539596169
 72
     1
 10
1.490678846916508
 20
0.0948280539596169
 11
1.48564150912762
 21
0.100518379980398
 72
     1
 10
1.48564150912762
 20
0.1005183799803981
 11
1.478458638576797
 21
0.1088206589287502
 72
     1
 10
1.478458638576798
 20
0.1088206589287502
 11
1.470063075595318
 21
0.1183356303077609
 72
     1
 10
1.470063075595317
 20
0.118335630307761
 11
1.461480944547582
 21
0.1282237378192818
 72
     1
 10
1.461480944547582
 20
0.1282237378192818
 11
1.453551801731739
 21
0.1372722890326546
 72
     1
 10
1.45355180173174
 20
0.1372722890326546
 11
1.447395055545323
 21
0.1444551595834761
 72
     1
 10
1.447395055545323
 20
0.1444551595834759
 11
1.443756978253349
 21
0.1485596570410882
 97
        0
 75
     0
 76
     1
 98
        1
 10
-0.3743130907707726
 20
-0.2500502867693841
1001
ACAD
1010
0.0
1020
0.0
1030
0.0
  0
HATCH
  5
10A5
330
10A0
100
AcDbEntity
  8
Kawneer Logo-English
100
AcDbHatch
 10
0.0
 20
0.0
 30
0.0
210
0.0
220
0.0
230
1.0
  2
SOLID
 70
     1
 71
     0
 91
        1
 92
        1
 93
       87
 72
     1
 10
1.205602841678699
 20
0.1525708704655737
 11
1.207468522341251
 21
0.1525708704655737
 72
     1
 10
1.207468522341252
 20
0.1525708704655737
 11
1.211199883666355
 21
0.1525708704655737
 72
     1
 10
1.211199883666355
 20
0.1525708704655737
 11
1.216517073554626
 21
0.1525708704655737
 72
     1
 10
1.216517073554626
 20
0.1525708704655737
 11
1.223046955873555
 21
0.1525708704655737
 72
     1
 10
1.223046955873553
 20
0.1525708704655737
 11
1.230602962556885
 21
0.1525708704655737
 72
     1
 10
1.230602962556885
 20
0.1525708704655737
 11
1.238998525538365
 21
0.1525708704655737
 72
     1
 10
1.238998525538365
 20
0.1525708704655737
 11
1.247767224652354
 21
0.1525708704655737
 72
     1
 10
1.247767224652355
 20
0.1525708704655737
 11
1.256815775865728
 21
0.1525708704655737
 72
     1
 10
1.256815775865729
 20
0.1525708704655737
 11
1.265771043045974
 21
0.1525708704655737
 72
     1
 10
1.265771043045973
 20
0.1525708704655737
 11
1.274446458126836
 21
0.1525708704655737
 72
     1
 10
1.274446458126837
 20
0.1525708704655737
 11
1.282562169008935
 21
0.1525708704655737
 72
     1
 10
1.282562169008935
 20
0.1525708704655737
 11
1.289745039559756
 21
0.1525708704655737
 72
     1
 10
1.289745039559755
 20
0.1525708704655737
 11
1.295808501713046
 21
0.1525708704655737
 72
     1
 10
1.295808501713046
 20
0.1525708704655737
 11
1.300472703369423
 21
0.1525708704655737
 72
     1
 10
1.300472703369423
 20
0.1525708704655737
 11
1.303457792429505
 21
0.1525708704655737
 72
     1
 10
1.303457792429505
 20
0.1525708704655737
 11
1.304483916793908
 21
0.1525708704655737
 72
     1
 10
1.304483916793908
 20
0.1525708704655737
 11
1.304483916793908
 21
0.1730000737205081
 72
     1
 10
1.304483916793908
 20
0.1730000737205078
 11
1.303457792429505
 21
0.1730000737205078
 72
     1
 10
1.303457792429505
 20
0.1730000737205078
 11
1.300472703369423
 21
0.1730000737205078
 72
     1
 10
1.300472703369423
 20
0.1730000737205078
 11
1.295808501713045
 21
0.1730000737205078
 72
     1
 10
1.295808501713046
 20
0.1730000737205078
 11
1.289745039559754
 21
0.1730000737205078
 72
     1
 10
1.289745039559755
 20
0.1730000737205078
 11
1.282562169008934
 21
0.1730000737205078
 72
     1
 10
1.282562169008935
 20
0.1730000737205078
 11
1.274446458126837
 21
0.1730000737205078
 72
     1
 10
1.274446458126837
 20
0.1730000737205078
 11
1.265771043045975
 21
0.1730000737205078
 72
     1
 10
1.265771043045973
 20
0.1730000737205078
 11
1.256815775865728
 21
0.1730000737205078
 72
     1
 10
1.256815775865729
 20
0.1730000737205078
 11
1.247767224652355
 21
0.1730000737205078
 72
     1
 10
1.247767224652355
 20
0.1730000737205078
 11
1.238998525538365
 21
0.1730000737205078
 72
     1
 10
1.238998525538365
 20
0.1730000737205078
 11
1.230602962556885
 21
0.1730000737205078
 72
     1
 10
1.230602962556885
 20
0.1730000737205078
 11
1.223046955873553
 21
0.1730000737205078
 72
     1
 10
1.223046955873553
 20
0.1730000737205078
 11
1.216517073554625
 21
0.1730000737205078
 72
     1
 10
1.216517073554626
 20
0.1730000737205078
 11
1.211199883666355
 21
0.1730000737205078
 72
     1
 10
1.211199883666355
 20
0.1730000737205078
 11
1.207468522341252
 21
0.1730000737205078
 72
     1
 10
1.207468522341252
 20
0.1730000737205078
 11
1.205602841678701
 21
0.1730000737205078
 72
     1
 10
1.205602841678699
 20
0.1730000737205078
 11
1.205602841678699
 21
0.1754254585818243
 72
     1
 10
1.205602841678699
 20
0.1754254585818245
 11
1.205602841678699
 21
0.1794366720063095
 72
     1
 10
1.205602841678699
 20
0.1794366720063094
 11
1.205602841678699
 21
0.1843807257620694
 72
     1
 10
1.205602841678699
 20
0.1843807257620694
 11
1.205602841678699
 21
0.1898844837165951
 72
     1
 10
1.205602841678699
 20
0.1898844837165951
 11
1.205602841678699
 21
0.1952949576379935
 72
     1
 10
1.205602841678699
 20
0.1952949576379937
 11
1.205602841678699
 21
0.2003322954268815
 72
     1
 10
1.205602841678699
 20
0.2003322954268814
 11
1.205602841678699
 21
0.2042502248182386
 72
     1
 10
1.205602841678699
 20
0.2042502248182386
 11
1.205602841678699
 21
0.206675609679555
 72
     1
 10
1.205602841678699
 20
0.206675609679555
 11
1.207468522341251
 21
0.206675609679555
 72
     1
 10
1.207468522341252
 20
0.206675609679555
 11
1.211293167699483
 21
0.206675609679555
 72
     1
 10
1.211293167699483
 20
0.206675609679555
 11
1.21670364162088
 21
0.206675609679555
 72
     1
 10
1.216703641620879
 20
0.206675609679555
 11
1.223420092006063
 21
0.206675609679555
 72
     1
 10
1.223420092006064
 20
0.206675609679555
 11
1.231255950788778
 21
0.206675609679555
 72
     1
 10
1.231255950788778
 20
0.206675609679555
 11
1.239744797803386
 21
0.206675609679555
 72
     1
 10
1.239744797803385
 20
0.206675609679555
 11
1.248886633049885
 21
0.206675609679555
 72
     1
 10
1.248886633049885
 20
0.206675609679555
 11
1.258121752329513
 21
0.206675609679555
 72
     1
 10
1.258121752329514
 20
0.206675609679555
 11
1.267356871609143
 21
0.206675609679555
 72
     1
 10
1.267356871609142
 20
0.206675609679555
 11
1.276218854756259
 21
0.206675609679555
 72
     1
 10
1.276218854756259
 20
0.206675609679555
 11
1.284521133704611
 21
0.206675609679555
 72
     1
 10
1.284521133704611
 20
0.206675609679555
 11
1.291890572321688
 21
0.206675609679555
 72
     1
 10
1.291890572321688
 20
0.206675609679555
 11
1.298140602541234
 21
0.206675609679555
 72
     1
 10
1.298140602541234
 20
0.206675609679555
 11
1.30289808823074
 21
0.206675609679555
 72
     1
 10
1.30289808823074
 20
0.206675609679555
 11
1.305976461323949
 21
0.206675609679555
 72
     1
 10
1.305976461323949
 20
0.206675609679555
 11
1.30709586972148
 21
0.206675609679555
 72
     1
 10
1.307095869721479
 20
0.206675609679555
 11
1.307095869721479
 21
0.2277578011663822
 72
     1
 10
1.307095869721479
 20
0.2277578011663825
 11
1.304577200827036
 21
0.2277578011663825
 72
     1
 10
1.304577200827037
 20
0.2277578011663825
 11
1.182188549363684
 21
0.2277578011663825
 72
     1
 10
1.182188549363684
 20
0.2277578011663825
 11
1.182188549363684
 21
0.0926825211976832
 72
     1
 10
1.182188549363684
 20
0.0926825211976832
 11
1.311853355410986
 21
0.0926825211976832
 72
     1
 10
1.311853355410985
 20
0.0926825211976832
 11
1.311853355410985
 21
0.113671428651383
 72
     1
 10
1.311853355410985
 20
0.1136714286513832
 11
1.310733947013454
 21
0.1136714286513832
 72
     1
 10
1.310733947013455
 20
0.1136714286513832
 11
1.307469005853991
 21
0.1136714286513832
 72
     1
 10
1.307469005853991
 20
0.1136714286513832
 11
1.302431668065102
 21
0.1136714286513832
 72
     1
 10
1.302431668065103
 20
0.1136714286513832
 11
1.295901785746174
 21
0.1136714286513832
 72
     1
 10
1.295901785746174
 20
0.1136714286513832
 11
1.288159210996586
 21
0.1136714286513832
 72
     1
 10
1.288159210996587
 20
0.1136714286513832
 11
1.279483795915724
 21
0.1136714286513832
 72
     1
 10
1.279483795915723
 20
0.1136714286513832
 11
1.270155392602968
 21
0.1136714286513832
 72
     1
 10
1.270155392602969
 20
0.1136714286513832
 11
1.260547137190832
 21
0.1136714286513832
 72
     1
 10
1.260547137190831
 20
0.1136714286513832
 11
1.250752313712437
 21
0.1136714286513832
 72
     1
 10
1.250752313712437
 20
0.1136714286513832
 11
1.241330626366554
 21
0.1136714286513832
 72
     1
 10
1.241330626366555
 20
0.1136714286513832
 11
1.23237535918631
 21
0.1136714286513832
 72
     1
 10
1.232375359186308
 20
0.1136714286513832
 11
1.224166364271082
 21
0.1136714286513832
 72
     1
 10
1.224166364271083
 20
0.1136714286513832
 11
1.217170061786517
 21
0.1136714286513832
 72
     1
 10
1.217170061786517
 20
0.1136714286513832
 11
1.211479735765737
 21
0.1136714286513832
 72
     1
 10
1.211479735765737
 20
0.1136714286513832
 11
1.20756180637438
 21
0.1136714286513832
 72
     1
 10
1.207561806374379
 20
0.1136714286513832
 11
1.2056028416787
 21
0.1136714286513832
 72
     1
 10
1.205602841678699
 20
0.1136714286513832
 11
1.205602841678699
 21
0.1163766656120825
 72
     1
 10
1.205602841678699
 20
0.1163766656120823
 11
1.205602841678699
 21
0.1209475832353323
 72
     1
 10
1.205602841678699
 20
0.1209475832353325
 11
1.205602841678699
 21
0.1267311932892411
 72
     1
 10
1.205602841678699
 20
0.1267311932892408
 11
1.205602841678699
 21
0.1330745075419143
 72
     1
 10
1.205602841678699
 20
0.1330745075419144
 11
1.205602841678699
 21
0.1395111058277156
 72
     1
 10
1.205602841678699
 20
0.1395111058277158
 11
1.205602841678699
 21
0.1452947158816239
 72
     1
 10
1.205602841678699
 20
0.145294715881624
 11
1.205602841678699
 21
0.1498656335048746
 72
     1
 10
1.205602841678699
 20
0.1498656335048745
 11
1.205602841678699
 21
0.1525708704655738
 97
        0
 75
     0
 76
     1
 98
        1
 10
-0.3743130907707726
 20
-0.2500502867693841
1001
ACAD
1010
0.0
1020
0.0
1030
0.0
  0
HATCH
  5
10A6
330
10A0
100
AcDbEntity
  8
Kawneer Logo-English
100
AcDbHatch
 10
0.0
 20
0.0
 30
0.0
210
0.0
220
0.0
230
1.0
  2
SOLID
 70
     1
 71
     0
 91
        1
 92
        1
 93
       87
 72
     1
 10
1.049352086190046
 20
0.1525708704655737
 11
1.051217766852597
 21
0.1525708704655737
 72
     1
 10
1.051217766852596
 20
0.1525708704655737
 11
1.054949128177699
 21
0.1525708704655737
 72
     1
 10
1.0549491281777
 20
0.1525708704655737
 11
1.060173034032843
 21
0.1525708704655737
 72
     1
 10
1.060173034032843
 20
0.1525708704655737
 11
1.0667962003849
 21
0.1525708704655737
 72
     1
 10
1.0667962003849
 20
0.1525708704655737
 11
1.074352207068231
 21
0.1525708704655737
 72
     1
 10
1.074352207068232
 20
0.1525708704655737
 11
1.082747770049711
 21
0.1525708704655737
 72
     1
 10
1.082747770049711
 20
0.1525708704655737
 11
1.0915164691637
 21
0.1525708704655737
 72
     1
 10
1.091516469163701
 20
0.1525708704655737
 11
1.100565020377075
 21
0.1525708704655737
 72
     1
 10
1.100565020377073
 20
0.1525708704655737
 11
1.109520287557319
 21
0.1525708704655737
 72
     1
 10
1.10952028755732
 20
0.1525708704655737
 11
1.118195702638183
 21
0.1525708704655737
 72
     1
 10
1.118195702638182
 20
0.1525708704655737
 11
1.126218129487151
 21
0.1525708704655737
 72
     1
 10
1.126218129487152
 20
0.1525708704655737
 11
1.133401000037974
 21
0.1525708704655737
 72
     1
 10
1.133401000037974
 20
0.1525708704655737
 11
1.139557746224391
 21
0.1525708704655737
 72
     1
 10
1.139557746224392
 20
0.1525708704655737
 11
1.14422194788077
 21
0.1525708704655737
 72
     1
 10
1.144221947880769
 20
0.1525708704655737
 11
1.147207036940851
 21
0.1525708704655737
 72
     1
 10
1.147207036940852
 20
0.1525708704655737
 11
1.148233161305255
 21
0.1525708704655737
 72
     1
 10
1.148233161305255
 20
0.1525708704655737
 11
1.148233161305255
 21
0.1730000737205081
 72
     1
 10
1.148233161305255
 20
0.1730000737205078
 11
1.147207036940852
 21
0.1730000737205078
 72
     1
 10
1.147207036940852
 20
0.1730000737205078
 11
1.14422194788077
 21
0.1730000737205078
 72
     1
 10
1.144221947880769
 20
0.1730000737205078
 11
1.139557746224391
 21
0.1730000737205078
 72
     1
 10
1.139557746224392
 20
0.1730000737205078
 11
1.133494284071101
 21
0.1730000737205078
 72
     1
 10
1.133494284071101
 20
0.1730000737205078
 11
1.126218129487152
 21
0.1730000737205078
 72
     1
 10
1.126218129487152
 20
0.1730000737205078
 11
1.118195702638183
 21
0.1730000737205078
 72
     1
 10
1.118195702638182
 20
0.1730000737205078
 11
1.10952028755732
 21
0.1730000737205078
 72
     1
 10
1.10952028755732
 20
0.1730000737205078
 11
1.100565020377074
 21
0.1730000737205078
 72
     1
 10
1.100565020377073
 20
0.1730000737205078
 11
1.0915164691637
 21
0.1730000737205078
 72
     1
 10
1.091516469163701
 20
0.1730000737205078
 11
1.082747770049712
 21
0.1730000737205078
 72
     1
 10
1.082747770049711
 20
0.1730000737205078
 11
1.074352207068231
 21
0.1730000737205078
 72
     1
 10
1.074352207068232
 20
0.1730000737205078
 11
1.0667962003849
 21
0.1730000737205078
 72
     1
 10
1.0667962003849
 20
0.1730000737205078
 11
1.060173034032843
 21
0.1730000737205078
 72
     1
 10
1.060173034032843
 20
0.1730000737205078
 11
1.054949128177701
 21
0.1730000737205078
 72
     1
 10
1.0549491281777
 20
0.1730000737205078
 11
1.051217766852597
 21
0.1730000737205078
 72
     1
 10
1.051217766852596
 20
0.1730000737205078
 11
1.049352086190045
 21
0.1730000737205078
 72
     1
 10
1.049352086190046
 20
0.1730000737205078
 11
1.049352086190046
 21
0.1754254585818243
 72
     1
 10
1.049352086190046
 20
0.1754254585818245
 11
1.049352086190046
 21
0.1794366720063095
 72
     1
 10
1.049352086190046
 20
0.1794366720063094
 11
1.049352086190046
 21
0.1843807257620694
 72
     1
 10
1.049352086190046
 20
0.1843807257620694
 11
1.049352086190046
 21
0.1898844837165951
 72
     1
 10
1.049352086190046
 20
0.1898844837165951
 11
1.049352086190046
 21
0.1952949576379935
 72
     1
 10
1.049352086190046
 20
0.1952949576379937
 11
1.049352086190046
 21
0.2003322954268815
 72
     1
 10
1.049352086190046
 20
0.2003322954268814
 11
1.049352086190046
 21
0.2042502248182386
 72
     1
 10
1.049352086190046
 20
0.2042502248182386
 11
1.049352086190046
 21
0.206675609679555
 72
     1
 10
1.049352086190046
 20
0.206675609679555
 11
1.051217766852597
 21
0.206675609679555
 72
     1
 10
1.051217766852596
 20
0.206675609679555
 11
1.055042412210825
 21
0.206675609679555
 72
     1
 10
1.055042412210827
 20
0.206675609679555
 11
1.060452886132226
 21
0.206675609679555
 72
     1
 10
1.060452886132225
 20
0.206675609679555
 11
1.067169336517409
 21
0.206675609679555
 72
     1
 10
1.06716933651741
 20
0.206675609679555
 11
1.075005195300124
 21
0.206675609679555
 72
     1
 10
1.075005195300123
 20
0.206675609679555
 11
1.083494042314731
 21
0.206675609679555
 72
     1
 10
1.083494042314732
 20
0.206675609679555
 11
1.092542593528105
 21
0.206675609679555
 72
     1
 10
1.092542593528106
 20
0.206675609679555
 11
1.10187099684086
 21
0.206675609679555
 72
     1
 10
1.101870996840861
 20
0.206675609679555
 11
1.111106116120489
 21
0.206675609679555
 72
     1
 10
1.111106116120488
 20
0.206675609679555
 11
1.119968099267605
 21
0.206675609679555
 72
     1
 10
1.119968099267605
 20
0.206675609679555
 11
1.128270378215957
 21
0.206675609679555
 72
     1
 10
1.128270378215957
 20
0.206675609679555
 11
1.135639816833034
 21
0.206675609679555
 72
     1
 10
1.135639816833034
 20
0.206675609679555
 11
1.14188984705258
 21
0.206675609679555
 72
     1
 10
1.141889847052581
 20
0.206675609679555
 11
1.146647332742086
 21
0.206675609679555
 72
     1
 10
1.146647332742086
 20
0.206675609679555
 11
1.149725705835295
 21
0.206675609679555
 72
     1
 10
1.149725705835296
 20
0.206675609679555
 11
1.150845114232827
 21
0.206675609679555
 72
     1
 10
1.150845114232826
 20
0.206675609679555
 11
1.150845114232826
 21
0.2277578011663822
 72
     1
 10
1.150845114232826
 20
0.2277578011663825
 11
1.148326445338383
 21
0.2277578011663825
 72
     1
 10
1.148326445338383
 20
0.2277578011663825
 11
1.025937793875031
 21
0.2277578011663825
 72
     1
 10
1.025937793875032
 20
0.2277578011663825
 11
1.025937793875032
 21
0.0926825211976832
 72
     1
 10
1.025937793875032
 20
0.0926825211976832
 11
1.155602599922332
 21
0.0926825211976832
 72
     1
 10
1.155602599922332
 20
0.0926825211976832
 11
1.155602599922332
 21
0.113671428651383
 72
     1
 10
1.155602599922332
 20
0.1136714286513832
 11
1.154483191524801
 21
0.1136714286513832
 72
     1
 10
1.154483191524799
 20
0.1136714286513832
 11
1.151218250365336
 21
0.1136714286513832
 72
     1
 10
1.151218250365338
 20
0.1136714286513832
 11
1.146180912576449
 21
0.1136714286513832
 72
     1
 10
1.146180912576449
 20
0.1136714286513832
 11
1.13965103025752
 21
0.1136714286513832
 72
     1
 10
1.13965103025752
 20
0.1136714286513832
 11
1.131908455507932
 21
0.1136714286513832
 72
     1
 10
1.131908455507931
 20
0.1136714286513832
 11
1.12323304042707
 21
0.1136714286513832
 72
     1
 10
1.123233040427071
 20
0.1136714286513832
 11
1.113904637114314
 21
0.1136714286513832
 72
     1
 10
1.113904637114314
 20
0.1136714286513832
 11
1.104296381702177
 21
0.1136714286513832
 72
     1
 10
1.104296381702177
 20
0.1136714286513832
 11
1.094501558223783
 21
0.1136714286513832
 72
     1
 10
1.094501558223784
 20
0.1136714286513832
 11
1.085079870877901
 21
0.1136714286513832
 72
     1
 10
1.085079870877899
 20
0.1136714286513832
 11
1.076124603697654
 21
0.1136714286513832
 72
     1
 10
1.076124603697655
 20
0.1136714286513832
 11
1.067915608782429
 21
0.1136714286513832
 72
     1
 10
1.067915608782429
 20
0.1136714286513832
 11
1.060919306297863
 21
0.1136714286513832
 72
     1
 10
1.060919306297863
 20
0.1136714286513832
 11
1.055228980277083
 21
0.1136714286513832
 72
     1
 10
1.055228980277082
 20
0.1136714286513832
 11
1.051311050885725
 21
0.1136714286513832
 72
     1
 10
1.051311050885726
 20
0.1136714286513832
 11
1.049352086190046
 21
0.1136714286513832
 72
     1
 10
1.049352086190046
 20
0.1136714286513832
 11
1.049352086190046
 21
0.1163766656120825
 72
     1
 10
1.049352086190046
 20
0.1163766656120823
 11
1.049352086190046
 21
0.1209475832353323
 72
     1
 10
1.049352086190046
 20
0.1209475832353325
 11
1.049352086190046
 21
0.1267311932892411
 72
     1
 10
1.049352086190046
 20
0.1267311932892408
 11
1.049352086190046
 21
0.1330745075419143
 72
     1
 10
1.049352086190046
 20
0.1330745075419144
 11
1.049352086190046
 21
0.1395111058277156
 72
     1
 10
1.049352086190046
 20
0.1395111058277158
 11
1.049352086190046
 21
0.1452947158816239
 72
     1
 10
1.049352086190046
 20
0.145294715881624
 11
1.049352086190046
 21
0.1498656335048746
 72
     1
 10
1.049352086190046
 20
0.1498656335048745
 11
1.049352086190046
 21
0.1525708704655738
 97
        0
 75
     0
 76
     1
 98
        1
 10
-0.3743130907707726
 20
-0.2500502867693841
1001
ACAD
1010
0.0
1020
0.0
1030
0.0
  0
HATCH
  5
10A7
330
10A0
100
AcDbEntity
  8
Kawneer Logo-English
100
AcDbHatch
 10
0.0
 20
0.0
 30
0.0
210
0.0
220
0.0
230
1.0
  2
SOLID
 70
     1
 71
     0
 91
        1
 92
        1
 93
       42
 72
     1
 10
0.9725793269260698
 20
0.2277578011663825
 11
0.9725793269260698
 21
0.1354998924032311
 72
     1
 10
0.9725793269260698
 20
0.1354998924032311
 11
0.9729524630585808
 21
0.1264513411898582
 72
     1
 10
0.9729524630585796
 20
0.1264513411898583
 11
0.9729524630585796
 21
0.1255185008585825
 72
     1
 10
0.9729524630585796
 20
0.1255185008585824
 11
0.9731390311248343
 21
0.1238393882622866
 72
     1
 10
0.9731390311248349
 20
0.1238393882622866
 11
0.9717397706279211
 21
0.1254252168254551
 72
     1
 10
0.97173977062792
 20
0.1254252168254551
 11
0.9710867823960281
 21
0.1262647731236031
 72
     1
 10
0.9710867823960294
 20
0.1262647731236031
 11
0.9641837639445897
 21
0.1339140638400625
 72
     1
 10
0.9641837639445899
 20
0.1339140638400624
 11
0.8755639324734129
 21
0.2277578011663823
 72
     1
 10
0.8755639324734115
 20
0.2277578011663825
 11
0.8529891964565429
 21
0.2277578011663825
 72
     1
 10
0.8529891964565434
 20
0.2277578011663825
 11
0.8529891964565434
 21
0.0926825211976832
 72
     1
 10
0.8529891964565434
 20
0.0926825211976832
 11
0.8756572165065401
 21
0.0926825211976832
 72
     1
 10
0.875657216506541
 20
0.0926825211976832
 11
0.875657216506541
 21
0.1927762887435495
 72
     1
 10
0.875657216506541
 20
0.1927762887435495
 11
0.875657216506541
 21
0.1931494248760597
 72
     1
 10
0.875657216506541
 20
0.1931494248760596
 11
0.8755639324734129
 21
0.193988981174208
 72
     1
 10
0.8755639324734115
 20
0.1939889811742079
 11
0.8754706484402849
 21
0.1952949576379935
 72
     1
 10
0.8754706484402859
 20
0.1952949576379937
 11
0.8753773644071577
 21
0.1967875021680344
 72
     1
 10
0.875377364407158
 20
0.1967875021680343
 11
0.8755639324734126
 21
0.1965076500686515
 72
     1
 10
0.8755639324734115
 20
0.1965076500686517
 11
0.8756572165065396
 21
0.1963210820023967
 72
     1
 10
0.875657216506541
 20
0.1963210820023967
 11
0.8764967728046894
 21
0.1954815257042487
 72
     1
 10
0.8764967728046887
 20
0.1954815257042488
 11
0.8781758854009835
 21
0.1936158450416976
 72
     1
 10
0.8781758854009842
 20
0.1936158450416973
 11
0.8797617139641527
 21
0.1917501643791464
 72
     1
 10
0.879761713964152
 20
0.1917501643791466
 11
0.8805079862291723
 21
0.1909106080809982
 72
     1
 10
0.8805079862291727
 20
0.190910608080998
 11
0.8816273946267036
 21
0.1897911996834678
 72
     1
 10
0.8816273946267028
 20
0.1897911996834681
 11
0.884519199653657
 21
0.1867128265902584
 72
     1
 10
0.8845191996536581
 20
0.1867128265902582
 11
0.8891834013100353
 21
0.1818620568676254
 72
     1
 10
0.889183401310035
 20
0.1818620568676252
 11
0.8951535794301982
 21
0.1756120266480794
 72
     1
 10
0.8951535794301985
 20
0.1756120266480794
 11
0.9021498819147662
 21
0.1681493039978751
 72
     1
 10
0.9021498819147669
 20
0.1681493039978752
 11
0.9099857406974814
 21
0.1598470250495227
 72
     1
 10
0.9099857406974813
 20
0.1598470250495225
 11
0.9183813036789613
 21
0.1509850419024051
 72
     1
 10
0.9183813036789612
 20
0.1509850419024052
 11
0.9271500027929521
 21
0.1418432066559046
 72
     1
 10
0.9271500027929509
 20
0.1418432066559046
 11
0.9358254178738118
 21
0.1326080873762767
 72
     1
 10
0.9358254178738132
 20
0.1326080873762767
 11
0.9442209808552931
 21
0.1237461042291589
 72
     1
 10
0.9442209808552931
 20
0.1237461042291589
 11
0.9520568396380092
 21
0.1154438252808068
 72
     1
 10
0.9520568396380092
 20
0.1154438252808068
 11
0.9590531421225751
 21
0.1079811026306025
 72
     1
 10
0.959053142122574
 20
0.1079811026306024
 11
0.9650233202427372
 21
0.101731072411056
 72
     1
 10
0.9650233202427376
 20
0.101731072411056
 11
0.9695942378659868
 21
0.0968803026884232
 72
     1
 10
0.9695942378659871
 20
0.096880302688423
 11
0.9725793269260696
 21
0.0938019295952138
 72
     1
 10
0.9725793269260698
 20
0.093801929595214
 11
0.9736054512904727
 21
0.0926825211976834
 72
     1
 10
0.9736054512904726
 20
0.0926825211976832
 11
0.9952473469760661
 21
0.0926825211976832
 72
     1
 10
0.9952473469760651
 20
0.0926825211976832
 11
0.9952473469760651
 21
0.2277578011663825
 72
     1
 10
0.9952473469760651
 20
0.2277578011663825
 11
0.9927286780816201
 21
0.2277578011663825
 72
     1
 10
0.9927286780816203
 20
0.2277578011663825
 11
0.9725793269260686
 21
0.2277578011663825
 97
        0
 75
     0
 76
     1
 98
        1
 10
-0.3743130907707726
 20
-0.2500502867693841
1001
ACAD
1010
0.0
1020
0.0
1030
0.0
  0
HATCH
  5
10A8
330
10A0
100
AcDbEntity
  8
Kawneer Logo-English
100
AcDbHatch
 10
0.0
 20
0.0
 30
0.0
210
0.0
220
0.0
230
1.0
  2
SOLID
 70
     1
 71
     0
 91
        2
 92
       16
 93
       32
 72
     1
 10
0.5269615006757409
 20
0.144641727649731
 11
0.5290137494045469
 21
0.148652941074216
 72
     1
 10
0.5290137494045464
 20
0.1486529410742159
 11
0.5322786905640116
 21
0.1551828233931449
 72
     1
 10
0.532278690564012
 20
0.1551828233931452
 11
0.5364764720547521
 21
0.1633918183083696
 72
     1
 10
0.5364764720547526
 20
0.1633918183083696
 11
0.5409541056448736
 21
0.1722538014554874
 72
     1
 10
0.5409541056448726
 20
0.1722538014554873
 11
0.545338455201869
 21
0.1808359325032223
 72
     1
 10
0.5453384552018701
 20
0.1808359325032223
 11
0.5490698165269726
 21
0.1882053711202994
 72
     1
 10
0.549069816526973
 20
0.1882053711202996
 11
0.5515884854214162
 21
0.1932427089091875
 72
     1
 10
0.5515884854214148
 20
0.1932427089091872
 11
0.5526146097858177
 21
0.1952016736048658
 72
     1
 10
0.5526146097858194
 20
0.1952016736048658
 11
0.552801177852074
 21
0.195761377803631
 72
     1
 10
0.5528011778520723
 20
0.1957613778036309
 11
0.5533608820508379
 21
0.1970673542674166
 72
     1
 10
0.5533608820508378
 20
0.1970673542674169
 11
0.5542004383489863
 21
0.1990263189630955
 72
     1
 10
0.5542004383489872
 20
0.1990263189630952
 11
0.5550399946471356
 21
0.2012651357581567
 72
     1
 10
0.5550399946471352
 20
0.2012651357581567
 11
0.5555064148127727
 21
0.2001457273606265
 72
     1
 10
0.5555064148127729
 20
0.2001457273606264
 11
0.5560661190115385
 21
0.198933034929968
 72
     1
 10
0.5560661190115379
 20
0.198933034929968
 11
0.5567191072434298
 21
0.197533774433055
 72
     1
 10
0.5567191072434304
 20
0.197533774433055
 11
0.5574653795084506
 21
0.1959479458698865
 72
     1
 10
0.557465379508451
 20
0.1959479458698865
 11
0.5583049358065995
 21
0.1942688332735902
 72
     1
 10
0.5583049358065986
 20
0.1942688332735903
 11
0.5606370366347874
 21
0.1896046316172126
 72
     1
 10
0.5606370366347871
 20
0.1896046316172126
 11
0.5639952618273804
 21
0.1828881812320289
 72
     1
 10
0.5639952618273814
 20
0.1828881812320287
 11
0.5680064752518651
 21
0.1748657543830587
 72
     1
 10
0.5680064752518637
 20
0.1748657543830589
 11
0.57239082480886
 21
0.1661903393021966
 72
     1
 10
0.5723908248088612
 20
0.1661903393021967
 11
0.5765886062996012
 21
0.1577947763207168
 72
     1
 10
0.5765886062996
 20
0.1577947763207165
 11
0.5803199676247008
 21
0.1503320536705122
 72
     1
 10
0.5803199676247015
 20
0.1503320536705122
 11
0.5831184886185295
 21
0.144641727649731
 72
     1
 10
0.5831184886185295
 20
0.144641727649731
 11
0.5791072751940441
 21
0.144641727649731
 72
     1
 10
0.5791072751940436
 20
0.144641727649731
 11
0.5724841088419869
 21
0.144641727649731
 72
     1
 10
0.5724841088419872
 20
0.144641727649731
 11
0.5641818298936356
 21
0.144641727649731
 72
     1
 10
0.5641818298936352
 20
0.144641727649731
 11
0.5550399946471351
 21
0.144641727649731
 72
     1
 10
0.5550399946471352
 20
0.144641727649731
 11
0.5458981594006351
 21
0.144641727649731
 72
     1
 10
0.5458981594006352
 20
0.144641727649731
 11
0.5375958804522815
 21
0.144641727649731
 72
     1
 10
0.5375958804522814
 20
0.144641727649731
 11
0.5310659981333528
 21
0.144641727649731
 72
     1
 10
0.5310659981333524
 20
0.144641727649731
 11
0.5269615006757405
 21
0.144641727649731
 97
        0
 92
        1
 93
      141
 72
     1
 10
0.5656743744236757
 20
0.2277578011663825
 11
0.544405614870593
 21
0.2277578011663825
 72
     1
 10
0.544405614870593
 20
0.2277578011663825
 11
0.4748157261574382
 21
0.0934287934627039
 72
     1
 10
0.4748157261574378
 20
0.0934287934627039
 11
0.4729500454948865
 21
0.0955743262246376
 72
     1
 10
0.4729500454948874
 20
0.0955743262246376
 11
0.4699649564348049
 21
0.0991191194834847
 72
     1
 10
0.4699649564348043
 20
0.0991191194834847
 11
0.4661403110765752
 21
0.1036900371067346
 72
     1
 10
0.4661403110765754
 20
0.1036900371067347
 11
0.4615693934533244
 21
0.1091005110281331
 72
     1
 10
0.461569393453325
 20
0.109100511028133
 11
0.456345487598182
 21
0.1152572572145517
 72
     1
 10
0.4563454875981812
 20
0.1152572572145516
 11
0.4506551615774008
 21
0.1219737075997353
 72
     1
 10
0.4506551615774015
 20
0.1219737075997354
 11
0.4447782674903648
 21
0.1290632941174296
 72
     1
 10
0.4447782674903636
 20
0.1290632941174296
 11
0.4387148053370722
 21
0.1362461646682511
 72
     1
 10
0.4387148053370727
 20
0.1362461646682512
 11
0.4326513431837832
 21
0.1433357511859454
 72
     1
 10
0.4326513431837844
 20
0.1433357511859453
 11
0.4268677331298759
 21
0.1502387696373844
 72
     1
 10
0.4268677331298756
 20
0.1502387696373844
 11
0.4214572592084763
 21
0.1566753679231857
 72
     1
 10
0.4214572592084754
 20
0.1566753679231858
 11
0.4165132054527153
 21
0.1625522620102216
 72
     1
 10
0.4165132054527163
 20
0.1625522620102216
 11
0.4123154239619763
 21
0.1674963157659821
 72
     1
 10
0.4123154239619753
 20
0.1674963157659822
 11
0.4088639147362555
 21
0.1715075291904667
 72
     1
 10
0.4088639147362568
 20
0.1715075291904669
 11
0.4065318139080681
 21
0.1743993342174211
 72
     1
 10
0.4065318139080665
 20
0.1743993342174211
 11
0.405319121477409
 21
0.1757985947143345
 72
     1
 10
0.4053191214774104
 20
0.1757985947143345
 11
0.4067183819743243
 21
0.1769180031118651
 72
     1
 10
0.4067183819743235
 20
0.1769180031118651
 11
0.4094236189350213
 21
0.1788769678075437
 72
     1
 10
0.4094236189350218
 20
0.1788769678075437
 11
0.4132482642932526
 21
0.1816754888013702
 72
     1
 10
0.4132482642932525
 20
0.1816754888013703
 11
0.4179124659496298
 21
0.1852202820602174
 72
     1
 10
0.417912465949629
 20
0.1852202820602174
 11
0.4232296558379
 21
0.189138211451575
 72
     1
 10
0.4232296558379001
 20
0.1891382114515751
 11
0.4291065499249351
 21
0.1935225610085696
 72
     1
 10
0.4291065499249367
 20
0.1935225610085698
 11
0.4352632961113562
 21
0.1981867626649482
 72
     1
 10
0.4352632961113554
 20
0.1981867626649479
 11
0.4416066103640296
 21
0.2028509643213252
 72
     1
 10
0.4416066103640293
 20
0.2028509643213252
 11
0.4479499246167016
 21
0.2076084500108307
 72
     1
 10
0.4479499246167018
 20
0.2076084500108307
 11
0.4540133867699932
 21
0.2120860836009535
 72
     1
 10
0.4540133867699927
 20
0.2120860836009535
 11
0.4596104287576467
 21
0.2162838650916932
 72
     1
 10
0.4596104287576468
 20
0.216283865091693
 11
0.4646477665465351
 21
0.2200152264167952
 72
     1
 10
0.464647766546535
 20
0.2200152264167951
 11
0.4689388320704013
 21
0.223186883543132
 72
     1
 10
0.4689388320704016
 20
0.2231868835431323
 11
0.4721104891967386
 21
0.2256122684044488
 72
     1
 10
0.4721104891967376
 20
0.2256122684044488
 11
0.4742560219586717
 21
0.2271980969676172
 72
     1
 10
0.4742560219586727
 20
0.2271980969676173
 11
0.475002294223693
 21
0.2277578011663825
 72
     1
 10
0.4750022942236929
 20
0.2277578011663825
 11
0.4674462875403612
 21
0.2277578011663825
 72
     1
 10
0.4674462875403611
 20
0.2277578011663825
 11
0.4395543616352215
 21
0.2277578011663825
 72
     1
 10
0.439554361635222
 20
0.2277578011663825
 11
0.4386215213039473
 21
0.2270115289013622
 72
     1
 10
0.4386215213039466
 20
0.2270115289013622
 11
0.4359162843432469
 21
0.2250525642056836
 72
     1
 10
0.4359162843432465
 20
0.2250525642056836
 11
0.4318117868856346
 21
0.2220674751456017
 72
     1
 10
0.4318117868856351
 20
0.2220674751456017
 11
0.4264013129642376
 21
0.2180562617211167
 72
     1
 10
0.4264013129642379
 20
0.2180562617211168
 11
0.4200579987115638
 21
0.2132987760316117
 72
     1
 10
0.4200579987115641
 20
0.2132987760316114
 11
0.4128751281607416
 21
0.2079815861433408
 72
     1
 10
0.4128751281607408
 20
0.2079815861433408
 11
0.4051325534111546
 21
0.20229126012256
 72
     1
 10
0.4051325534111552
 20
0.20229126012256
 11
0.397016842529058
 21
0.1963210820023964
 72
     1
 10
0.3970168425290583
 20
0.1963210820023967
 11
0.3889011316469611
 21
0.1903509038822331
 72
     1
 10
0.3889011316469611
 20
0.190350903882233
 11
0.3808787047979902
 21
0.1844740097951972
 72
     1
 10
0.3808787047979898
 20
0.1844740097951974
 11
0.3733226981146581
 21
0.1787836837744166
 72
     1
 10
0.373322698114658
 20
0.1787836837744166
 11
0.3663263956300919
 21
0.173653061952401
 72
     1
 10
0.3663263956300931
 20
0.173653061952401
 11
0.3601696494436735
 21
0.169082144329151
 72
     1
 10
0.3601696494436726
 20
0.1690821443291508
 11
0.3550390276216579
 21
0.1653507830040483
 72
     1
 10
0.3550390276216584
 20
0.1653507830040482
 11
0.3513076662965558
 21
0.1625522620102218
 72
     1
 10
0.3513076662965551
 20
0.1625522620102216
 11
0.3490688495014928
 21
0.1609664334470531
 72
     1
 10
0.3490688495014926
 20
0.1609664334470531
 11
0.3490688495014926
 21
0.1631119662089868
 72
     1
 10
0.3490688495014926
 20
0.1631119662089868
 11
0.3490688495014926
 21
0.1662836233353237
 72
     1
 10
0.3490688495014926
 20
0.1662836233353238
 11
0.3490688495014926
 21
0.1702948367598088
 72
     1
 10
0.3490688495014926
 20
0.1702948367598088
 11
0.3490688495014926
 21
0.1749590384161865
 72
     1
 10
0.3490688495014926
 20
0.1749590384161865
 11
0.3490688495014926
 21
0.1801829442713294
 72
     1
 10
0.3490688495014926
 20
0.1801829442713296
 11
0.3490688495014926
 21
0.185779986258983
 72
     1
 10
0.3490688495014926
 20
0.1857799862589829
 11
0.3490688495014926
 21
0.1916568803460187
 72
     1
 10
0.3490688495014926
 20
0.1916568803460186
 11
0.3490688495014926
 21
0.1975337744330549
 72
     1
 10
0.3490688495014926
 20
0.197533774433055
 11
0.3490688495014926
 21
0.2033173844869632
 72
     1
 10
0.3490688495014926
 20
0.2033173844869631
 11
0.3490688495014926
 21
0.2088211424414888
 72
     1
 10
0.3490688495014926
 20
0.2088211424414888
 11
0.3490688495014926
 21
0.2139517642635044
 72
     1
 10
0.3490688495014926
 20
0.2139517642635044
 11
0.3490688495014926
 21
0.2185226818867544
 72
     1
 10
0.3490688495014926
 20
0.2185226818867545
 11
0.3490688495014926
 21
0.2222540432118567
 72
     1
 10
0.3490688495014926
 20
0.2222540432118567
 11
0.3490688495014926
 21
0.2252391322719387
 72
     1
 10
0.3490688495014926
 20
0.2252391322719387
 11
0.3490688495014926
 21
0.2271048129344895
 72
     1
 10
0.3490688495014926
 20
0.2271048129344895
 11
0.3490688495014926
 21
0.2277578011663825
 72
     1
 10
0.3490688495014926
 20
0.2277578011663825
 11
0.3258411252527322
 21
0.2277578011663825
 72
     1
 10
0.3258411252527336
 20
0.2277578011663825
 11
0.3258411252527336
 21
0.0926825211976832
 72
     1
 10
0.3258411252527336
 20
0.0926825211976832
 11
0.3486957133689848
 21
0.0926825211976832
 72
     1
 10
0.3486957133689845
 20
0.0926825211976832
 11
0.3486957133689845
 21
0.0943616337939795
 72
     1
 10
0.3486957133689845
 20
0.0943616337939795
 11
0.3486957133689845
 21
0.0988392673841017
 72
     1
 10
0.3486957133689845
 20
0.0988392673841017
 11
0.3486957133689845
 21
0.1051825816367752
 72
     1
 10
0.3486957133689845
 20
0.1051825816367753
 11
0.3486957133689845
 21
0.1125520202538523
 72
     1
 10
0.3486957133689845
 20
0.1125520202538524
 11
0.3486957133689845
 21
0.1200147429040567
 72
     1
 10
0.3486957133689845
 20
0.1200147429040567
 11
0.3486957133689845
 21
0.1267311932892408
 72
     1
 10
0.3486957133689845
 20
0.1267311932892408
 11
0.3486957133689845
 21
0.1317685310781287
 72
     1
 10
0.3486957133689845
 20
0.1317685310781289
 11
0.3486957133689845
 21
0.1342871999725727
 72
     1
 10
0.3486957133689845
 20
0.1342871999725725
 11
0.3507479620977905
 21
0.1356864604694859
 72
     1
 10
0.35074796209779
 20
0.1356864604694859
 11
0.3548524595554018
 21
0.1387648335626952
 72
     1
 10
0.3548524595554015
 20
0.1387648335626952
 11
0.3605427855761835
 21
0.1428693310203079
 72
     1
 10
0.3605427855761842
 20
0.1428693310203079
 11
0.3668860998288565
 21
0.1476268167098129
 72
     1
 10
0.3668860998288568
 20
0.1476268167098129
 11
0.373322698114659
 21
0.1522910183661906
 72
     1
 10
0.373322698114658
 20
0.1522910183661908
 11
0.3791995922016947
 21
0.1565820838900582
 72
     1
 10
0.3791995922016946
 20
0.1565820838900582
 11
0.3836772257918156
 21
0.1599403090826502
 72
     1
 10
0.3836772257918159
 20
0.1599403090826503
 11
0.386195894686261
 21
0.1618059897452011
 72
     1
 10
0.3861958946862609
 20
0.1618059897452011
 11
0.3873153030837921
 21
0.1604067292482882
 72
     1
 10
0.3873153030837915
 20
0.1604067292482878
 11
0.3894608358457238
 21
0.1577947763207163
 72
     1
 10
0.3894608358457248
 20
0.1577947763207165
 11
0.3925392089389353
 21
0.1541566990287417
 72
     1
 10
0.3925392089389348
 20
0.1541566990287417
 11
0.396457138330292
 21
0.149492497372364
 72
     1
 10
0.3964571383302933
 20
0.149492497372364
 11
0.4009347719204161
 21
0.1442685915172211
 72
     1
 10
0.4009347719204146
 20
0.1442685915172209
 11
0.4057855416430466
 21
0.138391697430185
 72
     1
 10
0.4057855416430463
 20
0.1383916974301853
 11
0.4109161634650628
 21
0.1322349512437666
 72
     1
 10
0.410916163465064
 20
0.1322349512437666
 11
0.4162333533533335
 21
0.1259849210242201
 72
     1
 10
0.4162333533533334
 20
0.1259849210242201
 11
0.4215505432416044
 21
0.1196416067715466
 72
     1
 10
0.4215505432416045
 20
0.1196416067715466
 11
0.4265878810304927
 21
0.113671428651383
 72
     1
 10
0.4265878810304931
 20
0.1136714286513832
 11
0.4312520826868704
 21
0.1079811026306024
 72
     1
 10
0.4312520826868696
 20
0.1079811026306024
 11
0.4355431482107378
 21
0.1029437648417141
 72
     1
 10
0.435543148210738
 20
0.1029437648417139
 11
0.4390879414695842
 21
0.0987459833509739
 72
     1
 10
0.4390879414695843
 20
0.0987459833509741
 11
0.4417931784302841
 21
0.0954810421915098
 72
     1
 10
0.4417931784302845
 20
0.0954810421915096
 11
0.4435655750597076
 21
0.0934287934627037
 72
     1
 10
0.4435655750597074
 20
0.0934287934627039
 11
0.4442185632915993
 21
0.0926825211976832
 72
     1
 10
0.4442185632915985
 20
0.0926825211976832
 11
0.4743493059918004
 21
0.0926825211976832
 72
     1
 10
0.4743493059918001
 20
0.0926825211976832
 11
0.4753754303562029
 21
0.0926825211976832
 72
     1
 10
0.4753754303562033
 20
0.0926825211976832
 11
0.5008419714000258
 21
0.0926825211976832
 72
     1
 10
0.5008419714000265
 20
0.0926825211976832
 11
0.5014949596319184
 21
0.0939884976614689
 72
     1
 10
0.501494959631919
 20
0.0939884976614688
 11
0.5031740722282155
 21
0.0973467228540609
 72
     1
 10
0.503174072228215
 20
0.0973467228540612
 11
0.5055061730564038
 21
0.1021042085435666
 72
     1
 10
0.505506173056403
 20
0.1021042085435665
 11
0.5083046940502291
 21
0.1077012505312196
 72
     1
 10
0.5083046940502292
 20
0.1077012505312194
 11
0.5111032150440553
 21
0.1134848605851279
 72
     1
 10
0.5111032150440549
 20
0.1134848605851281
 11
0.5137151679716264
 21
0.1186154824071433
 72
     1
 10
0.5137151679716277
 20
0.1186154824071433
 11
0.5156741326673071
 21
0.1226266958316283
 72
     1
 10
0.5156741326673076
 20
0.122626695831628
 11
0.5167002570317104
 21
0.1247722285935621
 72
     1
 10
0.5167002570317103
 20
0.1247722285935622
 11
0.5180062334954961
 21
0.1247722285935622
 72
     1
 10
0.5180062334954961
 20
0.1247722285935622
 11
0.5207114704561957
 21
0.1247722285935622
 72
     1
 10
0.5207114704561944
 20
0.1247722285935622
 11
0.5246293998475517
 21
0.1247722285935622
 72
     1
 10
0.5246293998475525
 20
0.1247722285935622
 11
0.5295734536033125
 21
0.1247722285935622
 72
     1
 10
0.5295734536033115
 20
0.1247722285935622
 11
0.5352637796240919
 21
0.1247722285935622
 72
     1
 10
0.5352637796240929
 20
0.1247722285935622
 11
0.5415138098436386
 21
0.1247722285935622
 72
     1
 10
0.5415138098436394
 20
0.1247722285935622
 11
0.5482302602288245
 21
0.1247722285935622
 72
     1
 10
0.5482302602288236
 20
0.1247722285935622
 11
0.5551332786802616
 21
0.1247722285935622
 72
     1
 10
0.5551332786802608
 20
0.1247722285935622
 11
0.5620362971317004
 21
0.1247722285935622
 72
     1
 10
0.5620362971317015
 20
0.1247722285935622
 11
0.5687527475168847
 21
0.1247722285935622
 72
     1
 10
0.5687527475168839
 20
0.1247722285935622
 11
0.5750027777364317
 21
0.1247722285935622
 72
     1
 10
0.5750027777364322
 20
0.1247722285935622
 11
0.5806931037572126
 21
0.1247722285935622
 72
     1
 10
0.5806931037572119
 20
0.1247722285935622
 11
0.585637157512972
 21
0.1247722285935622
 72
     1
 10
0.5856371575129727
 20
0.1247722285935622
 11
0.5895550869043299
 21
0.1247722285935622
 72
     1
 10
0.5895550869043289
 20
0.1247722285935622
 11
0.5922603238650286
 21
0.1247722285935622
 72
     1
 10
0.5922603238650291
 20
0.1247722285935622
 11
0.5935663003288148
 21
0.1247722285935622
 72
     1
 10
0.5935663003288148
 20
0.1247722285935622
 11
0.5945924246932176
 21
0.1226266958316281
 72
     1
 10
0.5945924246932175
 20
0.122626695831628
 11
0.5965513893888953
 21
0.1186154824071431
 72
     1
 10
0.5965513893888957
 20
0.1186154824071433
 11
0.5991633423164672
 21
0.1134848605851281
 72
     1
 10
0.5991633423164667
 20
0.1134848605851281
 11
0.6019618633102946
 21
0.1077012505312196
 72
     1
 10
0.6019618633102959
 20
0.1077012505312194
 11
0.604760384304122
 21
0.1021042085435664
 72
     1
 10
0.6047603843041221
 20
0.1021042085435665
 11
0.6070924851323109
 21
0.0973467228540611
 72
     1
 10
0.6070924851323101
 20
0.0973467228540612
 11
0.6087715977286067
 21
0.0939884976614691
 72
     1
 10
0.6087715977286062
 20
0.0939884976614688
 11
0.609424585960498
 21
0.0926825211976832
 72
     1
 10
0.6094245859604986
 20
0.0926825211976832
 11
0.6363836715343633
 21
0.0926825211976832
 72
     1
 10
0.6363836715343641
 20
0.0926825211976832
 11
0.5671669189537184
 21
0.2277578011663825
 72
     1
 10
0.5671669189537179
 20
0.2277578011663825
 11
0.5656743744236758
 21
0.2277578011663825
 97
        0
 75
     0
 76
     1
 98
        1
 10
-0.3743130907707726
 20
-0.2500502867693841
1001
ACAD
1010
0.0
1020
0.0
1030
0.0
  0
HATCH
  5
10A9
330
10A0
100
AcDbEntity
  8
Kawneer Logo-English
100
AcDbHatch
 10
0.0
 20
0.0
 30
0.0
210
0.0
220
0.0
230
1.0
  2
SOLID
 70
     1
 71
     0
 91
        1
 92
        1
 93
       69
 72
     1
 10
0.8092389849197205
 20
0.2277578011663825
 11
0.778921674153266
 21
0.1309289747799811
 72
     1
 10
0.778921674153267
 20
0.1309289747799809
 11
0.7781754018882468
 21
0.1287834420180468
 72
     1
 10
0.7781754018882468
 20
0.1287834420180467
 11
0.7776156976894812
 21
0.1270110453886236
 72
     1
 10
0.7776156976894813
 20
0.1270110453886237
 11
0.7771492775238438
 21
0.1253319327923275
 72
     1
 10
0.7771492775238436
 20
0.1253319327923274
 11
0.7766828573582045
 21
0.1238393882622867
 72
     1
 10
0.7766828573582046
 20
0.1238393882622866
 11
0.7764030052588217
 21
0.1248655126266895
 72
     1
 10
0.776403005258822
 20
0.1248655126266896
 11
0.7761231531594392
 21
0.1259849210242202
 72
     1
 10
0.7761231531594391
 20
0.1259849210242201
 11
0.7759365850931844
 21
0.1268244773223681
 72
     1
 10
0.7759365850931843
 20
0.1268244773223682
 11
0.7758433010600562
 21
0.1271976134548783
 72
     1
 10
0.7758433010600552
 20
0.1271976134548783
 11
0.7755634489606744
 21
0.1280371697530267
 72
     1
 10
0.775563448960674
 20
0.1280371697530267
 11
0.7750970287950349
 21
0.1291565781505569
 72
     1
 10
0.7750970287950363
 20
0.1291565781505568
 11
0.773977620397507
 21
0.1323282352768938
 72
     1
 10
0.7739776203975062
 20
0.1323282352768939
 11
0.7721119397349549
 21
0.1372722890326544
 72
     1
 10
0.7721119397349554
 20
0.1372722890326546
 11
0.7697798389067666
 21
0.1436156032853281
 72
     1
 10
0.769779838906767
 20
0.1436156032853281
 11
0.7670746019460673
 21
0.1511716099686602
 72
     1
 10
0.7670746019460668
 20
0.15117160996866
 11
0.7639962288528581
 21
0.1595671729501399
 72
     1
 10
0.7639962288528582
 20
0.15956717295014
 11
0.7606380036602665
 21
0.1686157241635125
 72
     1
 10
0.7606380036602652
 20
0.1686157241635125
 11
0.7572797784676718
 21
0.1778508434431408
 72
     1
 10
0.7572797784676726
 20
0.1778508434431408
 11
0.753921553275081
 21
0.187179246755896
 72
     1
 10
0.7539215532750814
 20
0.1871792467558961
 11
0.7505633280824898
 21
0.1962277979692689
 72
     1
 10
0.7505633280824902
 20
0.1962277979692689
 11
0.7474849549892814
 21
0.2046233609507488
 72
     1
 10
0.7474849549892797
 20
0.2046233609507488
 11
0.74477971802858
 21
0.2121793676340809
 72
     1
 10
0.7447797180285814
 20
0.2121793676340809
 11
0.7424476172003926
 21
0.2185226818867544
 72
     1
 10
0.7424476172003929
 20
0.2185226818867545
 11
0.7405819365378416
 21
0.2234667356425151
 72
     1
 10
0.7405819365378408
 20
0.2234667356425151
 11
0.7394625281403098
 21
0.2266383927688516
 72
     1
 10
0.7394625281403103
 20
0.2266383927688516
 11
0.7390893920078009
 21
0.2277578011663822
 72
     1
 10
0.7390893920078004
 20
0.2277578011663825
 11
0.7191266089185034
 21
0.2277578011663825
 72
     1
 10
0.7191266089185029
 20
0.2277578011663825
 11
0.6843316645619254
 21
0.1336342117406798
 72
     1
 10
0.6843316645619267
 20
0.1336342117406795
 11
0.6832122561643957
 21
0.130649122680598
 72
     1
 10
0.6832122561643961
 20
0.1306491226805981
 11
0.6823726998662476
 21
0.1282237378192816
 72
     1
 10
0.6823726998662468
 20
0.1282237378192818
 11
0.6817197116343549
 21
0.1260782050573481
 72
     1
 10
0.6817197116343552
 20
0.1260782050573481
 11
0.6811600074355896
 21
0.1241192403616695
 72
     1
 10
0.6811600074355884
 20
0.1241192403616695
 11
0.6808801553362055
 21
0.1250520806929446
 72
     1
 10
0.6808801553362059
 20
0.1250520806929445
 11
0.6805070192036949
 21
0.1261714890904751
 72
     1
 10
0.680507019203696
 20
0.1261714890904752
 11
0.6802271671043131
 21
0.1272908974880058
 72
     1
 10
0.680227167104313
 20
0.1272908974880061
 11
0.6798540309718037
 21
0.1286901579849195
 72
     1
 10
0.6798540309718031
 20
0.1286901579849194
 11
0.6794808948392922
 21
0.12980956638245
 72
     1
 10
0.6794808948392932
 20
0.1298095663824503
 11
0.6784547704748904
 21
0.1328879394756595
 72
     1
 10
0.67845477047489
 20
0.1328879394756595
 11
0.6769622259448497
 21
0.1378319932314196
 72
     1
 10
0.6769622259448496
 20
0.1378319932314196
 11
0.6750032612491701
 21
0.1441753074840938
 72
     1
 10
0.6750032612491697
 20
0.1441753074840937
 11
0.6725778763878547
 21
0.1516380301342981
 72
     1
 10
0.6725778763878556
 20
0.1516380301342981
 11
0.6699659234602841
 21
0.160033593115778
 72
     1
 10
0.6699659234602829
 20
0.160033593115778
 11
0.6671674024664549
 21
0.168988860296023
 72
     1
 10
0.6671674024664554
 20
0.168988860296023
 11
0.6642755974395012
 21
0.1782239795756509
 72
     1
 10
0.6642755974395019
 20
0.178223979575651
 11
0.6613837924125477
 21
0.1874590988552789
 72
     1
 10
0.6613837924125466
 20
0.1874590988552789
 11
0.6585852714187205
 21
0.1964143660355239
 72
     1
 10
0.6585852714187204
 20
0.1964143660355237
 11
0.6559733184911489
 21
0.2047166449838762
 72
     1
 10
0.6559733184911494
 20
0.2047166449838765
 11
0.6536412176629606
 21
0.2122726516672082
 72
     1
 10
0.6536412176629614
 20
0.2122726516672082
 11
0.6515889689341538
 21
0.2186159659198823
 72
     1
 10
0.6515889689341537
 20
0.2186159659198821
 11
0.6500964244041133
 21
0.2234667356425149
 72
     1
 10
0.6500964244041132
 20
0.2234667356425151
 11
0.6490703000397104
 21
0.2266383927688516
 72
     1
 10
0.6490703000397105
 20
0.2266383927688516
 11
0.6487904479403276
 21
0.2277578011663822
 72
     1
 10
0.648790447940328
 20
0.2277578011663825
 11
0.6237903270621445
 21
0.2277578011663825
 72
     1
 10
0.6237903270621437
 20
0.2277578011663825
 11
0.6676338226320932
 21
0.0926825211976832
 72
     1
 10
0.6676338226320926
 20
0.0926825211976832
 11
0.6922608073777669
 21
0.0926825211976832
 72
     1
 10
0.6922608073777666
 20
0.0926825211976832
 11
0.726029627369941
 21
0.1855001341596003
 72
     1
 10
0.7260296273699423
 20
0.1855001341596003
 11
0.7269624677012189
 21
0.1882986551534267
 72
     1
 10
0.7269624677012177
 20
0.1882986551534266
 11
0.7278020239993661
 21
0.1906307559816158
 72
     1
 10
0.727802023999367
 20
0.1906307559816159
 11
0.7284550122312589
 21
0.1927762887435496
 72
     1
 10
0.7284550122312581
 20
0.1927762887435495
 11
0.7290147164300237
 21
0.1947352534392281
 72
     1
 10
0.7290147164300232
 20
0.1947352534392282
 11
0.7298542727281716
 21
0.192216584544784
 72
     1
 10
0.729854272728173
 20
0.1922165845447839
 11
0.7306938290263214
 21
0.1894180635509575
 72
     1
 10
0.7306938290263206
 20
0.1894180635509575
 11
0.7318132374238499
 21
0.1863396904577483
 72
     1
 10
0.7318132374238511
 20
0.1863396904577481
 11
0.7331192138876387
 21
0.1827016131657736
 72
     1
 10
0.7331192138876382
 20
0.1827016131657737
 11
0.7654887733828987
 21
0.0926825211976834
 72
     1
 10
0.7654887733828986
 20
0.0926825211976832
 11
0.7895560539298075
 21
0.0926825211976832
 72
     1
 10
0.7895560539298075
 20
0.0926825211976832
 11
0.8341458217647785
 21
0.2277578011663825
 72
     1
 10
0.8341458217647783
 20
0.2277578011663825
 11
0.830601028505932
 21
0.2277578011663825
 72
     1
 10
0.8306010285059324
 20
0.2277578011663825
 11
0.8092389849197216
 21
0.2277578011663825
 97
        0
 75
     0
 76
     1
 98
        1
 10
-0.3743130907707726
 20
-0.2500502867693841
1001
ACAD
1010
0.0
1020
0.0
1030
0.0
  0
ENDBLK
  5
10AD
330
10A0
100
AcDbEntity
  8
0
100
AcDbBlockEnd
  0
ENDSEC
  0
SECTION
  2
ENTITIES
  0
DIMENSION
  5
389
330
1F
100
AcDbEntity
  8
R-ANNO-DIMS
100
AcDbDimension
  2
*D2
 10
20.66848265716838
 20
11.39520349274576
 30
0.0
 11
20.66848265716838
 21
12.85570617155215
 31
0.0
 70
   160
 71
     5
 42
2.999500000000002
  3
Standard
100
AcDbAlignedDimension
 13
20.46145184744977
 23
14.39470349274576
 33
0.0
 14
17.93022068789552
 24
11.39520349274576
 34
0.0
 50
90.0
100
AcDbRotatedDimension
1001
ACAD
1000
DSTYLE
1002
{
1070
   140
1040
0.25
1002
}
  0
LEADER
  5
38A
330
1F
100
AcDbEntity
  8
PART_NUMBERS
100
AcDbLeader
  3
Standard
 76
     3
 10
18.93728098049013
 20
10.93792987734096
 30
0.0
 10
17.66836674355377
 20
10.20175959861765
 30
0.0
 10
18.10498236629232
 20
10.20175959861765
 30
0.0
  0
LEADER
  5
38B
330
1F
100
AcDbEntity
  8
PART_NUMBERS
100
AcDbLeader
  3
Standard
 76
     3
 10
18.37724160600672
 20
16.42397207337662
 30
0.0
 10
18.18622234250358
 20
17.90994533147899
 30
0.0
 10
17.92698170933511
 20
17.90994533147899
 30
0.0
  0
LINE
  5
38C
330
1F
100
AcDbEntity
  8
R-SWTS-DET2
  6
HIDDEN
 48
0.25
100
AcDbLine
 10
17.36472068789552
 20
15.95770349274576
 30
0.0
 11
18.58472068789552
 21
15.95770349274576
 31
0.0
  0
LINE
  5
38D
330
1F
100
AcDbEntity
  8
R-SWTS-DET2
  6
HIDDEN
 48
0.25
100
AcDbLine
 10
17.36472068789552
 20
15.70770349274576
 30
0.0
 11
18.58472068789552
 21
15.70770349274576
 31
0.0
  0
LINE
  5
38E
330
1F
100
AcDbEntity
  8
R-SWTS-DET2
  6
HIDDEN
 48
0.25
100
AcDbLine
 10
17.36472068789552
 20
12.83170349274576
 30
0.0
 11
18.58472068789552
 21
12.83170349274576
 31
0.0
  0
LINE
  5
38F
330
1F
100
AcDbEntity
  8
R-SWTS-DET2
  6
HIDDEN
 48
0.25
100
AcDbLine
 10
17.36472068789552
 20
13.08170349274576
 30
0.0
 11
18.58472068789552
 21
13.08170349274576
 31
0.0
  0
LWPOLYLINE
  5
390
330
1F
100
AcDbEntity
  8
R-SWTS-DET1
100
AcDbPolyline
 90
        8
 70
     1
 43
0.0
 10
16.81122068789552
 20
17.27020349274576
 42
-0.4142135623730951
 10
16.93622068789552
 20
17.39520349274576
 10
17.93022068789552
 20
17.39520349274576
 42
-0.4142135623730951
 10
18.05522068789552
 20
17.27020349274576
 10
18.05522068789552
 20
11.52020349274576
 42
-0.4142135623730951
 10
17.93022068789552
 20
11.39520349274576
 10
16.93622068789552
 20
11.39520349274576
 42
-0.4142135623730951
 10
16.81122068789552
 20
11.52020349274576
  0
TEXT
  5
399
330
1F
100
AcDbEntity
  8
0
100
AcDbText
 10
16.31487060409692
 20
25.44722765431237
 30
0.0
 40
0.25
  1
DETAIL SIMILAR ON OPPOSITE END
100
AcDbText
  0
TEXT
  5
39A
330
1F
100
AcDbEntity
  8
0
100
AcDbText
 10
16.28373045402128
 20
24.7390697690601
 30
0.0
 40
0.25
  1
ASSEMBLY SEQUENCE:
  7
MONOTXT
100
AcDbText
  0
TEXT
  5
39B
330
1F
100
AcDbEntity
  8
0
100
AcDbText
 10
16.28373045402128
 20
25.91003571304111
 30
0.0
 40
0.375
  1
FACE MOUNTING DETAIL
  7
MONOTXT
100
AcDbText
  0
LINE
  5
39C
330
1F
100
AcDbEntity
  8
CENTER
 48
0.5
100
AcDbLine
 10
18.96609046554165
 20
15.83270349274576
 30
0.0
 11
17.25040130640484
 21
15.83270349274576
 31
0.0
  0
LINE
  5
39D
330
1F
100
AcDbEntity
  8
CENTER
 48
0.5
100
AcDbLine
 10
18.997284794165
 20
12.95670349274576
 30
0.0
 11
17.24148852054473
 21
12.95670349274576
 31
0.0
  0
LINE
  5
39E
330
1F
100
AcDbEntity
  8
CENTER
  6
CENTER
 62
     1
 48
0.5
100
AcDbLine
 10
17.7065763865929
 20
14.39470349274576
 30
0.0
 11
20.46145184744977
 21
14.39470349274576
 31
0.0
  0
LINE
  5
39F
330
1F
100
AcDbEntity
  8
0
100
AcDbLine
 10
-0.0000000467853027
 20
0.0000000196675174
 30
0.0
 11
-0.0000000467853027
 21
29.32390280504473
 31
0.0
  0
LWPOLYLINE
  5
3A0
330
1F
100
AcDbEntity
  8
R-SWTS-DET2
100
AcDbPolyline
 90
        6
 70
     1
 43
0.0
 10
7.054956638668791
 20
17.40520349274575
 42
0.4142135623730943
 10
6.929956638668784
 20
17.28020349274575
 10
6.929956638668784
 20
11.53020349274575
 42
0.4142135623730951
 10
7.054956638668791
 20
11.40520349274575
 10
7.116956638668781
 20
11.40520349274575
 10
7.116956638668781
 20
17.40520349274575
  0
LINE
  5
3A1
330
1F
100
AcDbEntity
  8
R-SWTS-DET2
  6
HIDDEN
 48
0.25
100
AcDbLine
 10
17.33472068789552
 20
13.05170349274576
 30
0.0
 11
17.33472068789552
 21
12.86170349274576
 31
0.0
  0
LINE
  5
3A2
330
1F
100
AcDbEntity
  8
R-SWTS-DET2
  6
HIDDEN
 48
0.25
100
AcDbLine
 10
17.36472068789552
 20
13.08170349274576
 30
0.0
 11
17.36472068789552
 21
12.83170349274576
 31
0.0
  0
CIRCLE
  5
3A3
330
1F
100
AcDbEntity
  8
R-SWTS-DET2
  6
HIDDEN
100
AcDbCircle
 10
7.804956638668784
 20
12.95670349274576
 30
0.0
 40
0.3125
  0
CIRCLE
  5
3A4
330
1F
100
AcDbEntity
  8
R-SWTS-DET2
  6
HIDDEN
100
AcDbCircle
 10
7.804956638668784
 20
12.95670349274576
 30
0.0
 40
0.283
  0
LINE
  5
3A5
330
1F
100
AcDbEntity
  8
R-SWTS-DET2
  6
HIDDEN
100
AcDbLine
 10
8.237456638668774
 20
12.39470349274576
 30
0.0
 11
8.237456638668774
 21
16.40470349274576
 31
0.0
  0
LINE
  5
3A6
330
1F
100
AcDbEntity
  8
R-SWTS-DET2
  6
HIDDEN
100
AcDbLine
 10
7.372456638668779
 20
16.40470349274576
 30
0.0
 11
7.372456638668779
 21
12.39470349274576
 31
0.0
  0
LWPOLYLINE
  5
3A7
330
1F
100
AcDbEntity
  8
R-SWTS-DET2
  6
HIDDEN
 48
0.5
100
AcDbPolyline
 90
        4
 70
     0
 43
0.0
 10
7.116956638668781
 20
17.27020349274576
 10
7.637956638668789
 20
17.27020349274576
 10
7.637956638668789
 20
11.54020349274575
 10
7.116956638668789
 20
11.54020349274575
  0
CIRCLE
  5
3A8
330
1F
100
AcDbEntity
  8
R-SWTS-DET2
  6
HIDDEN
 48
0.25
100
AcDbCircle
 10
7.804956638668784
 20
12.95770349274576
 30
0.0
 40
0.125
  0
CIRCLE
  5
3A9
330
1F
100
AcDbEntity
  8
R-SWTS-DET2
  6
HIDDEN
100
AcDbCircle
 10
7.804956638668784
 20
12.95770349274576
 30
0.0
 40
0.095
  0
LWPOLYLINE
  5
3AA
330
1F
100
AcDbEntity
  8
R-SWTS-DET1
100
AcDbPolyline
 90
       36
 70
     1
 43
0.0
 10
16.93622068789552
 20
13.34820349274576
 10
17.13122068789552
 20
13.34820349274576
 42
1.0
 10
17.13122068789552
 20
13.44220349274576
 10
16.93622068789552
 20
13.44220349274576
 10
16.93622068789552
 20
15.34820349274576
 10
17.13122068789552
 20
15.34820349274576
 42
1.0
 10
17.13122068789552
 20
15.44220349274576
 10
16.93622068789552
 20
15.44220349274576
 10
16.93622068789552
 20
17.27020349274576
 10
17.08422068789552
 20
17.27020349274576
 10
17.08422068789552
 20
17.06720349274576
 42
1.0
 10
17.17822068789552
 20
17.06720349274576
 10
17.17822068789552
 20
17.27020349274576
 10
17.68822068789552
 20
17.27020349274576
 10
17.68822068789552
 20
17.06720349274576
 42
1.0
 10
17.78222068789552
 20
17.06720349274576
 10
17.78222068789552
 20
17.27020349274576
 10
17.93022068789552
 20
17.27020349274576
 10
17.93022068789552
 20
15.44220349274576
 10
17.73522068789552
 20
15.44220349274576
 42
1.0
 10
17.73522068789552
 20
15.34820349274576
 10
17.93022068789552
 20
15.34820349274576
 10
17.93022068789552
 20
13.44220349274576
 10
17.73522068789552
 20
13.44220349274576
 42
1.0
 10
17.73522068789552
 20
13.34820349274576
 10
17.93022068789552
 20
13.34820349274576
 10
17.93022068789552
 20
11.52020349274576
 10
17.78222068789552
 20
11.52020349274576
 10
17.78222068789552
 20
11.72320349274576
 42
1.0
 10
17.68822068789552
 20
11.72320349274576
 10
17.68822068789552
 20
11.52020349274576
 10
17.17822068789552
 20
11.52020349274576
 10
17.17822068789552
 20
11.72320349274576
 42
1.0
 10
17.08422068789552
 20
11.72320349274576
 10
17.08422068789552
 20
11.52020349274576
 10
16.93622068789552
 20
11.52020349274576
  0
LINE
  5
3AB
330
1F
100
AcDbEntity
  8
R-SWTS-DET1
100
AcDbLine
 10
7.116956638668781
 20
17.39520349274576
 30
0.0
 11
7.116956638668781
 21
11.39520349274576
 31
0.0
  0
POLYLINE
  5
3AC
330
1F
100
AcDbEntity
  8
R-SWTS-DET1
100
AcDb2dPolyline
 66
     1
 10
0.0
 20
0.0
 30
0.0
 70
     4
 75
     6
  0
VERTEX
  5
3AD
330
3AC
100
AcDbEntity
  8
R-SWTS-DET1
100
AcDbVertex
100
AcDb2dVertex
 10
9.716984125090661
 20
17.39520349274576
 30
0.0
 70
    16
  0
VERTEX
  5
3AE
330
3AC
100
AcDbEntity
  8
R-SWTS-DET1
100
AcDbVertex
100
AcDb2dVertex
 10
9.716984125090661
 20
17.39520349274576
 30
0.0
 70
     8
  0
VERTEX
  5
3AF
330
3AC
100
AcDbEntity
  8
R-SWTS-DET1
100
AcDbVertex
100
AcDb2dVertex
 10
9.627474615842693
 20
17.24917768312296
 30
0.0
 70
     8
  0
VERTEX
  5
3B0
330
3AC
100
AcDbEntity
  8
R-SWTS-DET1
100
AcDbVertex
100
AcDb2dVertex
 10
9.573904371109478
 20
17.12134502430638
 30
0.0
 70
     8
  0
VERTEX
  5
3B1
330
3AC
100
AcDbEntity
  8
R-SWTS-DET1
100
AcDbVertex
100
AcDb2dVertex
 10
9.54954271587783
 20
17.00917900057685
 30
0.0
 70
     8
  0
VERTEX
  5
3B2
330
3AC
100
AcDbEntity
  8
R-SWTS-DET1
100
AcDbVertex
100
AcDb2dVertex
 10
9.547658975134552
 20
16.91015309621523
 30
0.0
 70
     8
  0
VERTEX
  5
3B3
330
3AC
100
AcDbEntity
  8
R-SWTS-DET1
100
AcDbVertex
100
AcDb2dVertex
 10
9.561522473866453
 20
16.82174079550236
 30
0.0
 70
     8
  0
VERTEX
  5
3B4
330
3AC
100
AcDbEntity
  8
R-SWTS-DET1
100
AcDbVertex
100
AcDb2dVertex
 10
9.584402537060348
 20
16.74141558271908
 30
0.0
 70
     8
  0
VERTEX
  5
3B5
330
3AC
100
AcDbEntity
  8
R-SWTS-DET1
100
AcDbVertex
100
AcDb2dVertex
 10
9.60956848970304
 20
16.66665094214623
 30
0.0
 70
     8
  0
VERTEX
  5
3B6
330
3AC
100
AcDbEntity
  8
R-SWTS-DET1
100
AcDbVertex
100
AcDb2dVertex
 10
9.630289656781336
 20
16.59492035806466
 30
0.0
 70
     8
  0
VERTEX
  5
3B7
330
3AC
100
AcDbEntity
  8
R-SWTS-DET1
100
AcDbVertex
100
AcDb2dVertex
 10
9.641359289701576
 20
16.52409725317282
 30
0.0
 70
     8
  0
VERTEX
  5
3B8
330
3AC
100
AcDbEntity
  8
R-SWTS-DET1
100
AcDbVertex
100
AcDb2dVertex
 10
9.643666345548197
 20
16.45365480383962
 30
0.0
 70
     8
  0
VERTEX
  5
3B9
330
3AC
100
AcDbEntity
  8
R-SWTS-DET1
100
AcDbVertex
100
AcDb2dVertex
 10
9.639623707825158
 20
16.38346612485154
 30
0.0
 70
     8
  0
VERTEX
  5
3BA
330
3AC
100
AcDbEntity
  8
R-SWTS-DET1
100
AcDbVertex
100
AcDb2dVertex
 10
9.631644260036431
 20
16.31340433099511
 30
0.0
 70
     8
  0
VERTEX
  5
3BB
330
3AC
100
AcDbEntity
  8
R-SWTS-DET1
100
AcDbVertex
100
AcDb2dVertex
 10
9.622140885685968
 20
16.24334253705682
 30
0.0
 70
     8
  0
VERTEX
  5
3BC
330
3AC
100
AcDbEntity
  8
R-SWTS-DET1
100
AcDbVertex
100
AcDb2dVertex
 10
9.61352646827774
 20
16.17315385782319
 30
0.0
 70
     8
  0
VERTEX
  5
3BD
330
3AC
100
AcDbEntity
  8
R-SWTS-DET1
100
AcDbVertex
100
AcDb2dVertex
 10
9.60821389131571
 20
16.10271140808071
 30
0.0
 70
     8
  0
VERTEX
  5
3BE
330
3AC
100
AcDbEntity
  8
R-SWTS-DET1
100
AcDbVertex
100
AcDb2dVertex
 10
9.608616038303839
 20
16.03188830261589
 30
0.0
 70
     8
  0
VERTEX
  5
3BF
330
3AC
100
AcDbEntity
  8
R-SWTS-DET1
100
AcDbVertex
100
AcDb2dVertex
 10
9.616394412357852
 20
15.96062109882881
 30
0.0
 70
     8
  0
VERTEX
  5
3C0
330
3AC
100
AcDbEntity
  8
R-SWTS-DET1
100
AcDbVertex
100
AcDb2dVertex
 10
9.630204995040507
 20
15.88910012457381
 30
0.0
 70
     8
  0
VERTEX
  5
3C1
330
3AC
100
AcDbEntity
  8
R-SWTS-DET1
100
AcDbVertex
100
AcDb2dVertex
 10
9.647952387526327
 20
15.81757915031881
 30
0.0
 70
     8
  0
VERTEX
  5
3C2
330
3AC
100
AcDbEntity
  8
R-SWTS-DET1
100
AcDbVertex
100
AcDb2dVertex
 10
9.667541190989826
 20
15.74631194653172
 30
0.0
 70
     8
  0
VERTEX
  5
3C3
330
3AC
100
AcDbEntity
  8
R-SWTS-DET1
100
AcDbVertex
100
AcDb2dVertex
 10
9.68687600660553
 20
15.67555228368048
 30
0.0
 70
     8
  0
VERTEX
  5
3C4
330
3AC
100
AcDbEntity
  8
R-SWTS-DET1
100
AcDbVertex
100
AcDb2dVertex
 10
9.703861435547949
 20
15.60555393223298
 30
0.0
 70
     8
  0
VERTEX
  5
3C5
330
3AC
100
AcDbEntity
  8
R-SWTS-DET1
100
AcDbVertex
100
AcDb2dVertex
 10
9.716402078991613
 20
15.53657066265714
 30
0.0
 70
     8
  0
VERTEX
  5
3C6
330
3AC
100
AcDbEntity
  8
R-SWTS-DET1
100
AcDbVertex
100
AcDb2dVertex
 10
9.722402538111033
 20
15.46885624542088
 30
0.0
 70
     8
  0
VERTEX
  5
3C7
330
3AC
100
AcDbEntity
  8
R-SWTS-DET1
100
AcDbVertex
100
AcDb2dVertex
 10
9.720476463193826
 20
15.40251641822599
 30
0.0
 70
     8
  0
VERTEX
  5
3C8
330
3AC
100
AcDbEntity
  8
R-SWTS-DET1
100
AcDbVertex
100
AcDb2dVertex
 10
9.712073700979956
 20
15.33706478770973
 30
0.0
 70
     8
  0
VERTEX
  5
3C9
330
3AC
100
AcDbEntity
  8
R-SWTS-DET1
100
AcDbVertex
100
AcDb2dVertex
 10
9.699353147322494
 20
15.27186692774325
 30
0.0
 70
     8
  0
VERTEX
  5
3CA
330
3AC
100
AcDbEntity
  8
R-SWTS-DET1
100
AcDbVertex
100
AcDb2dVertex
 10
9.684473698074501
 20
15.20628841219767
 30
0.0
 70
     8
  0
VERTEX
  5
3CB
330
3AC
100
AcDbEntity
  8
R-SWTS-DET1
100
AcDbVertex
100
AcDb2dVertex
 10
9.669594249089037
 20
15.13969481494413
 30
0.0
 70
     8
  0
VERTEX
  5
3CC
330
3AC
100
AcDbEntity
  8
R-SWTS-DET1
100
AcDbVertex
100
AcDb2dVertex
 10
9.656873696219168
 20
15.07145170985379
 30
0.0
 70
     8
  0
VERTEX
  5
3CD
330
3AC
100
AcDbEntity
  8
R-SWTS-DET1
100
AcDbVertex
100
AcDb2dVertex
 10
9.648470935317959
 20
15.00092467079776
 30
0.0
 70
     8
  0
VERTEX
  5
3CE
330
3AC
100
AcDbEntity
  8
R-SWTS-DET1
100
AcDbVertex
100
AcDb2dVertex
 10
9.646544862238467
 20
14.92747927164718
 30
0.0
 70
     8
  0
VERTEX
  5
3CF
330
3AC
100
AcDbEntity
  8
R-SWTS-DET1
100
AcDbVertex
100
AcDb2dVertex
 10
9.652513575228752
 20
14.85072428295115
 30
0.0
 70
     8
  0
VERTEX
  5
3D0
330
3AC
100
AcDbEntity
  8
R-SWTS-DET1
100
AcDbVertex
100
AcDb2dVertex
 10
9.664831982116862
 20
14.77124126197059
 30
0.0
 70
     8
  0
VERTEX
  5
3D1
330
3AC
100
AcDbEntity
  8
R-SWTS-DET1
100
AcDbVertex
100
AcDb2dVertex
 10
9.681214193125828
 20
14.68985496264437
 30
0.0
 70
     8
  0
VERTEX
  5
3D2
330
3AC
100
AcDbEntity
  8
R-SWTS-DET1
100
AcDbVertex
100
AcDb2dVertex
 10
9.699374318478692
 20
14.60739013891136
 30
0.0
 70
     8
  0
VERTEX
  5
3D3
330
3AC
100
AcDbEntity
  8
R-SWTS-DET1
100
AcDbVertex
100
AcDb2dVertex
 10
9.71702646839849
 20
14.52467154471043
 30
0.0
 70
     8
  0
VERTEX
  5
3D4
330
3AC
100
AcDbEntity
  8
R-SWTS-DET1
100
AcDbVertex
100
AcDb2dVertex
 10
9.731884753108257
 20
14.44252393398046
 30
0.0
 70
     8
  0
VERTEX
  5
3D5
330
3AC
100
AcDbEntity
  8
R-SWTS-DET1
100
AcDbVertex
100
AcDb2dVertex
 10
9.741663282831034
 20
14.36177206066031
 30
0.0
 70
     8
  0
VERTEX
  5
3D6
330
3AC
100
AcDbEntity
  8
R-SWTS-DET1
100
AcDbVertex
100
AcDb2dVertex
 10
9.744076167789859
 20
14.28324067868887
 30
0.0
 70
     8
  0
VERTEX
  5
3D7
330
3AC
100
AcDbEntity
  8
R-SWTS-DET1
100
AcDbVertex
100
AcDb2dVertex
 10
9.737631229925849
 20
14.20749019778806
 30
0.0
 70
     8
  0
VERTEX
  5
3D8
330
3AC
100
AcDbEntity
  8
R-SWTS-DET1
100
AcDbVertex
100
AcDb2dVertex
 10
9.724011138052471
 20
14.134023650812
 30
0.0
 70
     8
  0
VERTEX
  5
3D9
330
3AC
100
AcDbEntity
  8
R-SWTS-DET1
100
AcDbVertex
100
AcDb2dVertex
 10
9.70569227270127
 20
14.06207972639787
 30
0.0
 70
     8
  0
VERTEX
  5
3DA
330
3AC
100
AcDbEntity
  8
R-SWTS-DET1
100
AcDbVertex
100
AcDb2dVertex
 10
9.685151014403789
 20
13.99089711318286
 30
0.0
 70
     8
  0
VERTEX
  5
3DB
330
3AC
100
AcDbEntity
  8
R-SWTS-DET1
100
AcDbVertex
100
AcDb2dVertex
 10
9.664863743691576
 20
13.91971449980413
 30
0.0
 70
     8
  0
VERTEX
  5
3DC
330
3AC
100
AcDbEntity
  8
R-SWTS-DET1
100
AcDbVertex
100
AcDb2dVertex
 10
9.647306841096177
 20
13.84777057489888
 30
0.0
 70
     8
  0
VERTEX
  5
3DD
330
3AC
100
AcDbEntity
  8
R-SWTS-DET1
100
AcDbVertex
100
AcDb2dVertex
 10
9.634956687149138
 20
13.77430402710427
 30
0.0
 70
     8
  0
VERTEX
  5
3DE
330
3AC
100
AcDbEntity
  8
R-SWTS-DET1
100
AcDbVertex
100
AcDb2dVertex
 10
9.630289662382001
 20
13.6985535450575
 30
0.0
 70
     8
  0
VERTEX
  5
3DF
330
3AC
100
AcDbEntity
  8
R-SWTS-DET1
100
AcDbVertex
100
AcDb2dVertex
 10
9.634914355863049
 20
13.61999044032465
 30
0.0
 70
     8
  0
VERTEX
  5
3E0
330
3AC
100
AcDbEntity
  8
R-SWTS-DET1
100
AcDbVertex
100
AcDb2dVertex
 10
9.646968190807466
 20
13.53901651618753
 30
0.0
 70
     8
  0
VERTEX
  5
3E1
330
3AC
100
AcDbEntity
  8
R-SWTS-DET1
100
AcDbVertex
100
AcDb2dVertex
 10
9.663720798967176
 20
13.45626619885684
 30
0.0
 70
     8
  0
VERTEX
  5
3E2
330
3AC
100
AcDbEntity
  8
R-SWTS-DET1
100
AcDbVertex
100
AcDb2dVertex
 10
9.682441812094101
 20
13.37237391454332
 30
0.0
 70
     8
  0
VERTEX
  5
3E3
330
3AC
100
AcDbEntity
  8
R-SWTS-DET1
100
AcDbVertex
100
AcDb2dVertex
 10
9.700400861940163
 20
13.28797408945768
 30
0.0
 70
     8
  0
VERTEX
  5
3E4
330
3AC
100
AcDbEntity
  8
R-SWTS-DET1
100
AcDbVertex
100
AcDb2dVertex
 10
9.714867580257276
 20
13.20370114981063
 30
0.0
 70
     8
  0
VERTEX
  5
3E5
330
3AC
100
AcDbEntity
  8
R-SWTS-DET1
100
AcDbVertex
100
AcDb2dVertex
 10
9.72311159879737
 20
13.12018952181289
 30
0.0
 70
     8
  0
VERTEX
  5
3E6
330
3AC
100
AcDbEntity
  8
R-SWTS-DET1
100
AcDbVertex
100
AcDb2dVertex
 10
9.722402549312359
 20
13.03807363167519
 30
0.0
 70
     8
  0
VERTEX
  5
3E7
330
3AC
100
AcDbEntity
  8
R-SWTS-DET1
100
AcDbVertex
100
AcDb2dVertex
 10
9.711100094296753
 20
12.95785573346223
 30
0.0
 70
     8
  0
VERTEX
  5
3E8
330
3AC
100
AcDbEntity
  8
R-SWTS-DET1
100
AcDbVertex
100
AcDb2dVertex
 10
9.691924019215392
 20
12.8795093926548
 30
0.0
 70
     8
  0
VERTEX
  5
3E9
330
3AC
100
AcDbEntity
  8
R-SWTS-DET1
100
AcDbVertex
100
AcDb2dVertex
 10
9.668684140275704
 20
12.80287600258765
 30
0.0
 70
     8
  0
VERTEX
  5
3EA
330
3AC
100
AcDbEntity
  8
R-SWTS-DET1
100
AcDbVertex
100
AcDb2dVertex
 10
9.645190273685116
 20
12.72779695659556
 30
0.0
 70
     8
  0
VERTEX
  5
3EB
330
3AC
100
AcDbEntity
  8
R-SWTS-DET1
100
AcDbVertex
100
AcDb2dVertex
 10
9.625252235651053
 20
12.6541136480133
 30
0.0
 70
     8
  0
VERTEX
  5
3EC
330
3AC
100
AcDbEntity
  8
R-SWTS-DET1
100
AcDbVertex
100
AcDb2dVertex
 10
9.612679842380941
 20
12.58166747017564
 30
0.0
 70
     8
  0
VERTEX
  5
3ED
330
3AC
100
AcDbEntity
  8
R-SWTS-DET1
100
AcDbVertex
100
AcDb2dVertex
 10
9.611282910082216
 20
12.51029981641735
 30
0.0
 70
     8
  0
VERTEX
  5
3EE
330
3AC
100
AcDbEntity
  8
R-SWTS-DET1
100
AcDbVertex
100
AcDb2dVertex
 10
9.624871254962293
 20
12.43985208007321
 30
0.0
 70
     8
  0
VERTEX
  5
3EF
330
3AC
100
AcDbEntity
  8
R-SWTS-DET1
100
AcDbVertex
100
AcDb2dVertex
 10
9.654894723739278
 20
12.3691985628302
 30
0.0
 70
     8
  0
VERTEX
  5
3F0
330
3AC
100
AcDbEntity
  8
R-SWTS-DET1
100
AcDbVertex
100
AcDb2dVertex
 10
9.69336328517393
 20
12.29334519978429
 30
0.0
 70
     8
  0
VERTEX
  5
3F1
330
3AC
100
AcDbEntity
  8
R-SWTS-DET1
100
AcDbVertex
100
AcDb2dVertex
 10
9.729926938537683
 20
12.20633083438365
 30
0.0
 70
     8
  0
VERTEX
  5
3F2
330
3AC
100
AcDbEntity
  8
R-SWTS-DET1
100
AcDbVertex
100
AcDb2dVertex
 10
9.754235683101974
 20
12.10219431007646
 30
0.0
 70
     8
  0
VERTEX
  5
3F3
330
3AC
100
AcDbEntity
  8
R-SWTS-DET1
100
AcDbVertex
100
AcDb2dVertex
 10
9.755939518138234
 20
11.97497447031089
 30
0.0
 70
     8
  0
VERTEX
  5
3F4
330
3AC
100
AcDbEntity
  8
R-SWTS-DET1
100
AcDbVertex
100
AcDb2dVertex
 10
9.724688442917901
 20
11.81871015853514
 30
0.0
 70
     8
  0
VERTEX
  5
3F5
330
3AC
100
AcDbEntity
  8
R-SWTS-DET1
100
AcDbVertex
100
AcDb2dVertex
 10
9.650132456712409
 20
11.62744021819737
 30
0.0
 70
     8
  0
VERTEX
  5
3F6
330
3AC
100
AcDbEntity
  8
R-SWTS-DET1
100
AcDbVertex
100
AcDb2dVertex
 10
9.521921558793188
 20
11.39520349274576
 30
0.0
 70
     8
  0
VERTEX
  5
3F7
330
3AC
100
AcDbEntity
  8
R-SWTS-DET1
100
AcDbVertex
100
AcDb2dVertex
 10
9.424390258842457
 20
16.97929800759299
 30
0.0
 70
    16
  0
VERTEX
  5
3F8
330
3AC
100
AcDbEntity
  8
R-SWTS-DET1
100
AcDbVertex
100
AcDb2dVertex
 10
9.749494569608899
 20
16.58950658982868
 30
0.0
 70
    16
  0
VERTEX
  5
3F9
330
3AC
100
AcDbEntity
  8
R-SWTS-DET1
100
AcDbVertex
100
AcDb2dVertex
 10
9.521921558793188
 20
16.03730207259809
 30
0.0
 70
    16
  0
VERTEX
  5
3FA
330
3AC
100
AcDbEntity
  8
R-SWTS-DET1
100
AcDbVertex
100
AcDb2dVertex
 10
9.814515425041392
 20
15.45261493547426
 30
0.0
 70
    16
  0
VERTEX
  5
3FB
330
3AC
100
AcDbEntity
  8
R-SWTS-DET1
100
AcDbVertex
100
AcDb2dVertex
 10
9.554431969707444
 20
14.96537565803018
 30
0.0
 70
    16
  0
VERTEX
  5
3FC
330
3AC
100
AcDbEntity
  8
R-SWTS-DET1
100
AcDbVertex
100
AcDb2dVertex
 10
9.847025869559629
 20
14.25075806228808
 30
0.0
 70
    16
  0
VERTEX
  5
3FD
330
3AC
100
AcDbEntity
  8
R-SWTS-DET1
100
AcDbVertex
100
AcDb2dVertex
 10
9.521921558793188
 20
13.73103616495075
 30
0.0
 70
    16
  0
VERTEX
  5
3FE
330
3AC
100
AcDbEntity
  8
R-SWTS-DET1
100
AcDbVertex
100
AcDb2dVertex
 10
9.847025869559629
 20
13.01641854825389
 30
0.0
 70
    16
  0
VERTEX
  5
3FF
330
3AC
100
AcDbEntity
  8
R-SWTS-DET1
100
AcDbVertex
100
AcDb2dVertex
 10
9.424390258842457
 20
12.43173143208481
 30
0.0
 70
    16
  0
VERTEX
  5
400
330
3AC
100
AcDbEntity
  8
R-SWTS-DET1
100
AcDbVertex
100
AcDb2dVertex
 10
9.94455716951036
 20
12.074422613259
 30
0.0
 70
    16
  0
VERTEX
  5
401
330
3AC
100
AcDbEntity
  8
R-SWTS-DET1
100
AcDbVertex
100
AcDb2dVertex
 10
9.521921558793188
 20
11.39520349274576
 30
0.0
 70
    16
  0
SEQEND
  5
402
330
3AC
100
AcDbEntity
  8
R-SWTS-DET1
  0
LINE
  5
403
330
1F
100
AcDbEntity
  8
CENTER
100
AcDbLine
 10
7.804956638668784
 20
12.09716471412206
 30
0.0
 11
7.804956638668784
 21
22.84073252927556
 31
0.0
  0
LEADER
  5
404
330
1F
100
AcDbEntity
  8
PART_NUMBERS
100
AcDbLeader
  3
Standard
 76
     3
 10
36.16327389036424
 20
16.25499901201601
 30
0.0
 10
38.6547635399683
 20
17.45088611141122
 30
0.0
 10
38.92345357967345
 20
17.45088611141122
 30
0.0
  0
MTEXT
  5
405
330
1F
100
AcDbEntity
  8
PART_NUMBERS
100
AcDbMText
 10
36.83300763395963
 20
10.99588959509349
 30
0.0
 40
0.25
 41
0.0
 71
     4
 72
     1
  1
*104707\PANCHOR CLIP
 73
     1
 44
1.0
1001
ACAD
1000
MTEXTBEGIN
1070
    73
1070
     1
1070
    44
1040
1.0
1070
    74
1070
     0
1000
MTEXTEND
  0
MTEXT
  5
406
330
1F
100
AcDbEntity
  8
PART_NUMBERS
100
AcDbMText
 10
36.73202681635725
 20
15.25029867699191
 30
0.0
 40
0.25
 41
0.0
 71
     4
 72
     1
  1
\A1;#10-24 UNC-2B (2) HOLES\PDRILL & TAP ON JOB SITE
 73
     1
 44
1.0
1001
ACAD
1000
MTEXTBEGIN
1070
    73
1070
     1
1070
    44
1040
1.0
1070
    74
1070
     0
1000
MTEXTEND
  0
LINE
  5
408
102
{ACAD_REACTORS
330
45B
102
}
330
1F
100
AcDbEntity
  8
R-SWTS-DET1
100
AcDbLine
 10
38.03145891417655
 20
11.68039201660697
 30
0.0
 11
35.62649399405214
 21
11.68039201660697
 31
0.0
  0
LINE
  5
40A
330
1F
100
AcDbEntity
  8
HIDDEN
  6
HIDDEN
 48
0.5
100
AcDbLine
 10
38.20562275946679
 20
13.63339201660697
 30
0.0
 11
35.62649399405214
 21
13.63339201660697
 31
0.0
  0
LINE
  5
40B
330
1F
100
AcDbEntity
  8
HIDDEN
  6
HIDDEN
 48
0.5
100
AcDbLine
 10
38.16285890296785
 20
13.72739201660697
 30
0.0
 11
35.62649399405214
 21
13.72739201660697
 31
0.0
  0
LINE
  5
40C
330
1F
100
AcDbEntity
  8
HIDDEN
  6
HIDDEN
 48
0.5
100
AcDbLine
 10
38.10923860226856
 20
11.80539201660697
 30
0.0
 11
36.92605543613543
 21
11.80539201660697
 31
0.0
  0
LINE
  5
40D
330
1F
100
AcDbEntity
  8
HIDDEN
  6
HIDDEN
 48
0.5
100
AcDbLine
 10
38.23848511395702
 20
12.05539201660697
 30
0.0
 11
36.82253996755907
 21
12.05539201660697
 31
0.0
  0
LEADER
  5
40E
330
1F
100
AcDbEntity
  8
PART_NUMBERS
100
AcDbLeader
  3
Standard
 76
     3
 10
35.44269596134955
 20
13.71451018011076
 30
0.0
 10
36.27319244771094
 20
15.33749977809967
 30
0.0
 10
36.59073522190793
 20
15.33749977809967
 30
0.0
  0
LINE
  5
40F
330
1F
100
AcDbEntity
  8
R-SWTS-DET1
100
AcDbLine
 10
35.43720221888259
 20
18.46983651685752
 30
0.0
 11
35.43720221888259
 21
11.47628822969388
 31
0.0
  0
LINE
  5
412
330
1F
100
AcDbEntity
  8
HIDDEN
  6
HIDDEN
 48
0.5
100
AcDbLine
 10
35.31449399405214
 20
18.50661043064189
 30
0.0
 11
35.31449399405214
 21
11.47628822969388
 31
0.0
  0
LEADER
  5
413
330
1F
100
AcDbEntity
  8
PART_NUMBERS
100
AcDbLeader
  3
Standard
 76
     2
 10
35.89712614834902
 20
12.22181470789134
 30
0.0
 10
35.11127343060973
 20
12.75235047898414
 30
0.0
  0
LWPOLYLINE
  5
414
102
{ACAD_REACTORS
330
45B
102
}
330
1F
100
AcDbEntity
  8
R-SWTS-DET1
100
AcDbPolyline
 90
       15
 70
     0
 43
0.0
 10
35.62649399405214
 20
13.1056642467674
 10
35.74125775409361
 20
13.22707754298565
 10
35.86277497004228
 20
13.14613536560714
 10
35.92353357801662
 20
13.00448650996903
 10
36.0450507939653
 20
13.04495762880877
 10
36.308338159655
 20
12.94377989201039
 10
36.38934970142166
 20
12.7616599778335
 10
36.55137268825368
 20
12.72118885899376
 10
36.55137268825368
 20
12.57954000335565
 10
36.38934970142166
 20
12.39742008917877
 10
36.45481373654885
 20
12.27948396044158
 10
36.82253996755907
 20
12.05539201660697
 10
36.7336485121767
 20
11.91176696460675
 10
36.92605543613543
 20
11.80539201660697
 10
36.91592443280105
 20
11.68039201660697
  0
POLYLINE
  5
417
330
1F
100
AcDbEntity
  8
R-SWTS-DET1
100
AcDb2dPolyline
 66
     1
 10
0.0
 20
0.0
 30
0.0
 70
     4
 75
     6
  0
VERTEX
  5
418
330
417
100
AcDbEntity
  8
R-SWTS-DET1
100
AcDbVertex
100
AcDb2dVertex
 10
35.43720221888259
 20
11.47628822969388
 30
0.0
 70
    16
  0
VERTEX
  5
419
330
417
100
AcDbEntity
  8
R-SWTS-DET1
100
AcDbVertex
100
AcDb2dVertex
 10
35.43720221888259
 20
11.47628822969388
 30
0.0
 70
     8
  0
VERTEX
  5
41A
330
417
100
AcDbEntity
  8
R-SWTS-DET1
100
AcDbVertex
100
AcDb2dVertex
 10
35.34304987768474
 20
11.41302543745913
 30
0.0
 70
     8
  0
VERTEX
  5
41B
330
417
100
AcDbEntity
  8
R-SWTS-DET1
100
AcDbVertex
100
AcDb2dVertex
 10
35.26459889822613
 20
11.36991193467991
 30
0.0
 70
     8
  0
VERTEX
  5
41C
330
417
100
AcDbEntity
  8
R-SWTS-DET1
100
AcDbVertex
100
AcDb2dVertex
 10
35.19989213398364
 20
11.34347412524554
 30
0.0
 70
     8
  0
VERTEX
  5
41D
330
417
100
AcDbEntity
  8
R-SWTS-DET1
100
AcDbVertex
100
AcDb2dVertex
 10
35.14697243843412
 20
11.33023841304534
 30
0.0
 70
     8
  0
VERTEX
  5
41E
330
417
100
AcDbEntity
  8
R-SWTS-DET1
100
AcDbVertex
100
AcDb2dVertex
 10
35.10388266505443
 20
11.32673120196866
 30
0.0
 70
     8
  0
VERTEX
  5
41F
330
417
100
AcDbEntity
  8
R-SWTS-DET1
100
AcDbVertex
100
AcDb2dVertex
 10
35.06866566732142
 20
11.32947889590481
 30
0.0
 70
     8
  0
VERTEX
  5
420
330
417
100
AcDbEntity
  8
R-SWTS-DET1
100
AcDbVertex
100
AcDb2dVertex
 10
35.03936429871196
 20
11.33500789874313
 30
0.0
 70
     8
  0
VERTEX
  5
421
330
417
100
AcDbEntity
  8
R-SWTS-DET1
100
AcDbVertex
100
AcDb2dVertex
 10
35.01402141270289
 20
11.33984461437295
 30
0.0
 70
     8
  0
VERTEX
  5
422
330
417
100
AcDbEntity
  8
R-SWTS-DET1
100
AcDbVertex
100
AcDb2dVertex
 10
34.99095046118422
 20
11.34124365684253
 30
0.0
 70
     8
  0
VERTEX
  5
423
330
417
100
AcDbEntity
  8
R-SWTS-DET1
100
AcDbVertex
100
AcDb2dVertex
 10
34.96954728969844
 20
11.33937248083589
 30
0.0
 70
     8
  0
VERTEX
  5
424
330
417
100
AcDbEntity
  8
R-SWTS-DET1
100
AcDbVertex
100
AcDb2dVertex
 10
34.94947834220121
 20
11.33512675119599
 30
0.0
 70
     8
  0
VERTEX
  5
425
330
417
100
AcDbEntity
  8
R-SWTS-DET1
100
AcDbVertex
100
AcDb2dVertex
 10
34.93041006264818
 20
11.32940213276579
 30
0.0
 70
     8
  0
VERTEX
  5
426
330
417
100
AcDbEntity
  8
R-SWTS-DET1
100
AcDbVertex
100
AcDb2dVertex
 10
34.91200889499499
 20
11.32309429038824
 30
0.0
 70
     8
  0
VERTEX
  5
427
330
417
100
AcDbEntity
  8
R-SWTS-DET1
100
AcDbVertex
100
AcDb2dVertex
 10
34.89394128319728
 20
11.3170988889063
 30
0.0
 70
     8
  0
VERTEX
  5
428
330
417
100
AcDbEntity
  8
R-SWTS-DET1
100
AcDbVertex
100
AcDb2dVertex
 10
34.8758736712107
 20
11.31231159316294
 30
0.0
 70
     8
  0
VERTEX
  5
429
330
417
100
AcDbEntity
  8
R-SWTS-DET1
100
AcDbVertex
100
AcDb2dVertex
 10
34.8574725029909
 20
11.3096280680011
 30
0.0
 70
     8
  0
VERTEX
  5
42A
330
417
100
AcDbEntity
  8
R-SWTS-DET1
100
AcDbVertex
100
AcDb2dVertex
 10
34.8384250697994
 20
11.3096627811927
 30
0.0
 70
     8
  0
VERTEX
  5
42B
330
417
100
AcDbEntity
  8
R-SWTS-DET1
100
AcDbVertex
100
AcDb2dVertex
 10
34.81850205212133
 20
11.31190541222547
 30
0.0
 70
     8
  0
VERTEX
  5
42C
330
417
100
AcDbEntity
  8
R-SWTS-DET1
100
AcDbVertex
100
AcDb2dVertex
 10
34.79749497774767
 20
11.31556444351609
 30
0.0
 70
     8
  0
VERTEX
  5
42D
330
417
100
AcDbEntity
  8
R-SWTS-DET1
100
AcDbVertex
100
AcDb2dVertex
 10
34.77519537446942
 20
11.31984835748126
 30
0.0
 70
     8
  0
VERTEX
  5
42E
330
417
100
AcDbEntity
  8
R-SWTS-DET1
100
AcDbVertex
100
AcDb2dVertex
 10
34.75139477007758
 20
11.32396563653765
 30
0.0
 70
     8
  0
VERTEX
  5
42F
330
417
100
AcDbEntity
  8
R-SWTS-DET1
100
AcDbVertex
100
AcDb2dVertex
 10
34.72588469236314
 20
11.32712476310194
 30
0.0
 70
     8
  0
VERTEX
  5
430
330
417
100
AcDbEntity
  8
R-SWTS-DET1
100
AcDbVertex
100
AcDb2dVertex
 10
34.69845666911709
 20
11.32853421959083
 30
0.0
 70
     8
  0
VERTEX
  5
431
330
417
100
AcDbEntity
  8
R-SWTS-DET1
100
AcDbVertex
100
AcDb2dVertex
 10
34.66890222813045
 20
11.327402488421
 30
0.0
 70
     8
  0
VERTEX
  5
432
330
417
100
AcDbEntity
  8
R-SWTS-DET1
100
AcDbVertex
100
AcDb2dVertex
 10
34.63730475850085
 20
11.32322272059662
 30
0.0
 70
     8
  0
VERTEX
  5
433
330
417
100
AcDbEntity
  8
R-SWTS-DET1
100
AcDbVertex
100
AcDb2dVertex
 10
34.60491509455259
 20
11.31662674147175
 30
0.0
 70
     8
  0
VERTEX
  5
434
330
417
100
AcDbEntity
  8
R-SWTS-DET1
100
AcDbVertex
100
AcDb2dVertex
 10
34.5732759319166
 20
11.30853104498798
 30
0.0
 70
     8
  0
VERTEX
  5
435
330
417
100
AcDbEntity
  8
R-SWTS-DET1
100
AcDbVertex
100
AcDb2dVertex
 10
34.54392996622383
 20
11.29985212508684
 30
0.0
 70
     8
  0
VERTEX
  5
436
330
417
100
AcDbEntity
  8
R-SWTS-DET1
100
AcDbVertex
100
AcDb2dVertex
 10
34.51841989310523
 20
11.29150647570991
 30
0.0
 70
     8
  0
VERTEX
  5
437
330
417
100
AcDbEntity
  8
R-SWTS-DET1
100
AcDbVertex
100
AcDb2dVertex
 10
34.49828840819172
 20
11.28441059079874
 30
0.0
 70
     8
  0
VERTEX
  5
438
330
417
100
AcDbEntity
  8
R-SWTS-DET1
100
AcDbVertex
100
AcDb2dVertex
 10
34.48507820711426
 20
11.27948096429489
 30
0.0
 70
     8
  0
VERTEX
  5
439
330
417
100
AcDbEntity
  8
R-SWTS-DET1
100
AcDbVertex
100
AcDb2dVertex
 10
34.48033198550378
 20
11.27763409013993
 30
0.0
 70
     8
  0
VERTEX
  5
43A
330
417
100
AcDbEntity
  8
R-SWTS-DET1
100
AcDbVertex
100
AcDb2dVertex
 10
35.16345447423761
 20
11.27763409013993
 30
0.0
 70
    16
  0
VERTEX
  5
43B
330
417
100
AcDbEntity
  8
R-SWTS-DET1
100
AcDbVertex
100
AcDb2dVertex
 10
34.99267382787882
 20
11.38428070311082
 30
0.0
 70
    16
  0
VERTEX
  5
43C
330
417
100
AcDbEntity
  8
R-SWTS-DET1
100
AcDbVertex
100
AcDb2dVertex
 10
34.86458836728507
 20
11.27763409013993
 30
0.0
 70
    16
  0
VERTEX
  5
43D
330
417
100
AcDbEntity
  8
R-SWTS-DET1
100
AcDbVertex
100
AcDb2dVertex
 10
34.69380772092627
 20
11.36295134433605
 30
0.0
 70
    16
  0
VERTEX
  5
43E
330
417
100
AcDbEntity
  8
R-SWTS-DET1
100
AcDbVertex
100
AcDb2dVertex
 10
34.48033198550378
 20
11.27763409013993
 30
0.0
 70
    16
  0
VERTEX
  5
43F
330
417
100
AcDbEntity
  8
R-SWTS-DET1
100
AcDbVertex
100
AcDb2dVertex
 10
34.48033198550378
 20
11.27763409013993
 30
0.0
 70
    16
  0
SEQEND
  5
440
330
417
100
AcDbEntity
  8
R-SWTS-DET1
  0
LEADER
  5
443
330
1F
100
AcDbEntity
  8
PART_NUMBERS
100
AcDbLeader
  3
Standard
 76
     3
 10
36.18770025761016
 20
11.83323912549221
 30
0.0
 10
36.49302975292425
 20
11.08886039651504
 30
0.0
 10
36.73729342538347
 20
11.08886039651504
 30
0.0
  0
LINE
  5
445
330
1F
100
AcDbEntity
  8
R-SWTS-DET2
100
AcDbLine
 10
35.63649399405214
 20
11.7921626419641
 30
0.0
 11
36.39710564640382
 21
11.7921626419641
 31
0.0
  0
LINE
  5
446
330
1F
100
AcDbEntity
  8
R-SWTS-DET2
100
AcDbLine
 10
35.63649399405214
 20
11.9171626419641
 30
0.0
 11
36.44888234170046
 21
11.9171626419641
 31
0.0
  0
LINE
  5
447
330
1F
100
AcDbEntity
  8
R-SWTS-DET2
  6
HIDDEN
 48
0.25
100
AcDbLine
 10
36.08649399405214
 20
12.40039201660696
 30
0.0
 11
36.08649399405214
 21
11.80539201660697
 31
0.0
  0
LINE
  5
448
330
1F
100
AcDbEntity
  8
R-SWTS-DET2
  6
HIDDEN
 48
0.25
100
AcDbLine
 10
35.89649399405214
 20
12.40039201660696
 30
0.0
 11
35.89649399405214
 21
11.80539201660697
 31
0.0
  0
LINE
  5
449
330
1F
100
AcDbEntity
  8
CENTER
 48
0.5
100
AcDbLine
 10
35.99149399405214
 20
12.57153953350342
 30
0.0
 11
35.99149399405214
 21
11.49569186006707
 31
0.0
  0
LINE
  5
44B
330
1F
100
AcDbEntity
  8
R-SWTS-DET2
100
AcDbLine
 10
35.63649399405214
 20
11.7921626419641
 30
0.0
 11
35.63649399405214
 21
11.9171626419641
 31
0.0
  0
LINE
  5
44E
330
1F
100
AcDbEntity
  8
R-SWTS-DET2
100
AcDbLine
 10
36.15949399405214
 20
11.7921626419641
 30
0.0
 11
36.15949399405214
 21
11.6321626419641
 31
0.0
  0
LINE
  5
44F
330
1F
100
AcDbEntity
  8
R-SWTS-DET2
100
AcDbLine
 10
35.82349399405214
 20
11.7921626419641
 30
0.0
 11
35.82349399405214
 21
11.6321626419641
 31
0.0
  0
LINE
  5
450
330
1F
100
AcDbEntity
  8
R-SWTS-DET2
100
AcDbLine
 10
35.82349399405214
 20
11.6321626419641
 30
0.0
 11
36.15949399405214
 21
11.6321626419641
 31
0.0
  0
LINE
  5
451
330
1F
100
AcDbEntity
  8
R-SWTS-DET2
100
AcDbLine
 10
35.82349399405214
 20
11.7921626419641
 30
0.0
 11
36.15949399405214
 21
11.7921626419641
 31
0.0
  0
LINE
  5
452
330
1F
100
AcDbEntity
  8
R-SWTS-DET2
100
AcDbLine
 10
35.85349399405215
 20
11.60216264196409
 30
0.0
 11
36.12949399405214
 21
11.60216264196409
 31
0.0
  0
LINE
  5
453
330
1F
100
AcDbEntity
  8
R-SWTS-DET2
100
AcDbLine
 10
36.12949399405214
 20
11.60216264196409
 30
0.0
 11
36.15949399405214
 21
11.6321626419641
 31
0.0
  0
LINE
  5
454
330
1F
100
AcDbEntity
  8
R-SWTS-DET2
100
AcDbLine
 10
35.82349399405214
 20
11.6321626419641
 30
0.0
 11
35.85349399405215
 21
11.60216264196409
 31
0.0
  0
LINE
  5
455
330
1F
100
AcDbEntity
  8
HIDDEN
 48
0.25
100
AcDbLine
 10
35.88899399405214
 20
11.7921626419641
 30
0.0
 11
35.88899399405214
 21
11.9171626419641
 31
0.0
  0
LINE
  5
456
330
1F
100
AcDbEntity
  8
HIDDEN
 48
0.25
100
AcDbLine
 10
36.09399399405214
 20
11.7921626419641
 30
0.0
 11
36.09399399405214
 21
11.9171626419641
 31
0.0
  0
LINE
  5
457
330
1F
100
AcDbEntity
  8
R-SWTS-DET2
  6
HIDDEN
 48
0.25
100
AcDbLine
 10
36.05649399405214
 20
12.43039201660697
 30
0.0
 11
36.08649399405214
 21
12.40039201660696
 31
0.0
  0
LINE
  5
458
330
1F
100
AcDbEntity
  8
R-SWTS-DET2
  6
HIDDEN
 48
0.25
100
AcDbLine
 10
35.92649399405214
 20
12.43039201660697
 30
0.0
 11
35.89649399405214
 21
12.40039201660696
 31
0.0
  0
LINE
  5
459
330
1F
100
AcDbEntity
  8
R-SWTS-DET2
  6
HIDDEN
 48
0.25
100
AcDbLine
 10
35.89649399405214
 20
12.40039201660696
 30
0.0
 11
36.08649399405214
 21
12.40039201660696
 31
0.0
  0
LINE
  5
45A
330
1F
100
AcDbEntity
  8
R-SWTS-DET2
  6
HIDDEN
 48
0.25
100
AcDbLine
 10
35.92649399405214
 20
12.43039201660697
 30
0.0
 11
36.05649399405214
 21
12.43039201660697
 31
0.0
  0
HATCH
  5
45B
330
1F
100
AcDbEntity
  8
R-SWTS-DET1
100
AcDbHatch
 10
0.0
 20
0.0
 30
0.0
210
0.0
220
0.0
230
1.0
  2
ANSI31
 70
     0
 71
     1
 91
        1
 92
        7
 72
     0
 73
     1
 93
        4
 10
36.91592443280104
 20
11.68039201660697
 10
36.92605543613544
 20
11.80539201660697
 10
36.37649399405215
 20
11.80539201660697
 10
36.37649399405215
 20
11.68039201660697
 97
        4
330
45D
330
461
330
408
330
414
 75
     0
 76
     1
 52
0.0
 41
0.5
 77
     0
 78
     1
 53
45.0
 43
33.2962234827112
 44
10.2276382523752
 45
-0.0441941738241592
 46
0.0441941738241592
 79
     0
 47
0.0048921956259658
 98
        1
 10
36.53920756385405
 20
11.7203759566862
  0
HATCH
  5
45C
330
1F
100
AcDbEntity
  8
R-SWTS-DET1
100
AcDbHatch
 10
0.0
 20
0.0
 30
0.0
210
0.0
220
0.0
230
1.0
  2
ANSI31
 70
     0
 71
     0
 91
        1
 92
        7
 72
     0
 73
     1
 93
        4
 10
36.91592443280105
 20
11.68039201660697
 10
36.92605543613543
 20
11.80539201660697
 10
36.37649399405214
 20
11.80539201660697
 10
36.37649399405214
 20
11.68039201660697
 97
        0
 75
     0
 76
     1
 52
0.0
 41
1.0
 77
     0
 78
     1
 53
45.0
 43
33.2962234827112
 44
10.2276382523752
 45
-0.0883883476483184
 46
0.0883883476483185
 79
     0
 47
0.0048921956259658
 98
        1
 10
36.46086536568502
 20
11.7105915810577
  0
LINE
  5
45D
102
{ACAD_REACTORS
330
45B
102
}
330
1F
100
AcDbEntity
  8
R-SWTS-DET1
100
AcDbLine
 10
36.92605543613543
 20
11.80539201660697
 30
0.0
 11
36.37649399405214
 21
11.80539201660697
 31
0.0
  0
LINE
  5
45E
330
1F
100
AcDbEntity
  8
R-SWTS-DET2
100
AcDbLine
 10
36.39710564640382
 20
11.7921626419641
 30
0.0
 11
36.49510564640382
 21
11.6941626419641
 31
0.0
  0
LINE
  5
45F
330
1F
100
AcDbEntity
  8
R-SWTS-DET2
100
AcDbLine
 10
36.44888234170046
 20
11.9171626419641
 30
0.0
 11
36.58349399405214
 21
11.78255098961241
 31
0.0
  0
LINE
  5
460
330
1F
100
AcDbEntity
  8
R-SWTS-DET2
100
AcDbLine
 10
36.49510564640382
 20
11.6941626419641
 30
0.0
 11
36.58349399405214
 21
11.78255098961241
 31
0.0
  0
LINE
  5
461
102
{ACAD_REACTORS
330
45B
102
}
330
1F
100
AcDbEntity
  8
R-SWTS-DET1
100
AcDbLine
 10
36.37649399405214
 20
11.68039201660697
 30
0.0
 11
36.37649399405214
 21
11.80539201660697
 31
0.0
  0
LEADER
  5
462
330
1F
100
AcDbEntity
  8
PART_NUMBERS
100
AcDbLeader
  3
Standard
 76
     3
 10
35.2457886800026
 20
13.58706008390352
 30
0.0
 10
35.11127343060973
 20
12.75235047898414
 30
0.0
 10
35.00507706076066
 20
12.75235047898414
 30
0.0
  0
LINE
  5
463
330
1F
100
AcDbEntity
  8
R-SWTS-DET2
  6
HIDDEN
 48
0.25
100
AcDbLine
 10
35.03149399405214
 20
13.58524135579125
 30
0.0
 11
35.62649399405214
 21
13.58524135579125
 31
0.0
  0
LINE
  5
464
330
1F
100
AcDbEntity
  8
R-SWTS-DET2
  6
HIDDEN
 48
0.25
100
AcDbLine
 10
35.03149399405214
 20
13.77524135579125
 30
0.0
 11
35.62649399405214
 21
13.77524135579126
 31
0.0
  0
LINE
  5
465
330
1F
100
AcDbEntity
  8
CENTER
 48
0.25
100
AcDbLine
 10
34.91670438017414
 20
13.68024135579126
 30
0.0
 11
35.94948631908878
 21
13.68024135579126
 31
0.0
  0
LINE
  5
466
330
1F
100
AcDbEntity
  8
R-SWTS-DET2
  6
HIDDEN
 48
0.25
100
AcDbLine
 10
35.03149399405214
 20
13.77524135579125
 30
0.0
 11
35.03149399405214
 21
13.58524135579125
 31
0.0
  0
LINE
  5
467
330
1F
100
AcDbEntity
  8
R-SWTS-DET2
  6
HIDDEN
 48
0.25
100
AcDbLine
 10
35.00149399405214
 20
13.74524135579126
 30
0.0
 11
35.00149399405214
 21
13.61524135579125
 31
0.0
  0
MTEXT
  5
468
330
1F
100
AcDbEntity
  8
PART_NUMBERS
100
AcDbMText
 10
34.89405886830057
 20
12.65060768297001
 30
0.0
 40
0.25
 41
0.0
 71
     6
 72
     1
  1
*028790\PSOCKET HEAD CAP SCREWS
 73
     1
 44
1.0
1001
ACAD
1000
MTEXTBEGIN
1070
    73
1070
     1
1070
    44
1040
1.0
1070
    74
1070
     0
1000
MTEXTEND
  0
LINE
  5
469
330
1F
100
AcDbEntity
  8
R-SWTS-DET2
  6
HIDDEN
 48
0.25
100
AcDbLine
 10
35.00149399405214
 20
13.61524135579125
 30
0.0
 11
35.03149399405214
 21
13.58524135579125
 31
0.0
  0
LINE
  5
46A
330
1F
100
AcDbEntity
  8
R-SWTS-DET2
  6
HIDDEN
 48
0.25
100
AcDbLine
 10
35.00149399405214
 20
13.74524135579126
 30
0.0
 11
35.03149399405214
 21
13.77524135579125
 31
0.0
  0
LINE
  5
46B
330
1F
100
AcDbEntity
  8
R-SWTS-DET2
  6
HIDDEN
 48
0.25
100
AcDbLine
 10
35.62649399405214
 20
13.84824135579125
 30
0.0
 11
35.62649399405214
 21
13.51224135579125
 31
0.0
  0
LINE
  5
46C
330
1F
100
AcDbEntity
  8
R-SWTS-DET2
  6
HIDDEN
 48
0.25
100
AcDbLine
 10
35.78649399405215
 20
13.84824135579125
 30
0.0
 11
35.78649399405215
 21
13.51224135579125
 31
0.0
  0
LINE
  5
46D
330
1F
100
AcDbEntity
  8
R-SWTS-DET2
  6
HIDDEN
 48
0.25
100
AcDbLine
 10
35.81649399405215
 20
13.81824135579125
 30
0.0
 11
35.81649399405215
 21
13.54224135579126
 31
0.0
  0
LINE
  5
46F
330
1F
100
AcDbEntity
  8
R-SWTS-DET2
  6
HIDDEN
 48
0.25
100
AcDbLine
 10
35.62649399405214
 20
13.51224135579125
 30
0.0
 11
35.78649399405215
 21
13.51224135579125
 31
0.0
  0
LINE
  5
471
330
1F
100
AcDbEntity
  8
R-SWTS-DET2
  6
HIDDEN
 48
0.25
100
AcDbLine
 10
35.81649399405215
 20
13.54224135579126
 30
0.0
 11
35.78649399405215
 21
13.51224135579125
 31
0.0
  0
LINE
  5
473
330
1F
100
AcDbEntity
  8
R-SWTS-DET2
  6
HIDDEN
 48
0.25
100
AcDbLine
 10
35.62649399405214
 20
13.84824135579125
 30
0.0
 11
35.78649399405215
 21
13.84824135579125
 31
0.0
  0
LINE
  5
475
330
1F
100
AcDbEntity
  8
R-SWTS-DET2
  6
HIDDEN
 48
0.25
100
AcDbLine
 10
35.78649399405215
 20
13.84824135579125
 30
0.0
 11
35.81649399405215
 21
13.81824135579125
 31
0.0
  0
POLYLINE
  5
476
330
1F
100
AcDbEntity
  8
R-SWTS-DET1
100
AcDb2dPolyline
 66
     1
 10
0.0
 20
0.0
 30
0.0
 70
     4
 75
     6
  0
VERTEX
  5
477
330
476
100
AcDbEntity
  8
R-SWTS-DET1
100
AcDbVertex
100
AcDb2dVertex
 10
35.43720221888259
 20
18.46983651685752
 30
0.0
 70
    16
  0
VERTEX
  5
478
330
476
100
AcDbEntity
  8
R-SWTS-DET1
100
AcDbVertex
100
AcDb2dVertex
 10
35.43720221888259
 20
18.46983651685752
 30
0.0
 70
     8
  0
VERTEX
  5
479
330
476
100
AcDbEntity
  8
R-SWTS-DET1
100
AcDbVertex
100
AcDb2dVertex
 10
35.33130244742175
 20
18.50661043064189
 30
0.0
 70
     8
  0
VERTEX
  5
47A
330
476
100
AcDbEntity
  8
R-SWTS-DET1
100
AcDbVertex
100
AcDb2dVertex
 10
35.24867159259894
 20
18.52787368437651
 30
0.0
 70
     8
  0
VERTEX
  5
47B
330
476
100
AcDbEntity
  8
R-SWTS-DET1
100
AcDbVertex
100
AcDb2dVertex
 10
35.1859140470425
 20
18.53648482273501
 30
0.0
 70
     8
  0
VERTEX
  5
47C
330
476
100
AcDbEntity
  8
R-SWTS-DET1
100
AcDbVertex
100
AcDb2dVertex
 10
35.13963420338076
 20
18.53530239039101
 30
0.0
 70
     8
  0
VERTEX
  5
47D
330
476
100
AcDbEntity
  8
R-SWTS-DET1
100
AcDbVertex
100
AcDb2dVertex
 10
35.10643645424204
 20
18.52718493201813
 30
0.0
 70
     8
  0
VERTEX
  5
47E
330
476
100
AcDbEntity
  8
R-SWTS-DET1
100
AcDbVertex
100
AcDb2dVertex
 10
35.08292519225467
 20
18.51499099229
 30
0.0
 70
     8
  0
VERTEX
  5
47F
330
476
100
AcDbEntity
  8
R-SWTS-DET1
100
AcDbVertex
100
AcDb2dVertex
 10
35.06570481004697
 20
18.50157911588025
 30
0.0
 70
     8
  0
VERTEX
  5
480
330
476
100
AcDbEntity
  8
R-SWTS-DET1
100
AcDbVertex
100
AcDb2dVertex
 10
35.0513797002473
 20
18.48980784746249
 30
0.0
 70
     8
  0
VERTEX
  5
481
330
476
100
AcDbEntity
  8
R-SWTS-DET1
100
AcDbVertex
100
AcDb2dVertex
 10
35.0371375627772
 20
18.48189614388187
 30
0.0
 70
     8
  0
VERTEX
  5
482
330
476
100
AcDbEntity
  8
R-SWTS-DET1
100
AcDbVertex
100
AcDb2dVertex
 10
35.02249932673124
 20
18.47750461066953
 30
0.0
 70
     8
  0
VERTEX
  5
483
330
476
100
AcDbEntity
  8
R-SWTS-DET1
100
AcDbVertex
100
AcDb2dVertex
 10
35.00756922849724
 20
18.47565426552813
 30
0.0
 70
     8
  0
VERTEX
  5
484
330
476
100
AcDbEntity
  8
R-SWTS-DET1
100
AcDbVertex
100
AcDb2dVertex
 10
34.99245150446299
 20
18.47536612616031
 30
0.0
 70
     8
  0
VERTEX
  5
485
330
476
100
AcDbEntity
  8
R-SWTS-DET1
100
AcDbVertex
100
AcDb2dVertex
 10
34.97725039101631
 20
18.47566121026874
 30
0.0
 70
     8
  0
VERTEX
  5
486
330
476
100
AcDbEntity
  8
R-SWTS-DET1
100
AcDbVertex
100
AcDb2dVertex
 10
34.962070124545
 20
18.47556053555606
 30
0.0
 70
     8
  0
VERTEX
  5
487
330
476
100
AcDbEntity
  8
R-SWTS-DET1
100
AcDbVertex
100
AcDb2dVertex
 10
34.94701494143686
 20
18.47408511972494
 30
0.0
 70
     8
  0
VERTEX
  5
488
330
476
100
AcDbEntity
  8
R-SWTS-DET1
100
AcDbVertex
100
AcDb2dVertex
 10
34.9321890780797
 20
18.47025598047803
 30
0.0
 70
     8
  0
VERTEX
  5
489
330
476
100
AcDbEntity
  8
R-SWTS-DET1
100
AcDbVertex
100
AcDb2dVertex
 10
34.91758211093863
 20
18.4634169913751
 30
0.0
 70
     8
  0
VERTEX
  5
48A
330
476
100
AcDbEntity
  8
R-SWTS-DET1
100
AcDbVertex
100
AcDb2dVertex
 10
34.90272497678789
 20
18.45420344940446
 30
0.0
 70
     8
  0
VERTEX
  5
48B
330
476
100
AcDbEntity
  8
R-SWTS-DET1
100
AcDbVertex
100
AcDb2dVertex
 10
34.88703395247905
 20
18.44357350741151
 30
0.0
 70
     8
  0
VERTEX
  5
48C
330
476
100
AcDbEntity
  8
R-SWTS-DET1
100
AcDbVertex
100
AcDb2dVertex
 10
34.86992531486367
 20
18.43248531824167
 30
0.0
 70
     8
  0
VERTEX
  5
48D
330
476
100
AcDbEntity
  8
R-SWTS-DET1
100
AcDbVertex
100
AcDb2dVertex
 10
34.85081534079328
 20
18.42189703474037
 30
0.0
 70
     8
  0
VERTEX
  5
48E
330
476
100
AcDbEntity
  8
R-SWTS-DET1
100
AcDbVertex
100
AcDb2dVertex
 10
34.82912030711946
 20
18.41276680975301
 30
0.0
 70
     8
  0
VERTEX
  5
48F
330
476
100
AcDbEntity
  8
R-SWTS-DET1
100
AcDbVertex
100
AcDb2dVertex
 10
34.80425649069375
 20
18.40605279612502
 30
0.0
 70
     8
  0
VERTEX
  5
490
330
476
100
AcDbEntity
  8
R-SWTS-DET1
100
AcDbVertex
100
AcDb2dVertex
 10
34.77564016836769
 20
18.40271314670181
 30
0.0
 70
     8
  0
VERTEX
  5
491
330
476
100
AcDbEntity
  8
R-SWTS-DET1
100
AcDbVertex
100
AcDb2dVertex
 10
34.74283354786654
 20
18.40312279083292
 30
0.0
 70
     8
  0
VERTEX
  5
492
330
476
100
AcDbEntity
  8
R-SWTS-DET1
100
AcDbVertex
100
AcDb2dVertex
 10
34.70598256041022
 20
18.4053237638844
 30
0.0
 70
     8
  0
VERTEX
  5
493
330
476
100
AcDbEntity
  8
R-SWTS-DET1
100
AcDbVertex
100
AcDb2dVertex
 10
34.66537906809235
 20
18.40677487772644
 30
0.0
 70
     8
  0
VERTEX
  5
494
330
476
100
AcDbEntity
  8
R-SWTS-DET1
100
AcDbVertex
100
AcDb2dVertex
 10
34.62131493300653
 20
18.40493494422921
 30
0.0
 70
     8
  0
VERTEX
  5
495
330
476
100
AcDbEntity
  8
R-SWTS-DET1
100
AcDbVertex
100
AcDb2dVertex
 10
34.5740820172464
 20
18.39726277526289
 30
0.0
 70
     8
  0
VERTEX
  5
496
330
476
100
AcDbEntity
  8
R-SWTS-DET1
100
AcDbVertex
100
AcDb2dVertex
 10
34.52397218290557
 20
18.38121718269765
 30
0.0
 70
     8
  0
VERTEX
  5
497
330
476
100
AcDbEntity
  8
R-SWTS-DET1
100
AcDbVertex
100
AcDb2dVertex
 10
34.47127729207764
 20
18.35425697840368
 30
0.0
 70
     8
  0
VERTEX
  5
498
330
476
100
AcDbEntity
  8
R-SWTS-DET1
100
AcDbVertex
100
AcDb2dVertex
 10
34.41628920685623
 20
18.31384097425115
 30
0.0
 70
     8
  0
VERTEX
  5
499
330
476
100
AcDbEntity
  8
R-SWTS-DET1
100
AcDbVertex
100
AcDb2dVertex
 10
35.12075928847258
 20
18.59112209561429
 30
0.0
 70
    16
  0
VERTEX
  5
49A
330
476
100
AcDbEntity
  8
R-SWTS-DET1
100
AcDbVertex
100
AcDb2dVertex
 10
35.05671660652637
 20
18.44181688569582
 30
0.0
 70
    16
  0
VERTEX
  5
49B
330
476
100
AcDbEntity
  8
R-SWTS-DET1
100
AcDbVertex
100
AcDb2dVertex
 10
34.92863114593261
 20
18.50580484141816
 30
0.0
 70
    16
  0
VERTEX
  5
49C
330
476
100
AcDbEntity
  8
R-SWTS-DET1
100
AcDbVertex
100
AcDb2dVertex
 10
34.82189327822137
 20
18.35649963149969
 30
0.0
 70
    16
  0
VERTEX
  5
49D
330
476
100
AcDbEntity
  8
R-SWTS-DET1
100
AcDbVertex
100
AcDb2dVertex
 10
34.56572226033251
 20
18.44181688569582
 30
0.0
 70
    16
  0
VERTEX
  5
49E
330
476
100
AcDbEntity
  8
R-SWTS-DET1
100
AcDbVertex
100
AcDb2dVertex
 10
34.41628920685623
 20
18.31384097425115
 30
0.0
 70
    16
  0
SEQEND
  5
49F
330
476
100
AcDbEntity
  8
R-SWTS-DET1
  0
MTEXT
  5
4A8
330
1F
100
AcDbEntity
  8
PART_NUMBERS
100
AcDbMText
 10
39.08659729997738
 20
17.24637866957081
 30
0.0
 40
0.25
 41
0.0
 71
     4
 72
     1
  1
060276\PBETWEEN JAMB END CAP PKG.\P(* INCLUDED IN PKG.)
 73
     1
 44
1.0
1001
ACAD
1000
MTEXTBEGIN
1070
    73
1070
     1
1070
    44
1040
1.0
1070
    74
1070
     0
1000
MTEXTEND
  0
TEXT
  5
4A9
330
1F
100
AcDbEntity
  8
0
100
AcDbText
 10
41.44805459204639
 20
15.03553376445701
 30
0.0
 40
0.375
  1
BETWEEN JAMB MOUNTING CONDITION
  7
MONOTXT
100
AcDbText
  0
TEXT
  5
4AB
330
1F
100
AcDbEntity
  8
0
100
AcDbText
 10
41.61925835669769
 20
13.52307481247782
 30
0.0
 40
0.25
  1
ASSEMBLY SEQUENCE:
  7
MONOTXT
100
AcDbText
  0
LWPOLYLINE
  5
4AC
330
1F
100
AcDbEntity
  8
R-SWTS-DET1
100
AcDbPolyline
 90
       12
 70
     0
 43
0.0
 10
38.23193990469572
 20
13.3232621555364
 10
38.23193990469572
 20
13.3232621555364
 10
38.12082026546558
 20
12.79548834027856
 10
38.13440861034565
 20
12.72504060393442
 10
38.16443207912263
 20
12.65438708669141
 10
38.20290064055729
 20
12.5785337236455
 10
38.23946429392105
 20
12.49151935824486
 10
38.26377303848533
 20
12.38738283393767
 10
38.26547687352159
 20
12.26016299417211
 10
38.23422579830126
 20
12.10389868239635
 10
38.15966981209577
 20
11.91262874205858
 10
38.03145891417655
 20
11.68039201660697
  0
MTEXT
  5
4AD
330
1F
100
AcDbEntity
  8
PART_NUMBERS
100
AcDbMText
 10
39.39488245275691
 20
11.31717335148786
 30
0.0
 40
0.25
 41
0.0
 71
     4
 72
     1
  1
104060\PSAFETY RAIL
 73
     1
 44
1.0
1001
ACAD
1000
MTEXTBEGIN
1070
    73
1070
     1
1070
    44
1040
1.0
1070
    74
1070
     0
1000
MTEXTEND
  0
LEADER
  5
4AE
330
1F
100
AcDbEntity
  8
PART_NUMBERS
100
AcDbLeader
  3
Standard
 76
     3
 10
37.5587898030726
 20
11.71121571117441
 30
0.0
 10
37.90075894451552
 20
11.39393958412378
 30
0.0
 10
39.2703892563704
 20
11.39393958412378
 30
0.0
  0
LWPOLYLINE
  5
4AF
330
1F
100
AcDbEntity
  8
R-SWTS-DET1
100
AcDbPolyline
 90
       17
 70
     0
 43
0.0
 10
38.2511474931168
 20
14.5394447551232
 10
38.24716858530921
 20
14.49267872164927
 10
38.23354849343584
 20
14.41921217467321
 10
38.21522962808463
 20
14.34726825025908
 10
38.19468836978714
 20
14.27608563704407
 10
38.17440109907494
 20
14.20490302366534
 10
38.15684419647954
 20
14.13295909876009
 10
38.1444940425325
 20
14.05949255096548
 10
38.13982701776536
 20
13.98374206891871
 10
38.14445171124641
 20
13.90517896418586
 10
38.15650554619083
 20
13.82420504004874
 10
38.17325815435054
 20
13.74145472271806
 10
38.19197916747746
 20
13.65756243840454
 10
38.20993821732353
 20
13.57316261331889
 10
38.22440493564064
 20
13.48888967367184
 10
38.23264895418073
 20
13.40537804567411
 10
38.23193990469572
 20
13.3232621555364
  0
LINE
  5
4B0
330
1F
100
AcDbEntity
  8
R-SWTS-DET2
  6
HIDDEN
100
AcDbLine
 10
7.372456638668779
 20
12.39470349274576
 30
0.0
 11
8.237456638668774
 21
12.39470349274576
 31
0.0
  0
LINE
  5
4B1
330
1F
100
AcDbEntity
  8
R-SWTS-DET1
100
AcDbLine
 10
9.521921558793188
 20
11.39520349274576
 30
0.0
 11
7.116956638668781
 21
11.39520349274576
 31
0.0
  0
LINE
  5
4B2
330
1F
100
AcDbEntity
  8
HIDDEN
  6
HIDDEN
 48
0.5
100
AcDbLine
 10
9.705780807462584
 20
11.77020349274576
 30
0.0
 11
7.116956638668781
 21
11.77020349274576
 31
0.0
  0
LINE
  5
4B3
330
1F
100
AcDbEntity
  8
HIDDEN
  6
HIDDEN
 48
0.5
100
AcDbLine
 10
9.590930292053343
 20
11.52020349274576
 30
0.0
 11
7.116956638668781
 21
11.52020349274576
 31
0.0
  0
LINE
  5
4B4
330
1F
100
AcDbEntity
  8
R-SWTS-DET2
  6
HIDDEN
 48
0.25
100
AcDbLine
 10
7.396956638668783
 20
11.50215547792381
 30
0.0
 11
7.396956638668783
 21
11.99015547792381
 31
0.0
  0
LINE
  5
4B5
330
1F
100
AcDbEntity
  8
R-SWTS-DET2
  6
HIDDEN
 48
0.25
100
AcDbLine
 10
7.58695663866878
 20
11.50215547792381
 30
0.0
 11
7.58695663866878
 21
11.99015547792381
 31
0.0
  0
LINE
  5
4B6
330
1F
100
AcDbEntity
  8
R-SWTS-DET2
  6
HIDDEN
 48
0.25
100
AcDbLine
 10
7.679970319615115
 20
11.39515547792381
 30
0.0
 11
7.303942957722448
 21
11.39515547792381
 31
0.0
  0
LINE
  5
4B7
330
1F
100
AcDbEntity
  8
R-SWTS-DET2
  6
HIDDEN
 48
0.25
100
AcDbLine
 10
7.59315663866878
 20
11.50215547792381
 30
0.0
 11
7.390756638668783
 21
11.50215547792381
 31
0.0
  0
LINE
  5
4B8
330
1F
100
AcDbEntity
  8
HIDDEN
 48
0.25
100
AcDbLine
 10
7.58695663866878
 20
11.50215547792381
 30
0.0
 11
7.396956638668783
 21
11.50215547792381
 31
0.0
  0
LINE
  5
4B9
330
1F
100
AcDbEntity
  8
R-SWTS-DET2
  6
HIDDEN
 48
0.25
100
AcDbLine
 10
7.396956638668783
 20
11.50215547792381
 30
0.0
 11
7.303942957722448
 21
11.39515547792381
 31
0.0
  0
LINE
  5
4BA
330
1F
100
AcDbEntity
  8
HIDDEN
 48
0.25
100
AcDbLine
 10
7.390756638668783
 20
11.50215547792381
 30
0.0
 11
7.390756638668783
 21
11.52020349274576
 31
0.0
  0
LINE
  5
4BB
330
1F
100
AcDbEntity
  8
HIDDEN
 48
0.25
100
AcDbLine
 10
7.390756638668783
 20
11.50215547792381
 30
0.0
 11
7.294456638668776
 21
11.39520349274576
 31
0.0
  0
LINE
  5
4BC
330
1F
100
AcDbEntity
  8
R-SWTS-DET2
  6
HIDDEN
 48
0.25
100
AcDbLine
 10
7.58695663866878
 20
11.50215547792381
 30
0.0
 11
7.679970319615115
 21
11.39515547792381
 31
0.0
  0
LINE
  5
4BD
330
1F
100
AcDbEntity
  8
HIDDEN
 48
0.25
100
AcDbLine
 10
7.59315663866878
 20
11.50215547792381
 30
0.0
 11
7.689456638668787
 21
11.39520349274576
 31
0.0
  0
LINE
  5
4BE
330
1F
100
AcDbEntity
  8
HIDDEN
 48
0.25
100
AcDbLine
 10
7.59315663866878
 20
11.50215547792381
 30
0.0
 11
7.59315663866878
 21
11.52020349274576
 31
0.0
  0
LINE
  5
4BF
330
1F
100
AcDbEntity
  8
R-SWTS-DET2
  6
HIDDEN
 48
0.25
100
AcDbLine
 10
7.58695663866878
 20
11.99015547792381
 30
0.0
 11
7.396956638668783
 21
11.99015547792381
 31
0.0
  0
LINE
  5
4C0
330
1F
100
AcDbEntity
  8
R-SWTS-DET2
  6
HIDDEN
 48
0.25
100
AcDbLine
 10
7.58695663866878
 20
11.99015547792381
 30
0.0
 11
7.556956638668779
 21
12.02015547792381
 31
0.0
  0
LINE
  5
4C1
330
1F
100
AcDbEntity
  8
R-SWTS-DET2
  6
HIDDEN
 48
0.25
100
AcDbLine
 10
7.426956638668784
 20
12.02015547792381
 30
0.0
 11
7.396956638668783
 21
11.99015547792381
 31
0.0
  0
LINE
  5
4C2
330
1F
100
AcDbEntity
  8
R-SWTS-DET2
  6
HIDDEN
 48
0.25
100
AcDbLine
 10
7.556956638668779
 20
12.02015547792381
 30
0.0
 11
7.426956638668784
 21
12.02015547792381
 31
0.0
  0
LINE
  5
4C3
330
1F
100
AcDbEntity
  8
R-SWTS-DET2
  6
HIDDEN
 48
0.25
100
AcDbLine
 10
7.929956638668784
 20
12.39470349274576
 30
0.0
 11
7.929956638668784
 21
12.70280587558483
 31
0.0
  0
LINE
  5
4C4
330
1F
100
AcDbEntity
  8
R-SWTS-DET2
  6
HIDDEN
 48
0.25
100
AcDbLine
 10
7.898956638668778
 20
12.39470349274576
 30
0.0
 11
7.898956638668778
 21
12.68977091698926
 31
0.0
  0
LINE
  5
4C5
330
1F
100
AcDbEntity
  8
R-SWTS-DET2
  6
HIDDEN
 48
0.25
100
AcDbLine
 10
7.679956638668784
 20
12.39470349274576
 30
0.0
 11
7.679956638668784
 21
12.70280587558483
 31
0.0
  0
LINE
  5
4C6
330
1F
100
AcDbEntity
  8
R-SWTS-DET2
  6
HIDDEN
 48
0.25
100
AcDbLine
 10
7.710956638668776
 20
12.39470349274576
 30
0.0
 11
7.710956638668776
 21
12.68977091698926
 31
0.0
  0
POINT
  5
4C7
330
1F
100
AcDbEntity
  8
R-SWTS-DET2
  6
HIDDEN
100
AcDbPoint
 10
8.237456638668774
 20
12.39470349274576
 30
0.0
  0
POINT
  5
4C8
330
1F
100
AcDbEntity
  8
R-SWTS-DET2
  6
HIDDEN
100
AcDbPoint
 10
8.237456638668774
 20
12.39470349274576
 30
0.0
  0
LINE
  5
4CF
330
1F
100
AcDbEntity
  8
R-SWTS-DET2
  6
HIDDEN
 48
0.25
100
AcDbLine
 10
17.33472068789552
 20
12.86170349274576
 30
0.0
 11
17.36472068789552
 21
12.83170349274576
 31
0.0
  0
DIMENSION
  5
4D0
330
1F
100
AcDbEntity
  8
R-ANNO-DIMS
100
AcDbDimension
  2
*D1
 10
7.804956638668784
 20
21.49114502501053
 30
0.0
 11
6.239956638668786
 21
21.49114502501053
 31
0.0
 70
   160
 71
     5
 42
0.875
  3
Standard
100
AcDbAlignedDimension
 13
6.929956638668784
 23
20.9532697314379
 33
0.0
 14
7.804956638668784
 24
21.6017697314379
 34
0.0
100
AcDbRotatedDimension
1001
ACAD
1000
DSTYLE
1002
{
1070
   140
1040
0.25
1002
}
  0
LWPOLYLINE
  5
4D1
330
1F
100
AcDbEntity
  8
R-SWTS-DET2
100
AcDbPolyline
 90
        4
 70
     1
 43
0.0
 10
7.372456638668779
 20
21.0722697314379
 10
7.372456638668779
 20
21.9372697314379
 10
8.237456638668774
 20
21.9372697314379
 10
8.237456638668774
 20
21.0722697314379
  0
LINE
  5
4D2
330
1F
100
AcDbEntity
  8
R-SWTS-DET2
  6
HIDDEN
 48
0.25
100
AcDbLine
 10
7.679956638668784
 20
22.66726973143789
 30
0.0
 11
7.679956638668784
 21
21.44726973143789
 31
0.0
  0
LINE
  5
4D3
330
1F
100
AcDbEntity
  8
R-SWTS-DET2
  6
HIDDEN
 48
0.25
100
AcDbLine
 10
7.929956638668784
 20
22.66726973143789
 30
0.0
 11
7.929956638668784
 21
21.44726973143789
 31
0.0
  0
LINE
  5
4D4
330
1F
100
AcDbEntity
  8
R-SWTS-DET2
  6
HIDDEN
 48
0.25
100
AcDbLine
 10
7.996956638668777
 20
21.60176973143789
 30
0.0
 11
7.996956638668777
 21
21.8217697314379
 31
0.0
  0
LINE
  5
4D5
330
1F
100
AcDbEntity
  8
R-SWTS-DET2
  6
HIDDEN
 48
0.25
100
AcDbLine
 10
7.612956638668777
 20
21.6017697314379
 30
0.0
 11
7.612956638668777
 21
21.8217697314379
 31
0.0
  0
LINE
  5
4D6
330
1F
100
AcDbEntity
  8
HIDDEN
 48
0.5
100
AcDbLine
 10
8.087956638668778
 20
21.0722697314379
 30
0.0
 11
8.087956638668778
 21
21.9372697314379
 31
0.0
  0
LINE
  5
4D7
330
1F
100
AcDbEntity
  8
HIDDEN
 48
0.5
100
AcDbLine
 10
7.521956638668783
 20
21.0722697314379
 30
0.0
 11
7.521956638668783
 21
21.9372697314379
 31
0.0
  0
LINE
  5
4D8
330
1F
100
AcDbEntity
  8
R-SWTS-DET1
100
AcDbLine
 10
7.116956638668789
 20
21.0722697314379
 30
0.0
 11
12.05492852291143
 21
21.0722697314379
 31
0.0
  0
LINE
  5
4D9
330
1F
100
AcDbEntity
  8
R-SWTS-DET1
100
AcDbLine
 10
7.116956638668789
 20
19.82826973143789
 30
0.0
 11
11.96890310336523
 21
19.82826973143789
 31
0.0
  0
LINE
  5
4DA
330
1F
100
AcDbEntity
  8
HIDDEN
  6
HIDDEN
 48
0.5
100
AcDbLine
 10
9.373259239063639
 20
20.1952697314379
 30
0.0
 11
12.01605102187718
 21
20.1952697314379
 31
0.0
  0
LINE
  5
4DB
330
1F
100
AcDbEntity
  8
HIDDEN
  6
HIDDEN
 48
0.5
100
AcDbLine
 10
9.358244559097599
 20
20.1012697314379
 30
0.0
 11
12.01320619756071
 21
20.1012697314379
 31
0.0
  0
LINE
  5
4DC
330
1F
100
AcDbEntity
  8
HIDDEN
  6
HIDDEN
 48
0.5
100
AcDbLine
 10
9.369276847108071
 20
19.95731776768431
 30
0.0
 11
12.0284653783491
 21
19.95731776768431
 31
0.0
  0
LINE
  5
4DD
330
1F
100
AcDbEntity
  8
HIDDEN
  6
HIDDEN
 48
0.5
100
AcDbLine
 10
9.402782934278388
 20
20.7052697314379
 30
0.0
 11
12.06124896165751
 21
20.7052697314379
 31
0.0
  0
LINE
  5
4DE
330
1F
100
AcDbEntity
  8
HIDDEN
  6
HIDDEN
 48
0.5
100
AcDbLine
 10
9.398066348958728
 20
20.79926973143789
 30
0.0
 11
12.05008526509853
 21
20.79926973143789
 31
0.0
  0
LINE
  5
4DF
330
1F
100
AcDbEntity
  8
HIDDEN
  6
HIDDEN
 48
0.5
100
AcDbLine
 10
9.403806878564331
 20
20.9472697314379
 30
0.0
 11
12.06299540980535
 21
20.9472697314379
 31
0.0
  0
LINE
  5
4E0
330
1F
100
AcDbEntity
  8
R-SWTS-DET2
  6
HIDDEN
 48
0.25
100
AcDbLine
 10
7.58695663866878
 20
17.2882515075677
 30
0.0
 11
7.679970319615115
 21
17.3952515075677
 31
0.0
  0
LINE
  5
4E1
330
1F
100
AcDbEntity
  8
R-SWTS-DET2
  6
HIDDEN
 48
0.25
100
AcDbLine
 10
7.396956638668783
 20
17.2882515075677
 30
0.0
 11
7.303942957722448
 21
17.3952515075677
 31
0.0
  0
LINE
  5
4E2
330
1F
100
AcDbEntity
  8
HIDDEN
 48
0.25
100
AcDbLine
 10
7.390756638668783
 20
17.2882515075677
 30
0.0
 11
7.294456638668776
 21
17.39520349274576
 31
0.0
  0
LINE
  5
4E3
330
1F
100
AcDbEntity
  8
HIDDEN
 48
0.25
100
AcDbLine
 10
7.59315663866878
 20
17.2882515075677
 30
0.0
 11
7.689456638668787
 21
17.39520349274576
 31
0.0
  0
LINE
  5
4E4
330
1F
100
AcDbEntity
  8
HIDDEN
  6
HIDDEN
 48
0.5
100
AcDbLine
 10
9.696085404083436
 20
13.34820349274576
 30
0.0
 11
7.116956638668781
 21
13.34820349274576
 31
0.0
  0
LINE
  5
4E5
330
1F
100
AcDbEntity
  8
HIDDEN
  6
HIDDEN
 48
0.5
100
AcDbLine
 10
9.653321547584489
 20
13.44220349274576
 30
0.0
 11
7.116956638668781
 21
13.44220349274576
 31
0.0
  0
CIRCLE
  5
4E6
330
1F
100
AcDbEntity
  8
R-SWTS-DET2
  6
HIDDEN
100
AcDbCircle
 10
7.804956638668784
 20
14.39470349274576
 30
0.0
 40
0.195
  0
CIRCLE
  5
4E7
330
1F
100
AcDbEntity
  8
R-SWTS-DET2
  6
HIDDEN
100
AcDbCircle
 10
7.804956638668784
 20
14.39470349274576
 30
0.0
 40
0.13375
  0
CIRCLE
  5
4E8
330
1F
100
AcDbEntity
  8
R-SWTS-DET2
  6
HIDDEN
100
AcDbCircle
 10
7.804956638668784
 20
15.83270349274576
 30
0.0
 40
0.283
  0
CIRCLE
  5
4E9
330
1F
100
AcDbEntity
  8
R-SWTS-DET2
  6
HIDDEN
100
AcDbCircle
 10
7.804956638668784
 20
15.83270349274576
 30
0.0
 40
0.3125
  0
LINE
  5
4EA
330
1F
100
AcDbEntity
  8
R-SWTS-DET2
  6
HIDDEN
100
AcDbLine
 10
8.237456638668774
 20
16.40470349274576
 30
0.0
 11
7.372456638668779
 21
16.40470349274576
 31
0.0
  0
LINE
  5
4EB
330
1F
100
AcDbEntity
  8
HIDDEN
  6
HIDDEN
 48
0.5
100
AcDbLine
 10
9.629045315465223
 20
17.27020349274576
 30
0.0
 11
7.116956638668781
 21
17.27020349274576
 31
0.0
  0
LINE
  5
4EC
330
1F
100
AcDbEntity
  8
HIDDEN
  6
HIDDEN
 48
0.5
100
AcDbLine
 10
9.713503701868397
 20
15.34820349274576
 30
0.0
 11
7.116956638668781
 21
15.34820349274576
 31
0.0
  0
LINE
  5
4ED
330
1F
100
AcDbEntity
  8
HIDDEN
  6
HIDDEN
 48
0.5
100
AcDbLine
 10
9.721628716402825
 20
15.44220349274576
 30
0.0
 11
7.116956638668781
 21
15.44220349274576
 31
0.0
  0
LINE
  5
4EE
330
1F
100
AcDbEntity
  8
HIDDEN
  6
HIDDEN
 48
0.5
100
AcDbLine
 10
9.551937156443635
 20
17.02020349274576
 30
0.0
 11
7.116956638668781
 21
17.02020349274576
 31
0.0
  0
LINE
  5
4EF
330
1F
100
AcDbEntity
  8
R-SWTS-DET2
  6
HIDDEN
 48
0.25
100
AcDbLine
 10
7.898956638668778
 20
16.09963606850226
 30
0.0
 11
7.898956638668778
 21
16.40470349274576
 31
0.0
  0
LINE
  5
4F0
330
1F
100
AcDbEntity
  8
R-SWTS-DET2
  6
HIDDEN
 48
0.25
100
AcDbLine
 10
7.929956638668784
 20
16.08660110990669
 30
0.0
 11
7.929956638668784
 21
16.40470349274576
 31
0.0
  0
LINE
  5
4F1
330
1F
100
AcDbEntity
  8
R-SWTS-DET2
  6
HIDDEN
 48
0.25
100
AcDbLine
 10
7.710956638668776
 20
16.09963606850226
 30
0.0
 11
7.710956638668776
 21
16.40470349274576
 31
0.0
  0
LINE
  5
4F2
330
1F
100
AcDbEntity
  8
R-SWTS-DET2
  6
HIDDEN
 48
0.25
100
AcDbLine
 10
7.679956638668784
 20
16.08660110990669
 30
0.0
 11
7.679956638668784
 21
16.40470349274576
 31
0.0
  0
CIRCLE
  5
4F3
330
1F
100
AcDbEntity
  8
R-SWTS-DET2
  6
HIDDEN
 48
0.25
100
AcDbCircle
 10
7.804956638668784
 20
15.83270349274576
 30
0.0
 40
0.125
  0
CIRCLE
  5
4F4
330
1F
100
AcDbEntity
  8
R-SWTS-DET2
  6
HIDDEN
100
AcDbCircle
 10
7.804956638668784
 20
15.83270349274576
 30
0.0
 40
0.095
  0
LINE
  5
4F5
330
1F
100
AcDbEntity
  8
R-SWTS-DET2
  6
HIDDEN
 48
0.25
100
AcDbLine
 10
7.396956638668783
 20
17.2882515075677
 30
0.0
 11
7.58695663866878
 21
17.2882515075677
 31
0.0
  0
LINE
  5
4F6
330
1F
100
AcDbEntity
  8
R-SWTS-DET2
  6
HIDDEN
 48
0.25
100
AcDbLine
 10
7.556956638668779
 20
16.7702515075677
 30
0.0
 11
7.58695663866878
 21
16.8002515075677
 31
0.0
  0
LINE
  5
4F7
330
1F
100
AcDbEntity
  8
R-SWTS-DET2
  6
HIDDEN
 48
0.25
100
AcDbLine
 10
7.396956638668783
 20
16.8002515075677
 30
0.0
 11
7.58695663866878
 21
16.8002515075677
 31
0.0
  0
LINE
  5
4F8
330
1F
100
AcDbEntity
  8
HIDDEN
 48
0.25
100
AcDbLine
 10
7.390756638668783
 20
17.2882515075677
 30
0.0
 11
7.59315663866878
 21
17.2882515075677
 31
0.0
  0
LINE
  5
4F9
330
1F
100
AcDbEntity
  8
R-SWTS-DET2
  6
HIDDEN
 48
0.25
100
AcDbLine
 10
7.426956638668784
 20
16.7702515075677
 30
0.0
 11
7.556956638668779
 21
16.7702515075677
 31
0.0
  0
LINE
  5
4FA
330
1F
100
AcDbEntity
  8
R-SWTS-DET2
  6
HIDDEN
 48
0.25
100
AcDbLine
 10
7.396956638668783
 20
16.8002515075677
 30
0.0
 11
7.426956638668784
 21
16.7702515075677
 31
0.0
  0
LINE
  5
4FB
330
1F
100
AcDbEntity
  8
R-SWTS-DET2
  6
HIDDEN
 48
0.25
100
AcDbLine
 10
7.396956638668783
 20
17.2882515075677
 30
0.0
 11
7.396956638668783
 21
16.8002515075677
 31
0.0
  0
LINE
  5
4FC
330
1F
100
AcDbEntity
  8
HIDDEN
 48
0.25
100
AcDbLine
 10
7.390756638668783
 20
17.2882515075677
 30
0.0
 11
7.390756638668783
 21
17.27020349274576
 31
0.0
  0
LINE
  5
4FD
330
1F
100
AcDbEntity
  8
R-SWTS-DET2
  6
HIDDEN
 48
0.25
100
AcDbLine
 10
7.58695663866878
 20
17.2882515075677
 30
0.0
 11
7.58695663866878
 21
16.8002515075677
 31
0.0
  0
LINE
  5
4FE
330
1F
100
AcDbEntity
  8
HIDDEN
 48
0.25
100
AcDbLine
 10
7.59315663866878
 20
17.2882515075677
 30
0.0
 11
7.59315663866878
 21
17.27020349274576
 31
0.0
  0
POINT
  5
4FF
330
1F
100
AcDbEntity
  8
R-SWTS-DET2
  6
HIDDEN
 62
     3
100
AcDbPoint
 10
8.237456638668774
 20
16.40470349274576
 30
0.0
  0
MTEXT
  5
500
330
1F
100
AcDbEntity
  8
PART_NUMBERS
100
AcDbMText
 10
6.600601913023133
 20
17.66347417918886
 30
0.0
 40
0.25
 41
0.0
 71
     6
 72
     1
  1
**028578\PFLAT HEAD SCREWS
 73
     1
 44
1.0
1001
ACAD
1000
MTEXTBEGIN
1070
    73
1070
     1
1070
    44
1040
1.0
1070
    74
1070
     0
1000
MTEXTEND
  0
MTEXT
  5
501
330
1F
100
AcDbEntity
  8
PART_NUMBERS
100
AcDbMText
 10
6.297870696796742
 20
19.52106330916119
 30
0.0
 40
0.25
 41
0.0
 71
     6
 72
     1
  1
060275\PSTANDARD END CAP PKG.\P(** INCLUDED IN PKG)
 73
     1
 44
1.0
1001
ACAD
1000
MTEXTBEGIN
1070
    73
1070
     1
1070
    44
1040
1.0
1070
    74
1070
     0
1000
MTEXTEND
  0
TEXT
  5
502
330
1F
100
AcDbEntity
  8
R-ANNO-DIMS
100
AcDbText
 10
8.020775039648313
 20
17.91234158723571
 30
0.0
 40
0.25
  1
MOUNTING
100
AcDbText
  0
LINE
  5
503
330
1F
100
AcDbEntity
  8
R-SWTS-DET1
100
AcDbLine
 10
9.716984125090661
 20
17.39520349274576
 30
0.0
 11
7.116956638668781
 21
17.39520349274576
 31
0.0
  0
LEADER
  5
504
330
1F
100
AcDbEntity
  8
PART_NUMBERS
100
AcDbLeader
  3
Standard
 76
     3
 10
7.497297647990535
 20
17.41273233236734
 30
0.0
 10
6.988010110470014
 20
17.75744384323977
 30
0.0
 10
6.692294821415487
 20
17.75744384323977
 30
0.0
  0
LINE
  5
505
330
1F
100
AcDbEntity
  8
R-SWTS-DET2
  6
HIDDEN
 48
0.25
100
AcDbLine
 10
7.303942957722448
 20
17.3952515075677
 30
0.0
 11
7.679970319615115
 21
17.3952515075677
 31
0.0
  0
LINE
  5
508
330
1F
100
AcDbEntity
  8
R-SWTS-DET1
100
AcDbLine
 10
9.402782934278388
 20
20.7052697314379
 30
0.0
 11
7.116956638668789
 21
20.7052697314379
 31
0.0
  0
LINE
  5
509
330
1F
100
AcDbEntity
  8
R-SWTS-DET1
100
AcDbLine
 10
9.398066348958728
 20
20.79926973143789
 30
0.0
 11
7.116956638668789
 21
20.79926973143789
 31
0.0
  0
LINE
  5
50A
330
1F
100
AcDbEntity
  8
R-SWTS-DET1
100
AcDbLine
 10
9.403806878564331
 20
20.9472697314379
 30
0.0
 11
7.116956638668789
 21
20.9472697314379
 31
0.0
  0
LINE
  5
50B
330
1F
100
AcDbEntity
  8
R-SWTS-DET1
100
AcDbLine
 10
9.373259239063639
 20
20.1952697314379
 30
0.0
 11
7.116956638668789
 21
20.1952697314379
 31
0.0
  0
LINE
  5
50C
330
1F
100
AcDbEntity
  8
R-SWTS-DET1
100
AcDbLine
 10
9.358244559097599
 20
20.1012697314379
 30
0.0
 11
7.116956638668789
 21
20.1012697314379
 31
0.0
  0
LINE
  5
50D
330
1F
100
AcDbEntity
  8
R-SWTS-DET1
100
AcDbLine
 10
9.382251862260837
 20
19.95326973143789
 30
0.0
 11
7.116956638668789
 21
19.95326973143789
 31
0.0
  0
LINE
  5
50E
330
1F
100
AcDbEntity
  8
R-SWTS-DET2
  6
HIDDEN
 48
0.25
100
AcDbLine
 10
7.679956638668784
 20
20.38176973143789
 30
0.0
 11
7.679956638668784
 21
21.60176973143789
 31
0.0
  0
LINE
  5
50F
330
1F
100
AcDbEntity
  8
R-SWTS-DET2
  6
HIDDEN
 48
0.25
100
AcDbLine
 10
7.929956638668784
 20
20.38176973143789
 30
0.0
 11
7.929956638668784
 21
21.60176973143789
 31
0.0
  0
LINE
  5
510
330
1F
100
AcDbEntity
  8
R-SWTS-DET1
100
AcDbLine
 10
7.116956638668789
 20
21.0722697314379
 30
0.0
 11
7.116956638668789
 21
19.82826973143789
 31
0.0
  0
LWPOLYLINE
  5
511
330
1F
100
AcDbEntity
  8
R-SWTS-DET2
100
AcDbPolyline
 90
       26
 70
     1
 43
0.0
 10
7.52195663866879
 20
20.37640499018742
 10
7.52195663866879
 20
20.3202697314379
 10
7.537669100658355
 20
20.30455726944833
 42
1.415961772315393
 10
7.346856675678417
 20
20.5282697314379
 42
-0.2679491924311277
 10
7.320009888161102
 20
20.5127697314379
 10
7.116956638668789
 20
20.5127697314379
 10
7.116956638668789
 20
20.6282697314379
 10
7.241956638668789
 20
20.6282697314379
 42
1.0
 10
7.241956638668789
 20
20.6902697314379
 10
7.116956638668789
 20
20.6902697314379
 10
7.116956638668789
 20
21.0782697314379
 10
7.054956638668784
 20
21.0782697314379
 42
0.4142135623730951
 10
6.929956638668784
 20
20.9532697314379
 10
6.929956638668784
 20
19.9472697314379
 42
0.4142135623730951
 10
7.054956638668784
 20
19.8222697314379
 10
7.116956638668789
 20
19.8222697314379
 10
7.116956638668789
 20
20.2102697314379
 10
7.241956638668789
 20
20.2102697314379
 42
1.0
 10
7.241956638668789
 20
20.2722697314379
 10
7.116956638668789
 20
20.2722697314379
 10
7.116956638668789
 20
20.3877697314379
 10
7.320009888161102
 20
20.3877697314379
 42
-0.2679491924311277
 10
7.346856675678417
 20
20.3722697314379
 42
0.1721723319805473
 10
7.426244176679219
 20
20.30455726944833
 10
7.441956638668791
 20
20.3202697314379
 10
7.441956638668791
 20
20.37640499018742
 42
-3.946618531261892
  0
LEADER
  5
512
330
1F
100
AcDbEntity
  8
PART_NUMBERS
100
AcDbLeader
  3
Standard
 76
     3
 10
6.933062644031139
 20
20.07587353383827
 30
0.0
 10
6.565414847968469
 20
19.72645335243235
 30
0.0
 10
6.421942495488451
 20
19.72645335243235
 30
0.0
  0
LINE
  5
513
330
1F
100
AcDbEntity
  8
R-SWTS-DET2
  6
HIDDEN
 48
0.25
100
AcDbLine
 10
7.899956638668783
 20
20.3517697314379
 30
0.0
 11
7.929956638668784
 21
20.38176973143789
 31
0.0
  0
LINE
  5
514
330
1F
100
AcDbEntity
  8
R-SWTS-DET2
  6
HIDDEN
 48
0.25
100
AcDbLine
 10
7.679956638668784
 20
20.38176973143789
 30
0.0
 11
7.709956638668778
 21
20.35176973143789
 31
0.0
  0
LINE
  5
515
330
1F
100
AcDbEntity
  8
R-SWTS-DET2
  6
HIDDEN
 48
0.25
100
AcDbLine
 10
7.679956638668784
 20
20.38176973143789
 30
0.0
 11
7.929956638668784
 21
20.38176973143789
 31
0.0
  0
LINE
  5
516
330
1F
100
AcDbEntity
  8
R-SWTS-DET2
  6
HIDDEN
 48
0.25
100
AcDbLine
 10
7.709956638668778
 20
20.35176973143789
 30
0.0
 11
7.899956638668783
 21
20.3517697314379
 31
0.0
  0
LINE
  5
517
330
1F
100
AcDbEntity
  8
R-SWTS-DET2
  6
HIDDEN
 48
0.25
100
AcDbLine
 10
7.996956638668777
 20
21.44726973143789
 30
0.0
 11
7.612956638668784
 21
21.44726973143789
 31
0.0
  0
LINE
  5
518
330
1F
100
AcDbEntity
  8
R-SWTS-DET2
  6
HIDDEN
 48
0.25
100
AcDbLine
 10
7.966956638668783
 20
21.19726973143789
 30
0.0
 11
7.642956638668778
 21
21.19726973143789
 31
0.0
  0
LINE
  5
519
330
1F
100
AcDbEntity
  8
R-SWTS-DET2
  6
HIDDEN
 48
0.25
100
AcDbLine
 10
7.966956638668783
 20
21.19726973143789
 30
0.0
 11
7.996956638668777
 21
21.22726973143789
 31
0.0
  0
LINE
  5
51A
330
1F
100
AcDbEntity
  8
R-SWTS-DET2
  6
HIDDEN
 48
0.25
100
AcDbLine
 10
7.996956638668777
 20
21.22726973143789
 30
0.0
 11
7.612956638668777
 21
21.22726973143789
 31
0.0
  0
LINE
  5
51B
330
1F
100
AcDbEntity
  8
R-SWTS-DET2
  6
HIDDEN
 48
0.25
100
AcDbLine
 10
7.612956638668777
 20
21.22726973143789
 30
0.0
 11
7.642956638668778
 21
21.19726973143789
 31
0.0
  0
LINE
  5
51C
330
1F
100
AcDbEntity
  8
R-SWTS-DET2
  6
HIDDEN
 48
0.25
100
AcDbLine
 10
7.996956638668777
 20
21.44726973143789
 30
0.0
 11
7.996956638668777
 21
21.22726973143789
 31
0.0
  0
LINE
  5
51D
330
1F
100
AcDbEntity
  8
R-SWTS-DET2
  6
HIDDEN
 48
0.25
100
AcDbLine
 10
7.612956638668784
 20
21.44726973143789
 30
0.0
 11
7.612956638668777
 21
21.22726973143789
 31
0.0
  0
LINE
  5
51E
330
1F
100
AcDbEntity
  8
R-SWTS-DET2
  6
HIDDEN
 48
0.25
100
AcDbLine
 10
7.612956638668777
 20
21.6017697314379
 30
0.0
 11
7.996956638668777
 21
21.60176973143789
 31
0.0
  0
LWPOLYLINE
  5
51F
330
1F
100
AcDbEntity
  8
R-SWTS-DET1
100
AcDbPolyline
 90
       35
 70
     0
 43
0.0
 10
9.395285170859335
 20
20.77874119640618
 10
9.396713355778341
 20
20.77543662507904
 10
9.402398690891484
 20
20.75214145508495
 10
9.402221639482274
 20
20.72760798062613
 10
9.394857590900965
 20
20.7018591329444
 10
9.38170984569928
 20
20.67508819236209
 10
9.364863682229302
 20
20.64753102647164
 10
9.346404378843125
 20
20.6194235028655
 10
9.328417213892834
 20
20.59100148913609
 10
9.312987465730518
 20
20.56250085287587
 10
9.302200412708263
 20
20.53415746167728
 10
9.298141333178158
 20
20.50620718313276
 10
9.302200412708263
 20
20.47885967730419
 10
9.312987465730518
 20
20.45221977413123
 10
9.328417213892834
 20
20.42636609602298
 10
9.346404378843125
 20
20.40137726538853
 10
9.364863682229302
 20
20.37733190463696
 10
9.38170984569928
 20
20.35430863617739
 10
9.394857590900965
 20
20.33238608241891
 10
9.402221639482274
 20
20.31164286577061
 10
9.402388854690336
 20
20.29202001934452
 10
9.396634666169155
 20
20.27290821906444
 10
9.386906645161957
 20
20.25356055155706
 10
9.375152362911965
 20
20.23323010344911
 10
9.363319390662397
 20
20.21116996136731
 10
9.353355299656485
 20
20.18663321193837
 10
9.347207661137446
 20
20.15887294178902
 10
9.346824046348505
 20
20.12714223754596
 10
9.353017582747732
 20
20.09087763826582
 10
9.362063622652552
 20
20.05024949272477
 10
9.369103074595241
 20
20.0056116021289
 10
9.369276847108071
 20
19.95731776768431
 10
9.357725848723323
 20
19.90572179059708
 10
9.329590987973254
 20
19.85117747207329
 10
9.30971457212421
 20
19.8282697314379
  0
LWPOLYLINE
  5
520
330
1F
100
AcDbEntity
  8
R-SWTS-DET1
100
AcDbPolyline
 90
       13
 70
     0
 43
0.0
 10
9.396955092571982
 20
21.0722697314379
 10
9.407572517161359
 20
21.03347546375045
 10
9.408844659287975
 20
20.99488822390801
 10
9.401382245132918
 20
20.9647332398146
 10
9.388568932478211
 20
20.94110391786706
 10
9.373788379105871
 20
20.92209366446226
 10
9.360424242797925
 20
20.90579588599703
 10
9.351860181336402
 20
20.89030398886823
 10
9.350581478131292
 20
20.87402586906852
 10
9.355479919104503
 20
20.8566273809738
 10
9.364548915805926
 20
20.83808886855577
 10
9.375781879785449
 20
20.81839067578617
 10
9.387172222592958
 20
20.79751314663668
  0
LEADER
  5
521
330
1F
100
AcDbEntity
  8
PART_NUMBERS
100
AcDbLeader
  3
Standard
 76
     3
 10
16.85351672427491
 20
17.14634309044967
 30
0.0
 10
16.56698773376023
 20
17.48716257016771
 30
0.0
 10
15.38075678230592
 20
17.48716257016771
 30
0.0
  0
MTEXT
  5
522
330
1F
100
AcDbEntity
  8
PART_NUMBERS
100
AcDbMText
 10
15.23751170656053
 20
17.39151268936427
 30
0.0
 40
0.25
 41
0.0
 71
     6
 72
     1
  1
104060\PSAFETY RAIL
 73
     1
 44
1.0
1001
ACAD
1000
MTEXTBEGIN
1070
    73
1070
     1
1070
    44
1040
1.0
1070
    74
1070
     0
1000
MTEXTEND
  0
MTEXT
  5
523
330
1F
100
AcDbEntity
  8
PART_NUMBERS
100
AcDbMText
 10
16.11854177497537
 20
16.2711978658249
 30
0.0
 40
0.25
 41
0.0
 71
     6
 72
     1
  1
*028234\PSOCKT HEAD CAP SCREWS
 73
     1
 44
1.0
1001
ACAD
1000
MTEXTBEGIN
1070
    73
1070
     1
1070
    44
1040
1.0
1070
    74
1070
     0
1000
MTEXTEND
  0
LINE
  5
524
330
1F
100
AcDbEntity
  8
R-SWTS-DET2
  6
HIDDEN
 48
0.25
100
AcDbLine
 10
17.36472068789552
 20
13.08170349274576
 30
0.0
 11
17.33472068789552
 21
13.05170349274576
 31
0.0
  0
LEADER
  5
525
330
1F
100
AcDbEntity
  8
PART_NUMBERS
100
AcDbLeader
  3
Standard
 76
     3
 10
17.32663518043963
 20
15.81049682388506
 30
0.0
 10
16.46704820889562
 20
16.38307366141082
 30
0.0
 10
16.23509612359331
 20
16.38307366141082
 30
0.0
  0
LINE
  5
526
330
1F
100
AcDbEntity
  8
R-SWTS-DET2
  6
HIDDEN
 48
0.25
100
AcDbLine
 10
17.36472068789552
 20
15.95770349274576
 30
0.0
 11
17.33472068789552
 21
15.92770349274576
 31
0.0
  0
LINE
  5
527
330
1F
100
AcDbEntity
  8
R-SWTS-DET2
  6
HIDDEN
 48
0.25
100
AcDbLine
 10
17.33472068789552
 20
15.73770349274576
 30
0.0
 11
17.36472068789552
 21
15.70770349274576
 31
0.0
  0
LINE
  5
528
330
1F
100
AcDbEntity
  8
R-SWTS-DET2
  6
HIDDEN
 48
0.25
100
AcDbLine
 10
17.36472068789552
 20
15.95770349274576
 30
0.0
 11
17.36472068789552
 21
15.70770349274576
 31
0.0
  0
LINE
  5
529
330
1F
100
AcDbEntity
  8
R-SWTS-DET2
  6
HIDDEN
 48
0.25
100
AcDbLine
 10
17.33472068789552
 20
15.92770349274576
 30
0.0
 11
17.33472068789552
 21
15.73770349274576
 31
0.0
  0
LWPOLYLINE
  5
52A
330
1F
100
AcDbEntity
  8
R-SWTS-DET1
100
AcDbPolyline
 90
       47
 70
     0
 43
0.0
 10
12.056143623813
 20
21.0722697314379
 10
12.06676104840238
 20
21.03347546375045
 10
12.068033190529
 20
20.99488822390801
 10
12.06057077637394
 20
20.9647332398146
 10
12.04775746371923
 20
20.94110391786706
 10
12.03297691034689
 20
20.92209366446226
 10
12.01961277403895
 20
20.90579588599703
 10
12.01104871257743
 20
20.89030398886823
 10
12.00977000937232
 20
20.87402586906852
 10
12.01466845034553
 20
20.8566273809738
 10
12.02373744704695
 20
20.83808886855577
 10
12.03497041102647
 20
20.81839067578617
 10
12.04636075383398
 20
20.79751314663669
 10
12.05590188701936
 20
20.77543662507904
 10
12.06158722213251
 20
20.75214145508495
 10
12.0614101707233
 20
20.72760798062613
 10
12.05404612214199
 20
20.7018591329444
 10
12.0408983769403
 20
20.67508819236209
 10
12.02405221347033
 20
20.64753102647164
 10
12.00559291008415
 20
20.6194235028655
 10
11.98760574513386
 20
20.59100148913609
 10
11.97217599697154
 20
20.56250085287587
 10
11.96138894394929
 20
20.53415746167728
 10
11.95732986441918
 20
20.50620718313276
 10
11.96138894394929
 20
20.47885967730419
 10
11.97217599697154
 20
20.45221977413123
 10
11.98760574513386
 20
20.42636609602298
 10
12.00559291008415
 20
20.40137726538853
 10
12.02405221347033
 20
20.37733190463696
 10
12.0408983769403
 20
20.35430863617739
 10
12.05404612214199
 20
20.33238608241891
 10
12.0614101707233
 20
20.31164286577061
 10
12.06157738593136
 20
20.29202001934452
 10
12.05582319741018
 20
20.27290821906444
 10
12.04609517640298
 20
20.25356055155706
 10
12.03434089415299
 20
20.23323010344911
 10
12.02250792190342
 20
20.21116996136731
 10
12.01254383089751
 20
20.18663321193837
 10
12.00639619237847
 20
20.15887294178902
 10
12.00601257758953
 20
20.12714223754596
 10
12.01220611398875
 20
20.09087763826582
 10
12.02125215389358
 20
20.05024949272477
 10
12.02829160583626
 20
20.0056116021289
 10
12.0284653783491
 20
19.95731776768431
 10
12.01691437996435
 20
19.90572179059708
 10
11.98877951921428
 20
19.85117747207329
 10
11.96890310336523
 20
19.8282697314379
  0
MTEXT
  5
52B
330
1F
100
AcDbEntity
  8
PART_NUMBERS
100
AcDbMText
 10
17.80904502691894
 20
18.00149838193756
 30
0.0
 40
0.25
 41
0.0
 71
     6
 72
     1
  1
*028997\PSET SCREWS
 73
     1
 44
1.0
1001
ACAD
1000
MTEXTBEGIN
1070
    73
1070
     1
1070
    44
1040
1.0
1070
    74
1070
     0
1000
MTEXTEND
  0
MTEXT
  5
52C
330
1F
100
AcDbEntity
  8
PART_NUMBERS
100
AcDbMText
 10
9.516169522320858
 20
22.85528547208149
 30
0.0
 40
0.25
 41
0.0
 71
     4
 72
     1
  1
\A1;1/4-20 UNC-2B\PDRILL & TAP ON JOB SITE
 73
     1
 44
1.0
1001
ACAD
1000
MTEXTBEGIN
1070
    73
1070
     1
1070
    44
1040
1.0
1070
    74
1070
     0
1000
MTEXTEND
  0
LEADER
  5
52D
330
1F
100
AcDbEntity
  8
PART_NUMBERS
100
AcDbLeader
  3
Standard
 76
     3
 10
7.825673955876311
 20
22.0372500533239
 30
0.0
 10
9.074250001813055
 20
22.95648085231654
 30
0.0
 10
9.419251077116712
 20
22.95648085231654
 30
0.0
  0
LINE
  5
52E
330
1F
100
AcDbEntity
  8
R-SWTS-DET1
100
AcDbLine
 10
8.679956638668784
 20
21.9372697314379
 30
0.0
 11
6.929956638668784
 21
21.9372697314379
 31
0.0
  0
LINE
  5
52F
330
1F
100
AcDbEntity
  8
HIDDEN
 48
0.5
100
AcDbLine
 10
8.554956638668784
 20
22.0622697314379
 30
0.0
 11
7.054956638668784
 21
22.0622697314379
 31
0.0
  0
LINE
  5
530
330
1F
100
AcDbEntity
  8
R-SWTS-DET1
100
AcDbLine
 10
6.929956638668784
 20
21.9372697314379
 30
0.0
 11
6.929956638668784
 21
22.50504265826551
 31
0.0
  0
LINE
  5
531
330
1F
100
AcDbEntity
  8
HIDDEN
 48
0.5
100
AcDbLine
 10
7.054956638668784
 20
22.0622697314379
 30
0.0
 11
7.054956638668784
 21
22.50504265826551
 31
0.0
  0
LINE
  5
532
330
1F
100
AcDbEntity
  8
R-SWTS-DET2
  6
HIDDEN
 48
0.25
100
AcDbLine
 10
7.996956638668777
 20
21.8217697314379
 30
0.0
 11
7.966956638668783
 21
21.8517697314379
 31
0.0
  0
LINE
  5
533
330
1F
100
AcDbEntity
  8
R-SWTS-DET2
  6
HIDDEN
 48
0.25
100
AcDbLine
 10
7.642956638668778
 20
21.8517697314379
 30
0.0
 11
7.612956638668777
 21
21.8217697314379
 31
0.0
  0
LINE
  5
534
330
1F
100
AcDbEntity
  8
R-SWTS-DET2
  6
HIDDEN
 48
0.25
100
AcDbLine
 10
7.642956638668778
 20
21.8517697314379
 30
0.0
 11
7.966956638668783
 21
21.8517697314379
 31
0.0
  0
LINE
  5
535
330
1F
100
AcDbEntity
  8
R-SWTS-DET2
  6
HIDDEN
 48
0.25
100
AcDbLine
 10
7.612956638668777
 20
21.8217697314379
 30
0.0
 11
7.996956638668777
 21
21.8217697314379
 31
0.0
  0
LINE
  5
536
330
1F
100
AcDbEntity
  8
R-SWTS-DET2
  6
HIDDEN
 48
0.25
100
AcDbLine
 10
7.899956638668783
 20
22.69726973143789
 30
0.0
 11
7.709956638668778
 21
22.69726973143789
 31
0.0
  0
LINE
  5
537
330
1F
100
AcDbEntity
  8
R-SWTS-DET2
  6
HIDDEN
 48
0.25
100
AcDbLine
 10
7.929956638668784
 20
22.66726973143789
 30
0.0
 11
7.679956638668784
 21
22.66726973143789
 31
0.0
  0
LINE
  5
538
330
1F
100
AcDbEntity
  8
R-SWTS-DET2
  6
HIDDEN
 48
0.25
100
AcDbLine
 10
7.929956638668784
 20
22.66726973143789
 30
0.0
 11
7.899956638668783
 21
22.69726973143789
 31
0.0
  0
LINE
  5
539
330
1F
100
AcDbEntity
  8
R-SWTS-DET2
  6
HIDDEN
 48
0.25
100
AcDbLine
 10
7.709956638668778
 20
22.69726973143789
 30
0.0
 11
7.679956638668784
 21
22.66726973143789
 31
0.0
  0
LINE
  5
53A
330
1F
100
AcDbEntity
  8
R-SWTS-DET1
100
AcDbLine
 10
8.679956638668784
 20
21.9372697314379
 30
0.0
 11
8.679956638668784
 21
22.50504265826551
 31
0.0
  0
LINE
  5
53B
330
1F
100
AcDbEntity
  8
HIDDEN
 48
0.5
100
AcDbLine
 10
8.554956638668784
 20
22.0622697314379
 30
0.0
 11
8.554956638668784
 21
22.50504265826551
 31
0.0
  0
LINE
  5
53D
330
1F
100
AcDbEntity
  8
R-SWTS-DET1
100
AcDbLine
 10
18.92022068789552
 20
17.16086145088004
 30
0.0
 11
18.92022068789552
 21
10.77617068640503
 31
0.0
  0
LINE
  5
53E
330
1F
100
AcDbEntity
  8
R-SWTS-DET2
  6
HIDDEN
 48
0.25
100
AcDbLine
 10
18.80472068789552
 20
13.14870349274576
 30
0.0
 11
18.80472068789552
 21
12.76470349274576
 31
0.0
  0
LINE
  5
53F
330
1F
100
AcDbEntity
  8
R-SWTS-DET2
  6
HIDDEN
 48
0.25
100
AcDbLine
 10
18.83472068789552
 20
13.11870349274576
 30
0.0
 11
18.83472068789552
 21
12.79470349274576
 31
0.0
  0
LINE
  5
540
330
1F
100
AcDbEntity
  8
R-SWTS-DET2
  6
HIDDEN
100
AcDbLine
 10
18.58472068789552
 20
13.14870349274576
 30
0.0
 11
18.58472068789552
 21
12.76470349274576
 31
0.0
  0
LINE
  5
541
330
1F
100
AcDbEntity
  8
R-SWTS-DET2
  6
HIDDEN
 48
0.5
100
AcDbLine
 10
18.05522068789552
 20
16.40470349274576
 30
0.0
 11
18.05522068789552
 21
12.39470349274576
 31
0.0
  0
LINE
  5
542
330
1F
100
AcDbEntity
  8
R-SWTS-DET2
  6
HIDDEN
 48
0.5
100
AcDbLine
 10
18.92022068789552
 20
12.39470349274576
 30
0.0
 11
18.92022068789552
 21
16.40470349274576
 31
0.0
  0
LINE
  5
54F
330
1F
100
AcDbEntity
  8
HIDDEN
 48
0.5
100
AcDbLine
 10
18.50672068789552
 20
13.23170349274576
 30
0.0
 11
18.50672068789552
 21
12.68170349274576
 31
0.0
  0
LINE
  5
550
330
1F
100
AcDbEntity
  8
HIDDEN
 48
0.5
100
AcDbLine
 10
18.25672068789552
 20
13.23170349274576
 30
0.0
 11
18.25672068789552
 21
12.68170349274576
 31
0.0
  0
LINE
  5
551
330
1F
100
AcDbEntity
  8
HIDDEN
 48
0.5
100
AcDbLine
 10
18.08472068789552
 20
13.23170349274576
 30
0.0
 11
18.08472068789552
 21
12.68170349274576
 31
0.0
  0
LINE
  5
552
330
1F
100
AcDbEntity
  8
HIDDEN
 48
0.5
100
AcDbLine
 10
18.58472068789552
 20
13.23170349274576
 30
0.0
 11
18.58472068789552
 21
12.68170349274576
 31
0.0
  0
LINE
  5
553
330
1F
100
AcDbEntity
  8
HIDDEN
 48
0.5
100
AcDbLine
 10
18.31922068789552
 20
13.16920349274576
 30
0.0
 11
18.31922068789552
 21
12.74420349274576
 31
0.0
  0
LINE
  5
554
330
1F
100
AcDbEntity
  8
HIDDEN
 48
0.5
100
AcDbLine
 10
18.44422068789552
 20
12.74420349274576
 30
0.0
 11
18.44422068789552
 21
13.16920349274576
 31
0.0
  0
LINE
  5
555
330
1F
100
AcDbEntity
  8
HIDDEN
 48
0.5
100
AcDbLine
 10
18.08472068789552
 20
12.67631130941522
 30
0.0
 11
18.08472068789552
 21
13.24231130941522
 31
0.0
  0
LINE
  5
556
330
1F
100
AcDbEntity
  8
HIDDEN
  6
HIDDEN
 62
     3
 48
0.5
100
AcDbLine
 10
19.04522068789552
 20
17.14880480981796
 30
0.0
 11
19.04522068789552
 21
10.77617068640503
 31
0.0
  0
MTEXT
  5
557
330
1F
100
AcDbEntity
  8
0
 62
     2
100
AcDbMText
 10
28.9694142427023
 20
3.149135494610533
 30
0.0
 40
0.5
 41
12.2885959693514
 71
     2
 72
     5
  1
MISCELLANEOUS FRAMING\PSAFETY RAIL DETAILS
 73
     1
 44
1.0
1001
ACAD
1000
MTEXTBEGIN
1070
    73
1070
     1
1070
    44
1040
1.0
1070
    74
1070
     0
1000
MTEXTEND
  0
MTEXT
  5
558
330
1F
100
AcDbEntity
  8
0
 62
     2
100
AcDbMText
 10
28.9694142427023
 20
1.395494691904438
 30
0.0
 40
0.375
 41
11.6667179685679
 71
     2
 72
     5
  1
DETAIL SCALE: 1" = 1"
 73
     1
 44
1.0
1001
ACAD
1000
MTEXTBEGIN
1070
    73
1070
     1
1070
    44
1040
1.0
1070
    74
1070
     0
1000
MTEXTEND
  0
MTEXT
  5
55C
330
1F
100
AcDbEntity
  8
PART_NUMBERS
100
AcDbMText
 10
18.15428903239778
 20
10.20547312124571
 30
0.0
 40
0.25
 41
0.0
 71
     4
 72
     1
  1
\A1;JAMB (REF.)
 73
     1
 44
1.0
1001
ACAD
1000
MTEXTBEGIN
1070
    73
1070
     1
1070
    44
1040
1.0
1070
    74
1070
     0
1000
MTEXTEND
  0
POLYLINE
  5
55D
330
1F
100
AcDbEntity
  8
R-SWTS-DET1
100
AcDb2dPolyline
 66
     1
 10
0.0
 20
0.0
 30
0.0
 70
     4
 75
     6
  0
VERTEX
  5
55E
330
55D
100
AcDbEntity
  8
R-SWTS-DET1
100
AcDbVertex
100
AcDb2dVertex
 10
18.92022068789552
 20
10.77617068640503
 30
0.0
 70
    16
  0
VERTEX
  5
55F
330
55D
100
AcDbEntity
  8
R-SWTS-DET1
100
AcDbVertex
100
AcDb2dVertex
 10
18.92022068789552
 20
10.77617068640503
 30
0.0
 70
     8
  0
VERTEX
  5
560
330
55D
100
AcDbEntity
  8
R-SWTS-DET1
100
AcDbVertex
100
AcDb2dVertex
 10
19.04437098632238
 20
10.75510435054114
 30
0.0
 70
     8
  0
VERTEX
  5
561
330
55D
100
AcDbEntity
  8
R-SWTS-DET1
100
AcDbVertex
100
AcDb2dVertex
 10
19.14485273316506
 20
10.74884103534271
 30
0.0
 70
     8
  0
VERTEX
  5
562
330
55D
100
AcDbEntity
  8
R-SWTS-DET1
100
AcDbVertex
100
AcDb2dVertex
 10
19.22513227056346
 20
10.75407535770253
 30
0.0
 70
     8
  0
VERTEX
  5
563
330
55D
100
AcDbEntity
  8
R-SWTS-DET1
100
AcDbVertex
100
AcDb2dVertex
 10
19.28867594065749
 20
10.76750193451338
 30
0.0
 70
     8
  0
VERTEX
  5
564
330
55D
100
AcDbEntity
  8
R-SWTS-DET1
100
AcDbVertex
100
AcDb2dVertex
 10
19.33895008558706
 20
10.78581538266805
 30
0.0
 70
     8
  0
VERTEX
  5
565
330
55D
100
AcDbEntity
  8
R-SWTS-DET1
100
AcDbVertex
100
AcDb2dVertex
 10
19.37942104749204
 20
10.8057103190593
 30
0.0
 70
     8
  0
VERTEX
  5
566
330
55D
100
AcDbEntity
  8
R-SWTS-DET1
100
AcDbVertex
100
AcDb2dVertex
 10
19.41355516851234
 20
10.82388136057992
 30
0.0
 70
     8
  0
VERTEX
  5
567
330
55D
100
AcDbEntity
  8
R-SWTS-DET1
100
AcDbVertex
100
AcDb2dVertex
 10
19.44481879078786
 20
10.83702312412269
 30
0.0
 70
     8
  0
VERTEX
  5
568
330
55D
100
AcDbEntity
  8
R-SWTS-DET1
100
AcDbVertex
100
AcDb2dVertex
 10
19.47608811936445
 20
10.84272840131014
 30
0.0
 70
     8
  0
VERTEX
  5
569
330
55D
100
AcDbEntity
  8
R-SWTS-DET1
100
AcDbVertex
100
AcDb2dVertex
 10
19.50787881091177
 20
10.84218268268379
 30
0.0
 70
     8
  0
VERTEX
  5
56A
330
55D
100
AcDbEntity
  8
R-SWTS-DET1
100
AcDbVertex
100
AcDb2dVertex
 10
19.54011638500542
 20
10.83746963351491
 30
0.0
 70
     8
  0
VERTEX
  5
56B
330
55D
100
AcDbEntity
  8
R-SWTS-DET1
100
AcDbVertex
100
AcDb2dVertex
 10
19.57272636122103
 20
10.83067291907475
 30
0.0
 70
     8
  0
VERTEX
  5
56C
330
55D
100
AcDbEntity
  8
R-SWTS-DET1
100
AcDbVertex
100
AcDb2dVertex
 10
19.60563425913418
 20
10.8238762046346
 30
0.0
 70
     8
  0
VERTEX
  5
56D
330
55D
100
AcDbEntity
  8
R-SWTS-DET1
100
AcDbVertex
100
AcDb2dVertex
 10
19.63876559832051
 20
10.81916315546571
 30
0.0
 70
     8
  0
VERTEX
  5
56E
330
55D
100
AcDbEntity
  8
R-SWTS-DET1
100
AcDbVertex
100
AcDb2dVertex
 10
19.67204589835563
 20
10.81861743683936
 30
0.0
 70
     8
  0
VERTEX
  5
56F
330
55D
100
AcDbEntity
  8
R-SWTS-DET1
100
AcDbVertex
100
AcDb2dVertex
 10
19.70540067881512
 20
10.82432271402681
 30
0.0
 70
     8
  0
VERTEX
  5
570
330
55D
100
AcDbEntity
  8
R-SWTS-DET1
100
AcDbVertex
100
AcDb2dVertex
 10
19.73884855971067
 20
10.83752546532633
 30
0.0
 70
     8
  0
VERTEX
  5
571
330
55D
100
AcDbEntity
  8
R-SWTS-DET1
100
AcDbVertex
100
AcDb2dVertex
 10
19.77278056279814
 20
10.8561234211442
 30
0.0
 70
     8
  0
VERTEX
  5
572
330
55D
100
AcDbEntity
  8
R-SWTS-DET1
100
AcDbVertex
100
AcDb2dVertex
 10
19.80768081026947
 20
10.87717712491369
 30
0.0
 70
     8
  0
VERTEX
  5
573
330
55D
100
AcDbEntity
  8
R-SWTS-DET1
100
AcDbVertex
100
AcDb2dVertex
 10
19.84403342431656
 20
10.89774712006807
 30
0.0
 70
     8
  0
VERTEX
  5
574
330
55D
100
AcDbEntity
  8
R-SWTS-DET1
100
AcDbVertex
100
AcDb2dVertex
 10
19.88232252713134
 20
10.91489395004063
 30
0.0
 70
     8
  0
VERTEX
  5
575
330
55D
100
AcDbEntity
  8
R-SWTS-DET1
100
AcDbVertex
100
AcDb2dVertex
 10
19.92303224090575
 20
10.92567815826464
 30
0.0
 70
     8
  0
VERTEX
  5
576
330
55D
100
AcDbEntity
  8
R-SWTS-DET1
100
AcDbVertex
100
AcDb2dVertex
 10
19.96664668783169
 20
10.92716028817337
 30
0.0
 70
     8
  0
VERTEX
  5
577
330
55D
100
AcDbEntity
  8
R-SWTS-DET1
100
AcDbVertex
100
AcDb2dVertex
 10
20.01364999010109
 20
10.9164008832001
 30
0.0
 70
     8
  0
VERTEX
  5
578
330
55D
100
AcDbEntity
  8
R-SWTS-DET1
100
AcDbVertex
100
AcDb2dVertex
 10
20.06440213605411
 20
10.89234570790608
 30
0.0
 70
     8
  0
VERTEX
  5
579
330
55D
100
AcDbEntity
  8
R-SWTS-DET1
100
AcDbVertex
100
AcDb2dVertex
 10
20.11876657862375
 20
10.86148141136441
 30
0.0
 70
     8
  0
VERTEX
  5
57A
330
55D
100
AcDbEntity
  8
R-SWTS-DET1
100
AcDbVertex
100
AcDb2dVertex
 10
20.17648263689127
 20
10.8321798637762
 30
0.0
 70
     8
  0
VERTEX
  5
57B
330
55D
100
AcDbEntity
  8
R-SWTS-DET1
100
AcDbVertex
100
AcDb2dVertex
 10
20.23728962993792
 20
10.81281293534253
 30
0.0
 70
     8
  0
VERTEX
  5
57C
330
55D
100
AcDbEntity
  8
R-SWTS-DET1
100
AcDbVertex
100
AcDb2dVertex
 10
20.30092687684494
 20
10.81175249626449
 30
0.0
 70
     8
  0
VERTEX
  5
57D
330
55D
100
AcDbEntity
  8
R-SWTS-DET1
100
AcDbVertex
100
AcDb2dVertex
 10
20.36713369669357
 20
10.83737041674315
 30
0.0
 70
     8
  0
VERTEX
  5
57E
330
55D
100
AcDbEntity
  8
R-SWTS-DET1
100
AcDbVertex
100
AcDb2dVertex
 10
20.43564940856506
 20
10.89803856697961
 30
0.0
 70
     8
  0
VERTEX
  5
57F
330
55D
100
AcDbEntity
  8
R-SWTS-DET1
100
AcDbVertex
100
AcDb2dVertex
 10
20.50621333154067
 20
11.00212881717497
 30
0.0
 70
     8
  0
VERTEX
  5
580
330
55D
100
AcDbEntity
  8
R-SWTS-DET1
100
AcDbVertex
100
AcDb2dVertex
 10
19.28592741215927
 20
10.69731831156315
 30
0.0
 70
    16
  0
VERTEX
  5
581
330
55D
100
AcDbEntity
  8
R-SWTS-DET1
100
AcDbVertex
100
AcDb2dVertex
 10
19.43846312790661
 20
10.92592617569677
 30
0.0
 70
    16
  0
VERTEX
  5
582
330
55D
100
AcDbEntity
  8
R-SWTS-DET1
100
AcDbVertex
100
AcDb2dVertex
 10
19.70540067881512
 20
10.73541966245274
 30
0.0
 70
    16
  0
VERTEX
  5
583
330
55D
100
AcDbEntity
  8
R-SWTS-DET1
100
AcDbVertex
100
AcDb2dVertex
 10
19.97233822972363
 20
11.07833145865316
 30
0.0
 70
    16
  0
VERTEX
  5
584
330
55D
100
AcDbEntity
  8
R-SWTS-DET1
100
AcDbVertex
100
AcDb2dVertex
 10
20.31554363850581
 20
10.65921702097455
 30
0.0
 70
    16
  0
VERTEX
  5
585
330
55D
100
AcDbEntity
  8
R-SWTS-DET1
100
AcDbVertex
100
AcDb2dVertex
 10
20.50621333154067
 20
11.00212881717497
 30
0.0
 70
    16
  0
SEQEND
  5
586
330
55D
100
AcDbEntity
  8
R-SWTS-DET1
  0
LINE
  5
587
330
1F
100
AcDbEntity
  8
CENTER
  6
HIDDEN
 48
0.25
100
AcDbLine
 10
18.38222068789552
 20
12.86608000576815
 30
0.0
 11
18.38222068789552
 21
12.2523147886688
 31
0.0
  0
LINE
  5
588
330
1F
100
AcDbEntity
  8
R-SWTS-DET2
 48
0.5
100
AcDbLine
 10
18.05522068789552
 20
12.39470349274576
 30
0.0
 11
18.92022068789552
 21
12.39470349274576
 31
0.0
  0
LINE
  5
589
330
1F
100
AcDbEntity
  8
HIDDEN
 48
0.5
100
AcDbLine
 10
18.58472068789552
 20
12.68170349274576
 30
0.0
 11
18.50672068789552
 21
12.68170349274576
 31
0.0
  0
LINE
  5
58A
330
1F
100
AcDbEntity
  8
HIDDEN
 48
0.5
100
AcDbLine
 10
18.58472068789552
 20
12.82170349274576
 30
0.0
 11
18.08472068789552
 21
12.82170349274576
 31
0.0
  0
LINE
  5
58B
330
1F
100
AcDbEntity
  8
HIDDEN
 48
0.5
100
AcDbLine
 10
18.08472068789552
 20
12.67631130941522
 30
0.0
 11
18.92022068789552
 21
12.67631130941522
 31
0.0
  0
LINE
  5
58C
330
1F
100
AcDbEntity
  8
R-SWTS-DET2
  6
HIDDEN
 48
0.25
100
AcDbLine
 10
18.50722068789552
 20
12.68120349274575
 30
0.0
 11
18.47722068789552
 21
12.71120349274575
 31
0.0
  0
LINE
  5
58D
330
1F
100
AcDbEntity
  8
R-SWTS-DET2
  6
HIDDEN
 48
0.25
100
AcDbLine
 10
18.28722068789552
 20
12.71120349274575
 30
0.0
 11
18.25722068789552
 21
12.68120349274575
 31
0.0
  0
LINE
  5
58E
330
1F
100
AcDbEntity
  8
R-SWTS-DET2
  6
HIDDEN
 48
0.25
100
AcDbLine
 10
18.47722068789552
 20
12.71120349274575
 30
0.0
 11
18.28722068789552
 21
12.71120349274575
 31
0.0
  0
LINE
  5
58F
330
1F
100
AcDbEntity
  8
R-SWTS-DET2
  6
HIDDEN
 48
0.25
100
AcDbLine
 10
18.47722068789553
 20
12.39920349274575
 30
0.0
 11
18.50722068789552
 21
12.42920349274575
 31
0.0
  0
LINE
  5
590
330
1F
100
AcDbEntity
  8
R-SWTS-DET2
  6
HIDDEN
 48
0.25
100
AcDbLine
 10
18.25722068789552
 20
12.42920349274575
 30
0.0
 11
18.28722068789552
 21
12.39920349274575
 31
0.0
  0
LINE
  5
591
330
1F
100
AcDbEntity
  8
R-SWTS-DET2
  6
HIDDEN
 48
0.25
100
AcDbLine
 10
18.25722068789552
 20
12.42920349274575
 30
0.0
 11
18.50722068789552
 21
12.42920349274575
 31
0.0
  0
LINE
  5
592
330
1F
100
AcDbEntity
  8
R-SWTS-DET2
  6
HIDDEN
 48
0.25
100
AcDbLine
 10
18.47722068789553
 20
12.39920349274575
 30
0.0
 11
18.28722068789552
 21
12.39920349274575
 31
0.0
  0
LINE
  5
593
330
1F
100
AcDbEntity
  8
R-SWTS-DET2
  6
HIDDEN
 48
0.25
100
AcDbLine
 10
18.50722068789552
 20
12.68120349274575
 30
0.0
 11
18.50722068789552
 21
12.42920349274575
 31
0.0
  0
LINE
  5
594
330
1F
100
AcDbEntity
  8
R-SWTS-DET2
  6
HIDDEN
 48
0.25
100
AcDbLine
 10
18.28722068789552
 20
12.68120349274575
 30
0.0
 11
18.28722068789552
 21
12.39920349274575
 31
0.0
  0
LINE
  5
595
330
1F
100
AcDbEntity
  8
R-SWTS-DET2
  6
HIDDEN
 48
0.25
100
AcDbLine
 10
18.25722068789552
 20
12.68120349274575
 30
0.0
 11
18.25722068789552
 21
12.42920349274575
 31
0.0
  0
LINE
  5
596
330
1F
100
AcDbEntity
  8
R-SWTS-DET2
  6
HIDDEN
 48
0.5
100
AcDbLine
 10
18.47622068789552
 20
12.39470349274576
 30
0.0
 11
18.47622068789552
 21
12.67370349274576
 31
0.0
  0
LINE
  5
597
330
1F
100
AcDbEntity
  8
HIDDEN
 48
0.5
100
AcDbLine
 10
18.50722068789552
 20
12.39470349274576
 30
0.0
 11
18.50722068789552
 21
12.67370349274576
 31
0.0
  0
LINE
  5
598
330
1F
100
AcDbEntity
  8
HIDDEN
 48
0.5
100
AcDbLine
 10
18.44422068789552
 20
12.74420349274576
 30
0.0
 11
18.31922068789552
 21
12.74420349274576
 31
0.0
  0
LINE
  5
599
330
1F
100
AcDbEntity
  8
HIDDEN
 48
0.5
100
AcDbLine
 10
18.25672068789552
 20
12.68170349274576
 30
0.0
 11
18.08472068789552
 21
12.68170349274576
 31
0.0
  0
LINE
  5
59A
330
1F
100
AcDbEntity
  8
HIDDEN
 48
0.5
100
AcDbLine
 10
18.31922068789552
 20
12.74420349274576
 30
0.0
 11
18.25672068789552
 21
12.68170349274576
 31
0.0
  0
POINT
  5
59B
330
1F
100
AcDbEntity
  8
HIDDEN
 48
0.5
100
AcDbPoint
 10
18.05522068789552
 20
12.39470349274576
 30
0.0
  0
LINE
  5
59C
330
1F
100
AcDbEntity
  8
HIDDEN
 48
0.5
100
AcDbLine
 10
18.25722068789552
 20
12.39470349274576
 30
0.0
 11
18.25722068789552
 21
12.67370349274576
 31
0.0
  0
LINE
  5
59D
330
1F
100
AcDbEntity
  8
HIDDEN
 48
0.5
100
AcDbLine
 10
18.28822068789552
 20
12.39470349274576
 30
0.0
 11
18.28822068789552
 21
12.67370349274576
 31
0.0
  0
LINE
  5
59E
330
1F
100
AcDbEntity
  8
HIDDEN
 48
0.5
100
AcDbLine
 10
18.05522068789552
 20
12.64681130941522
 30
0.0
 11
18.08472068789552
 21
12.67631130941522
 31
0.0
  0
LINE
  5
59F
330
1F
100
AcDbEntity
  8
HIDDEN
 48
0.25
100
AcDbLine
 10
18.47722068789552
 20
12.68120349274575
 30
0.0
 11
18.47722068789552
 21
12.39920349274575
 31
0.0
  0
LINE
  5
5A0
330
1F
100
AcDbEntity
  8
HIDDEN
 48
0.5
100
AcDbLine
 10
18.50672068789552
 20
12.68170349274576
 30
0.0
 11
18.44422068789552
 21
12.74420349274576
 31
0.0
  0
LINE
  5
5A1
330
1F
100
AcDbEntity
  8
HIDDEN
 48
0.25
100
AcDbLine
 10
18.50722068789552
 20
12.68120349274575
 30
0.0
 11
18.25722068789552
 21
12.68120349274575
 31
0.0
  0
LINE
  5
5A2
330
1F
100
AcDbEntity
  8
R-SWTS-DET2
  6
HIDDEN
 48
0.25
100
AcDbLine
 10
18.80472068789552
 20
12.76470349274576
 30
0.0
 11
18.83472068789552
 21
12.79470349274576
 31
0.0
  0
LINE
  5
5A3
330
1F
100
AcDbEntity
  8
R-SWTS-DET2
  6
HIDDEN
 48
0.25
100
AcDbLine
 10
18.58472068789552
 20
12.76470349274576
 30
0.0
 11
18.80472068789552
 21
12.76470349274576
 31
0.0
  0
POINT
  5
5A4
330
1F
100
AcDbEntity
  8
HIDDEN
 48
0.5
100
AcDbPoint
 10
18.92022068789552
 20
12.39470349274576
 30
0.0
  0
LEADER
  5
5C4
330
1F
100
AcDbEntity
  8
PART_NUMBERS
100
AcDbLeader
  3
Standard
 76
     3
 10
18.60919369130906
 20
16.39670646539942
 30
0.0
 10
18.82750169319823
 20
17.89631252749039
 30
0.0
 10
19.03216523063443
 20
17.89631252749039
 30
0.0
  0
POLYLINE
  5
5C5
330
1F
100
AcDbEntity
  8
R-SWTS-DET1
100
AcDb2dPolyline
 66
     1
 10
0.0
 20
0.0
 30
0.0
 70
     4
 75
     6
  0
VERTEX
  5
5C6
330
5C5
100
AcDbEntity
  8
R-SWTS-DET1
100
AcDbVertex
100
AcDb2dVertex
 10
18.92022068789552
 20
17.16086145088004
 30
0.0
 70
    16
  0
VERTEX
  5
5C7
330
5C5
100
AcDbEntity
  8
R-SWTS-DET1
100
AcDbVertex
100
AcDb2dVertex
 10
18.92022068789552
 20
17.16086145088004
 30
0.0
 70
     8
  0
VERTEX
  5
5C8
330
5C5
100
AcDbEntity
  8
R-SWTS-DET1
100
AcDbVertex
100
AcDb2dVertex
 10
19.04437098632238
 20
17.13979511501614
 30
0.0
 70
     8
  0
VERTEX
  5
5C9
330
5C5
100
AcDbEntity
  8
R-SWTS-DET1
100
AcDbVertex
100
AcDb2dVertex
 10
19.14485273316506
 20
17.13353179981772
 30
0.0
 70
     8
  0
VERTEX
  5
5CA
330
5C5
100
AcDbEntity
  8
R-SWTS-DET1
100
AcDbVertex
100
AcDb2dVertex
 10
19.22513227056346
 20
17.13876612217754
 30
0.0
 70
     8
  0
VERTEX
  5
5CB
330
5C5
100
AcDbEntity
  8
R-SWTS-DET1
100
AcDbVertex
100
AcDb2dVertex
 10
19.28867594065749
 20
17.15219269898839
 30
0.0
 70
     8
  0
VERTEX
  5
5CC
330
5C5
100
AcDbEntity
  8
R-SWTS-DET1
100
AcDbVertex
100
AcDb2dVertex
 10
19.33895008558706
 20
17.17050614714306
 30
0.0
 70
     8
  0
VERTEX
  5
5CD
330
5C5
100
AcDbEntity
  8
R-SWTS-DET1
100
AcDbVertex
100
AcDb2dVertex
 10
19.37942104749204
 20
17.19040108353431
 30
0.0
 70
     8
  0
VERTEX
  5
5CE
330
5C5
100
AcDbEntity
  8
R-SWTS-DET1
100
AcDbVertex
100
AcDb2dVertex
 10
19.41355516851234
 20
17.20857212505493
 30
0.0
 70
     8
  0
VERTEX
  5
5CF
330
5C5
100
AcDbEntity
  8
R-SWTS-DET1
100
AcDbVertex
100
AcDb2dVertex
 10
19.44481879078786
 20
17.2217138885977
 30
0.0
 70
     8
  0
VERTEX
  5
5D0
330
5C5
100
AcDbEntity
  8
R-SWTS-DET1
100
AcDbVertex
100
AcDb2dVertex
 10
19.47608811936445
 20
17.22741916578515
 30
0.0
 70
     8
  0
VERTEX
  5
5D1
330
5C5
100
AcDbEntity
  8
R-SWTS-DET1
100
AcDbVertex
100
AcDb2dVertex
 10
19.50787881091177
 20
17.2268734471588
 30
0.0
 70
     8
  0
VERTEX
  5
5D2
330
5C5
100
AcDbEntity
  8
R-SWTS-DET1
100
AcDbVertex
100
AcDb2dVertex
 10
19.54011638500542
 20
17.22216039798991
 30
0.0
 70
     8
  0
VERTEX
  5
5D3
330
5C5
100
AcDbEntity
  8
R-SWTS-DET1
100
AcDbVertex
100
AcDb2dVertex
 10
19.57272636122103
 20
17.21536368354976
 30
0.0
 70
     8
  0
VERTEX
  5
5D4
330
5C5
100
AcDbEntity
  8
R-SWTS-DET1
100
AcDbVertex
100
AcDb2dVertex
 10
19.60563425913418
 20
17.20856696910961
 30
0.0
 70
     8
  0
VERTEX
  5
5D5
330
5C5
100
AcDbEntity
  8
R-SWTS-DET1
100
AcDbVertex
100
AcDb2dVertex
 10
19.63876559832051
 20
17.20385391994072
 30
0.0
 70
     8
  0
VERTEX
  5
5D6
330
5C5
100
AcDbEntity
  8
R-SWTS-DET1
100
AcDbVertex
100
AcDb2dVertex
 10
19.67204589835563
 20
17.20330820131437
 30
0.0
 70
     8
  0
VERTEX
  5
5D7
330
5C5
100
AcDbEntity
  8
R-SWTS-DET1
100
AcDbVertex
100
AcDb2dVertex
 10
19.70540067881512
 20
17.20901347850182
 30
0.0
 70
     8
  0
VERTEX
  5
5D8
330
5C5
100
AcDbEntity
  8
R-SWTS-DET1
100
AcDbVertex
100
AcDb2dVertex
 10
19.73884855971067
 20
17.22221622980134
 30
0.0
 70
     8
  0
VERTEX
  5
5D9
330
5C5
100
AcDbEntity
  8
R-SWTS-DET1
100
AcDbVertex
100
AcDb2dVertex
 10
19.77278056279814
 20
17.24081418561921
 30
0.0
 70
     8
  0
VERTEX
  5
5DA
330
5C5
100
AcDbEntity
  8
R-SWTS-DET1
100
AcDbVertex
100
AcDb2dVertex
 10
19.80768081026947
 20
17.2618678893887
 30
0.0
 70
     8
  0
VERTEX
  5
5DB
330
5C5
100
AcDbEntity
  8
R-SWTS-DET1
100
AcDbVertex
100
AcDb2dVertex
 10
19.84403342431656
 20
17.28243788454308
 30
0.0
 70
     8
  0
VERTEX
  5
5DC
330
5C5
100
AcDbEntity
  8
R-SWTS-DET1
100
AcDbVertex
100
AcDb2dVertex
 10
19.88232252713134
 20
17.29958471451564
 30
0.0
 70
     8
  0
VERTEX
  5
5DD
330
5C5
100
AcDbEntity
  8
R-SWTS-DET1
100
AcDbVertex
100
AcDb2dVertex
 10
19.92303224090575
 20
17.31036892273964
 30
0.0
 70
     8
  0
VERTEX
  5
5DE
330
5C5
100
AcDbEntity
  8
R-SWTS-DET1
100
AcDbVertex
100
AcDb2dVertex
 10
19.96664668783169
 20
17.31185105264838
 30
0.0
 70
     8
  0
VERTEX
  5
5DF
330
5C5
100
AcDbEntity
  8
R-SWTS-DET1
100
AcDbVertex
100
AcDb2dVertex
 10
20.01364999010109
 20
17.30109164767511
 30
0.0
 70
     8
  0
VERTEX
  5
5E0
330
5C5
100
AcDbEntity
  8
R-SWTS-DET1
100
AcDbVertex
100
AcDb2dVertex
 10
20.06440213605411
 20
17.27703647238109
 30
0.0
 70
     8
  0
VERTEX
  5
5E1
330
5C5
100
AcDbEntity
  8
R-SWTS-DET1
100
AcDbVertex
100
AcDb2dVertex
 10
20.11876657862375
 20
17.24617217583943
 30
0.0
 70
     8
  0
VERTEX
  5
5E2
330
5C5
100
AcDbEntity
  8
R-SWTS-DET1
100
AcDbVertex
100
AcDb2dVertex
 10
20.17648263689127
 20
17.21687062825122
 30
0.0
 70
     8
  0
VERTEX
  5
5E3
330
5C5
100
AcDbEntity
  8
R-SWTS-DET1
100
AcDbVertex
100
AcDb2dVertex
 10
20.23728962993792
 20
17.19750369981755
 30
0.0
 70
     8
  0
VERTEX
  5
5E4
330
5C5
100
AcDbEntity
  8
R-SWTS-DET1
100
AcDbVertex
100
AcDb2dVertex
 10
20.30092687684494
 20
17.19644326073949
 30
0.0
 70
     8
  0
VERTEX
  5
5E5
330
5C5
100
AcDbEntity
  8
R-SWTS-DET1
100
AcDbVertex
100
AcDb2dVertex
 10
20.36713369669357
 20
17.22206118121816
 30
0.0
 70
     8
  0
VERTEX
  5
5E6
330
5C5
100
AcDbEntity
  8
R-SWTS-DET1
100
AcDbVertex
100
AcDb2dVertex
 10
20.43564940856506
 20
17.28272933145463
 30
0.0
 70
     8
  0
VERTEX
  5
5E7
330
5C5
100
AcDbEntity
  8
R-SWTS-DET1
100
AcDbVertex
100
AcDb2dVertex
 10
20.50621333154067
 20
17.38681958164997
 30
0.0
 70
     8
  0
VERTEX
  5
5E8
330
5C5
100
AcDbEntity
  8
R-SWTS-DET1
100
AcDbVertex
100
AcDb2dVertex
 10
19.28592741215927
 20
17.08200907603816
 30
0.0
 70
    16
  0
VERTEX
  5
5E9
330
5C5
100
AcDbEntity
  8
R-SWTS-DET1
100
AcDbVertex
100
AcDb2dVertex
 10
19.43846312790661
 20
17.31061694017178
 30
0.0
 70
    16
  0
VERTEX
  5
5EA
330
5C5
100
AcDbEntity
  8
R-SWTS-DET1
100
AcDbVertex
100
AcDb2dVertex
 10
19.70540067881512
 20
17.12011042692775
 30
0.0
 70
    16
  0
VERTEX
  5
5EB
330
5C5
100
AcDbEntity
  8
R-SWTS-DET1
100
AcDbVertex
100
AcDb2dVertex
 10
19.97233822972363
 20
17.46302222312817
 30
0.0
 70
    16
  0
VERTEX
  5
5EC
330
5C5
100
AcDbEntity
  8
R-SWTS-DET1
100
AcDbVertex
100
AcDb2dVertex
 10
20.31554363850581
 20
17.04390778544956
 30
0.0
 70
    16
  0
VERTEX
  5
5ED
330
5C5
100
AcDbEntity
  8
R-SWTS-DET1
100
AcDbVertex
100
AcDb2dVertex
 10
20.50621333154067
 20
17.38681958164997
 30
0.0
 70
    16
  0
SEQEND
  5
5EE
330
5C5
100
AcDbEntity
  8
R-SWTS-DET1
  0
LINE
  5
5EF
330
1F
100
AcDbEntity
  8
HIDDEN
 48
0.5
100
AcDbLine
 10
18.58472068789552
 20
13.23170349274576
 30
0.0
 11
18.50672068789552
 21
13.23170349274576
 31
0.0
  0
LINE
  5
5F0
330
1F
100
AcDbEntity
  8
HIDDEN
 48
0.5
100
AcDbLine
 10
18.58472068789552
 20
13.09170349274576
 30
0.0
 11
18.08472068789552
 21
13.09170349274576
 31
0.0
  0
LINE
  5
5F1
330
1F
100
AcDbEntity
  8
HIDDEN
 48
0.5
100
AcDbLine
 10
18.08472068789552
 20
13.24231130941522
 30
0.0
 11
18.92022068789552
 21
13.24231130941522
 31
0.0
  0
LINE
  5
5F2
330
1F
100
AcDbEntity
  8
HIDDEN
 48
0.5
100
AcDbLine
 10
18.44422068789552
 20
13.16920349274576
 30
0.0
 11
18.31922068789552
 21
13.16920349274576
 31
0.0
  0
LINE
  5
5F3
330
1F
100
AcDbEntity
  8
HIDDEN
 48
0.5
100
AcDbLine
 10
18.25672068789552
 20
13.23170349274576
 30
0.0
 11
18.08472068789552
 21
13.23170349274576
 31
0.0
  0
LINE
  5
5F4
330
1F
100
AcDbEntity
  8
HIDDEN
 48
0.5
100
AcDbLine
 10
18.31922068789552
 20
13.16920349274576
 30
0.0
 11
18.25672068789552
 21
13.23170349274576
 31
0.0
  0
LINE
  5
5F5
330
1F
100
AcDbEntity
  8
HIDDEN
 48
0.5
100
AcDbLine
 10
18.05522068789552
 20
13.27181130941522
 30
0.0
 11
18.08472068789552
 21
13.24231130941522
 31
0.0
  0
LINE
  5
5F6
330
1F
100
AcDbEntity
  8
HIDDEN
 48
0.5
100
AcDbLine
 10
18.50672068789552
 20
13.23170349274576
 30
0.0
 11
18.44422068789552
 21
13.16920349274576
 31
0.0
  0
LINE
  5
5F7
330
1F
100
AcDbEntity
  8
R-SWTS-DET2
  6
HIDDEN
 48
0.25
100
AcDbLine
 10
18.83472068789552
 20
13.11870349274576
 30
0.0
 11
18.80472068789552
 21
13.14870349274576
 31
0.0
  0
LINE
  5
5F8
330
1F
100
AcDbEntity
  8
R-SWTS-DET2
  6
HIDDEN
 48
0.25
100
AcDbLine
 10
18.58472068789552
 20
13.14870349274576
 30
0.0
 11
18.80472068789552
 21
13.14870349274576
 31
0.0
  0
LINE
  5
5F9
330
1F
100
AcDbEntity
  8
R-SWTS-DET2
  6
HIDDEN
 48
0.25
100
AcDbLine
 10
19.65022068789552
 20
14.26970349274576
 30
0.0
 11
18.43022068789552
 21
14.26970349274576
 31
0.0
  0
LINE
  5
5FA
330
1F
100
AcDbEntity
  8
R-SWTS-DET2
  6
HIDDEN
 48
0.25
100
AcDbLine
 10
19.65022068789552
 20
14.51970349274576
 30
0.0
 11
18.43022068789552
 21
14.51970349274576
 31
0.0
  0
LINE
  5
5FB
330
1F
100
AcDbEntity
  8
R-SWTS-DET2
  6
HIDDEN
 48
0.25
100
AcDbLine
 10
18.21022068789551
 20
14.58670349274576
 30
0.0
 11
18.18022068789552
 21
14.55670349274576
 31
0.0
  0
LINE
  5
5FC
330
1F
100
AcDbEntity
  8
R-SWTS-DET2
  6
HIDDEN
 48
0.25
100
AcDbLine
 10
18.43022068789552
 20
14.20270349274576
 30
0.0
 11
18.43022068789552
 21
14.58670349274576
 31
0.0
  0
LINE
  5
5FD
330
1F
100
AcDbEntity
  8
R-SWTS-DET2
  6
HIDDEN
 48
0.25
100
AcDbLine
 10
18.21022068789551
 20
14.20270349274576
 30
0.0
 11
18.21022068789551
 21
14.58670349274576
 31
0.0
  0
LINE
  5
5FE
330
1F
100
AcDbEntity
  8
HIDDEN
  6
HIDDEN
 48
0.5
100
AcDbLine
 10
18.43022068789552
 20
14.59231130941522
 30
0.0
 11
18.43022068789552
 21
14.20231130941522
 31
0.0
  0
LINE
  5
5FF
330
1F
100
AcDbEntity
  8
HIDDEN
  6
HIDDEN
 48
0.5
100
AcDbLine
 10
18.43022068789552
 20
14.53106130941522
 30
0.0
 11
18.92022068789552
 21
14.53106130941522
 31
0.0
  0
LINE
  5
600
330
1F
100
AcDbEntity
  8
HIDDEN
  6
HIDDEN
 48
0.5
100
AcDbLine
 10
18.43022068789552
 20
14.26356130941521
 30
0.0
 11
18.92022068789552
 21
14.26356130941521
 31
0.0
  0
LINE
  5
601
330
1F
100
AcDbEntity
  8
R-SWTS-DET2
  6
HIDDEN
 48
0.25
100
AcDbLine
 10
18.43022068789552
 20
14.20270349274576
 30
0.0
 11
18.21022068789551
 21
14.20270349274576
 31
0.0
  0
LINE
  5
602
330
1F
100
AcDbEntity
  8
R-SWTS-DET2
  6
HIDDEN
 48
0.25
100
AcDbLine
 10
18.18022068789552
 20
14.23270349274576
 30
0.0
 11
18.21022068789551
 21
14.20270349274576
 31
0.0
  0
LINE
  5
603
330
1F
100
AcDbEntity
  8
R-SWTS-DET2
  6
HIDDEN
 48
0.25
100
AcDbLine
 10
18.18022068789552
 20
14.23270349274576
 30
0.0
 11
18.18022068789552
 21
14.55670349274576
 31
0.0
  0
LINE
  5
604
330
1F
100
AcDbEntity
  8
HIDDEN
  6
HIDDEN
 48
0.5
100
AcDbLine
 10
18.05522068789552
 20
14.20231130941522
 30
0.0
 11
18.43022068789552
 21
14.20231130941522
 31
0.0
  0
LINE
  5
605
330
1F
100
AcDbEntity
  8
R-SWTS-DET2
  6
HIDDEN
 48
0.25
100
AcDbLine
 10
18.43022068789552
 20
14.58670349274576
 30
0.0
 11
18.21022068789551
 21
14.58670349274576
 31
0.0
  0
LINE
  5
606
330
1F
100
AcDbEntity
  8
HIDDEN
  6
HIDDEN
 48
0.5
100
AcDbLine
 10
18.05522068789552
 20
14.59231130941522
 30
0.0
 11
18.43022068789552
 21
14.59231130941522
 31
0.0
  0
LINE
  5
607
330
1F
100
AcDbEntity
  8
R-SWTS-DET2
  6
HIDDEN
 48
0.25
100
AcDbLine
 10
19.68022068789552
 20
14.48970349274576
 30
0.0
 11
19.65022068789552
 21
14.51970349274576
 31
0.0
  0
LINE
  5
608
330
1F
100
AcDbEntity
  8
R-SWTS-DET2
  6
HIDDEN
 48
0.25
100
AcDbLine
 10
19.65022068789552
 20
14.26970349274576
 30
0.0
 11
19.68022068789552
 21
14.29970349274576
 31
0.0
  0
LINE
  5
609
330
1F
100
AcDbEntity
  8
R-SWTS-DET2
  6
HIDDEN
 48
0.25
100
AcDbLine
 10
19.65022068789552
 20
14.26970349274576
 30
0.0
 11
19.65022068789552
 21
14.51970349274576
 31
0.0
  0
LINE
  5
60A
330
1F
100
AcDbEntity
  8
R-SWTS-DET2
  6
HIDDEN
 48
0.25
100
AcDbLine
 10
19.68022068789552
 20
14.29970349274576
 30
0.0
 11
19.68022068789552
 21
14.48970349274576
 31
0.0
  0
TEXT
  5
60B
330
1F
100
AcDbEntity
  8
R-ANNO-DIMS
100
AcDbText
 10
20.24124634221157
 20
14.57049888802369
 30
0.0
 40
0.25
  1
SAFETY RAIL
100
AcDbText
  0
TEXT
  5
60C
330
1F
100
AcDbEntity
  8
R-ANNO-DIMS
100
AcDbText
 10
20.0931235161098
 20
14.20280066960734
 30
0.0
 40
0.25
  1
L
100
AcDbText
  0
TEXT
  5
60D
330
1F
100
AcDbEntity
  8
R-ANNO-DIMS
100
AcDbText
 10
20.01373548183777
 20
14.34475348521239
 30
0.0
 40
0.25
  1
C
100
AcDbText
  0
LINE
  5
60E
330
1F
100
AcDbEntity
  8
R-SWTS-DET2
  6
HIDDEN
 48
0.25
100
AcDbLine
 10
18.25722068789552
 20
16.35920349274575
 30
0.0
 11
18.25722068789552
 21
16.10720349274575
 31
0.0
  0
LINE
  5
60F
330
1F
100
AcDbEntity
  8
R-SWTS-DET2
  6
HIDDEN
 48
0.25
100
AcDbLine
 10
18.28722068789552
 20
16.35920349274575
 30
0.0
 11
18.28722068789552
 21
16.07720349274575
 31
0.0
  0
LINE
  5
610
330
1F
100
AcDbEntity
  8
R-SWTS-DET2
  6
HIDDEN
 48
0.25
100
AcDbLine
 10
18.50722068789552
 20
16.35920349274575
 30
0.0
 11
18.50722068789552
 21
16.10720349274575
 31
0.0
  0
LINE
  5
611
330
1F
100
AcDbEntity
  8
R-SWTS-DET2
  6
HIDDEN
 48
0.25
100
AcDbLine
 10
18.47722068789552
 20
16.35920349274575
 30
0.0
 11
18.47722068789552
 21
16.07720349274575
 31
0.0
  0
LINE
  5
612
330
1F
100
AcDbEntity
  8
HIDDEN
  6
HIDDEN
 48
0.5
100
AcDbLine
 10
18.28822068789552
 20
16.11570349274576
 30
0.0
 11
18.28822068789552
 21
16.40470349274576
 31
0.0
  0
LINE
  5
613
330
1F
100
AcDbEntity
  8
HIDDEN
  6
HIDDEN
 48
0.5
100
AcDbLine
 10
18.25722068789552
 20
16.11570349274576
 30
0.0
 11
18.25722068789552
 21
16.40470349274576
 31
0.0
  0
LINE
  5
614
330
1F
100
AcDbEntity
  8
HIDDEN
  6
HIDDEN
 48
0.5
100
AcDbLine
 10
18.47622068789552
 20
16.11570349274576
 30
0.0
 11
18.47622068789552
 21
16.40470349274576
 31
0.0
  0
LINE
  5
615
330
1F
100
AcDbEntity
  8
HIDDEN
  6
HIDDEN
 48
0.5
100
AcDbLine
 10
18.50722068789552
 20
16.11570349274576
 30
0.0
 11
18.50722068789552
 21
16.40470349274576
 31
0.0
  0
LINE
  5
616
330
1F
100
AcDbEntity
  8
CENTER
  6
HIDDEN
 48
0.25
100
AcDbLine
 10
18.38222068789552
 20
16.55165439695107
 30
0.0
 11
18.38222068789552
 21
15.93788917985173
 31
0.0
  0
LINE
  5
617
330
1F
100
AcDbEntity
  8
R-SWTS-DET2
  6
HIDDEN
 48
0.25
100
AcDbLine
 10
18.80472068789552
 20
15.64070349274575
 30
0.0
 11
18.83472068789552
 21
15.67070349274576
 31
0.0
  0
LINE
  5
618
330
1F
100
AcDbEntity
  8
R-SWTS-DET2
  6
HIDDEN
 48
0.25
100
AcDbLine
 10
18.80472068789552
 20
16.02470349274575
 30
0.0
 11
18.80472068789552
 21
15.64070349274575
 31
0.0
  0
LINE
  5
619
330
1F
100
AcDbEntity
  8
R-SWTS-DET2
  6
HIDDEN
 48
0.25
100
AcDbLine
 10
18.58472068789552
 20
16.02470349274575
 30
0.0
 11
18.58472068789552
 21
15.64070349274576
 31
0.0
  0
LINE
  5
61A
330
1F
100
AcDbEntity
  8
HIDDEN
 48
0.5
100
AcDbLine
 10
18.08472068789552
 20
15.54970349274576
 30
0.0
 11
18.08472068789552
 21
16.11570349274576
 31
0.0
  0
LINE
  5
61B
330
1F
100
AcDbEntity
  8
HIDDEN
 48
0.5
100
AcDbLine
 10
18.58472068789552
 20
16.10770349274575
 30
0.0
 11
18.58472068789552
 21
15.55770349274576
 31
0.0
  0
LINE
  5
61C
330
1F
100
AcDbEntity
  8
HIDDEN
 48
0.5
100
AcDbLine
 10
18.08472068789552
 20
16.10770349274575
 30
0.0
 11
18.08472068789552
 21
15.55770349274576
 31
0.0
  0
LINE
  5
61D
330
1F
100
AcDbEntity
  8
HIDDEN
 48
0.5
100
AcDbLine
 10
18.25672068789552
 20
16.10770349274575
 30
0.0
 11
18.25672068789552
 21
15.55770349274576
 31
0.0
  0
LINE
  5
61E
330
1F
100
AcDbEntity
  8
HIDDEN
 48
0.5
100
AcDbLine
 10
18.50672068789552
 20
16.10770349274575
 30
0.0
 11
18.50672068789552
 21
15.55770349274576
 31
0.0
  0
LINE
  5
61F
330
1F
100
AcDbEntity
  8
HIDDEN
 48
0.5
100
AcDbLine
 10
18.44422068789552
 20
15.62020349274576
 30
0.0
 11
18.44422068789552
 21
16.04520349274575
 31
0.0
  0
LINE
  5
620
330
1F
100
AcDbEntity
  8
HIDDEN
 48
0.5
100
AcDbLine
 10
18.31922068789552
 20
16.04520349274575
 30
0.0
 11
18.31922068789552
 21
15.62020349274576
 31
0.0
  0
LINE
  5
621
330
1F
100
AcDbEntity
  8
HIDDEN
 48
0.5
100
AcDbLine
 10
18.58472068789552
 20
15.55770349274576
 30
0.0
 11
18.50672068789552
 21
15.55770349274576
 31
0.0
  0
LINE
  5
622
330
1F
100
AcDbEntity
  8
HIDDEN
  6
HIDDEN
 62
     3
 48
0.5
100
AcDbLine
 10
18.08472068789552
 20
15.54970349274576
 30
0.0
 11
18.92022068789552
 21
15.54970349274576
 31
0.0
  0
LINE
  5
623
330
1F
100
AcDbEntity
  8
HIDDEN
 48
0.5
100
AcDbLine
 10
18.05522068789552
 20
15.52020349274576
 30
0.0
 11
18.08472068789552
 21
15.54970349274576
 31
0.0
  0
LINE
  5
624
330
1F
100
AcDbEntity
  8
HIDDEN
 48
0.5
100
AcDbLine
 10
18.31922068789552
 20
15.62020349274576
 30
0.0
 11
18.25672068789552
 21
15.55770349274576
 31
0.0
  0
LINE
  5
625
330
1F
100
AcDbEntity
  8
HIDDEN
 48
0.5
100
AcDbLine
 10
18.25672068789552
 20
15.55770349274576
 30
0.0
 11
18.08472068789552
 21
15.55770349274576
 31
0.0
  0
LINE
  5
626
330
1F
100
AcDbEntity
  8
HIDDEN
 48
0.5
100
AcDbLine
 10
18.44422068789552
 20
15.62020349274576
 30
0.0
 11
18.31922068789552
 21
15.62020349274576
 31
0.0
  0
LINE
  5
627
330
1F
100
AcDbEntity
  8
HIDDEN
 48
0.5
100
AcDbLine
 10
18.50672068789552
 20
15.55770349274576
 30
0.0
 11
18.44422068789552
 21
15.62020349274576
 31
0.0
  0
LINE
  5
628
330
1F
100
AcDbEntity
  8
R-SWTS-DET2
  6
HIDDEN
 48
0.25
100
AcDbLine
 10
18.58472068789552
 20
15.64070349274576
 30
0.0
 11
18.80472068789552
 21
15.64070349274575
 31
0.0
  0
LINE
  5
629
330
1F
100
AcDbEntity
  8
HIDDEN
 48
0.5
100
AcDbLine
 10
18.58472068789552
 20
16.10770349274575
 30
0.0
 11
18.50672068789552
 21
16.10770349274575
 31
0.0
  0
LINE
  5
62A
330
1F
100
AcDbEntity
  8
HIDDEN
  6
HIDDEN
 62
     3
 48
0.5
100
AcDbLine
 10
18.08472068789552
 20
16.11570349274576
 30
0.0
 11
18.92022068789552
 21
16.11570349274576
 31
0.0
  0
LINE
  5
62B
330
1F
100
AcDbEntity
  8
HIDDEN
 48
0.5
100
AcDbLine
 10
18.58472068789552
 20
15.96770349274576
 30
0.0
 11
18.08472068789552
 21
15.96770349274576
 31
0.0
  0
LINE
  5
62C
330
1F
100
AcDbEntity
  8
HIDDEN
 48
0.5
100
AcDbLine
 10
18.58472068789552
 20
15.69770349274576
 30
0.0
 11
18.08472068789552
 21
15.69770349274576
 31
0.0
  0
LINE
  5
62D
330
1F
100
AcDbEntity
  8
R-SWTS-DET2
  6
HIDDEN
 48
0.25
100
AcDbLine
 10
18.47722068789553
 20
16.07720349274574
 30
0.0
 11
18.50722068789552
 21
16.10720349274575
 31
0.0
  0
LINE
  5
62E
330
1F
100
AcDbEntity
  8
R-SWTS-DET2
  6
HIDDEN
 48
0.25
100
AcDbLine
 10
18.25722068789552
 20
16.10720349274575
 30
0.0
 11
18.28722068789552
 21
16.07720349274575
 31
0.0
  0
LINE
  5
62F
330
1F
100
AcDbEntity
  8
R-SWTS-DET2
  6
HIDDEN
 48
0.25
100
AcDbLine
 10
18.47722068789553
 20
16.07720349274574
 30
0.0
 11
18.28722068789552
 21
16.07720349274575
 31
0.0
  0
LINE
  5
630
330
1F
100
AcDbEntity
  8
HIDDEN
 48
0.5
100
AcDbLine
 10
18.05522068789552
 20
16.14520349274576
 30
0.0
 11
18.08472068789552
 21
16.11570349274576
 31
0.0
  0
LINE
  5
631
330
1F
100
AcDbEntity
  8
HIDDEN
 48
0.5
100
AcDbLine
 10
18.25672068789552
 20
16.10770349274575
 30
0.0
 11
18.08472068789552
 21
16.10770349274575
 31
0.0
  0
LINE
  5
632
330
1F
100
AcDbEntity
  8
HIDDEN
 48
0.5
100
AcDbLine
 10
18.31922068789552
 20
16.04520349274575
 30
0.0
 11
18.25672068789552
 21
16.10770349274575
 31
0.0
  0
LINE
  5
633
330
1F
100
AcDbEntity
  8
HIDDEN
 48
0.5
100
AcDbLine
 10
18.44422068789552
 20
16.04520349274575
 30
0.0
 11
18.31922068789552
 21
16.04520349274575
 31
0.0
  0
LINE
  5
634
330
1F
100
AcDbEntity
  8
HIDDEN
 48
0.5
100
AcDbLine
 10
18.50672068789552
 20
16.10770349274575
 30
0.0
 11
18.44422068789552
 21
16.04520349274575
 31
0.0
  0
LINE
  5
635
330
1F
100
AcDbEntity
  8
HIDDEN
 48
0.25
100
AcDbLine
 10
18.25722068789552
 20
16.10720349274575
 30
0.0
 11
18.50722068789552
 21
16.10720349274575
 31
0.0
  0
LINE
  5
636
330
1F
100
AcDbEntity
  8
R-SWTS-DET2
  6
HIDDEN
 48
0.25
100
AcDbLine
 10
18.83472068789552
 20
15.99470349274576
 30
0.0
 11
18.80472068789552
 21
16.02470349274575
 31
0.0
  0
LINE
  5
637
330
1F
100
AcDbEntity
  8
R-SWTS-DET2
  6
HIDDEN
 48
0.25
100
AcDbLine
 10
18.83472068789552
 20
15.99470349274576
 30
0.0
 11
18.83472068789552
 21
15.67070349274576
 31
0.0
  0
LINE
  5
638
330
1F
100
AcDbEntity
  8
R-SWTS-DET2
  6
HIDDEN
 48
0.25
100
AcDbLine
 10
18.58472068789552
 20
16.02470349274575
 30
0.0
 11
18.80472068789552
 21
16.02470349274575
 31
0.0
  0
LINE
  5
639
330
1F
100
AcDbEntity
  8
R-SWTS-DET2
  6
HIDDEN
 48
0.5
100
AcDbLine
 10
18.92022068789552
 20
16.40470349274576
 30
0.0
 11
18.05522068789552
 21
16.40470349274576
 31
0.0
  0
LINE
  5
63A
330
1F
100
AcDbEntity
  8
R-SWTS-DET2
  6
HIDDEN
 48
0.25
100
AcDbLine
 10
18.50722068789552
 20
16.35920349274575
 30
0.0
 11
18.47722068789552
 21
16.38920349274575
 31
0.0
  0
LINE
  5
63B
330
1F
100
AcDbEntity
  8
R-SWTS-DET2
  6
HIDDEN
 48
0.25
100
AcDbLine
 10
18.28722068789552
 20
16.38920349274575
 30
0.0
 11
18.25722068789552
 21
16.35920349274575
 31
0.0
  0
LINE
  5
63C
330
1F
100
AcDbEntity
  8
R-SWTS-DET2
  6
HIDDEN
 48
0.25
100
AcDbLine
 10
18.47722068789552
 20
16.38920349274575
 30
0.0
 11
18.28722068789552
 21
16.38920349274575
 31
0.0
  0
LINE
  5
63D
330
1F
100
AcDbEntity
  8
R-SWTS-DET2
  6
HIDDEN
 48
0.25
100
AcDbLine
 10
18.50722068789552
 20
16.35920349274575
 30
0.0
 11
18.25722068789552
 21
16.35920349274575
 31
0.0
  0
MTEXT
  5
63E
330
1F
100
AcDbEntity
  8
PART_NUMBERS
100
AcDbMText
 10
19.12452581279404
 20
18.09646528340099
 30
0.0
 40
0.25
 41
0.0
 71
     4
 72
     1
  1
060274\PSTAND OFF ANCHOR BAR PKG.\P(* INCLUDED IN PKG.)
 73
     1
 44
1.0
1001
ACAD
1000
MTEXTBEGIN
1070
    73
1070
     1
1070
    44
1040
1.0
1070
    74
1070
     0
1000
MTEXTEND
  0
MTEXT
  5
6A6
330
1F
100
AcDbEntity
  8
PART_NUMBERS
100
AcDbMText
 10
9.679994669941258
 20
21.73709116464467
 30
0.0
 40
0.25
 41
0.0
 71
     4
 72
     1
  1
060274\PSTAND OFF ANCHOR BAR PACKAGE
 73
     1
 44
1.0
1001
ACAD
1000
MTEXTBEGIN
1070
    73
1070
     1
1070
    44
1040
1.0
1070
    74
1070
     0
1000
MTEXTEND
  0
LEADER
  5
6A7
330
1F
100
AcDbEntity
  8
PART_NUMBERS
100
AcDbLeader
  3
Standard
 76
     3
 10
8.237456638668774
 20
21.35611359875431
 30
0.0
 10
9.365117928529059
 20
21.73709116464467
 30
0.0
 10
9.569781465965263
 20
21.73709116464467
 30
0.0
  0
LINE
  5
6D0
330
1F
100
AcDbEntity
  8
R-SWTS-DET2
  6
HIDDEN
 48
0.25
100
AcDbLine
 10
35.81348031310581
 20
17.68044003142891
 30
0.0
 11
36.18950767499848
 21
17.68044003142891
 31
0.0
  0
LEADER
  5
6D1
330
1F
100
AcDbEntity
  8
PART_NUMBERS
100
AcDbLeader
  3
Standard
 76
     3
 10
36.00683500337389
 20
17.69792085622855
 30
0.0
 10
36.51612254089442
 20
18.04263236710098
 30
0.0
 10
36.81183782994895
 20
18.04263236710098
 30
0.0
211
-1.0
221
0.0
231
0.0
210
0.0
220
0.0
230
-1.0
  0
LINE
  5
6D2
330
1F
100
AcDbEntity
  8
R-SWTS-DET1
100
AcDbLine
 10
38.22652148047402
 20
17.68039201660697
 30
0.0
 11
35.62649399405214
 21
17.68039201660697
 31
0.0
  0
MTEXT
  5
6D4
330
1F
100
AcDbEntity
  8
PART_NUMBERS
100
AcDbMText
 10
36.96942338983234
 20
18.32771218875096
 30
0.0
 40
0.25
 41
0.0
 71
     4
 72
     1
  1
*028578\PFLAT HEAD SCREWS
 73
     1
 44
1.0
1001
ACAD
1000
MTEXTBEGIN
1070
    73
1070
     1
1070
    44
1040
1.0
1070
    74
1070
     0
1000
MTEXTEND
  0
LINE
  5
6D6
330
1F
100
AcDbEntity
  8
HIDDEN
 48
0.25
100
AcDbLine
 10
36.10269399405214
 20
17.57344003142891
 30
0.0
 11
36.10269399405214
 21
17.55539201660697
 31
0.0
  0
LINE
  5
6D7
330
1F
100
AcDbEntity
  8
R-SWTS-DET2
  6
HIDDEN
 48
0.25
100
AcDbLine
 10
36.09649399405214
 20
17.57344003142891
 30
0.0
 11
36.09649399405214
 21
17.08544003142891
 31
0.0
  0
LINE
  5
6D8
330
1F
100
AcDbEntity
  8
HIDDEN
 48
0.25
100
AcDbLine
 10
35.90029399405214
 20
17.57344003142891
 30
0.0
 11
35.90029399405214
 21
17.55539201660697
 31
0.0
  0
LINE
  5
6D9
330
1F
100
AcDbEntity
  8
R-SWTS-DET2
  6
HIDDEN
 48
0.25
100
AcDbLine
 10
35.90649399405214
 20
17.57344003142891
 30
0.0
 11
35.90649399405214
 21
17.08544003142892
 31
0.0
  0
LINE
  5
6DA
330
1F
100
AcDbEntity
  8
R-SWTS-DET2
  6
HIDDEN
 48
0.25
100
AcDbLine
 10
35.90649399405214
 20
17.08544003142892
 30
0.0
 11
35.93649399405214
 21
17.05544003142891
 31
0.0
  0
LINE
  5
6DB
330
1F
100
AcDbEntity
  8
R-SWTS-DET2
  6
HIDDEN
 48
0.25
100
AcDbLine
 10
35.93649399405214
 20
17.05544003142891
 30
0.0
 11
36.06649399405214
 21
17.05544003142891
 31
0.0
  0
LINE
  5
6DC
330
1F
100
AcDbEntity
  8
HIDDEN
 48
0.25
100
AcDbLine
 10
35.90029399405214
 20
17.57344003142891
 30
0.0
 11
36.10269399405214
 21
17.57344003142891
 31
0.0
  0
LINE
  5
6DD
330
1F
100
AcDbEntity
  8
R-SWTS-DET2
  6
HIDDEN
 48
0.25
100
AcDbLine
 10
35.90649399405214
 20
17.08544003142892
 30
0.0
 11
36.09649399405214
 21
17.08544003142891
 31
0.0
  0
LINE
  5
6DE
330
1F
100
AcDbEntity
  8
R-SWTS-DET2
  6
HIDDEN
 48
0.25
100
AcDbLine
 10
36.06649399405214
 20
17.05544003142891
 30
0.0
 11
36.09649399405214
 21
17.08544003142891
 31
0.0
  0
LINE
  5
6DF
330
1F
100
AcDbEntity
  8
R-SWTS-DET2
  6
HIDDEN
 48
0.25
100
AcDbLine
 10
35.90649399405214
 20
17.57344003142891
 30
0.0
 11
36.09649399405214
 21
17.57344003142891
 31
0.0
  0
LINE
  5
6F1
330
1F
100
AcDbEntity
  8
HIDDEN
 48
0.25
100
AcDbLine
 10
36.10269399405214
 20
17.57344003142891
 30
0.0
 11
36.19899399405215
 21
17.68039201660697
 31
0.0
  0
LINE
  5
6F2
330
1F
100
AcDbEntity
  8
HIDDEN
 48
0.25
100
AcDbLine
 10
35.90029399405214
 20
17.57344003142891
 30
0.0
 11
35.80399399405214
 21
17.68039201660697
 31
0.0
  0
LINE
  5
6F3
330
1F
100
AcDbEntity
  8
R-SWTS-DET2
  6
HIDDEN
 48
0.25
100
AcDbLine
 10
35.90649399405214
 20
17.57344003142891
 30
0.0
 11
35.81348031310581
 21
17.68044003142891
 31
0.0
  0
LINE
  5
6F4
330
1F
100
AcDbEntity
  8
R-SWTS-DET2
  6
HIDDEN
 48
0.25
100
AcDbLine
 10
36.09649399405214
 20
17.57344003142891
 30
0.0
 11
36.18950767499848
 21
17.68044003142891
 31
0.0
  0
LINE
  5
765
330
1F
100
AcDbEntity
  8
R-SWTS-DET1
100
AcDbLine
 10
35.62649399405214
 20
17.68039201660697
 30
0.0
 11
35.62649399405214
 21
11.68039201660697
 31
0.0
  0
POLYLINE
  5
782
330
1F
100
AcDbEntity
  8
R-SWTS-DET1
100
AcDb2dPolyline
 66
     1
 10
0.0
 20
0.0
 30
0.0
  0
VERTEX
  5
783
330
782
100
AcDbEntity
  8
R-SWTS-DET1
100
AcDbVertex
100
AcDb2dVertex
 10
38.22652148047402
 20
17.68039201660697
 30
0.0
  0
VERTEX
  5
784
330
782
100
AcDbEntity
  8
R-SWTS-DET1
100
AcDbVertex
100
AcDb2dVertex
 10
38.13701197122605
 20
17.53436620698417
 30
0.0
  0
VERTEX
  5
785
330
782
100
AcDbEntity
  8
R-SWTS-DET1
100
AcDbVertex
100
AcDb2dVertex
 10
38.08344172649284
 20
17.40653354816759
 30
0.0
  0
VERTEX
  5
786
330
782
100
AcDbEntity
  8
R-SWTS-DET1
100
AcDbVertex
100
AcDb2dVertex
 10
38.05908007126119
 20
17.29436752443806
 30
0.0
  0
VERTEX
  5
787
330
782
100
AcDbEntity
  8
R-SWTS-DET1
100
AcDbVertex
100
AcDb2dVertex
 10
38.05719633051791
 20
17.19534162007645
 30
0.0
  0
VERTEX
  5
788
330
782
100
AcDbEntity
  8
R-SWTS-DET1
100
AcDbVertex
100
AcDb2dVertex
 10
38.07105982924981
 20
17.10692931936357
 30
0.0
  0
VERTEX
  5
789
330
782
100
AcDbEntity
  8
R-SWTS-DET1
100
AcDbVertex
100
AcDb2dVertex
 10
38.09393989244371
 20
17.02660410658029
 30
0.0
  0
VERTEX
  5
78A
330
782
100
AcDbEntity
  8
R-SWTS-DET1
100
AcDbVertex
100
AcDb2dVertex
 10
38.1191058450864
 20
16.95183946600744
 30
0.0
  0
VERTEX
  5
78B
330
782
100
AcDbEntity
  8
R-SWTS-DET1
100
AcDbVertex
100
AcDb2dVertex
 10
38.13982701216469
 20
16.88010888192587
 30
0.0
  0
VERTEX
  5
78C
330
782
100
AcDbEntity
  8
R-SWTS-DET1
100
AcDbVertex
100
AcDb2dVertex
 10
38.15089664508493
 20
16.80928577703404
 30
0.0
  0
VERTEX
  5
78D
330
782
100
AcDbEntity
  8
R-SWTS-DET1
100
AcDbVertex
100
AcDb2dVertex
 10
38.15320370093156
 20
16.73884332770083
 30
0.0
  0
VERTEX
  5
78E
330
782
100
AcDbEntity
  8
R-SWTS-DET1
100
AcDbVertex
100
AcDb2dVertex
 10
38.14916106320852
 20
16.66865464871276
 30
0.0
  0
VERTEX
  5
78F
330
782
100
AcDbEntity
  8
R-SWTS-DET1
100
AcDbVertex
100
AcDb2dVertex
 10
38.14118161541979
 20
16.59859285485632
 30
0.0
  0
VERTEX
  5
790
330
782
100
AcDbEntity
  8
R-SWTS-DET1
100
AcDbVertex
100
AcDb2dVertex
 10
38.13167824106932
 20
16.52853106091804
 30
0.0
  0
VERTEX
  5
791
330
782
100
AcDbEntity
  8
R-SWTS-DET1
100
AcDbVertex
100
AcDb2dVertex
 10
38.1230638236611
 20
16.4583423816844
 30
0.0
  0
VERTEX
  5
792
330
782
100
AcDbEntity
  8
R-SWTS-DET1
100
AcDbVertex
100
AcDb2dVertex
 10
38.11775124669907
 20
16.38789993194192
 30
0.0
  0
VERTEX
  5
793
330
782
100
AcDbEntity
  8
R-SWTS-DET1
100
AcDbVertex
100
AcDb2dVertex
 10
38.11815339368719
 20
16.3170768264771
 30
0.0
  0
VERTEX
  5
794
330
782
100
AcDbEntity
  8
R-SWTS-DET1
100
AcDbVertex
100
AcDb2dVertex
 10
38.12593176774121
 20
16.24580962269002
 30
0.0
  0
VERTEX
  5
795
330
782
100
AcDbEntity
  8
R-SWTS-DET1
100
AcDbVertex
100
AcDb2dVertex
 10
38.13974235042387
 20
16.17428864843502
 30
0.0
  0
VERTEX
  5
796
330
782
100
AcDbEntity
  8
R-SWTS-DET1
100
AcDbVertex
100
AcDb2dVertex
 10
38.15748974290969
 20
16.10276767418002
 30
0.0
  0
VERTEX
  5
797
330
782
100
AcDbEntity
  8
R-SWTS-DET1
100
AcDbVertex
100
AcDb2dVertex
 10
38.17707854637318
 20
16.03150047039294
 30
0.0
  0
VERTEX
  5
798
330
782
100
AcDbEntity
  8
R-SWTS-DET1
100
AcDbVertex
100
AcDb2dVertex
 10
38.19641336198889
 20
15.96074080754169
 30
0.0
  0
VERTEX
  5
799
330
782
100
AcDbEntity
  8
R-SWTS-DET1
100
AcDbVertex
100
AcDb2dVertex
 10
38.21339879093131
 20
15.89074245609419
 30
0.0
  0
VERTEX
  5
79A
330
782
100
AcDbEntity
  8
R-SWTS-DET1
100
AcDbVertex
100
AcDb2dVertex
 10
38.22593943437497
 20
15.82175918651835
 30
0.0
  0
VERTEX
  5
79B
330
782
100
AcDbEntity
  8
R-SWTS-DET1
100
AcDbVertex
100
AcDb2dVertex
 10
38.23193989349439
 20
15.75404476928209
 30
0.0
  0
VERTEX
  5
79C
330
782
100
AcDbEntity
  8
R-SWTS-DET1
100
AcDbVertex
100
AcDb2dVertex
 10
38.23001381857718
 20
15.6877049420872
 30
0.0
  0
VERTEX
  5
79D
330
782
100
AcDbEntity
  8
R-SWTS-DET1
100
AcDbVertex
100
AcDb2dVertex
 10
38.2282722893668
 20
15.67413964968572
 30
0.0
  0
SEQEND
  5
79E
330
782
100
AcDbEntity
  8
R-SWTS-DET1
  0
LINE
  5
800
330
1F
100
AcDbEntity
  8
HIDDEN
  6
HIDDEN
 48
0.5
100
AcDbLine
 10
35.43949399405215
 20
15.78164201660696
 30
0.0
 11
35.62649399405215
 21
15.78164201660696
 31
0.0
  0
LINE
  5
801
330
1F
100
AcDbEntity
  8
HIDDEN
  6
HIDDEN
 48
0.5
100
AcDbLine
 10
35.43949399405215
 20
15.57914201660696
 30
0.0
 11
35.62649399405214
 21
15.57914201660696
 31
0.0
  0
LINE
  5
802
330
1F
100
AcDbEntity
  8
HIDDEN
  6
HIDDEN
 48
0.5
100
AcDbLine
 10
35.43949399405215
 20
13.78164201660696
 30
0.0
 11
35.62649399405214
 21
13.78164201660696
 31
0.0
  0
LINE
  5
803
330
1F
100
AcDbEntity
  8
HIDDEN
  6
HIDDEN
 48
0.5
100
AcDbLine
 10
35.43949399405215
 20
13.57914201660696
 30
0.0
 11
35.62649399405214
 21
13.57914201660696
 31
0.0
  0
LINE
  5
804
330
1F
100
AcDbEntity
  8
HIDDEN
100
AcDbLine
 10
35.78249399405215
 20
15.42539201660697
 30
0.0
 11
35.78249399405215
 21
13.93539201660697
 31
0.0
  0
LINE
  5
805
330
1F
100
AcDbEntity
  8
HIDDEN
100
AcDbLine
 10
35.95149399405215
 20
15.42539201660697
 30
0.0
 11
35.95149399405215
 21
13.93539201660697
 31
0.0
  0
LINE
  5
806
330
1F
100
AcDbEntity
  8
HIDDEN
100
AcDbLine
 10
35.93578153206259
 20
15.42539201660697
 30
0.0
 11
35.93578153206259
 21
13.93539201660697
 31
0.0
  0
LINE
  5
808
330
1F
100
AcDbEntity
  8
HIDDEN
100
AcDbLine
 10
36.03149399405215
 20
15.42539201660697
 30
0.0
 11
36.03149399405215
 21
13.93539201660697
 31
0.0
  0
LINE
  5
809
330
1F
100
AcDbEntity
  8
HIDDEN
100
AcDbLine
 10
36.04720645604171
 20
15.42539201660697
 30
0.0
 11
36.04720645604171
 21
13.93539201660697
 31
0.0
  0
LINE
  5
80B
330
1F
100
AcDbEntity
  8
HIDDEN
100
AcDbLine
 10
36.14749399405215
 20
15.93539201660697
 30
0.0
 11
36.14749399405215
 21
17.54539201660697
 31
0.0
  0
LINE
  5
80C
330
1F
100
AcDbEntity
  8
HIDDEN
100
AcDbLine
 10
35.62649399405215
 20
15.93539201660697
 30
0.0
 11
36.14749399405215
 21
15.93539201660697
 31
0.0
  0
LINE
  5
80D
330
1F
100
AcDbEntity
  8
HIDDEN
100
AcDbLine
 10
35.62649399405215
 20
15.42539201660697
 30
0.0
 11
36.14749399405215
 21
15.42539201660697
 31
0.0
  0
LINE
  5
80E
330
1F
100
AcDbEntity
  8
HIDDEN
100
AcDbLine
 10
35.62649399405214
 20
13.93539201660697
 30
0.0
 11
36.14749399405215
 21
13.93539201660697
 31
0.0
  0
LINE
  5
80F
330
1F
100
AcDbEntity
  8
HIDDEN
100
AcDbLine
 10
35.62649399405214
 20
13.42539201660697
 30
0.0
 11
36.14749399405215
 21
13.42539201660697
 31
0.0
  0
LINE
  5
810
330
1F
100
AcDbEntity
  8
R-SWTS-DET2
100
AcDbLine
 10
35.78249399405214
 20
13.19961023291696
 30
0.0
 11
35.78249399405214
 21
11.92039201660697
 31
0.0
  0
LINE
  5
811
330
1F
100
AcDbEntity
  8
R-SWTS-DET2
100
AcDbLine
 10
35.93578153206259
 20
13.00856567192043
 30
0.0
 11
35.93578153206259
 21
11.92039201660697
 31
0.0
  0
LINE
  5
812
330
1F
100
AcDbEntity
  8
R-SWTS-DET2
100
AcDbLine
 10
35.95149399405215
 20
13.0137986828274
 30
0.0
 11
35.95149399405215
 21
11.92039201660697
 31
0.0
  0
LINE
  5
815
330
1F
100
AcDbEntity
  8
R-SWTS-DET2
100
AcDbLine
 10
36.04720645604171
 20
13.04412923733004
 30
0.0
 11
36.04720645604171
 21
11.92039201660697
 31
0.0
  0
LINE
  5
816
330
1F
100
AcDbEntity
  8
R-SWTS-DET2
100
AcDbLine
 10
36.03149399405215
 20
13.04044255778703
 30
0.0
 11
36.03149399405215
 21
11.92039201660697
 31
0.0
  0
LINE
  5
817
330
1F
100
AcDbEntity
  8
HIDDEN
100
AcDbLine
 10
36.14749399405215
 20
13.93539201660697
 30
0.0
 11
36.14749399405215
 21
15.42539201660697
 31
0.0
  0
LINE
  5
818
330
1F
100
AcDbEntity
  8
R-SWTS-DET2
100
AcDbLine
 10
35.62649399405214
 20
11.92039201660697
 30
0.0
 11
36.14749399405215
 21
11.92039201660697
 31
0.0
  0
LINE
  5
819
330
1F
100
AcDbEntity
  8
R-SWTS-DET2
100
AcDbLine
 10
35.56449399405215
 20
17.68039201660697
 30
0.0
 11
35.62649399405215
 21
17.68039201660697
 31
0.0
  0
ARC
  5
81A
330
1F
100
AcDbEntity
  8
R-SWTS-DET2
100
AcDbCircle
 10
35.56449399405215
 20
17.55539201660697
 30
0.0
 40
0.125
100
AcDbArc
 50
90.0
 51
180.0
  0
LINE
  5
81B
330
1F
100
AcDbEntity
  8
HIDDEN
100
AcDbLine
 10
35.62649399405215
 20
17.54539201660697
 30
0.0
 11
36.14749399405215
 21
17.54539201660697
 31
0.0
  0
LINE
  5
81C
330
1F
100
AcDbEntity
  8
R-SWTS-DET2
100
AcDbLine
 10
35.56449399405215
 20
11.68039201660697
 30
0.0
 11
35.62649399405214
 21
11.68039201660697
 31
0.0
  0
ARC
  5
81D
330
1F
100
AcDbEntity
  8
R-SWTS-DET2
100
AcDbCircle
 10
35.56449399405215
 20
11.80539201660697
 30
0.0
 40
0.125
100
AcDbArc
 50
180.0
 51
269.9999999999998
  0
LINE
  5
81E
330
1F
100
AcDbEntity
  8
R-SWTS-DET2
100
AcDbLine
 10
35.43949399405215
 20
11.80539201660697
 30
0.0
 11
35.43949399405215
 21
17.55539201660697
 31
0.0
  0
LINE
  5
81F
330
1F
100
AcDbEntity
  8
R-SWTS-DET2
100
AcDbLine
 10
36.14749399405215
 20
11.92039201660697
 30
0.0
 11
36.14749399405215
 21
13.00559010690729
 31
0.0
  0
LINE
  5
820
330
1F
100
AcDbEntity
  8
R-SWTS-DET2
100
AcDbLine
 10
35.62649399405215
 20
17.68039201660697
 30
0.0
 11
35.62649399405214
 21
11.68039201660697
 31
0.0
  0
LINE
  5
821
330
1F
100
AcDbEntity
  8
HIDDEN
100
AcDbLine
 10
35.78249399405215
 20
17.54539201660697
 30
0.0
 11
35.78249399405215
 21
15.93539201660697
 31
0.0
  0
LINE
  5
822
330
1F
100
AcDbEntity
  8
HIDDEN
100
AcDbLine
 10
35.93578153206259
 20
17.54539201660697
 30
0.0
 11
35.93578153206259
 21
15.93539201660697
 31
0.0
  0
LINE
  5
823
330
1F
100
AcDbEntity
  8
HIDDEN
100
AcDbLine
 10
35.95149399405215
 20
17.54539201660697
 30
0.0
 11
35.95149399405215
 21
15.93539201660697
 31
0.0
  0
LINE
  5
824
330
1F
100
AcDbEntity
  8
HIDDEN
100
AcDbLine
 10
36.03149399405215
 20
17.54539201660697
 30
0.0
 11
36.03149399405215
 21
15.93539201660697
 31
0.0
  0
LINE
  5
825
330
1F
100
AcDbEntity
  8
HIDDEN
100
AcDbLine
 10
36.04720645604171
 20
17.54539201660697
 30
0.0
 11
36.04720645604171
 21
15.93539201660697
 31
0.0
  0
LINE
  5
828
330
1F
100
AcDbEntity
  8
HIDDEN
100
AcDbLine
 10
35.78249399405214
 20
13.19961023291696
 30
0.0
 11
35.78249399405214
 21
13.42539201660697
 31
0.0
  0
LINE
  5
829
330
1F
100
AcDbEntity
  8
HIDDEN
100
AcDbLine
 10
35.93578153206259
 20
13.00856567192043
 30
0.0
 11
35.93578153206259
 21
13.42539201660697
 31
0.0
  0
LINE
  5
82A
330
1F
100
AcDbEntity
  8
HIDDEN
100
AcDbLine
 10
35.95149399405215
 20
13.0137986828274
 30
0.0
 11
35.95149399405215
 21
13.42539201660697
 31
0.0
  0
LINE
  5
82B
330
1F
100
AcDbEntity
  8
HIDDEN
100
AcDbLine
 10
36.03149399405215
 20
13.04044255778703
 30
0.0
 11
36.03149399405215
 21
13.42539201660697
 31
0.0
  0
LINE
  5
82C
330
1F
100
AcDbEntity
  8
HIDDEN
100
AcDbLine
 10
36.04720645604171
 20
13.04412923733004
 30
0.0
 11
36.04720645604171
 21
13.42539201660697
 31
0.0
  0
LINE
  5
82D
330
1F
100
AcDbEntity
  8
HIDDEN
100
AcDbLine
 10
36.14749399405215
 20
13.00559010690729
 30
0.0
 11
36.14749399405215
 21
13.42539201660697
 31
0.0
  0
LINE
  5
830
330
1F
100
AcDbEntity
  8
R-SWTS-DET2
  6
HIDDEN
 48
0.25
100
AcDbLine
 10
35.78649399405215
 20
15.84824135579126
 30
0.0
 11
35.81649399405215
 21
15.81824135579126
 31
0.0
  0
LINE
  5
831
330
1F
100
AcDbEntity
  8
R-SWTS-DET2
  6
HIDDEN
 48
0.25
100
AcDbLine
 10
35.62649399405214
 20
15.84824135579126
 30
0.0
 11
35.78649399405215
 21
15.84824135579126
 31
0.0
  0
LINE
  5
832
330
1F
100
AcDbEntity
  8
R-SWTS-DET2
  6
HIDDEN
 48
0.25
100
AcDbLine
 10
35.81649399405215
 20
15.81824135579126
 30
0.0
 11
35.81649399405215
 21
15.54224135579125
 31
0.0
  0
LINE
  5
833
330
1F
100
AcDbEntity
  8
R-SWTS-DET2
  6
HIDDEN
 48
0.25
100
AcDbLine
 10
35.78649399405215
 20
15.84824135579126
 30
0.0
 11
35.78649399405215
 21
15.51224135579125
 31
0.0
  0
LINE
  5
834
330
1F
100
AcDbEntity
  8
R-SWTS-DET2
  6
HIDDEN
 48
0.25
100
AcDbLine
 10
35.62649399405214
 20
15.84824135579126
 30
0.0
 11
35.62649399405214
 21
15.51224135579125
 31
0.0
  0
LINE
  5
835
330
1F
100
AcDbEntity
  8
R-SWTS-DET2
  6
HIDDEN
 48
0.25
100
AcDbLine
 10
35.81649399405215
 20
15.54224135579125
 30
0.0
 11
35.78649399405215
 21
15.51224135579125
 31
0.0
  0
LINE
  5
836
330
1F
100
AcDbEntity
  8
R-SWTS-DET2
  6
HIDDEN
 48
0.25
100
AcDbLine
 10
35.62649399405214
 20
15.51224135579125
 30
0.0
 11
35.78649399405215
 21
15.51224135579125
 31
0.0
  0
LINE
  5
837
330
1F
100
AcDbEntity
  8
R-SWTS-DET2
  6
HIDDEN
 48
0.25
100
AcDbLine
 10
35.03149399405214
 20
15.77524135579125
 30
0.0
 11
35.62649399405214
 21
15.77524135579126
 31
0.0
  0
LINE
  5
838
330
1F
100
AcDbEntity
  8
R-SWTS-DET2
  6
HIDDEN
 48
0.25
100
AcDbLine
 10
35.00149399405214
 20
15.74524135579126
 30
0.0
 11
35.03149399405214
 21
15.77524135579125
 31
0.0
  0
LINE
  5
839
330
1F
100
AcDbEntity
  8
R-SWTS-DET2
  6
HIDDEN
 48
0.25
100
AcDbLine
 10
35.00149399405214
 20
15.61524135579125
 30
0.0
 11
35.03149399405214
 21
15.58524135579125
 31
0.0
  0
LINE
  5
83A
330
1F
100
AcDbEntity
  8
R-SWTS-DET2
  6
HIDDEN
 48
0.25
100
AcDbLine
 10
35.00149399405214
 20
15.74524135579126
 30
0.0
 11
35.00149399405214
 21
15.61524135579125
 31
0.0
  0
LINE
  5
83B
330
1F
100
AcDbEntity
  8
R-SWTS-DET2
  6
HIDDEN
 48
0.25
100
AcDbLine
 10
35.03149399405214
 20
15.77524135579125
 30
0.0
 11
35.03149399405214
 21
15.58524135579125
 31
0.0
  0
LINE
  5
83C
330
1F
100
AcDbEntity
  8
CENTER
 48
0.25
100
AcDbLine
 10
34.91670438017414
 20
15.68024135579126
 30
0.0
 11
35.94948631908878
 21
15.68024135579126
 31
0.0
  0
LINE
  5
83D
330
1F
100
AcDbEntity
  8
R-SWTS-DET2
  6
HIDDEN
 48
0.25
100
AcDbLine
 10
35.03149399405214
 20
15.58524135579125
 30
0.0
 11
35.62649399405214
 21
15.58524135579125
 31
0.0
  0
LINE
  5
840
330
1F
100
AcDbEntity
  8
R-SWTS-DET2
  6
HIDDEN
 48
0.5
100
AcDbLine
 10
18.05522068789552
 20
12.39470349274576
 30
0.0
 11
18.05522068789552
 21
16.40470349274576
 31
0.0
  0
TEXT
  5
8DC
330
1F
100
AcDbEntity
  8
0
100
AcDbText
 10
41.47544239040182
 20
14.52853679396669
 30
0.0
 40
0.25
  1
DETAIL SIMILAR ON OPPOSITE END
100
AcDbText
  0
LWPOLYLINE
  5
903
330
1F
100
AcDbEntity
  8
R-SWTS-DET1
100
AcDbPolyline
 90
       47
 70
     0
 43
0.0
 10
40.56568097919636
 20
21.34707098105328
 10
40.57629840378574
 20
21.30827671336584
 10
40.57757054591236
 20
21.26968947352339
 10
40.5701081317573
 20
21.23953448942998
 10
40.55729481910259
 20
21.21590516748244
 10
40.54251426573025
 20
21.19689491407764
 10
40.5291501294223
 20
21.18059713561241
 10
40.52058606796078
 20
21.16510523848361
 10
40.51930736475568
 20
21.1488271186839
 10
40.52420580572888
 20
21.13142863058918
 10
40.53327480243031
 20
21.11289011817115
 10
40.54450776640983
 20
21.09319192540155
 10
40.55589810921733
 20
21.07231439625207
 10
40.56543924240272
 20
21.05023787469443
 10
40.57112457751586
 20
21.02694270470033
 10
40.57094752610665
 20
21.00240923024151
 10
40.56358347752534
 20
20.97666038255978
 10
40.55043573232366
 20
20.94988944197747
 10
40.53358956885368
 20
20.92233227608702
 10
40.5151302654675
 20
20.89422475248087
 10
40.49714310051721
 20
20.86580273875147
 10
40.48171335235489
 20
20.83730210249125
 10
40.47092629933264
 20
20.80895871129266
 10
40.46686721980253
 20
20.78100843274814
 10
40.47092629933264
 20
20.75366092691957
 10
40.48171335235489
 20
20.72702102374661
 10
40.49714310051721
 20
20.70116734563836
 10
40.5151302654675
 20
20.6761785150039
 10
40.53358956885368
 20
20.65213315425234
 10
40.55043573232366
 20
20.62910988579277
 10
40.56358347752534
 20
20.60718733203429
 10
40.57094752610665
 20
20.58644411538599
 10
40.57111474131471
 20
20.5668212689599
 10
40.56536055279353
 20
20.54770946867981
 10
40.55563253178634
 20
20.52836180117244
 10
40.54387824953635
 20
20.50803135306449
 10
40.53204527728678
 20
20.48597121098269
 10
40.52208118628087
 20
20.46143446155375
 10
40.51593354776183
 20
20.4336741914044
 10
40.51554993297289
 20
20.40194348716134
 10
40.52174346937211
 20
20.3656788878812
 10
40.53078950927694
 20
20.32505074234014
 10
40.53782896121962
 20
20.28041285174428
 10
40.53800273373245
 20
20.2321190172997
 10
40.5264517353477
 20
20.18052304021246
 10
40.49831687459763
 20
20.12597872168868
 10
40.47844045874859
 20
20.10307098105328
  0
LWPOLYLINE
  5
904
330
1F
100
AcDbEntity
  8
R-SWTS-DET1
100
AcDbPolyline
 90
       13
 70
     0
 43
0.0
 10
37.90649244795535
 20
21.34707098105328
 10
37.91710987254472
 20
21.30827671336584
 10
37.91838201467134
 20
21.26968947352339
 10
37.91091960051628
 20
21.23953448942998
 10
37.89810628786157
 20
21.21590516748244
 10
37.88332573448923
 20
21.19689491407764
 10
37.86996159818129
 20
21.18059713561241
 10
37.86139753671977
 20
21.16510523848361
 10
37.86011883351465
 20
21.1488271186839
 10
37.86501727448786
 20
21.13142863058918
 10
37.87408627118928
 20
21.11289011817115
 10
37.88531923516881
 20
21.09319192540155
 10
37.89670957797632
 20
21.07231439625206
  0
LWPOLYLINE
  5
905
330
1F
100
AcDbEntity
  8
R-SWTS-DET1
100
AcDbPolyline
 90
       35
 70
     0
 43
0.0
 10
37.9048225262427
 20
21.05354244602156
 10
37.90625071116171
 20
21.05023787469443
 10
37.91193604627485
 20
21.02694270470033
 10
37.91175899486564
 20
21.00240923024151
 10
37.90439494628433
 20
20.97666038255978
 10
37.89124720108264
 20
20.94988944197747
 10
37.87440103761266
 20
20.92233227608702
 10
37.85594173422648
 20
20.89422475248087
 10
37.83795456927619
 20
20.86580273875147
 10
37.82252482111387
 20
20.83730210249125
 10
37.81173776809162
 20
20.80895871129266
 10
37.80767868856152
 20
20.78100843274814
 10
37.81173776809162
 20
20.75366092691957
 10
37.82252482111387
 20
20.72702102374661
 10
37.83795456927619
 20
20.70116734563836
 10
37.85594173422648
 20
20.6761785150039
 10
37.87440103761266
 20
20.65213315425234
 10
37.89124720108264
 20
20.62910988579277
 10
37.90439494628433
 20
20.60718733203429
 10
37.91175899486564
 20
20.58644411538599
 10
37.9119262100737
 20
20.5668212689599
 10
37.90617202155252
 20
20.54770946867981
 10
37.89644400054532
 20
20.52836180117244
 10
37.88468971829532
 20
20.50803135306449
 10
37.87285674604575
 20
20.48597121098269
 10
37.86289265503985
 20
20.46143446155375
 10
37.8567450165208
 20
20.4336741914044
 10
37.85636140173186
 20
20.40194348716134
 10
37.86255493813109
 20
20.3656788878812
 10
37.87160097803591
 20
20.32505074234014
 10
37.8786404299786
 20
20.28041285174428
 10
37.87881420249143
 20
20.2321190172997
 10
37.86726320410668
 20
20.18052304021246
 10
37.83912834335661
 20
20.12597872168868
 10
37.81925192750757
 20
20.10307098105328
  0
LEADER
  5
912
330
1F
100
AcDbEntity
  8
PART_NUMBERS
100
AcDbLeader
  3
Standard
 76
     3
 10
35.54471590196718
 20
21.32851464015933
 30
0.0
 10
35.70699079744612
 20
21.67793482156525
 30
0.0
 10
36.05583605050987
 20
21.67793482156525
 30
0.0
211
-1.0
221
0.0
231
0.0
  0
LWPOLYLINE
  5
913
330
1F
100
AcDbEntity
  8
R-SWTS-DET2
100
AcDbPolyline
 90
       26
 70
     1
 43
0.0
 10
36.03149399405215
 20
20.6512062398028
 10
36.03149399405215
 20
20.59507098105328
 10
36.04720645604171
 20
20.57935851906371
 42
1.415961772315393
 10
35.85639403106178
 20
20.80307098105328
 42
-0.2679491924311277
 10
35.82954724354446
 20
20.78757098105328
 10
35.62649399405215
 20
20.78757098105328
 10
35.62649399405215
 20
20.90307098105328
 10
35.75149399405215
 20
20.90307098105327
 42
1.0
 10
35.75149399405215
 20
20.96507098105328
 10
35.62649399405215
 20
20.96507098105328
 10
35.62649399405215
 20
21.35307098105328
 10
35.56449399405214
 20
21.35307098105328
 42
0.4142135623730951
 10
35.43949399405214
 20
21.22807098105328
 10
35.43949399405214
 20
20.22207098105328
 42
0.4142135623730951
 10
35.56449399405214
 20
20.09707098105328
 10
35.62649399405215
 20
20.09707098105328
 10
35.62649399405215
 20
20.48507098105328
 10
35.75149399405215
 20
20.48507098105328
 42
1.0
 10
35.75149399405215
 20
20.54707098105328
 10
35.62649399405215
 20
20.54707098105328
 10
35.62649399405215
 20
20.66257098105328
 10
35.82954724354446
 20
20.66257098105328
 42
-0.2679491924311277
 10
35.85639403106178
 20
20.64707098105328
 42
0.1721723319805473
 10
35.93578153206258
 20
20.57935851906371
 10
35.95149399405215
 20
20.59507098105328
 10
35.95149399405215
 20
20.6512062398028
 42
-3.946618531261892
  0
LINE
  5
914
330
1F
100
AcDbEntity
  8
R-SWTS-DET1
100
AcDbLine
 10
35.62649399405215
 20
21.34707098105327
 30
0.0
 11
35.62649399405215
 21
20.10307098105327
 31
0.0
  0
LINE
  5
917
330
1F
100
AcDbEntity
  8
R-SWTS-DET1
100
AcDbLine
 10
37.8917892176442
 20
20.22807098105328
 30
0.0
 11
35.62649399405215
 21
20.22807098105328
 31
0.0
  0
LINE
  5
918
330
1F
100
AcDbEntity
  8
R-SWTS-DET1
100
AcDbLine
 10
37.86778191448096
 20
20.37607098105327
 30
0.0
 11
35.62649399405215
 21
20.37607098105327
 31
0.0
  0
LINE
  5
919
330
1F
100
AcDbEntity
  8
R-SWTS-DET1
100
AcDbLine
 10
37.882796594447
 20
20.47007098105328
 30
0.0
 11
35.62649399405215
 21
20.47007098105328
 31
0.0
  0
LINE
  5
91A
330
1F
100
AcDbEntity
  8
R-SWTS-DET1
100
AcDbLine
 10
37.91334423394769
 20
21.22207098105327
 30
0.0
 11
35.62649399405215
 21
21.22207098105327
 31
0.0
  0
LINE
  5
91B
330
1F
100
AcDbEntity
  8
R-SWTS-DET1
100
AcDbLine
 10
37.90760370434209
 20
21.07407098105328
 30
0.0
 11
35.62649399405215
 21
21.07407098105328
 31
0.0
  0
LINE
  5
91C
330
1F
100
AcDbEntity
  8
R-SWTS-DET1
100
AcDbLine
 10
37.91232028966175
 20
20.98007098105327
 30
0.0
 11
35.62649399405215
 21
20.98007098105328
 31
0.0
  0
MTEXT
  5
91D
330
1F
100
AcDbEntity
  8
PART_NUMBERS
100
AcDbMText
 10
36.17482232223308
 20
21.74342394539227
 30
0.0
 40
0.25
 41
0.0
 71
     4
 72
     1
  1
060276 END CAP PKG.
 73
     1
 44
1.0
1001
ACAD
1000
MTEXTBEGIN
1070
    73
1070
     1
1070
    44
1040
1.0
1070
    74
1070
     0
1000
MTEXTEND
  0
LINE
  5
91E
330
1F
100
AcDbEntity
  8
HIDDEN
  6
HIDDEN
 48
0.5
100
AcDbLine
 10
37.91334423394769
 20
21.22207098105327
 30
0.0
 11
40.57253276518871
 21
21.22207098105327
 31
0.0
  0
LINE
  5
91F
330
1F
100
AcDbEntity
  8
HIDDEN
  6
HIDDEN
 48
0.5
100
AcDbLine
 10
37.90760370434209
 20
21.07407098105328
 30
0.0
 11
40.55962262048189
 21
21.07407098105328
 31
0.0
  0
LINE
  5
920
330
1F
100
AcDbEntity
  8
HIDDEN
  6
HIDDEN
 48
0.5
100
AcDbLine
 10
37.91232028966175
 20
20.98007098105327
 30
0.0
 11
40.57078631704087
 21
20.98007098105327
 31
0.0
  0
LINE
  5
921
330
1F
100
AcDbEntity
  8
HIDDEN
  6
HIDDEN
 48
0.5
100
AcDbLine
 10
37.87881420249143
 20
20.23211901729969
 30
0.0
 11
40.53800273373245
 21
20.23211901729969
 31
0.0
  0
LINE
  5
922
330
1F
100
AcDbEntity
  8
HIDDEN
  6
HIDDEN
 48
0.5
100
AcDbLine
 10
37.86778191448096
 20
20.37607098105327
 30
0.0
 11
40.52274355294406
 21
20.37607098105327
 31
0.0
  0
LINE
  5
923
330
1F
100
AcDbEntity
  8
HIDDEN
  6
HIDDEN
 48
0.5
100
AcDbLine
 10
37.882796594447
 20
20.47007098105328
 30
0.0
 11
40.52558837726054
 21
20.47007098105328
 31
0.0
  0
LINE
  5
924
330
1F
100
AcDbEntity
  8
R-SWTS-DET1
100
AcDbLine
 10
35.62649399405215
 20
20.10307098105327
 30
0.0
 11
40.47844045874859
 21
20.10307098105327
 31
0.0
  0
LINE
  5
925
330
1F
100
AcDbEntity
  8
R-SWTS-DET1
100
AcDbLine
 10
35.62649399405215
 20
21.34707098105327
 30
0.0
 11
40.56446587829478
 21
21.34707098105327
 31
0.0
  0
LINE
  5
95B
330
1F
100
AcDbEntity
  8
R-SWTS-DET2
  6
HIDDEN
 48
0.25
100
AcDbLine
 10
35.03149399405214
 20
20.62813907391272
 30
0.0
 11
35.62649399405214
 21
20.62813907391272
 31
0.0
  0
LINE
  5
95C
330
1F
100
AcDbEntity
  8
R-SWTS-DET2
  6
HIDDEN
 48
0.25
100
AcDbLine
 10
35.03149399405214
 20
20.81813907391272
 30
0.0
 11
35.03149399405214
 21
20.62813907391272
 31
0.0
  0
LINE
  5
95D
330
1F
100
AcDbEntity
  8
R-SWTS-DET2
  6
HIDDEN
 48
0.25
100
AcDbLine
 10
35.00149399405214
 20
20.78813907391273
 30
0.0
 11
35.00149399405214
 21
20.65813907391272
 31
0.0
  0
LINE
  5
95E
330
1F
100
AcDbEntity
  8
R-SWTS-DET2
  6
HIDDEN
 48
0.25
100
AcDbLine
 10
35.00149399405214
 20
20.65813907391272
 30
0.0
 11
35.03149399405214
 21
20.62813907391272
 31
0.0
  0
LINE
  5
95F
330
1F
100
AcDbEntity
  8
R-SWTS-DET2
  6
HIDDEN
 48
0.25
100
AcDbLine
 10
35.00149399405214
 20
20.78813907391273
 30
0.0
 11
35.03149399405214
 21
20.81813907391272
 31
0.0
  0
LINE
  5
960
330
1F
100
AcDbEntity
  8
R-SWTS-DET2
  6
HIDDEN
 48
0.25
100
AcDbLine
 10
35.03149399405214
 20
20.81813907391272
 30
0.0
 11
35.62649399405214
 21
20.81813907391273
 31
0.0
  0
LINE
  5
961
330
1F
100
AcDbEntity
  8
R-SWTS-DET2
  6
HIDDEN
 48
0.25
100
AcDbLine
 10
35.62649399405214
 20
20.55513907391272
 30
0.0
 11
35.78649399405215
 21
20.55513907391272
 31
0.0
  0
LINE
  5
962
330
1F
100
AcDbEntity
  8
R-SWTS-DET2
  6
HIDDEN
 48
0.25
100
AcDbLine
 10
35.81649399405215
 20
20.58513907391272
 30
0.0
 11
35.78649399405215
 21
20.55513907391272
 31
0.0
  0
LINE
  5
963
330
1F
100
AcDbEntity
  8
R-SWTS-DET2
  6
HIDDEN
 48
0.25
100
AcDbLine
 10
35.62649399405214
 20
20.89113907391273
 30
0.0
 11
35.62649399405214
 21
20.55513907391272
 31
0.0
  0
LINE
  5
964
330
1F
100
AcDbEntity
  8
R-SWTS-DET2
  6
HIDDEN
 48
0.25
100
AcDbLine
 10
35.78649399405215
 20
20.89113907391273
 30
0.0
 11
35.78649399405215
 21
20.55513907391272
 31
0.0
  0
LINE
  5
965
330
1F
100
AcDbEntity
  8
R-SWTS-DET2
  6
HIDDEN
 48
0.25
100
AcDbLine
 10
35.81649399405215
 20
20.86113907391272
 30
0.0
 11
35.81649399405215
 21
20.58513907391272
 31
0.0
  0
LINE
  5
966
330
1F
100
AcDbEntity
  8
R-SWTS-DET2
  6
HIDDEN
 48
0.25
100
AcDbLine
 10
35.62649399405214
 20
20.89113907391273
 30
0.0
 11
35.78649399405215
 21
20.89113907391273
 31
0.0
  0
LINE
  5
967
330
1F
100
AcDbEntity
  8
R-SWTS-DET2
  6
HIDDEN
 48
0.25
100
AcDbLine
 10
35.78649399405215
 20
20.89113907391273
 30
0.0
 11
35.81649399405215
 21
20.86113907391272
 31
0.0
  0
LINE
  5
968
330
1F
100
AcDbEntity
  8
HIDDEN
  6
HIDDEN
 48
0.5
100
AcDbLine
 10
35.43949399405215
 20
20.62203973472843
 30
0.0
 11
35.62649399405214
 21
20.62203973472843
 31
0.0
  0
LINE
  5
969
330
1F
100
AcDbEntity
  8
HIDDEN
  6
HIDDEN
 48
0.5
100
AcDbLine
 10
35.43949399405215
 20
20.82453973472843
 30
0.0
 11
35.62649399405215
 21
20.82453973472843
 31
0.0
  0
LINE
  5
96A
330
1F
100
AcDbEntity
  8
CENTER
 48
0.25
100
AcDbLine
 10
34.91670438017414
 20
20.72313907391272
 30
0.0
 11
35.94948631908878
 21
20.72313907391272
 31
0.0
  0
LINE
  5
96B
330
1F
100
AcDbEntity
  8
HIDDEN
  6
HIDDEN
 48
0.5
100
AcDbLine
 10
35.31449399405214
 20
22.27317981595345
 30
0.0
 11
35.31449399405214
 21
19.4871806374624
 31
0.0
  0
LINE
  5
96C
330
1F
100
AcDbEntity
  8
R-SWTS-DET1
100
AcDbLine
 10
35.43720221888259
 20
22.23640590216907
 30
0.0
 11
35.43720221888259
 21
19.4871806374624
 31
0.0
  0
LINE
  5
983
330
1F
100
AcDbEntity
  8
0
100
AcDbLine
 10
28.66244640101161
 20
26.46729116259066
 30
0.0
 11
28.66244640101161
 21
5.96487020310549
 31
0.0
  0
POLYLINE
  5
992
330
1F
100
AcDbEntity
  8
R-SWTS-DET1
100
AcDb2dPolyline
 66
     1
 10
0.0
 20
0.0
 30
0.0
 70
     4
 75
     6
  0
VERTEX
  5
993
330
992
100
AcDbEntity
  8
R-SWTS-DET1
100
AcDbVertex
100
AcDb2dVertex
 10
35.43720221888259
 20
22.23640590216907
 30
0.0
 70
    16
  0
VERTEX
  5
994
330
992
100
AcDbEntity
  8
R-SWTS-DET1
100
AcDbVertex
100
AcDb2dVertex
 10
35.43720221888259
 20
22.23640590216907
 30
0.0
 70
     8
  0
VERTEX
  5
995
330
992
100
AcDbEntity
  8
R-SWTS-DET1
100
AcDbVertex
100
AcDb2dVertex
 10
35.33130244742175
 20
22.27317981595345
 30
0.0
 70
     8
  0
VERTEX
  5
996
330
992
100
AcDbEntity
  8
R-SWTS-DET1
100
AcDbVertex
100
AcDb2dVertex
 10
35.24867159259894
 20
22.29444306968807
 30
0.0
 70
     8
  0
VERTEX
  5
997
330
992
100
AcDbEntity
  8
R-SWTS-DET1
100
AcDbVertex
100
AcDb2dVertex
 10
35.1859140470425
 20
22.30305420804657
 30
0.0
 70
     8
  0
VERTEX
  5
998
330
992
100
AcDbEntity
  8
R-SWTS-DET1
100
AcDbVertex
100
AcDb2dVertex
 10
35.13963420338076
 20
22.30187177570257
 30
0.0
 70
     8
  0
VERTEX
  5
999
330
992
100
AcDbEntity
  8
R-SWTS-DET1
100
AcDbVertex
100
AcDb2dVertex
 10
35.10643645424204
 20
22.29375431732969
 30
0.0
 70
     8
  0
VERTEX
  5
99A
330
992
100
AcDbEntity
  8
R-SWTS-DET1
100
AcDbVertex
100
AcDb2dVertex
 10
35.08292519225467
 20
22.28156037760156
 30
0.0
 70
     8
  0
VERTEX
  5
99B
330
992
100
AcDbEntity
  8
R-SWTS-DET1
100
AcDbVertex
100
AcDb2dVertex
 10
35.06570481004697
 20
22.2681485011918
 30
0.0
 70
     8
  0
VERTEX
  5
99C
330
992
100
AcDbEntity
  8
R-SWTS-DET1
100
AcDbVertex
100
AcDb2dVertex
 10
35.0513797002473
 20
22.25637723277405
 30
0.0
 70
     8
  0
VERTEX
  5
99D
330
992
100
AcDbEntity
  8
R-SWTS-DET1
100
AcDbVertex
100
AcDb2dVertex
 10
35.0371375627772
 20
22.24846552919343
 30
0.0
 70
     8
  0
VERTEX
  5
99E
330
992
100
AcDbEntity
  8
R-SWTS-DET1
100
AcDbVertex
100
AcDb2dVertex
 10
35.02249932673124
 20
22.24407399598109
 30
0.0
 70
     8
  0
VERTEX
  5
99F
330
992
100
AcDbEntity
  8
R-SWTS-DET1
100
AcDbVertex
100
AcDb2dVertex
 10
35.00756922849724
 20
22.24222365083968
 30
0.0
 70
     8
  0
VERTEX
  5
9A0
330
992
100
AcDbEntity
  8
R-SWTS-DET1
100
AcDbVertex
100
AcDb2dVertex
 10
34.99245150446299
 20
22.24193551147187
 30
0.0
 70
     8
  0
VERTEX
  5
9A1
330
992
100
AcDbEntity
  8
R-SWTS-DET1
100
AcDbVertex
100
AcDb2dVertex
 10
34.97725039101631
 20
22.24223059558029
 30
0.0
 70
     8
  0
VERTEX
  5
9A2
330
992
100
AcDbEntity
  8
R-SWTS-DET1
100
AcDbVertex
100
AcDb2dVertex
 10
34.962070124545
 20
22.24212992086762
 30
0.0
 70
     8
  0
VERTEX
  5
9A3
330
992
100
AcDbEntity
  8
R-SWTS-DET1
100
AcDbVertex
100
AcDb2dVertex
 10
34.94701494143686
 20
22.24065450503649
 30
0.0
 70
     8
  0
VERTEX
  5
9A4
330
992
100
AcDbEntity
  8
R-SWTS-DET1
100
AcDbVertex
100
AcDb2dVertex
 10
34.9321890780797
 20
22.23682536578959
 30
0.0
 70
     8
  0
VERTEX
  5
9A5
330
992
100
AcDbEntity
  8
R-SWTS-DET1
100
AcDbVertex
100
AcDb2dVertex
 10
34.91758211093863
 20
22.22998637668666
 30
0.0
 70
     8
  0
VERTEX
  5
9A6
330
992
100
AcDbEntity
  8
R-SWTS-DET1
100
AcDbVertex
100
AcDb2dVertex
 10
34.90272497678789
 20
22.22077283471602
 30
0.0
 70
     8
  0
VERTEX
  5
9A7
330
992
100
AcDbEntity
  8
R-SWTS-DET1
100
AcDbVertex
100
AcDb2dVertex
 10
34.88703395247905
 20
22.21014289272307
 30
0.0
 70
     8
  0
VERTEX
  5
9A8
330
992
100
AcDbEntity
  8
R-SWTS-DET1
100
AcDbVertex
100
AcDb2dVertex
 10
34.86992531486367
 20
22.19905470355323
 30
0.0
 70
     8
  0
VERTEX
  5
9A9
330
992
100
AcDbEntity
  8
R-SWTS-DET1
100
AcDbVertex
100
AcDb2dVertex
 10
34.85081534079328
 20
22.18846642005193
 30
0.0
 70
     8
  0
VERTEX
  5
9AA
330
992
100
AcDbEntity
  8
R-SWTS-DET1
100
AcDbVertex
100
AcDb2dVertex
 10
34.82912030711946
 20
22.17933619506457
 30
0.0
 70
     8
  0
VERTEX
  5
9AB
330
992
100
AcDbEntity
  8
R-SWTS-DET1
100
AcDbVertex
100
AcDb2dVertex
 10
34.80425649069375
 20
22.17262218143657
 30
0.0
 70
     8
  0
VERTEX
  5
9AC
330
992
100
AcDbEntity
  8
R-SWTS-DET1
100
AcDbVertex
100
AcDb2dVertex
 10
34.77564016836769
 20
22.16928253201336
 30
0.0
 70
     8
  0
VERTEX
  5
9AD
330
992
100
AcDbEntity
  8
R-SWTS-DET1
100
AcDbVertex
100
AcDb2dVertex
 10
34.74283354786654
 20
22.16969217614447
 30
0.0
 70
     8
  0
VERTEX
  5
9AE
330
992
100
AcDbEntity
  8
R-SWTS-DET1
100
AcDbVertex
100
AcDb2dVertex
 10
34.70598256041022
 20
22.17189314919596
 30
0.0
 70
     8
  0
VERTEX
  5
9AF
330
992
100
AcDbEntity
  8
R-SWTS-DET1
100
AcDbVertex
100
AcDb2dVertex
 10
34.66537906809235
 20
22.173344263038
 30
0.0
 70
     8
  0
VERTEX
  5
9B0
330
992
100
AcDbEntity
  8
R-SWTS-DET1
100
AcDbVertex
100
AcDb2dVertex
 10
34.62131493300653
 20
22.17150432954077
 30
0.0
 70
     8
  0
VERTEX
  5
9B1
330
992
100
AcDbEntity
  8
R-SWTS-DET1
100
AcDbVertex
100
AcDb2dVertex
 10
34.5740820172464
 20
22.16383216057445
 30
0.0
 70
     8
  0
VERTEX
  5
9B2
330
992
100
AcDbEntity
  8
R-SWTS-DET1
100
AcDbVertex
100
AcDb2dVertex
 10
34.52397218290557
 20
22.14778656800921
 30
0.0
 70
     8
  0
VERTEX
  5
9B3
330
992
100
AcDbEntity
  8
R-SWTS-DET1
100
AcDbVertex
100
AcDb2dVertex
 10
34.47127729207764
 20
22.12082636371524
 30
0.0
 70
     8
  0
VERTEX
  5
9B4
330
992
100
AcDbEntity
  8
R-SWTS-DET1
100
AcDbVertex
100
AcDb2dVertex
 10
34.41628920685623
 20
22.0804103595627
 30
0.0
 70
     8
  0
VERTEX
  5
9B5
330
992
100
AcDbEntity
  8
R-SWTS-DET1
100
AcDbVertex
100
AcDb2dVertex
 10
35.12075928847258
 20
22.35769148092584
 30
0.0
 70
    16
  0
VERTEX
  5
9B6
330
992
100
AcDbEntity
  8
R-SWTS-DET1
100
AcDbVertex
100
AcDb2dVertex
 10
35.05671660652637
 20
22.20838627100738
 30
0.0
 70
    16
  0
VERTEX
  5
9B7
330
992
100
AcDbEntity
  8
R-SWTS-DET1
100
AcDbVertex
100
AcDb2dVertex
 10
34.92863114593261
 20
22.27237422672972
 30
0.0
 70
    16
  0
VERTEX
  5
9B8
330
992
100
AcDbEntity
  8
R-SWTS-DET1
100
AcDbVertex
100
AcDb2dVertex
 10
34.82189327822137
 20
22.12306901681125
 30
0.0
 70
    16
  0
VERTEX
  5
9B9
330
992
100
AcDbEntity
  8
R-SWTS-DET1
100
AcDbVertex
100
AcDb2dVertex
 10
34.56572226033251
 20
22.20838627100738
 30
0.0
 70
    16
  0
VERTEX
  5
9BA
330
992
100
AcDbEntity
  8
R-SWTS-DET1
100
AcDbVertex
100
AcDb2dVertex
 10
34.41628920685623
 20
22.0804103595627
 30
0.0
 70
    16
  0
SEQEND
  5
9BB
330
992
100
AcDbEntity
  8
R-SWTS-DET1
  0
POLYLINE
  5
9BC
330
1F
100
AcDbEntity
  8
R-SWTS-DET1
100
AcDb2dPolyline
 66
     1
 10
0.0
 20
0.0
 30
0.0
 70
     4
 75
     6
  0
VERTEX
  5
9BD
330
9BC
100
AcDbEntity
  8
R-SWTS-DET1
100
AcDbVertex
100
AcDb2dVertex
 10
35.43720221888259
 20
19.4871806374624
 30
0.0
 70
    16
  0
VERTEX
  5
9BE
330
9BC
100
AcDbEntity
  8
R-SWTS-DET1
100
AcDbVertex
100
AcDb2dVertex
 10
35.43720221888259
 20
19.4871806374624
 30
0.0
 70
     8
  0
VERTEX
  5
9BF
330
9BC
100
AcDbEntity
  8
R-SWTS-DET1
100
AcDbVertex
100
AcDb2dVertex
 10
35.34304987768474
 20
19.42391784522765
 30
0.0
 70
     8
  0
VERTEX
  5
9C0
330
9BC
100
AcDbEntity
  8
R-SWTS-DET1
100
AcDbVertex
100
AcDb2dVertex
 10
35.26459889822613
 20
19.38080434244843
 30
0.0
 70
     8
  0
VERTEX
  5
9C1
330
9BC
100
AcDbEntity
  8
R-SWTS-DET1
100
AcDbVertex
100
AcDb2dVertex
 10
35.19989213398364
 20
19.35436653301406
 30
0.0
 70
     8
  0
VERTEX
  5
9C2
330
9BC
100
AcDbEntity
  8
R-SWTS-DET1
100
AcDbVertex
100
AcDb2dVertex
 10
35.14697243843412
 20
19.34113082081386
 30
0.0
 70
     8
  0
VERTEX
  5
9C3
330
9BC
100
AcDbEntity
  8
R-SWTS-DET1
100
AcDbVertex
100
AcDb2dVertex
 10
35.10388266505443
 20
19.33762360973718
 30
0.0
 70
     8
  0
VERTEX
  5
9C4
330
9BC
100
AcDbEntity
  8
R-SWTS-DET1
100
AcDbVertex
100
AcDb2dVertex
 10
35.06866566732142
 20
19.34037130367334
 30
0.0
 70
     8
  0
VERTEX
  5
9C5
330
9BC
100
AcDbEntity
  8
R-SWTS-DET1
100
AcDbVertex
100
AcDb2dVertex
 10
35.03936429871196
 20
19.34590030651165
 30
0.0
 70
     8
  0
VERTEX
  5
9C6
330
9BC
100
AcDbEntity
  8
R-SWTS-DET1
100
AcDbVertex
100
AcDb2dVertex
 10
35.01402141270289
 20
19.35073702214147
 30
0.0
 70
     8
  0
VERTEX
  5
9C7
330
9BC
100
AcDbEntity
  8
R-SWTS-DET1
100
AcDbVertex
100
AcDb2dVertex
 10
34.99095046118422
 20
19.35213606461105
 30
0.0
 70
     8
  0
VERTEX
  5
9C8
330
9BC
100
AcDbEntity
  8
R-SWTS-DET1
100
AcDbVertex
100
AcDb2dVertex
 10
34.96954728969844
 20
19.35026488860441
 30
0.0
 70
     8
  0
VERTEX
  5
9C9
330
9BC
100
AcDbEntity
  8
R-SWTS-DET1
100
AcDbVertex
100
AcDb2dVertex
 10
34.94947834220121
 20
19.34601915896451
 30
0.0
 70
     8
  0
VERTEX
  5
9CA
330
9BC
100
AcDbEntity
  8
R-SWTS-DET1
100
AcDbVertex
100
AcDb2dVertex
 10
34.93041006264818
 20
19.34029454053431
 30
0.0
 70
     8
  0
VERTEX
  5
9CB
330
9BC
100
AcDbEntity
  8
R-SWTS-DET1
100
AcDbVertex
100
AcDb2dVertex
 10
34.91200889499499
 20
19.33398669815676
 30
0.0
 70
     8
  0
VERTEX
  5
9CC
330
9BC
100
AcDbEntity
  8
R-SWTS-DET1
100
AcDbVertex
100
AcDb2dVertex
 10
34.89394128319728
 20
19.32799129667483
 30
0.0
 70
     8
  0
VERTEX
  5
9CD
330
9BC
100
AcDbEntity
  8
R-SWTS-DET1
100
AcDbVertex
100
AcDb2dVertex
 10
34.8758736712107
 20
19.32320400093146
 30
0.0
 70
     8
  0
VERTEX
  5
9CE
330
9BC
100
AcDbEntity
  8
R-SWTS-DET1
100
AcDbVertex
100
AcDb2dVertex
 10
34.8574725029909
 20
19.32052047576962
 30
0.0
 70
     8
  0
VERTEX
  5
9CF
330
9BC
100
AcDbEntity
  8
R-SWTS-DET1
100
AcDbVertex
100
AcDb2dVertex
 10
34.8384250697994
 20
19.32055518896122
 30
0.0
 70
     8
  0
VERTEX
  5
9D0
330
9BC
100
AcDbEntity
  8
R-SWTS-DET1
100
AcDbVertex
100
AcDb2dVertex
 10
34.81850205212133
 20
19.32279781999399
 30
0.0
 70
     8
  0
VERTEX
  5
9D1
330
9BC
100
AcDbEntity
  8
R-SWTS-DET1
100
AcDbVertex
100
AcDb2dVertex
 10
34.79749497774767
 20
19.32645685128462
 30
0.0
 70
     8
  0
VERTEX
  5
9D2
330
9BC
100
AcDbEntity
  8
R-SWTS-DET1
100
AcDbVertex
100
AcDb2dVertex
 10
34.77519537446942
 20
19.33074076524978
 30
0.0
 70
     8
  0
VERTEX
  5
9D3
330
9BC
100
AcDbEntity
  8
R-SWTS-DET1
100
AcDbVertex
100
AcDb2dVertex
 10
34.75139477007758
 20
19.33485804430617
 30
0.0
 70
     8
  0
VERTEX
  5
9D4
330
9BC
100
AcDbEntity
  8
R-SWTS-DET1
100
AcDbVertex
100
AcDb2dVertex
 10
34.72588469236314
 20
19.33801717087046
 30
0.0
 70
     8
  0
VERTEX
  5
9D5
330
9BC
100
AcDbEntity
  8
R-SWTS-DET1
100
AcDbVertex
100
AcDb2dVertex
 10
34.69845666911709
 20
19.33942662735936
 30
0.0
 70
     8
  0
VERTEX
  5
9D6
330
9BC
100
AcDbEntity
  8
R-SWTS-DET1
100
AcDbVertex
100
AcDb2dVertex
 10
34.66890222813045
 20
19.33829489618952
 30
0.0
 70
     8
  0
VERTEX
  5
9D7
330
9BC
100
AcDbEntity
  8
R-SWTS-DET1
100
AcDbVertex
100
AcDb2dVertex
 10
34.63730475850085
 20
19.33411512836514
 30
0.0
 70
     8
  0
VERTEX
  5
9D8
330
9BC
100
AcDbEntity
  8
R-SWTS-DET1
100
AcDbVertex
100
AcDb2dVertex
 10
34.60491509455259
 20
19.32751914924027
 30
0.0
 70
     8
  0
VERTEX
  5
9D9
330
9BC
100
AcDbEntity
  8
R-SWTS-DET1
100
AcDbVertex
100
AcDb2dVertex
 10
34.5732759319166
 20
19.3194234527565
 30
0.0
 70
     8
  0
VERTEX
  5
9DA
330
9BC
100
AcDbEntity
  8
R-SWTS-DET1
100
AcDbVertex
100
AcDb2dVertex
 10
34.54392996622383
 20
19.31074453285536
 30
0.0
 70
     8
  0
VERTEX
  5
9DB
330
9BC
100
AcDbEntity
  8
R-SWTS-DET1
100
AcDbVertex
100
AcDb2dVertex
 10
34.51841989310523
 20
19.30239888347843
 30
0.0
 70
     8
  0
VERTEX
  5
9DC
330
9BC
100
AcDbEntity
  8
R-SWTS-DET1
100
AcDbVertex
100
AcDb2dVertex
 10
34.49828840819172
 20
19.29530299856726
 30
0.0
 70
     8
  0
VERTEX
  5
9DD
330
9BC
100
AcDbEntity
  8
R-SWTS-DET1
100
AcDbVertex
100
AcDb2dVertex
 10
34.48507820711426
 20
19.29037337206342
 30
0.0
 70
     8
  0
VERTEX
  5
9DE
330
9BC
100
AcDbEntity
  8
R-SWTS-DET1
100
AcDbVertex
100
AcDb2dVertex
 10
34.48033198550378
 20
19.28852649790846
 30
0.0
 70
     8
  0
VERTEX
  5
9DF
330
9BC
100
AcDbEntity
  8
R-SWTS-DET1
100
AcDbVertex
100
AcDb2dVertex
 10
35.16345447423761
 20
19.28852649790846
 30
0.0
 70
    16
  0
VERTEX
  5
9E0
330
9BC
100
AcDbEntity
  8
R-SWTS-DET1
100
AcDbVertex
100
AcDb2dVertex
 10
34.99267382787882
 20
19.39517311087934
 30
0.0
 70
    16
  0
VERTEX
  5
9E1
330
9BC
100
AcDbEntity
  8
R-SWTS-DET1
100
AcDbVertex
100
AcDb2dVertex
 10
34.86458836728507
 20
19.28852649790846
 30
0.0
 70
    16
  0
VERTEX
  5
9E2
330
9BC
100
AcDbEntity
  8
R-SWTS-DET1
100
AcDbVertex
100
AcDb2dVertex
 10
34.69380772092627
 20
19.37384375210458
 30
0.0
 70
    16
  0
VERTEX
  5
9E3
330
9BC
100
AcDbEntity
  8
R-SWTS-DET1
100
AcDbVertex
100
AcDb2dVertex
 10
34.48033198550378
 20
19.28852649790846
 30
0.0
 70
    16
  0
VERTEX
  5
9E4
330
9BC
100
AcDbEntity
  8
R-SWTS-DET1
100
AcDbVertex
100
AcDb2dVertex
 10
34.48033198550378
 20
19.28852649790846
 30
0.0
 70
    16
  0
SEQEND
  5
9E5
330
9BC
100
AcDbEntity
  8
R-SWTS-DET1
  0
LINE
  5
A11
330
1F
100
AcDbEntity
  8
0
100
AcDbLine
 10
-0.0000000467853027
 20
0.0000000196675174
 30
0.0
 11
54.52259448740081
 21
0.0000000196675174
 31
0.0
  0
MTEXT
  5
B14
102
{ACAD_XDICTIONARY
360
B15
102
}
330
1F
100
AcDbEntity
  8
TEXT
100
AcDbMText
 10
1.000000037613134
 20
2.000000019667517
 30
0.0
 40
0.375
 41
15.4571868900598
 71
     1
 72
     5
  1
ENGINEERING CHANGE:  97910-094 (MARCH 2017)\PFILE NAME:  KCDM010 SHEET 01 OF 04.DWG
 73
     1
 44
1.0
1001
ACAD
1000
ACAD_MTEXT_COLUMN_INFO_BEGIN
1070
    75
1070
     2
1070
    79
1070
     0
1070
    76
1070
     1
1070
    78
1070
     0
1070
    48
1040
15.4571868900598
1070
    49
1040
1.25
1070
    50
1070
     1
1040
0.0
1000
ACAD_MTEXT_COLUMN_INFO_END
1000
MTEXTBEGIN
1070
    73
1070
     1
1070
    44
1040
1.0
1070
    74
1070
     0
1000
MTEXTEND
  0
MTEXT
  5
E90
330
1F
100
AcDbEntity
  8
0
100
AcDbMText
 10
41.89106665705084
 20
13.31707824307635
 30
0.0
 40
0.25
 41
8.71038155808776
 71
     1
 72
     5
  3
1. MOUNT END CAP TO JAMB- USING   \P(2) 028790 ALLEN CAP SCREWS - REPEAT  \PFOR APPLYING CAP TO OPPOSITE JAMB.\P \P2. PLACE SAFETY RAIL OVER END CAP - DRIVE   028578 FLAT HEAD SCREW AT EACH END ON TOP. \P\P3. SLIP CAM LOCK PLATE INTO SLOT ON BOTTOM  
  1
 SIDE OF SAFETY RAIL- POSITION & TIGHTEN   028790 CAP SCREW-REPEAT OTHER END.
 73
     1
 44
1.0
1001
ACAD
1000
MTEXTBEGIN
1070
    73
1070
     1
1070
    44
1040
1.0
1070
    74
1070
     0
1000
MTEXTEND
  0
MTEXT
  5
E91
330
1F
100
AcDbEntity
  8
PART_NUMBERS
100
AcDbMText
 10
34.04008657149454
 20
17.79588193815067
 30
0.0
 40
0.25
 41
0.0
 71
     4
 72
     1
  1
JAMB \P(REF.)
 73
     1
 44
1.0
1001
ACAD
1000
MTEXTBEGIN
1070
    73
1070
     1
1070
    44
1040
1.0
1070
    74
1070
     0
1000
MTEXTEND
  0
MTEXT
  5
E92
330
1F
100
AcDbEntity
  8
PART_NUMBERS
100
AcDbMText
 10
34.04008657149454
 20
21.56245132346223
 30
0.0
 40
0.25
 41
0.0
 71
     4
 72
     1
  1
JAMB\P(REF.)
 73
     1
 44
1.0
1001
ACAD
1000
MTEXTBEGIN
1070
    73
1070
     1
1070
    44
1040
1.0
1070
    74
1070
     0
1000
MTEXTEND
  0
MTEXT
  5
ED2
330
1F
100
AcDbEntity
  8
0
100
AcDbMText
 10
16.48614094600631
 20
24.37500305628982
 30
0.0
 40
0.25
 41
8.867298296774364
 71
     1
 72
     5
  3
1. MOUNT ANCHOR STUDS TO SAFETY RAIL WITH   1/4-20 X 1 1/4" ALLEN CAP SCREW. \P\P2. INSERT (1) 1/4-20 X 1 1/4" ALLEN CAP SCREW   IN STAND-OFF BAR AS SHOWN. \P\P3. SLIDE STAND-OFF BAR OVER ANCHOR STUDS   AND TIGHTEN 1/4-20 X 5/16" SOC. HEAD SET SCREW.
  1
 \P\P4. INSERT END CAPS AND FASTEN WITH   #10 X 5/8" FLAT HEAD TYPE Z.
 73
     1
 44
1.0
1001
ACAD
1000
MTEXTBEGIN
1070
    73
1070
     1
1070
    44
1040
1.0
1070
    74
1070
     0
1000
MTEXTEND
  0
TEXT
  5
F90
330
1F
100
AcDbEntity
  8
R-ANNO-DIMS
100
AcDbText
 10
7.757175376118638
 20
17.71840299276155
 30
0.0
 40
0.25
  1
L
100
AcDbText
  0
TEXT
  5
F91
330
1F
100
AcDbEntity
  8
R-ANNO-DIMS
100
AcDbText
 10
7.67778734184661
 20
17.8603558083666
 30
0.0
 40
0.25
  1
C
100
AcDbText
  0
INSERT
  5
10AE
330
1F
100
AcDbEntity
  8
0
100
AcDbBlockReference
  2
Kawneer Logo English
 10
1.000000037613134
 20
2.500000019667517
 30
0.0
 41
5.337
 42
5.337
 43
5.337
  0
ENDSEC
  0
SECTION
  2
OBJECTS
  0
DICTIONARY
  5
C
330
0
100
AcDbDictionary
281
     1
  3
ACAD_CIP_PREVIOUS_PRODUCT_INFO
350
AEE
  3
ACAD_COLOR
350
73
  3
ACAD_FIELDLIST
350
B12
  3
ACAD_GROUP
350
D
  3
ACAD_LAYOUT
350
1A
  3
ACAD_MATERIAL
350
72
  3
ACAD_MLEADERSTYLE
350
A62
  3
ACAD_MLINESTYLE
350
17
  3
ACAD_PLOTSETTINGS
350
19
  3
ACAD_PLOTSTYLENAME
350
E
  3
ACAD_SCALELIST
350
A50
  3
ACAD_TABLESTYLE
350
A4E
  3
ACAD_VISUALSTYLE
350
A35
  3
ACDB_RECOMPOSE_DATA
350
1147
  3
AcDbVariableDictionary
350
66
  3
DWGPROPS
350
1148
  0
DICTIONARY
  5
AA6
330
8
100
AcDbDictionary
280
     1
281
     1
  0
DICTIONARY
  5
A83
330
2
100
AcDbDictionary
280
     1
281
     1
  3
ACAD_LAYERSTATES
360
A84
  0
DICTIONARY
  5
A93
330
10
100
AcDbDictionary
280
     1
281
     1
  3
ADSK_XREC_LAYER_RECONCILED
360
A94
  0
DICTIONARY
  5
A95
330
A5
100
AcDbDictionary
280
     1
281
     1
  3
ADSK_XREC_LAYER_RECONCILED
360
A96
  0
DICTIONARY
  5
A97
330
A6
100
AcDbDictionary
280
     1
281
     1
  3
ADSK_XREC_LAYER_RECONCILED
360
A98
  0
DICTIONARY
  5
A99
330
A7
100
AcDbDictionary
280
     1
281
     1
  3
ADSK_XREC_LAYER_RECONCILED
360
A9A
  0
DICTIONARY
  5
A9B
330
A8
100
AcDbDictionary
280
     1
281
     1
  3
ADSK_XREC_LAYER_RECONCILED
360
A9C
  0
DICTIONARY
  5
A9D
330
A9
100
AcDbDictionary
280
     1
281
     1
  3
ADSK_XREC_LAYER_RECONCILED
360
A9E
  0
DICTIONARY
  5
A9F
330
AA
100
AcDbDictionary
280
     1
281
     1
  3
ADSK_XREC_LAYER_RECONCILED
360
AA0
  0
DICTIONARY
  5
B03
330
B02
100
AcDbDictionary
280
     1
281
     1
  0
DICTIONARY
  5
10AA
330
10A0
100
AcDbDictionary
280
     1
281
     1
  3
ACAD_SORTENTS
360
10AB
  0
DICTIONARY
  5
1145
330
10A1
100
AcDbDictionary
280
     1
281
     1
  3
ACAD_MTEXT_2008_RT
360
1146
  0
DICTIONARY
  5
B15
330
B14
100
AcDbDictionary
280
     1
281
     1
  0
XRECORD
  5
AEE
102
{ACAD_REACTORS
330
C
102
}
330
C
100
AcDbXrecord
280
     1
300
ACD
300
2012
300
85730ACD_2012_0F
  0
DICTIONARY
  5
73
102
{ACAD_REACTORS
330
C
102
}
330
C
100
AcDbDictionary
281
     1
  0
FIELDLIST
  5
B12
102
{ACAD_REACTORS
330
C
102
}
330
C
100
AcDbIdSet
 90
        0
100
AcDbFieldList
  0
DICTIONARY
  5
D
102
{ACAD_REACTORS
330
C
102
}
330
C
100
AcDbDictionary
281
     1
  0
DICTIONARY
  5
1A
102
{ACAD_REACTORS
330
C
102
}
330
C
100
AcDbDictionary
281
     1
  3
Layout1
350
59
  3
Layout2
350
5E
  3
Model
350
22
  0
DICTIONARY
  5
72
102
{ACAD_REACTORS
330
C
102
}
330
C
100
AcDbDictionary
281
     1
  3
ByBlock
350
A25
  3
ByLayer
350
A1D
  3
Global
350
A2D
  0
DICTIONARY
  5
A62
102
{ACAD_REACTORS
330
C
102
}
330
C
100
AcDbDictionary
281
     1
  3
Standard
350
A63
  0
DICTIONARY
  5
17
102
{ACAD_REACTORS
330
C
102
}
330
C
100
AcDbDictionary
281
     1
  3
Standard
350
18
  0
DICTIONARY
  5
19
102
{ACAD_REACTORS
330
C
102
}
330
C
100
AcDbDictionary
281
     1
  0
ACDBDICTIONARYWDFLT
  5
E
102
{ACAD_REACTORS
330
C
102
}
330
C
100
AcDbDictionary
281
     1
  3
Normal
350
F
100
AcDbDictionaryWithDefault
340
F
  0
DICTIONARY
  5
A50
102
{ACAD_REACTORS
330
C
102
}
330
C
100
AcDbDictionary
281
     1
  3
A0
350
A51
  3
A1
350
107E
  3
A2
350
107F
  3
A3
350
1080
  3
A4
350
1081
  3
A5
350
1082
  3
A6
350
1083
  3
A7
350
1084
  3
A8
350
1085
  3
A9
350
1086
  3
B0
350
1087
  3
B1
350
1088
  3
B2
350
1089
  3
B3
350
108A
  3
B4
350
108B
  3
B5
350
108C
  3
B6
350
108D
  0
DICTIONARY
  5
A4E
102
{ACAD_REACTORS
330
C
102
}
330
C
100
AcDbDictionary
281
     1
  3
Standard
350
A4F
  0
DICTIONARY
  5
A35
102
{ACAD_REACTORS
330
C
102
}
330
C
100
AcDbDictionary
281
     1
  3
2dWireframe
350
A3B
  3
3D Hidden
350
109E
  3
3dWireframe
350
109F
  3
Basic
350
A3A
  3
Brighten
350
A41
  3
ColorChange
350
A45
  3
Conceptual
350
A3E
  3
Dim
350
A40
  3
EdgeColorOff
350
A4D
  3
Facepattern
350
A44
  3
Flat
350
A36
  3
FlatWithEdges
350
A37
  3
Gouraud
350
A38
  3
GouraudWithEdges
350
A39
  3
Hidden
350
A3D
  3
JitterOff
350
A4B
  3
Linepattern
350
A43
  3
OverhangOff
350
A4C
  3
Realistic
350
A3F
  3
Shaded
350
A4A
  3
Shaded with edges
350
A49
  3
Shades of Gray
350
A46
  3
Sketchy
350
A47
  3
Thicken
350
A42
  3
Wireframe
350
A3C
  3
X-Ray
350
A48
  0
XRECORD
  5
1147
102
{ACAD_REACTORS
330
C
102
}
330
C
100
AcDbXrecord
280
     1
 90
        1
330
A4F
330
B14
330
10A1
  0
DICTIONARY
  5
66
102
{ACAD_REACTORS
330
C
102
}
330
C
100
AcDbDictionary
281
     1
  3
CANNOSCALE
350
AE5
  3
CMLEADERSTYLE
350
AE4
  3
CTABLESTYLE
350
AE3
  3
DIMASSOC
350
67
  3
HIDETEXT
350
6B
  3
INDEXCTL
350
AE7
  3
LAYEREVAL
350
1072
  3
LAYERNOTIFY
350
1073
  3
LIGHTINGUNITS
350
1071
  3
MSLTSCALE
350
1070
  3
PROJECTNAME
350
6A1
  3
SORTENTS
350
AE6
  3
XCLIPFRAME
350
1143
  0
XRECORD
  5
1148
102
{ACAD_REACTORS
330
C
102
}
330
C
100
AcDbXrecord
280
     1
  1
DWGPROPS COOKIE
  2

  3

  4

  6

  7

  8
quadiss
  9

300
=
301
=
302
=
303
=
304
=
305
=
306
=
307
=
308
=
309
=
 40
0.0753164583333334
 41
2453567.586148889
 42
2457807.532916759
  1

 90
        0
  0
DICTIONARY
  5
A84
102
{ACAD_REACTORS
330
A83
102
}
330
A83
100
AcDbDictionary
281
     1
  0
XRECORD
  5
A94
102
{ACAD_REACTORS
330
A93
102
}
330
A93
100
AcDbXrecord
280
     1
290
     1
  0
XRECORD
  5
A96
102
{ACAD_REACTORS
330
A95
102
}
330
A95
100
AcDbXrecord
280
     1
290
     1
  0
XRECORD
  5
A98
102
{ACAD_REACTORS
330
A97
102
}
330
A97
100
AcDbXrecord
280
     1
290
     1
  0
XRECORD
  5
A9A
102
{ACAD_REACTORS
330
A99
102
}
330
A99
100
AcDbXrecord
280
     1
290
     1
  0
XRECORD
  5
A9C
102
{ACAD_REACTORS
330
A9B
102
}
330
A9B
100
AcDbXrecord
280
     1
290
     1
  0
XRECORD
  5
A9E
102
{ACAD_REACTORS
330
A9D
102
}
330
A9D
100
AcDbXrecord
280
     1
290
     1
  0
XRECORD
  5
AA0
102
{ACAD_REACTORS
330
A9F
102
}
330
A9F
100
AcDbXrecord
280
     1
290
     1
  0
SORTENTSTABLE
  5
10AB
102
{ACAD_REACTORS
330
10AA
102
}
330
10AA
100
AcDbSortentsTable
330
10A0
  0
XRECORD
  5
1146
102
{ACAD_REACTORS
330
1145
102
}
330
1145
100
AcDbXrecord
280
     1
 40
102645.0
  1
\pxqr;{\fArial TUR|b0|i0|c0|p34;\T1.05;AN ARCONIC COMPANY}
  0
LAYOUT
  5
59
102
{ACAD_XDICTIONARY
360
114B
102
}
102
{ACAD_REACTORS
330
1A
102
}
330
1A
100
AcDbPlotSettings
  1

  2
None
  4

  6

 40
0.0
 41
0.0
 42
0.0
 43
0.0
 44
0.0
 45
0.0
 46
0.0
 47
0.0
 48
0.0
 49
0.0
140
0.0
141
0.0
142
1.0
143
1.0
 70
   688
 72
     0
 73
     0
 74
     5
  7

 75
    16
147
1.0
148
0.0
149
0.0
100
AcDbLayout
  1
Layout1
 70
     1
 71
     1
 10
0.0
 20
0.0
 11
12.0
 21
9.0
 12
0.0
 22
0.0
 32
0.0
 14
0.0
 24
0.0
 34
0.0
 15
0.0
 25
0.0
 35
0.0
146
0.0
 13
0.0
 23
0.0
 33
0.0
 16
1.0
 26
0.0
 36
0.0
 17
0.0
 27
1.0
 37
0.0
 76
     0
330
58
  0
LAYOUT
  5
5E
102
{ACAD_XDICTIONARY
360
114D
102
}
102
{ACAD_REACTORS
330
1A
102
}
330
1A
100
AcDbPlotSettings
  1

  2
None
  4

  6

 40
0.0
 41
0.0
 42
0.0
 43
0.0
 44
0.0
 45
0.0
 46
0.0
 47
0.0
 48
0.0
 49
0.0
140
0.0
141
0.0
142
1.0
143
1.0
 70
   688
 72
     0
 73
     0
 74
     5
  7

 75
    16
147
1.0
148
0.0
149
0.0
100
AcDbLayout
  1
Layout2
 70
     1
 71
     2
 10
0.0
 20
0.0
 11
12.0
 21
9.0
 12
0.0
 22
0.0
 32
0.0
 14
0.0
 24
0.0
 34
0.0
 15
0.0
 25
0.0
 35
0.0
146
0.0
 13
0.0
 23
0.0
 33
0.0
 16
1.0
 26
0.0
 36
0.0
 17
0.0
 27
1.0
 37
0.0
 76
     0
330
5D
  0
LAYOUT
  5
22
102
{ACAD_XDICTIONARY
360
1149
102
}
102
{ACAD_REACTORS
330
1A
102
}
330
1A
100
AcDbPlotSettings
  1

  2
none_device
  4
ANSI_A_(8.50_x_11.00_Inches)
  6

 40
6.349999904632568
 41
19.04999923706055
 42
6.350006103515625
 43
19.04998779296875
 44
215.8999938964844
 45
279.3999938964844
 46
0.0
 47
0.0
 48
0.0
 49
0.0
140
0.0
141
0.0
142
1.0
143
2.584895464708373
 70
 11952
 72
     0
 73
     1
 74
     0
  7

 75
     0
147
0.3868628397755418
148
0.0
149
0.0
100
AcDbLayout
  1
Model
 70
     1
 71
     0
 10
0.0
 20
0.0
 11
12.0
 21
9.0
 12
0.0
 22
0.0
 32
0.0
 14
0.0
 24
0.0
 34
0.0
 15
0.0
 25
0.0
 35
0.0
146
0.0
 13
0.0
 23
0.0
 33
0.0
 16
1.0
 26
0.0
 36
0.0
 17
0.0
 27
1.0
 37
0.0
 76
     0
330
1F
331
A12
  0
MATERIAL
  5
A25
102
{ACAD_XDICTIONARY
360
A26
102
}
102
{ACAD_REACTORS
330
72
102
}
330
72
100
AcDbMaterial
  1
ByBlock
 72
     0
 43
0.0208333333333333
 43
0.0
 43
0.0
 43
0.0
 43
0.0
 43
0.0208333333333333
 43
0.0
 43
0.0
 43
0.0
 43
0.0
 43
1.0
 43
0.0
 43
0.0
 43
0.0
 43
0.0
 43
1.0
 77
     0
 47
0.0208333333333333
 47
0.0
 47
0.0
 47
0.0
 47
0.0
 47
0.0208333333333333
 47
0.0
 47
0.0
 47
0.0
 47
0.0
 47
1.0
 47
0.0
 47
0.0
 47
0.0
 47
0.0
 47
1.0
171
     0
 49
0.0208333333333333
 49
0.0
 49
0.0
 49
0.0
 49
0.0
 49
0.0208333333333333
 49
0.0
 49
0.0
 49
0.0
 49
0.0
 49
1.0
 49
0.0
 49
0.0
 49
0.0
 49
0.0
 49
1.0
175
     0
142
0.0208333333333333
142
0.0
142
0.0
142
0.0
142
0.0
142
0.0208333333333333
142
0.0
142
0.0
142
0.0
142
0.0
142
1.0
142
0.0
142
0.0
142
0.0
142
0.0
142
1.0
179
     0
144
0.0208333333333333
144
0.0
144
0.0
144
0.0
144
0.0
144
0.0208333333333333
144
0.0
144
0.0
144
0.0
144
0.0
144
1.0
144
0.0
144
0.0
144
0.0
144
0.0
144
1.0
147
0.0208333333333333
147
0.0
147
0.0
147
0.0
147
0.0
147
0.0208333333333333
147
0.0
147
0.0
147
0.0
147
0.0
147
1.0
147
0.0
147
0.0
147
0.0
147
0.0
147
1.0
  0
MATERIAL
  5
A1D
102
{ACAD_XDICTIONARY
360
A1E
102
}
102
{ACAD_REACTORS
330
72
102
}
330
72
100
AcDbMaterial
  1
ByLayer
 72
     0
 43
0.0208333333333333
 43
0.0
 43
0.0
 43
0.0
 43
0.0
 43
0.0208333333333333
 43
0.0
 43
0.0
 43
0.0
 43
0.0
 43
1.0
 43
0.0
 43
0.0
 43
0.0
 43
0.0
 43
1.0
 77
     0
 47
0.0208333333333333
 47
0.0
 47
0.0
 47
0.0
 47
0.0
 47
0.0208333333333333
 47
0.0
 47
0.0
 47
0.0
 47
0.0
 47
1.0
 47
0.0
 47
0.0
 47
0.0
 47
0.0
 47
1.0
171
     0
 49
0.0208333333333333
 49
0.0
 49
0.0
 49
0.0
 49
0.0
 49
0.0208333333333333
 49
0.0
 49
0.0
 49
0.0
 49
0.0
 49
1.0
 49
0.0
 49
0.0
 49
0.0
 49
0.0
 49
1.0
175
     0
142
0.0208333333333333
142
0.0
142
0.0
142
0.0
142
0.0
142
0.0208333333333333
142
0.0
142
0.0
142
0.0
142
0.0
142
1.0
142
0.0
142
0.0
142
0.0
142
0.0
142
1.0
179
     0
144
0.0208333333333333
144
0.0
144
0.0
144
0.0
144
0.0
144
0.0208333333333333
144
0.0
144
0.0
144
0.0
144
0.0
144
1.0
144
0.0
144
0.0
144
0.0
144
0.0
144
1.0
147
0.0208333333333333
147
0.0
147
0.0
147
0.0
147
0.0
147
0.0208333333333333
147
0.0
147
0.0
147
0.0
147
0.0
147
1.0
147
0.0
147
0.0
147
0.0
147
0.0
147
1.0
  0
MATERIAL
  5
A2D
102
{ACAD_XDICTIONARY
360
A2E
102
}
102
{ACAD_REACTORS
330
72
102
}
330
72
100
AcDbMaterial
  1
Global
 72
     0
 43
0.0208333333333333
 43
0.0
 43
0.0
 43
0.0
 43
0.0
 43
0.0208333333333333
 43
0.0
 43
0.0
 43
0.0
 43
0.0
 43
1.0
 43
0.0
 43
0.0
 43
0.0
 43
0.0
 43
1.0
 77
     0
 47
0.0208333333333333
 47
0.0
 47
0.0
 47
0.0
 47
0.0
 47
0.0208333333333333
 47
0.0
 47
0.0
 47
0.0
 47
0.0
 47
1.0
 47
0.0
 47
0.0
 47
0.0
 47
0.0
 47
1.0
171
     0
 49
0.0208333333333333
 49
0.0
 49
0.0
 49
0.0
 49
0.0
 49
0.0208333333333333
 49
0.0
 49
0.0
 49
0.0
 49
0.0
 49
1.0
 49
0.0
 49
0.0
 49
0.0
 49
0.0
 49
1.0
175
     0
142
0.0208333333333333
142
0.0
142
0.0
142
0.0
142
0.0
142
0.0208333333333333
142
0.0
142
0.0
142
0.0
142
0.0
142
1.0
142
0.0
142
0.0
142
0.0
142
0.0
142
1.0
179
     0
144
0.0208333333333333
144
0.0
144
0.0
144
0.0
144
0.0
144
0.0208333333333333
144
0.0
144
0.0
144
0.0
144
0.0
144
1.0
144
0.0
144
0.0
144
0.0
144
0.0
144
1.0
147
0.0208333333333333
147
0.0
147
0.0
147
0.0
147
0.0
147
0.0208333333333333
147
0.0
147
0.0
147
0.0
147
0.0
147
1.0
147
0.0
147
0.0
147
0.0
147
0.0
147
1.0
  0
MLEADERSTYLE
  5
A63
102
{ACAD_REACTORS
330
A62
102
}
330
A62
100
AcDbMLeaderStyle
170
     2
171
     1
172
     0
 90
        2
 40
0.0
 41
0.0
173
     1
 91
-1056964608
340
14
 92
       -2
290
     1
 42
0.09
291
     1
 43
0.36
  3
Standard
 44
0.18
300

342
11
174
     1
178
     6
175
     1
176
     0
 93
-1056964608
 45
0.18
292
     0
297
     0
 46
0.18
 94
-1056964608
 47
1.0
 49
1.0
140
1.0
293
     1
141
0.0
294
     1
177
     0
142
1.0
295
     0
296
     0
143
0.125
1001
ACAD_MLEADERVER
1070
     2
  0
MLINESTYLE
  5
18
102
{ACAD_REACTORS
330
17
102
}
330
17
100
AcDbMlineStyle
  2
STANDARD
 70
     0
  3

 62
   256
 51
90.0
 52
90.0
 71
     2
 49
0.5
 62
   256
  6
BYLAYER
 49
-0.5
 62
   256
  6
BYLAYER
  0
ACDBPLACEHOLDER
  5
F
102
{ACAD_REACTORS
330
E
102
}
330
E
  0
SCALE
  5
A51
102
{ACAD_REACTORS
330
A50
102
}
330
A50
100
AcDbScale
 70
     0
300
1:1
140
1.0
141
1.0
290
     1
  0
SCALE
  5
107E
102
{ACAD_REACTORS
330
A50
102
}
330
A50
100
AcDbScale
 70
     0
300
1/128" = 1'-0"
140
0.0078125
141
12.0
290
     0
  0
SCALE
  5
107F
102
{ACAD_REACTORS
330
A50
102
}
330
A50
100
AcDbScale
 70
     0
300
1/64" = 1'-0"
140
0.015625
141
12.0
290
     0
  0
SCALE
  5
1080
102
{ACAD_REACTORS
330
A50
102
}
330
A50
100
AcDbScale
 70
     0
300
1/32" = 1'-0"
140
0.03125
141
12.0
290
     0
  0
SCALE
  5
1081
102
{ACAD_REACTORS
330
A50
102
}
330
A50
100
AcDbScale
 70
     0
300
1/16" = 1'-0"
140
0.0625
141
12.0
290
     0
  0
SCALE
  5
1082
102
{ACAD_REACTORS
330
A50
102
}
330
A50
100
AcDbScale
 70
     0
300
3/32" = 1'-0"
140
0.09375
141
12.0
290
     0
  0
SCALE
  5
1083
102
{ACAD_REACTORS
330
A50
102
}
330
A50
100
AcDbScale
 70
     0
300
1/8" = 1'-0"
140
0.125
141
12.0
290
     0
  0
SCALE
  5
1084
102
{ACAD_REACTORS
330
A50
102
}
330
A50
100
AcDbScale
 70
     0
300
3/16" = 1'-0"
140
0.1875
141
12.0
290
     0
  0
SCALE
  5
1085
102
{ACAD_REACTORS
330
A50
102
}
330
A50
100
AcDbScale
 70
     0
300
1/4" = 1'-0"
140
0.25
141
12.0
290
     0
  0
SCALE
  5
1086
102
{ACAD_REACTORS
330
A50
102
}
330
A50
100
AcDbScale
 70
     0
300
3/8" = 1'-0"
140
0.375
141
12.0
290
     0
  0
SCALE
  5
1087
102
{ACAD_REACTORS
330
A50
102
}
330
A50
100
AcDbScale
 70
     0
300
1/2" = 1'-0"
140
0.5
141
12.0
290
     0
  0
SCALE
  5
1088
102
{ACAD_REACTORS
330
A50
102
}
330
A50
100
AcDbScale
 70
     0
300
3/4" = 1'-0"
140
0.75
141
12.0
290
     0
  0
SCALE
  5
1089
102
{ACAD_REACTORS
330
A50
102
}
330
A50
100
AcDbScale
 70
     0
300
1" = 1'-0"
140
1.0
141
12.0
290
     0
  0
SCALE
  5
108A
102
{ACAD_REACTORS
330
A50
102
}
330
A50
100
AcDbScale
 70
     0
300
1-1/2" = 1'-0"
140
1.5
141
12.0
290
     0
  0
SCALE
  5
108B
102
{ACAD_REACTORS
330
A50
102
}
330
A50
100
AcDbScale
 70
     0
300
3" = 1'-0"
140
3.0
141
12.0
290
     0
  0
SCALE
  5
108C
102
{ACAD_REACTORS
330
A50
102
}
330
A50
100
AcDbScale
 70
     0
300
6" = 1'-0"
140
6.0
141
12.0
290
     0
  0
SCALE
  5
108D
102
{ACAD_REACTORS
330
A50
102
}
330
A50
100
AcDbScale
 70
     0
300
1'-0" = 1'-0"
140
12.0
141
12.0
290
     0
  0
TABLESTYLE
  5
A4F
102
{ACAD_XDICTIONARY
360
AA2
102
}
102
{ACAD_REACTORS
330
A4E
102
}
330
A4E
100
AcDbTableStyle
  3
Standard
 70
     0
 71
     0
 40
0.06
 41
0.06
280
     0
281
     0
  7
Standard
140
0.18
170
     2
 62
     0
 63
     7
283
     0
274
    -2
284
     1
 64
     0
275
    -2
285
     1
 65
     0
276
    -2
286
     1
 66
     0
277
    -2
287
     1
 67
     0
278
    -2
288
     1
 68
     0
279
    -2
289
     1
 69
     0
  7
Standard
140
0.25
170
     5
 62
     0
 63
     7
283
     0
274
    -2
284
     1
 64
     0
275
    -2
285
     1
 65
     0
276
    -2
286
     1
 66
     0
277
    -2
287
     1
 67
     0
278
    -2
288
     1
 68
     0
279
    -2
289
     1
 69
     0
  7
Standard
140
0.18
170
     5
 62
     0
 63
     7
283
     0
274
    -2
284
     1
 64
     0
275
    -2
285
     1
 65
     0
276
    -2
286
     1
 66
     0
277
    -2
287
     1
 67
     0
278
    -2
288
     1
 68
     0
279
    -2
289
     1
 69
     0
  0
VISUALSTYLE
  5
A3B
102
{ACAD_XDICTIONARY
360
115C
102
}
102
{ACAD_REACTORS
330
A35
102
}
330
A35
100
AcDbVisualStyle
  2
2dWireframe
 70
     4
 71
     0
 72
     2
 73
     0
 90
        0
 40
-0.6
 41
-30.0
 62
     5
 63
     7
 74
     1
 91
        4
 64
     7
 65
   257
 75
     1
175
     1
 42
1.0
 92
        0
 66
   257
 43
1.0
 76
     1
 77
     6
 78
     2
 67
     7
 79
     5
170
     0
171
     0
290
     0
174
     0
 93
        1
 44
0.0
173
     0
291
     0
 45
0.0
1001
ACAD
1000
AcDbSavedByObjectVersion
1070
     0
  0
VISUALSTYLE
  5
109E
102
{ACAD_XDICTIONARY
360
1183
102
}
102
{ACAD_REACTORS
330
A35
102
}
330
A35
100
AcDbVisualStyle
  2
3D Hidden
 70
     6
 71
     1
 72
     2
 73
     2
 90
        0
 40
-0.6
 41
-30.0
 62
     5
 63
     7
 74
     2
 91
        2
 64
     7
 65
   257
 75
     2
175
     1
 42
40.0
 92
        0
 66
   257
 43
1.0
 76
     1
 77
     6
 78
     2
 67
     7
 79
     3
170
     0
171
     0
290
     0
174
     0
 93
        1
 44
0.0
173
     0
291
     0
 45
0.0
1001
ACAD
1000
AcDbSavedByObjectVersion
1070
     0
  0
VISUALSTYLE
  5
109F
102
{ACAD_XDICTIONARY
360
1185
102
}
102
{ACAD_REACTORS
330
A35
102
}
330
A35
100
AcDbVisualStyle
  2
3dWireframe
 70
     5
 71
     0
 72
     2
 73
     0
 90
        0
 40
-0.6
 41
-30.0
 62
     5
 63
     7
 74
     1
 91
        4
 64
     7
 65
   257
 75
     1
175
     1
 42
1.0
 92
        0
 66
   257
 43
1.0
 76
     1
 77
     6
 78
     2
 67
     7
 79
     5
170
     0
171
     0
290
     0
174
     0
 93
        1
 44
0.0
173
     0
291
     0
 45
0.0
1001
ACAD
1000
AcDbSavedByObjectVersion
1070
     0
  0
VISUALSTYLE
  5
A3A
102
{ACAD_XDICTIONARY
360
115A
102
}
102
{ACAD_REACTORS
330
A35
102
}
330
A35
100
AcDbVisualStyle
  2
Basic
 70
     7
 71
     1
 72
     0
 73
     1
 90
        0
 40
-0.6
 41
-30.0
 62
     5
 63
     7
 74
     0
 91
        4
 64
     7
 65
   257
 75
     1
175
     1
 42
1.0
 92
        8
 66
     7
 43
1.0
 76
     1
 77
     6
 78
     2
 67
     7
 79
     5
170
     0
171
     0
290
     0
174
     0
 93
        1
 44
0.0
173
     0
291
     1
 45
0.0
1001
ACAD
1000
AcDbSavedByObjectVersion
1070
     0
  0
VISUALSTYLE
  5
A41
102
{ACAD_XDICTIONARY
360
1168
102
}
102
{ACAD_REACTORS
330
A35
102
}
330
A35
100
AcDbVisualStyle
  2
Brighten
 70
    12
 71
     2
 72
     2
 73
     0
 90
        0
 40
-0.6
 41
-30.0
 62
     5
 63
     7
 74
     1
 91
        4
 64
     7
 65
   257
 75
     1
175
     1
 42
1.0
 92
        8
 66
     7
 43
1.0
 76
     1
 77
     6
 78
     2
 67
     7
 79
     5
170
     0
171
     0
290
     0
174
     0
 93
        1
 44
50.0
173
     0
291
     1
 45
0.0
1001
ACAD
1000
AcDbSavedByObjectVersion
1070
     0
  0
VISUALSTYLE
  5
A45
102
{ACAD_XDICTIONARY
360
1170
102
}
102
{ACAD_REACTORS
330
A35
102
}
330
A35
100
AcDbVisualStyle
  2
ColorChange
 70
    16
 71
     2
 72
     2
 73
     3
 90
        0
 40
-0.6
 41
-30.0
 62
     5
 63
     8
 74
     1
 91
        4
 64
     7
 65
   257
 75
     1
175
     1
 42
1.0
 92
        8
 66
     8
 43
1.0
 76
     1
 77
     6
 78
     2
 67
     7
 79
     5
170
     0
171
     0
290
     0
174
     0
 93
        1
 44
0.0
173
     0
291
     1
 45
0.0
1001
ACAD
1000
AcDbSavedByObjectVersion
1070
     0
  0
VISUALSTYLE
  5
A3E
102
{ACAD_XDICTIONARY
360
1162
102
}
102
{ACAD_REACTORS
330
A35
102
}
330
A35
100
AcDbVisualStyle
  2
Conceptual
 70
     9
 71
     3
 72
     2
 73
     0
 90
        0
 40
-0.6
 41
-30.0
 62
     5
 63
     7
 74
     2
 91
        2
 64
     7
 65
   257
 75
     1
175
     1
 42
179.0
 92
        8
 66
     7
 43
1.0
 76
     1
 77
     6
 78
     2
 67
     7
 79
     3
170
     0
171
     0
290
     0
174
     0
 93
        1
 44
0.0
173
     0
291
     0
 45
0.0
1001
ACAD
1000
AcDbSavedByObjectVersion
1070
     0
  0
VISUALSTYLE
  5
A40
102
{ACAD_XDICTIONARY
360
1166
102
}
102
{ACAD_REACTORS
330
A35
102
}
330
A35
100
AcDbVisualStyle
  2
Dim
 70
    11
 71
     2
 72
     2
 73
     0
 90
        0
 40
-0.6
 41
-30.0
 62
     5
 63
     7
 74
     1
 91
        4
 64
     7
 65
   257
 75
     1
175
     1
 42
1.0
 92
        8
 66
     7
 43
1.0
 76
     1
 77
     6
 78
     2
 67
     7
 79
     5
170
     0
171
     0
290
     0
174
     0
 93
        1
 44
-50.0
173
     0
291
     1
 45
0.0
1001
ACAD
1000
AcDbSavedByObjectVersion
1070
     0
  0
VISUALSTYLE
  5
A4D
102
{ACAD_XDICTIONARY
360
1180
102
}
102
{ACAD_REACTORS
330
A35
102
}
330
A35
100
AcDbVisualStyle
  2
EdgeColorOff
 70
    22
 71
     2
 72
     2
 73
     0
 90
        0
 40
-0.6
 41
-30.0
 62
     5
 63
     7
 74
     1
 91
        4
 64
     7
 65
   257
 75
     1
175
     1
 42
1.0
 92
        8
 66
     7
 43
1.0
 76
     1
 77
     6
 78
     2
 67
     7
 79
     5
170
     0
171
     0
290
     0
174
     0
 93
        1
 44
0.0
173
     0
291
     1
 45
0.0
1001
ACAD
1000
AcDbSavedByObjectVersion
1070
     0
  0
VISUALSTYLE
  5
A44
102
{ACAD_XDICTIONARY
360
116E
102
}
102
{ACAD_REACTORS
330
A35
102
}
330
A35
100
AcDbVisualStyle
  2
Facepattern
 70
    15
 71
     2
 72
     2
 73
     0
 90
        0
 40
-0.6
 41
-30.0
 62
     5
 63
     7
 74
     1
 91
        4
 64
     7
 65
   257
 75
     1
175
     1
 42
1.0
 92
        8
 66
     7
 43
1.0
 76
     1
 77
     6
 78
     2
 67
     7
 79
     5
170
     0
171
     0
290
     0
174
     0
 93
        1
 44
0.0
173
     0
291
     1
 45
0.0
1001
ACAD
1000
AcDbSavedByObjectVersion
1070
     0
  0
VISUALSTYLE
  5
A36
102
{ACAD_XDICTIONARY
360
1152
102
}
102
{ACAD_REACTORS
330
A35
102
}
330
A35
100
AcDbVisualStyle
  2
Flat
 70
     0
 71
     2
 72
     1
 73
     1
 90
        2
 40
-0.6
 41
30.0
 62
     5
 63
     7
 74
     0
 91
        0
 64
     7
 65
   257
 75
     1
175
     1
 42
1.0
 92
        8
 66
     7
 43
1.0
 76
     1
 77
     6
 78
     2
 67
     7
 79
     5
170
     0
171
     0
290
     0
174
     0
 93
       13
 44
0.0
173
     0
291
     1
 45
0.0
1001
ACAD
1000
AcDbSavedByObjectVersion
1070
     0
  0
VISUALSTYLE
  5
A37
102
{ACAD_XDICTIONARY
360
1154
102
}
102
{ACAD_REACTORS
330
A35
102
}
330
A35
100
AcDbVisualStyle
  2
FlatWithEdges
 70
     1
 71
     2
 72
     1
 73
     1
 90
        2
 40
-0.6
 41
30.0
 62
     5
 63
     7
 74
     1
 91
        0
 64
     7
 65
   257
 75
     1
175
     1
 42
1.0
 92
        0
 66
   257
 43
1.0
 76
     1
 77
     6
 78
     2
 67
     7
 79
     5
170
     0
171
     0
290
     0
174
     0
 93
       13
 44
0.0
173
     0
291
     1
 45
0.0
1001
ACAD
1000
AcDbSavedByObjectVersion
1070
     0
  0
VISUALSTYLE
  5
A38
102
{ACAD_XDICTIONARY
360
1156
102
}
102
{ACAD_REACTORS
330
A35
102
}
330
A35
100
AcDbVisualStyle
  2
Gouraud
 70
     2
 71
     2
 72
     2
 73
     1
 90
        2
 40
-0.6
 41
30.0
 62
     5
 63
     7
 74
     0
 91
        0
 64
     7
 65
   257
 75
     1
175
     1
 42
1.0
 92
        0
 66
     7
 43
1.0
 76
     1
 77
     6
 78
     2
 67
     7
 79
     5
170
     0
171
     0
290
     0
174
     0
 93
       13
 44
0.0
173
     0
291
     1
 45
0.0
1001
ACAD
1000
AcDbSavedByObjectVersion
1070
     0
  0
VISUALSTYLE
  5
A39
102
{ACAD_XDICTIONARY
360
1158
102
}
102
{ACAD_REACTORS
330
A35
102
}
330
A35
100
AcDbVisualStyle
  2
GouraudWithEdges
 70
     3
 71
     2
 72
     2
 73
     1
 90
        2
 40
-0.6
 41
30.0
 62
     5
 63
     7
 74
     1
 91
        0
 64
     7
 65
   257
 75
     1
175
     1
 42
1.0
 92
        0
 66
   257
 43
1.0
 76
     1
 77
     6
 78
     2
 67
     7
 79
     5
170
     0
171
     0
290
     0
174
     0
 93
       13
 44
0.0
173
     0
291
     1
 45
0.0
1001
ACAD
1000
AcDbSavedByObjectVersion
1070
     0
  0
VISUALSTYLE
  5
A3D
102
{ACAD_XDICTIONARY
360
1160
102
}
102
{ACAD_REACTORS
330
A35
102
}
330
A35
100
AcDbVisualStyle
  2
Hidden
 70
     6
 71
     1
 72
     2
 73
     2
 90
        0
 40
-0.6
 41
-30.0
 62
     5
 63
     7
 74
     2
 91
        2
 64
     7
 65
   257
 75
     2
175
     1
 42
40.0
 92
        0
 66
   257
 43
1.0
 76
     1
 77
     6
 78
     2
 67
     7
 79
     3
170
     0
171
     0
290
     0
174
     0
 93
        1
 44
0.0
173
     0
291
     0
 45
0.0
1001
ACAD
1000
AcDbSavedByObjectVersion
1070
     0
  0
VISUALSTYLE
  5
A4B
102
{ACAD_XDICTIONARY
360
117C
102
}
102
{ACAD_REACTORS
330
A35
102
}
330
A35
100
AcDbVisualStyle
  2
JitterOff
 70
    20
 71
     2
 72
     2
 73
     0
 90
        0
 40
-0.6
 41
-30.0
 62
     5
 63
     7
 74
     1
 91
        4
 64
     7
 65
   257
 75
     1
175
     1
 42
1.0
 92
       10
 66
     7
 43
1.0
 76
     1
 77
     6
 78
     2
 67
     7
 79
     5
170
     0
171
     0
290
     0
174
     0
 93
        1
 44
0.0
173
     0
291
     1
 45
0.0
1001
ACAD
1000
AcDbSavedByObjectVersion
1070
     0
  0
VISUALSTYLE
  5
A43
102
{ACAD_XDICTIONARY
360
116C
102
}
102
{ACAD_REACTORS
330
A35
102
}
330
A35
100
AcDbVisualStyle
  2
Linepattern
 70
    14
 71
     2
 72
     2
 73
     0
 90
        0
 40
-0.6
 41
-30.0
 62
     5
 63
     7
 74
     1
 91
        4
 64
     7
 65
   257
 75
     7
175
     7
 42
1.0
 92
        8
 66
     7
 43
1.0
 76
     1
 77
     6
 78
     2
 67
     7
 79
     5
170
     0
171
     0
290
     0
174
     0
 93
        1
 44
0.0
173
     0
291
     1
 45
0.0
1001
ACAD
1000
AcDbSavedByObjectVersion
1070
     0
  0
VISUALSTYLE
  5
A4C
102
{ACAD_XDICTIONARY
360
117E
102
}
102
{ACAD_REACTORS
330
A35
102
}
330
A35
100
AcDbVisualStyle
  2
OverhangOff
 70
    21
 71
     2
 72
     2
 73
     0
 90
        0
 40
-0.6
 41
-30.0
 62
     5
 63
     7
 74
     1
 91
        4
 64
     7
 65
   257
 75
     1
175
     1
 42
1.0
 92
        9
 66
     7
 43
1.0
 76
     1
 77
     6
 78
     2
 67
     7
 79
     5
170
     0
171
     0
290
     0
174
     0
 93
        1
 44
0.0
173
     0
291
     1
 45
0.0
1001
ACAD
1000
AcDbSavedByObjectVersion
1070
     0
  0
VISUALSTYLE
  5
A3F
102
{ACAD_XDICTIONARY
360
1164
102
}
102
{ACAD_REACTORS
330
A35
102
}
330
A35
100
AcDbVisualStyle
  2
Realistic
 70
     8
 71
     2
 72
     2
 73
     0
 90
        2
 40
-0.6
 41
30.0
 62
     5
 63
     7
 74
     0
 91
        0
 64
     7
 65
   257
 75
     1
175
     1
 42
1.0
 92
        8
 66
   257
 43
1.0
 76
     1
 77
     6
 78
     2
 67
     7
 79
     3
170
     0
171
     0
290
     0
174
     0
 93
       13
 44
0.0
173
     0
291
     0
 45
0.0
1001
ACAD
1000
AcDbSavedByObjectVersion
1070
     0
  0
VISUALSTYLE
  5
A4A
102
{ACAD_XDICTIONARY
360
117A
102
}
102
{ACAD_REACTORS
330
A35
102
}
330
A35
100
AcDbVisualStyle
  2
Shaded
 70
    27
 71
     2
 72
     2
 73
     1
 90
        2
 40
-0.6
 41
30.0
 62
     5
 63
     7
 74
     0
 91
        4
 64
     7
 65
   257
 75
     1
175
     1
 42
1.0
 92
        8
 66
   257
 43
1.0
 76
     1
 77
     6
 78
     2
 67
     8
 79
     3
170
     0
171
     0
290
     0
174
     0
 93
        5
 44
0.0
173
     0
291
     0
 45
0.0
1001
ACAD
1000
AcDbSavedByObjectVersion
1070
     0
  0
VISUALSTYLE
  5
A49
102
{ACAD_XDICTIONARY
360
1178
102
}
102
{ACAD_REACTORS
330
A35
102
}
330
A35
100
AcDbVisualStyle
  2
Shaded with edges
 70
    26
 71
     2
 72
     2
 73
     1
 90
        2
 40
-0.6
 41
30.0
 62
     5
 63
     7
 74
     1
 91
       10
 64
     7
 65
   257
 75
     2
175
     1
 42
1.0
 92
        8
 66
   257
 43
1.0
 76
     1
 77
     6
 78
     2
 67
     7
 79
     3
170
     0
171
     0
290
     0
174
     0
 93
        5
 44
0.0
173
     0
291
     0
 45
0.0
1001
ACAD
1000
AcDbSavedByObjectVersion
1070
     0
  0
VISUALSTYLE
  5
A46
102
{ACAD_XDICTIONARY
360
1172
102
}
102
{ACAD_REACTORS
330
A35
102
}
330
A35
100
AcDbVisualStyle
  2
Shades of Gray
 70
    23
 71
     2
 72
     2
 73
     3
 90
        0
 40
-0.6
 41
-30.0
 62
     5
 63
     7
 74
     2
 91
        2
 64
     7
 65
     7
 75
     1
175
     1
 42
40.0
 92
        8
 66
     7
 43
1.0
 76
     1
 77
     6
 78
     2
 67
     7
 79
     3
170
     0
171
     0
290
     0
174
     0
 93
        1
 44
0.0
173
     0
291
     0
 45
0.0
1001
ACAD
1000
AcDbSavedByObjectVersion
1070
     0
  0
VISUALSTYLE
  5
A47
102
{ACAD_XDICTIONARY
360
1174
102
}
102
{ACAD_REACTORS
330
A35
102
}
330
A35
100
AcDbVisualStyle
  2
Sketchy
 70
    24
 71
     1
 72
     2
 73
     2
 90
        0
 40
-0.6
 41
-30.0
 62
     5
 63
     7
 74
     2
 91
        2
 64
     7
 65
     7
 75
     1
175
     1
 42
40.0
 92
       11
 66
     7
 43
1.0
 76
     1
 77
     6
 78
     2
 67
     7
 79
     6
170
     0
171
     0
290
     0
174
     0
 93
        1
 44
0.0
173
     0
291
     0
 45
0.0
1001
ACAD
1000
AcDbSavedByObjectVersion
1070
     0
  0
VISUALSTYLE
  5
A42
102
{ACAD_XDICTIONARY
360
116A
102
}
102
{ACAD_REACTORS
330
A35
102
}
330
A35
100
AcDbVisualStyle
  2
Thicken
 70
    13
 71
     2
 72
     2
 73
     0
 90
        0
 40
-0.6
 41
-30.0
 62
     5
 63
     7
 74
     1
 91
        4
 64
     7
 65
   257
 75
     1
175
     1
 42
1.0
 92
       12
 66
     7
 43
1.0
 76
     1
 77
     6
 78
     2
 67
     7
 79
     5
170
     0
171
     0
290
     0
174
     0
 93
        1
 44
0.0
173
     0
291
     1
 45
0.0
1001
ACAD
1000
AcDbSavedByObjectVersion
1070
     0
  0
VISUALSTYLE
  5
A3C
102
{ACAD_XDICTIONARY
360
115E
102
}
102
{ACAD_REACTORS
330
A35
102
}
330
A35
100
AcDbVisualStyle
  2
Wireframe
 70
     5
 71
     0
 72
     2
 73
     0
 90
        0
 40
-0.6
 41
-30.0
 62
     5
 63
     7
 74
     1
 91
        4
 64
     7
 65
   257
 75
     1
175
     1
 42
1.0
 92
        0
 66
   257
 43
1.0
 76
     1
 77
     6
 78
     2
 67
     7
 79
     3
170
     0
171
     0
290
     0
174
     0
 93
        1
 44
0.0
173
     0
291
     0
 45
0.0
1001
ACAD
1000
AcDbSavedByObjectVersion
1070
     0
  0
VISUALSTYLE
  5
A48
102
{ACAD_XDICTIONARY
360
1176
102
}
102
{ACAD_REACTORS
330
A35
102
}
330
A35
100
AcDbVisualStyle
  2
X-Ray
 70
    25
 71
     2
 72
     2
 73
     1
 90
        1
 40
0.5
 41
-30.0
 62
     5
 63
     7
 74
     1
 91
        0
 64
     7
 65
   257
 75
     1
175
     1
 42
1.0
 92
        8
 66
     7
 43
1.0
 76
     1
 77
     6
 78
     2
 67
     7
 79
     3
170
     0
171
     0
290
     0
174
     0
 93
       13
 44
0.0
173
     0
291
     0
 45
0.0
1001
ACAD
1000
AcDbSavedByObjectVersion
1070
     0
  0
DICTIONARYVAR
  5
AE5
102
{ACAD_REACTORS
330
66
102
}
330
66
100
DictionaryVariables
280
     0
  1
1:1
  0
DICTIONARYVAR
  5
AE4
102
{ACAD_REACTORS
330
66
102
}
330
66
100
DictionaryVariables
280
     0
  1
STANDARD
  0
DICTIONARYVAR
  5
AE3
102
{ACAD_REACTORS
330
66
102
}
330
66
100
DictionaryVariables
280
     0
  1
STANDARD
  0
DICTIONARYVAR
  5
67
102
{ACAD_REACTORS
330
66
102
}
330
66
100
DictionaryVariables
280
     0
  1
2
  0
DICTIONARYVAR
  5
6B
102
{ACAD_REACTORS
330
66
102
}
330
66
100
DictionaryVariables
280
     0
  1
1
  0
DICTIONARYVAR
  5
AE7
102
{ACAD_REACTORS
330
66
102
}
330
66
100
DictionaryVariables
280
     0
  1
0
  0
DICTIONARYVAR
  5
1072
102
{ACAD_REACTORS
330
66
102
}
330
66
100
DictionaryVariables
280
     0
  1
1
  0
DICTIONARYVAR
  5
1073
102
{ACAD_REACTORS
330
66
102
}
330
66
100
DictionaryVariables
280
     0
  1
15
  0
DICTIONARYVAR
  5
1071
102
{ACAD_REACTORS
330
66
102
}
330
66
100
DictionaryVariables
280
     0
  1
0
  0
DICTIONARYVAR
  5
1070
102
{ACAD_REACTORS
330
66
102
}
330
66
100
DictionaryVariables
280
     0
  1
0
  0
DICTIONARYVAR
  5
6A1
102
{ACAD_REACTORS
330
66
102
}
330
66
100
DictionaryVariables
280
     0
  1

  0
DICTIONARYVAR
  5
AE6
102
{ACAD_REACTORS
330
66
102
}
330
66
100
DictionaryVariables
280
     0
  1
127
  0
DICTIONARYVAR
  5
1143
102
{ACAD_REACTORS
330
66
102
}
330
66
100
DictionaryVariables
280
     0
  1
2
  0
DICTIONARY
  5
114B
330
59
100
AcDbDictionary
280
     1
281
     1
  3
ACAD_XREC_ROUNDTRIP
360
114C
  0
DICTIONARY
  5
114D
330
5E
100
AcDbDictionary
280
     1
281
     1
  3
ACAD_XREC_ROUNDTRIP
360
114E
  0
DICTIONARY
  5
1149
330
22
100
AcDbDictionary
280
     1
281
     1
  3
ACAD_XREC_ROUNDTRIP
360
114A
  0
DICTIONARY
  5
A26
330
A25
100
AcDbDictionary
280
     1
281
     1
  3
ACAD_XREC_ROUNDTRIP
360
1150
  3
BUMPTILE
360
A28
  3
DIFFUSETILE
360
A27
  3
OPACITYTILE
360
A2B
  3
REFLECTIONTILE
360
A2A
  3
REFRACTIONTILE
360
A2C
  3
SPECULARTILE
360
A29
  0
DICTIONARY
  5
A1E
330
A1D
100
AcDbDictionary
280
     1
281
     1
  3
ACAD_XREC_ROUNDTRIP
360
114F
  3
BUMPTILE
360
A20
  3
DIFFUSETILE
360
A1F
  3
OPACITYTILE
360
A23
  3
REFLECTIONTILE
360
A22
  3
REFRACTIONTILE
360
A24
  3
SPECULARTILE
360
A21
  0
DICTIONARY
  5
A2E
330
A2D
100
AcDbDictionary
280
     1
281
     1
  3
ACAD_XREC_ROUNDTRIP
360
1151
  3
BUMPTILE
360
A30
  3
DIFFUSETILE
360
A2F
  3
OPACITYTILE
360
A33
  3
REFLECTIONTILE
360
A32
  3
REFRACTIONTILE
360
A34
  3
SPECULARTILE
360
A31
  0
DICTIONARY
  5
AA2
330
A4F
100
AcDbDictionary
280
     1
281
     1
  3
ACAD_ROUNDTRIP_2008_TABLESTYLE_CELLSTYLEMAP
360
1144
  3
ACAD_XREC_ROUNDTRIP
360
1182
  0
DICTIONARY
  5
115C
330
A3B
100
AcDbDictionary
280
     1
281
     1
  3
ACAD_XREC_ROUNDTRIP
360
115D
  0
DICTIONARY
  5
1183
330
109E
100
AcDbDictionary
280
     1
281
     1
  3
ACAD_XREC_ROUNDTRIP
360
1184
  0
DICTIONARY
  5
1185
330
109F
100
AcDbDictionary
280
     1
281
     1
  3
ACAD_XREC_ROUNDTRIP
360
1186
  0
DICTIONARY
  5
115A
330
A3A
100
AcDbDictionary
280
     1
281
     1
  3
ACAD_XREC_ROUNDTRIP
360
115B
  0
DICTIONARY
  5
1168
330
A41
100
AcDbDictionary
280
     1
281
     1
  3
ACAD_XREC_ROUNDTRIP
360
1169
  0
DICTIONARY
  5
1170
330
A45
100
AcDbDictionary
280
     1
281
     1
  3
ACAD_XREC_ROUNDTRIP
360
1171
  0
DICTIONARY
  5
1162
330
A3E
100
AcDbDictionary
280
     1
281
     1
  3
ACAD_XREC_ROUNDTRIP
360
1163
  0
DICTIONARY
  5
1166
330
A40
100
AcDbDictionary
280
     1
281
     1
  3
ACAD_XREC_ROUNDTRIP
360
1167
  0
DICTIONARY
  5
1180
330
A4D
100
AcDbDictionary
280
     1
281
     1
  3
ACAD_XREC_ROUNDTRIP
360
1181
  0
DICTIONARY
  5
116E
330
A44
100
AcDbDictionary
280
     1
281
     1
  3
ACAD_XREC_ROUNDTRIP
360
116F
  0
DICTIONARY
  5
1152
330
A36
100
AcDbDictionary
280
     1
281
     1
  3
ACAD_XREC_ROUNDTRIP
360
1153
  0
DICTIONARY
  5
1154
330
A37
100
AcDbDictionary
280
     1
281
     1
  3
ACAD_XREC_ROUNDTRIP
360
1155
  0
DICTIONARY
  5
1156
330
A38
100
AcDbDictionary
280
     1
281
     1
  3
ACAD_XREC_ROUNDTRIP
360
1157
  0
DICTIONARY
  5
1158
330
A39
100
AcDbDictionary
280
     1
281
     1
  3
ACAD_XREC_ROUNDTRIP
360
1159
  0
DICTIONARY
  5
1160
330
A3D
100
AcDbDictionary
280
     1
281
     1
  3
ACAD_XREC_ROUNDTRIP
360
1161
  0
DICTIONARY
  5
117C
330
A4B
100
AcDbDictionary
280
     1
281
     1
  3
ACAD_XREC_ROUNDTRIP
360
117D
  0
DICTIONARY
  5
116C
330
A43
100
AcDbDictionary
280
     1
281
     1
  3
ACAD_XREC_ROUNDTRIP
360
116D
  0
DICTIONARY
  5
117E
330
A4C
100
AcDbDictionary
280
     1
281
     1
  3
ACAD_XREC_ROUNDTRIP
360
117F
  0
DICTIONARY
  5
1164
330
A3F
100
AcDbDictionary
280
     1
281
     1
  3
ACAD_XREC_ROUNDTRIP
360
1165
  0
DICTIONARY
  5
117A
330
A4A
100
AcDbDictionary
280
     1
281
     1
  3
ACAD_XREC_ROUNDTRIP
360
117B
  0
DICTIONARY
  5
1178
330
A49
100
AcDbDictionary
280
     1
281
     1
  3
ACAD_XREC_ROUNDTRIP
360
1179
  0
DICTIONARY
  5
1172
330
A46
100
AcDbDictionary
280
     1
281
     1
  3
ACAD_XREC_ROUNDTRIP
360
1173
  0
DICTIONARY
  5
1174
330
A47
100
AcDbDictionary
280
     1
281
     1
  3
ACAD_XREC_ROUNDTRIP
360
1175
  0
DICTIONARY
  5
116A
330
A42
100
AcDbDictionary
280
     1
281
     1
  3
ACAD_XREC_ROUNDTRIP
360
116B
  0
DICTIONARY
  5
115E
330
A3C
100
AcDbDictionary
280
     1
281
     1
  3
ACAD_XREC_ROUNDTRIP
360
115F
  0
DICTIONARY
  5
1176
330
A48
100
AcDbDictionary
280
     1
281
     1
  3
ACAD_XREC_ROUNDTRIP
360
1177
  0
XRECORD
  5
114C
102
{ACAD_REACTORS
330
114B
102
}
330
114B
100
AcDbXrecord
280
     1
102
SHADEPLOT
 70
     0
102
SHADEPLOTRESLEVEL
 70
     2
102
SHADEPLOTCUSTOMDPI
 70
   300
  0
XRECORD
  5
114E
102
{ACAD_REACTORS
330
114D
102
}
330
114D
100
AcDbXrecord
280
     1
102
SHADEPLOT
 70
     0
102
SHADEPLOTRESLEVEL
 70
     2
102
SHADEPLOTCUSTOMDPI
 70
   300
  0
XRECORD
  5
114A
102
{ACAD_REACTORS
330
1149
102
}
330
1149
100
AcDbXrecord
280
     1
102
SHADEPLOT
 70
     0
102
SHADEPLOTRESLEVEL
 70
     2
102
SHADEPLOTCUSTOMDPI
 70
   300
  0
XRECORD
  5
1150
102
{ACAD_REACTORS
330
A26
102
}
330
A26
100
AcDbXrecord
280
     1
102
MATERIAL
148
0.0
149
0.0
149
0.0
 93
        0
 94
      127
282
     0
 72
     0
 77
     0
171
     0
175
     0
179
     0
273
     0
  0
XRECORD
  5
A28
102
{ACAD_REACTORS
330
A26
102
}
330
A26
100
AcDbXrecord
280
     1
270
     1
271
     1
  0
XRECORD
  5
A27
102
{ACAD_REACTORS
330
A26
102
}
330
A26
100
AcDbXrecord
280
     1
270
     1
271
     1
  0
XRECORD
  5
A2B
102
{ACAD_REACTORS
330
A26
102
}
330
A26
100
AcDbXrecord
280
     1
270
     1
271
     1
  0
XRECORD
  5
A2A
102
{ACAD_REACTORS
330
A26
102
}
330
A26
100
AcDbXrecord
280
     1
270
     1
271
     1
  0
XRECORD
  5
A2C
102
{ACAD_REACTORS
330
A26
102
}
330
A26
100
AcDbXrecord
280
     1
270
     1
271
     1
  0
XRECORD
  5
A29
102
{ACAD_REACTORS
330
A26
102
}
330
A26
100
AcDbXrecord
280
     1
270
     1
271
     1
  0
XRECORD
  5
114F
102
{ACAD_REACTORS
330
A1E
102
}
330
A1E
100
AcDbXrecord
280
     1
102
MATERIAL
148
0.0
149
0.0
149
0.0
 93
        0
 94
      127
282
     0
 72
     0
 77
     0
171
     0
175
     0
179
     0
273
     0
  0
XRECORD
  5
A20
102
{ACAD_REACTORS
330
A1E
102
}
330
A1E
100
AcDbXrecord
280
     1
270
     1
271
     1
  0
XRECORD
  5
A1F
102
{ACAD_REACTORS
330
A1E
102
}
330
A1E
100
AcDbXrecord
280
     1
270
     1
271
     1
  0
XRECORD
  5
A23
102
{ACAD_REACTORS
330
A1E
102
}
330
A1E
100
AcDbXrecord
280
     1
270
     1
271
     1
  0
XRECORD
  5
A22
102
{ACAD_REACTORS
330
A1E
102
}
330
A1E
100
AcDbXrecord
280
     1
270
     1
271
     1
  0
XRECORD
  5
A24
102
{ACAD_REACTORS
330
A1E
102
}
330
A1E
100
AcDbXrecord
280
     1
270
     1
271
     1
  0
XRECORD
  5
A21
102
{ACAD_REACTORS
330
A1E
102
}
330
A1E
100
AcDbXrecord
280
     1
270
     1
271
     1
  0
XRECORD
  5
1151
102
{ACAD_REACTORS
330
A2E
102
}
330
A2E
100
AcDbXrecord
280
     1
102
MATERIAL
148
0.0
149
0.0
149
0.0
 93
        0
 94
      127
282
     0
 72
     0
 77
     0
171
     0
175
     0
179
     0
273
     0
  0
XRECORD
  5
A30
102
{ACAD_REACTORS
330
A2E
102
}
330
A2E
100
AcDbXrecord
280
     1
270
     1
271
     1
  0
XRECORD
  5
A2F
102
{ACAD_REACTORS
330
A2E
102
}
330
A2E
100
AcDbXrecord
280
     1
270
     1
271
     1
  0
XRECORD
  5
A33
102
{ACAD_REACTORS
330
A2E
102
}
330
A2E
100
AcDbXrecord
280
     1
270
     1
271
     1
  0
XRECORD
  5
A32
102
{ACAD_REACTORS
330
A2E
102
}
330
A2E
100
AcDbXrecord
280
     1
270
     1
271
     1
  0
XRECORD
  5
A34
102
{ACAD_REACTORS
330
A2E
102
}
330
A2E
100
AcDbXrecord
280
     1
270
     1
271
     1
  0
XRECORD
  5
A31
102
{ACAD_REACTORS
330
A2E
102
}
330
A2E
100
AcDbXrecord
280
     1
270
     1
271
     1
  0
CELLSTYLEMAP
  5
1144
102
{ACAD_REACTORS
330
AA2
102
}
330
AA2
100
AcDbCellStyleMap
 90
        3
300
CELLSTYLE
  1
TABLEFORMAT_BEGIN
 90
        5
170
     1
 91
        0
 92
    32768
 62
   257
 93
        1
300
CONTENTFORMAT
  1
CONTENTFORMAT_BEGIN
 90
        0
 91
        0
 92
      512
 93
        0
300

 40
0.0
140
1.0
 94
        5
 62
     0
340
11
144
0.25
309
CONTENTFORMAT_END
171
     0
 94
        0
309
TABLEFORMAT_END
  1
CELLSTYLE_BEGIN
 90
        1
 91
        1
300
_TITLE
309
CELLSTYLE_END
300
CELLSTYLE
  1
TABLEFORMAT_BEGIN
 90
        5
170
     1
 91
        0
 92
        0
 62
   257
 93
        1
300
CONTENTFORMAT
  1
CONTENTFORMAT_BEGIN
 90
        0
 91
        0
 92
      512
 93
        0
300

 40
0.0
140
1.0
 94
        5
 62
     0
340
11
144
0.18
309
CONTENTFORMAT_END
171
     0
 94
        0
309
TABLEFORMAT_END
  1
CELLSTYLE_BEGIN
 90
        2
 91
        1
300
_HEADER
309
CELLSTYLE_END
300
CELLSTYLE
  1
TABLEFORMAT_BEGIN
 90
        5
170
     1
 91
        0
 92
        0
 62
   257
 93
        1
300
CONTENTFORMAT
  1
CONTENTFORMAT_BEGIN
 90
        0
 91
        0
 92
      512
 93
        0
300

 40
0.0
140
1.0
 94
        2
 62
     0
340
11
144
0.18
309
CONTENTFORMAT_END
171
     0
 94
        0
309
TABLEFORMAT_END
  1
CELLSTYLE_BEGIN
 90
        3
 91
        2
300
_DATA
309
CELLSTYLE_END
  0
XRECORD
  5
1182
102
{ACAD_REACTORS
330
AA2
102
}
330
AA2
100
AcDbXrecord
280
     1
102
ACAD_ROUNDTRIP_PRE2007_TABLESTYLE
 90
      512
 91
        0
  1

 92
      512
 93
        0
  2

 94
      512
 95
        0
  3

  0
XRECORD
  5
115D
102
{ACAD_REACTORS
330
115C
102
}
330
115C
100
AcDbXrecord
280
     1
102
RTVSPropertyOp0
 70
     1
102
RTVSPropertyOp1
 70
     1
102
RTVSPropertyOp2
 70
     1
102
RTVSPropertyOp3
 70
     1
102
RTVSPropertyOp4
 70
     1
102
RTVSPropertyOp5
 70
     1
102
RTVSPropertyOp6
 70
     1
102
RTVSPropertyOp7
 70
     1
102
RTVSPropertyOp8
 70
     1
102
RTVSPropertyOp9
 70
     1
102
RTVSPropertyOp10
 70
     1
102
RTVSPropertyOp11
 70
     1
102
RTVSPropertyOp12
 70
     1
102
RTVSPropertyOp13
 70
     1
102
RTVSPropertyOp14
 70
     1
102
RTVSPropertyOp15
 70
     1
102
RTVSPropertyOp16
 70
     1
102
RTVSPropertyOp17
 70
     1
102
RTVSPropertyOp18
 70
     1
102
RTVSPropertyOp19
 70
     1
102
RTVSPropertyOp20
 70
     1
102
RTVSPropertyOp21
 70
     1
102
RTVSPropertyOp22
 70
     1
102
RTVSPropertyOp23
 70
     1
102
RTVSPropertyOp24
 70
     1
102
RTVSPropertyOp25
 70
     1
102
RTVSPropertyOp26
 70
     1
102
RTVSPropertyOp27
 70
     1
102
RTVSPropertyOp28
 70
     1
102
RTVSPropertyOp29
 70
     1
102
RTVSPropertyOp30
 70
     1
102
RTVSPropertyOp31
 70
     1
102
RTVSPropertyOp32
 70
     1
  0
XRECORD
  5
1184
102
{ACAD_REACTORS
330
1183
102
}
330
1183
100
AcDbXrecord
280
     1
102
RTVSPropertyOp0
 70
     1
102
RTVSPropertyOp1
 70
     1
102
RTVSPropertyOp2
 70
     1
102
RTVSPropertyOp3
 70
     1
102
RTVSPropertyOp4
 70
     1
102
RTVSPropertyOp5
 70
     1
102
RTVSPropertyOp6
 70
     1
102
RTVSPropertyOp7
 70
     1
102
RTVSPropertyOp8
 70
     1
102
RTVSPropertyOp9
 70
     1
102
RTVSPropertyOp10
 70
     1
102
RTVSPropertyOp11
 70
     1
102
RTVSPropertyOp12
 70
     1
102
RTVSPropertyOp13
 70
     1
102
RTVSPropertyOp14
 70
     1
102
RTVSPropertyOp15
 70
     1
102
RTVSPropertyOp16
 70
     1
102
RTVSPropertyOp17
 70
     1
102
RTVSPropertyOp18
 70
     1
102
RTVSPropertyOp19
 70
     1
102
RTVSPropertyOp20
 70
     1
102
RTVSPropertyOp21
 70
     1
102
RTVSPropertyOp22
 70
     1
102
RTVSPropertyOp23
 70
     1
102
RTVSPropertyOp24
 70
     1
102
RTVSPropertyOp25
 70
     1
102
RTVSPropertyOp26
 70
     1
102
RTVSPropertyOp27
 70
     1
102
RTVSPropertyOp28
 70
     1
102
RTVSPropertyOp29
 70
     1
102
RTVSPropertyOp30
 70
     1
102
RTVSPropertyOp31
 70
     1
102
RTVSPropertyOp32
 70
     1
  0
XRECORD
  5
1186
102
{ACAD_REACTORS
330
1185
102
}
330
1185
100
AcDbXrecord
280
     1
102
RTVSPropertyOp0
 70
     1
102
RTVSPropertyOp1
 70
     1
102
RTVSPropertyOp2
 70
     1
102
RTVSPropertyOp3
 70
     1
102
RTVSPropertyOp4
 70
     1
102
RTVSPropertyOp5
 70
     1
102
RTVSPropertyOp6
 70
     1
102
RTVSPropertyOp7
 70
     1
102
RTVSPropertyOp8
 70
     1
102
RTVSPropertyOp9
 70
     1
102
RTVSPropertyOp10
 70
     1
102
RTVSPropertyOp11
 70
     1
102
RTVSPropertyOp12
 70
     1
102
RTVSPropertyOp13
 70
     1
102
RTVSPropertyOp14
 70
     1
102
RTVSPropertyOp15
 70
     1
102
RTVSPropertyOp16
 70
     1
102
RTVSPropertyOp17
 70
     1
102
RTVSPropertyOp18
 70
     1
102
RTVSPropertyOp19
 70
     1
102
RTVSPropertyOp20
 70
     1
102
RTVSPropertyOp21
 70
     1
102
RTVSPropertyOp22
 70
     1
102
RTVSPropertyOp23
 70
     1
102
RTVSPropertyOp24
 70
     1
102
RTVSPropertyOp25
 70
     1
102
RTVSPropertyOp26
 70
     1
102
RTVSPropertyOp27
 70
     1
102
RTVSPropertyOp28
 70
     1
102
RTVSPropertyOp29
 70
     1
102
RTVSPropertyOp30
 70
     1
102
RTVSPropertyOp31
 70
     1
102
RTVSPropertyOp32
 70
     1
  0
XRECORD
  5
115B
102
{ACAD_REACTORS
330
115A
102
}
330
115A
100
AcDbXrecord
280
     1
102
RTVSPropertyOp0
 70
     1
102
RTVSPropertyOp1
 70
     1
102
RTVSPropertyOp2
 70
     1
102
RTVSPropertyOp3
 70
     1
102
RTVSPropertyOp4
 70
     1
102
RTVSPropertyOp5
 70
     1
102
RTVSPropertyOp6
 70
     1
102
RTVSPropertyOp7
 70
     1
102
RTVSPropertyOp8
 70
     1
102
RTVSPropertyOp9
 70
     1
102
RTVSPropertyOp10
 70
     1
102
RTVSPropertyOp11
 70
     1
102
RTVSPropertyOp12
 70
     1
102
RTVSPropertyOp13
 70
     1
102
RTVSPropertyOp14
 70
     1
102
RTVSPropertyOp15
 70
     1
102
RTVSPropertyOp16
 70
     1
102
RTVSPropertyOp17
 70
     1
102
RTVSPropertyOp18
 70
     1
102
RTVSPropertyOp19
 70
     1
102
RTVSPropertyOp20
 70
     1
102
RTVSPropertyOp21
 70
     1
102
RTVSPropertyOp22
 70
     1
102
RTVSPropertyOp23
 70
     1
102
RTVSPropertyOp24
 70
     1
102
RTVSPropertyOp25
 70
     1
102
RTVSPropertyOp26
 70
     1
102
RTVSPropertyOp27
 70
     1
102
RTVSPropertyOp28
 70
     1
102
RTVSPropertyOp29
 70
     1
102
RTVSPropertyOp30
 70
     1
102
RTVSPropertyOp31
 70
     1
102
RTVSPropertyOp32
 70
     1
  0
XRECORD
  5
1169
102
{ACAD_REACTORS
330
1168
102
}
330
1168
100
AcDbXrecord
280
     1
102
RTVSPropertyOp0
 70
     1
102
RTVSPropertyOp1
 70
     1
102
RTVSPropertyOp2
 70
     1
102
RTVSPropertyOp3
 70
     1
102
RTVSPropertyOp4
 70
     1
102
RTVSPropertyOp5
 70
     1
102
RTVSPropertyOp6
 70
     1
102
RTVSPropertyOp7
 70
     1
102
RTVSPropertyOp8
 70
     1
102
RTVSPropertyOp9
 70
     1
102
RTVSPropertyOp10
 70
     1
102
RTVSPropertyOp11
 70
     1
102
RTVSPropertyOp12
 70
     1
102
RTVSPropertyOp13
 70
     1
102
RTVSPropertyOp14
 70
     1
102
RTVSPropertyOp15
 70
     1
102
RTVSPropertyOp16
 70
     1
102
RTVSPropertyOp17
 70
     1
102
RTVSPropertyOp18
 70
     1
102
RTVSPropertyOp19
 70
     1
102
RTVSPropertyOp20
 70
     1
102
RTVSPropertyOp21
 70
     1
102
RTVSPropertyOp22
 70
     1
102
RTVSPropertyOp23
 70
     1
102
RTVSPropertyOp24
 70
     1
102
RTVSPropertyOp25
 70
     1
102
RTVSPropertyOp26
 70
     1
102
RTVSPropertyOp27
 70
     1
102
RTVSPropertyOp28
 70
     1
102
RTVSPropertyOp29
 70
     1
102
RTVSPropertyOp30
 70
     1
102
RTVSPropertyOp31
 70
     1
102
RTVSPropertyOp32
 70
     1
  0
XRECORD
  5
1171
102
{ACAD_REACTORS
330
1170
102
}
330
1170
100
AcDbXrecord
280
     1
102
RTVSPropertyOp0
 70
     1
102
RTVSPropertyOp1
 70
     1
102
RTVSPropertyOp2
 70
     1
102
RTVSPropertyOp3
 70
     1
102
RTVSPropertyOp4
 70
     1
102
RTVSPropertyOp5
 70
     1
102
RTVSPropertyOp6
 70
     1
102
RTVSPropertyOp7
 70
     1
102
RTVSPropertyOp8
 70
     1
102
RTVSPropertyOp9
 70
     1
102
RTVSPropertyOp10
 70
     1
102
RTVSPropertyOp11
 70
     1
102
RTVSPropertyOp12
 70
     1
102
RTVSPropertyOp13
 70
     1
102
RTVSPropertyOp14
 70
     1
102
RTVSPropertyOp15
 70
     1
102
RTVSPropertyOp16
 70
     1
102
RTVSPropertyOp17
 70
     1
102
RTVSPropertyOp18
 70
     1
102
RTVSPropertyOp19
 70
     1
102
RTVSPropertyOp20
 70
     1
102
RTVSPropertyOp21
 70
     1
102
RTVSPropertyOp22
 70
     1
102
RTVSPropertyOp23
 70
     1
102
RTVSPropertyOp24
 70
     1
102
RTVSPropertyOp25
 70
     1
102
RTVSPropertyOp26
 70
     1
102
RTVSPropertyOp27
 70
     1
102
RTVSPropertyOp28
 70
     1
102
RTVSPropertyOp29
 70
     1
102
RTVSPropertyOp30
 70
     1
102
RTVSPropertyOp31
 70
     1
102
RTVSPropertyOp32
 70
     1
  0
XRECORD
  5
1163
102
{ACAD_REACTORS
330
1162
102
}
330
1162
100
AcDbXrecord
280
     1
102
RTVSPropertyOp0
 70
     1
102
RTVSPropertyOp1
 70
     1
102
RTVSPropertyOp2
 70
     1
102
RTVSPropertyOp3
 70
     1
102
RTVSPropertyOp4
 70
     1
102
RTVSPropertyOp5
 70
     1
102
RTVSPropertyOp6
 70
     1
102
RTVSPropertyOp7
 70
     1
102
RTVSPropertyOp8
 70
     1
102
RTVSPropertyOp9
 70
     1
102
RTVSPropertyOp10
 70
     1
102
RTVSPropertyOp11
 70
     1
102
RTVSPropertyOp12
 70
     1
102
RTVSPropertyOp13
 70
     1
102
RTVSPropertyOp14
 70
     1
102
RTVSPropertyOp15
 70
     1
102
RTVSPropertyOp16
 70
     1
102
RTVSPropertyOp17
 70
     1
102
RTVSPropertyOp18
 70
     1
102
RTVSPropertyOp19
 70
     1
102
RTVSPropertyOp20
 70
     1
102
RTVSPropertyOp21
 70
     1
102
RTVSPropertyOp22
 70
     1
102
RTVSPropertyOp23
 70
     1
102
RTVSPropertyOp24
 70
     1
102
RTVSPropertyOp25
 70
     1
102
RTVSPropertyOp26
 70
     1
102
RTVSPropertyOp27
 70
     1
102
RTVSPropertyOp28
 70
     1
102
RTVSPropertyOp29
 70
     1
102
RTVSPropertyOp30
 70
     1
102
RTVSPropertyOp31
 70
     1
102
RTVSPropertyOp32
 70
     1
  0
XRECORD
  5
1167
102
{ACAD_REACTORS
330
1166
102
}
330
1166
100
AcDbXrecord
280
     1
102
RTVSPropertyOp0
 70
     1
102
RTVSPropertyOp1
 70
     1
102
RTVSPropertyOp2
 70
     1
102
RTVSPropertyOp3
 70
     1
102
RTVSPropertyOp4
 70
     1
102
RTVSPropertyOp5
 70
     1
102
RTVSPropertyOp6
 70
     1
102
RTVSPropertyOp7
 70
     1
102
RTVSPropertyOp8
 70
     1
102
RTVSPropertyOp9
 70
     1
102
RTVSPropertyOp10
 70
     1
102
RTVSPropertyOp11
 70
     1
102
RTVSPropertyOp12
 70
     1
102
RTVSPropertyOp13
 70
     1
102
RTVSPropertyOp14
 70
     1
102
RTVSPropertyOp15
 70
     1
102
RTVSPropertyOp16
 70
     1
102
RTVSPropertyOp17
 70
     1
102
RTVSPropertyOp18
 70
     1
102
RTVSPropertyOp19
 70
     1
102
RTVSPropertyOp20
 70
     1
102
RTVSPropertyOp21
 70
     1
102
RTVSPropertyOp22
 70
     1
102
RTVSPropertyOp23
 70
     1
102
RTVSPropertyOp24
 70
     1
102
RTVSPropertyOp25
 70
     1
102
RTVSPropertyOp26
 70
     1
102
RTVSPropertyOp27
 70
     1
102
RTVSPropertyOp28
 70
     1
102
RTVSPropertyOp29
 70
     1
102
RTVSPropertyOp30
 70
     1
102
RTVSPropertyOp31
 70
     1
102
RTVSPropertyOp32
 70
     1
  0
XRECORD
  5
1181
102
{ACAD_REACTORS
330
1180
102
}
330
1180
100
AcDbXrecord
280
     1
102
RTVSPropertyOp0
 70
     0
102
RTVSPropertyOp1
 70
     0
102
RTVSPropertyOp2
 70
     0
102
RTVSPropertyOp3
 70
     0
102
RTVSPropertyOp4
 70
     0
102
RTVSPropertyOp5
 70
     0
102
RTVSPropertyOp6
 70
     0
102
RTVSPropertyOp7
 70
     0
102
RTVSPropertyOp8
 70
     0
102
RTVSPropertyOp9
 70
     0
102
RTVSPropertyOp10
 70
     0
102
RTVSPropertyOp11
 70
     0
102
RTVSPropertyOp12
 70
     0
102
RTVSPropertyOp13
 70
     0
102
RTVSPropertyOp14
 70
     2
102
RTVSPropertyOp15
 70
     0
102
RTVSPropertyOp16
 70
     0
102
RTVSPropertyOp17
 70
     0
102
RTVSPropertyOp18
 70
     0
102
RTVSPropertyOp19
 70
     0
102
RTVSPropertyOp20
 70
     0
102
RTVSPropertyOp21
 70
     0
102
RTVSPropertyOp22
 70
     0
102
RTVSPropertyOp23
 70
     0
102
RTVSPropertyOp24
 70
     0
102
RTVSPropertyOp25
 70
     0
102
RTVSPropertyOp26
 70
     0
102
RTVSPropertyOp27
 70
     0
102
RTVSPropertyOp28
 70
     1
102
RTVSPropertyOp29
 70
     1
102
RTVSPropertyOp30
 70
     1
102
RTVSPropertyOp31
 70
     1
102
RTVSPropertyOp32
 70
     1
  0
XRECORD
  5
116F
102
{ACAD_REACTORS
330
116E
102
}
330
116E
100
AcDbXrecord
280
     1
102
RTVSPropertyOp0
 70
     1
102
RTVSPropertyOp1
 70
     1
102
RTVSPropertyOp2
 70
     1
102
RTVSPropertyOp3
 70
     1
102
RTVSPropertyOp4
 70
     1
102
RTVSPropertyOp5
 70
     1
102
RTVSPropertyOp6
 70
     1
102
RTVSPropertyOp7
 70
     1
102
RTVSPropertyOp8
 70
     1
102
RTVSPropertyOp9
 70
     1
102
RTVSPropertyOp10
 70
     1
102
RTVSPropertyOp11
 70
     1
102
RTVSPropertyOp12
 70
     1
102
RTVSPropertyOp13
 70
     1
102
RTVSPropertyOp14
 70
     1
102
RTVSPropertyOp15
 70
     1
102
RTVSPropertyOp16
 70
     1
102
RTVSPropertyOp17
 70
     1
102
RTVSPropertyOp18
 70
     1
102
RTVSPropertyOp19
 70
     1
102
RTVSPropertyOp20
 70
     1
102
RTVSPropertyOp21
 70
     1
102
RTVSPropertyOp22
 70
     1
102
RTVSPropertyOp23
 70
     1
102
RTVSPropertyOp24
 70
     1
102
RTVSPropertyOp25
 70
     1
102
RTVSPropertyOp26
 70
     1
102
RTVSPropertyOp27
 70
     1
102
RTVSPropertyOp28
 70
     1
102
RTVSPropertyOp29
 70
     1
102
RTVSPropertyOp30
 70
     1
102
RTVSPropertyOp31
 70
     1
102
RTVSPropertyOp32
 70
     1
  0
XRECORD
  5
1153
102
{ACAD_REACTORS
330
1152
102
}
330
1152
100
AcDbXrecord
280
     1
102
RTVSPropertyOp0
 70
     1
102
RTVSPropertyOp1
 70
     1
102
RTVSPropertyOp2
 70
     1
102
RTVSPropertyOp3
 70
     1
102
RTVSPropertyOp4
 70
     1
102
RTVSPropertyOp5
 70
     1
102
RTVSPropertyOp6
 70
     1
102
RTVSPropertyOp7
 70
     1
102
RTVSPropertyOp8
 70
     1
102
RTVSPropertyOp9
 70
     1
102
RTVSPropertyOp10
 70
     1
102
RTVSPropertyOp11
 70
     1
102
RTVSPropertyOp12
 70
     1
102
RTVSPropertyOp13
 70
     1
102
RTVSPropertyOp14
 70
     1
102
RTVSPropertyOp15
 70
     1
102
RTVSPropertyOp16
 70
     1
102
RTVSPropertyOp17
 70
     1
102
RTVSPropertyOp18
 70
     1
102
RTVSPropertyOp19
 70
     1
102
RTVSPropertyOp20
 70
     1
102
RTVSPropertyOp21
 70
     1
102
RTVSPropertyOp22
 70
     1
102
RTVSPropertyOp23
 70
     1
102
RTVSPropertyOp24
 70
     1
102
RTVSPropertyOp25
 70
     1
102
RTVSPropertyOp26
 70
     1
102
RTVSPropertyOp27
 70
     1
102
RTVSPropertyOp28
 70
     1
102
RTVSPropertyOp29
 70
     1
102
RTVSPropertyOp30
 70
     1
102
RTVSPropertyOp31
 70
     1
102
RTVSPropertyOp32
 70
     1
  0
XRECORD
  5
1155
102
{ACAD_REACTORS
330
1154
102
}
330
1154
100
AcDbXrecord
280
     1
102
RTVSPropertyOp0
 70
     1
102
RTVSPropertyOp1
 70
     1
102
RTVSPropertyOp2
 70
     1
102
RTVSPropertyOp3
 70
     1
102
RTVSPropertyOp4
 70
     1
102
RTVSPropertyOp5
 70
     1
102
RTVSPropertyOp6
 70
     1
102
RTVSPropertyOp7
 70
     1
102
RTVSPropertyOp8
 70
     1
102
RTVSPropertyOp9
 70
     1
102
RTVSPropertyOp10
 70
     1
102
RTVSPropertyOp11
 70
     1
102
RTVSPropertyOp12
 70
     1
102
RTVSPropertyOp13
 70
     1
102
RTVSPropertyOp14
 70
     1
102
RTVSPropertyOp15
 70
     1
102
RTVSPropertyOp16
 70
     1
102
RTVSPropertyOp17
 70
     1
102
RTVSPropertyOp18
 70
     1
102
RTVSPropertyOp19
 70
     1
102
RTVSPropertyOp20
 70
     1
102
RTVSPropertyOp21
 70
     1
102
RTVSPropertyOp22
 70
     1
102
RTVSPropertyOp23
 70
     1
102
RTVSPropertyOp24
 70
     1
102
RTVSPropertyOp25
 70
     1
102
RTVSPropertyOp26
 70
     1
102
RTVSPropertyOp27
 70
     1
102
RTVSPropertyOp28
 70
     1
102
RTVSPropertyOp29
 70
     1
102
RTVSPropertyOp30
 70
     1
102
RTVSPropertyOp31
 70
     1
102
RTVSPropertyOp32
 70
     1
  0
XRECORD
  5
1157
102
{ACAD_REACTORS
330
1156
102
}
330
1156
100
AcDbXrecord
280
     1
102
RTVSPropertyOp0
 70
     1
102
RTVSPropertyOp1
 70
     1
102
RTVSPropertyOp2
 70
     1
102
RTVSPropertyOp3
 70
     1
102
RTVSPropertyOp4
 70
     1
102
RTVSPropertyOp5
 70
     1
102
RTVSPropertyOp6
 70
     1
102
RTVSPropertyOp7
 70
     1
102
RTVSPropertyOp8
 70
     1
102
RTVSPropertyOp9
 70
     1
102
RTVSPropertyOp10
 70
     1
102
RTVSPropertyOp11
 70
     1
102
RTVSPropertyOp12
 70
     1
102
RTVSPropertyOp13
 70
     1
102
RTVSPropertyOp14
 70
     1
102
RTVSPropertyOp15
 70
     1
102
RTVSPropertyOp16
 70
     1
102
RTVSPropertyOp17
 70
     1
102
RTVSPropertyOp18
 70
     1
102
RTVSPropertyOp19
 70
     1
102
RTVSPropertyOp20
 70
     1
102
RTVSPropertyOp21
 70
     1
102
RTVSPropertyOp22
 70
     1
102
RTVSPropertyOp23
 70
     1
102
RTVSPropertyOp24
 70
     1
102
RTVSPropertyOp25
 70
     1
102
RTVSPropertyOp26
 70
     1
102
RTVSPropertyOp27
 70
     1
102
RTVSPropertyOp28
 70
     1
102
RTVSPropertyOp29
 70
     1
102
RTVSPropertyOp30
 70
     1
102
RTVSPropertyOp31
 70
     1
102
RTVSPropertyOp32
 70
     1
  0
XRECORD
  5
1159
102
{ACAD_REACTORS
330
1158
102
}
330
1158
100
AcDbXrecord
280
     1
102
RTVSPropertyOp0
 70
     1
102
RTVSPropertyOp1
 70
     1
102
RTVSPropertyOp2
 70
     1
102
RTVSPropertyOp3
 70
     1
102
RTVSPropertyOp4
 70
     1
102
RTVSPropertyOp5
 70
     1
102
RTVSPropertyOp6
 70
     1
102
RTVSPropertyOp7
 70
     1
102
RTVSPropertyOp8
 70
     1
102
RTVSPropertyOp9
 70
     1
102
RTVSPropertyOp10
 70
     1
102
RTVSPropertyOp11
 70
     1
102
RTVSPropertyOp12
 70
     1
102
RTVSPropertyOp13
 70
     1
102
RTVSPropertyOp14
 70
     1
102
RTVSPropertyOp15
 70
     1
102
RTVSPropertyOp16
 70
     1
102
RTVSPropertyOp17
 70
     1
102
RTVSPropertyOp18
 70
     1
102
RTVSPropertyOp19
 70
     1
102
RTVSPropertyOp20
 70
     1
102
RTVSPropertyOp21
 70
     1
102
RTVSPropertyOp22
 70
     1
102
RTVSPropertyOp23
 70
     1
102
RTVSPropertyOp24
 70
     1
102
RTVSPropertyOp25
 70
     1
102
RTVSPropertyOp26
 70
     1
102
RTVSPropertyOp27
 70
     1
102
RTVSPropertyOp28
 70
     1
102
RTVSPropertyOp29
 70
     1
102
RTVSPropertyOp30
 70
     1
102
RTVSPropertyOp31
 70
     1
102
RTVSPropertyOp32
 70
     1
  0
XRECORD
  5
1161
102
{ACAD_REACTORS
330
1160
102
}
330
1160
100
AcDbXrecord
280
     1
102
RTVSPropertyOp0
 70
     1
102
RTVSPropertyOp1
 70
     1
102
RTVSPropertyOp2
 70
     1
102
RTVSPropertyOp3
 70
     1
102
RTVSPropertyOp4
 70
     1
102
RTVSPropertyOp5
 70
     1
102
RTVSPropertyOp6
 70
     1
102
RTVSPropertyOp7
 70
     1
102
RTVSPropertyOp8
 70
     1
102
RTVSPropertyOp9
 70
     1
102
RTVSPropertyOp10
 70
     1
102
RTVSPropertyOp11
 70
     1
102
RTVSPropertyOp12
 70
     1
102
RTVSPropertyOp13
 70
     1
102
RTVSPropertyOp14
 70
     1
102
RTVSPropertyOp15
 70
     1
102
RTVSPropertyOp16
 70
     1
102
RTVSPropertyOp17
 70
     1
102
RTVSPropertyOp18
 70
     1
102
RTVSPropertyOp19
 70
     1
102
RTVSPropertyOp20
 70
     1
102
RTVSPropertyOp21
 70
     1
102
RTVSPropertyOp22
 70
     1
102
RTVSPropertyOp23
 70
     1
102
RTVSPropertyOp24
 70
     1
102
RTVSPropertyOp25
 70
     1
102
RTVSPropertyOp26
 70
     1
102
RTVSPropertyOp27
 70
     1
102
RTVSPropertyOp28
 70
     1
102
RTVSPropertyOp29
 70
     1
102
RTVSPropertyOp30
 70
     1
102
RTVSPropertyOp31
 70
     1
102
RTVSPropertyOp32
 70
     1
  0
XRECORD
  5
117D
102
{ACAD_REACTORS
330
117C
102
}
330
117C
100
AcDbXrecord
280
     1
102
RTVSPropertyOp0
 70
     0
102
RTVSPropertyOp1
 70
     0
102
RTVSPropertyOp2
 70
     0
102
RTVSPropertyOp3
 70
     0
102
RTVSPropertyOp4
 70
     0
102
RTVSPropertyOp5
 70
     0
102
RTVSPropertyOp6
 70
     0
102
RTVSPropertyOp7
 70
     0
102
RTVSPropertyOp8
 70
     0
102
RTVSPropertyOp9
 70
     0
102
RTVSPropertyOp10
 70
     0
102
RTVSPropertyOp11
 70
     0
102
RTVSPropertyOp12
 70
     0
102
RTVSPropertyOp13
 70
     0
102
RTVSPropertyOp14
 70
     2
102
RTVSPropertyOp15
 70
     0
102
RTVSPropertyOp16
 70
     0
102
RTVSPropertyOp17
 70
     0
102
RTVSPropertyOp18
 70
     0
102
RTVSPropertyOp19
 70
     0
102
RTVSPropertyOp20
 70
     0
102
RTVSPropertyOp21
 70
     0
102
RTVSPropertyOp22
 70
     0
102
RTVSPropertyOp23
 70
     0
102
RTVSPropertyOp24
 70
     0
102
RTVSPropertyOp25
 70
     0
102
RTVSPropertyOp26
 70
     0
102
RTVSPropertyOp27
 70
     0
102
RTVSPropertyOp28
 70
     1
102
RTVSPropertyOp29
 70
     1
102
RTVSPropertyOp30
 70
     1
102
RTVSPropertyOp31
 70
     1
102
RTVSPropertyOp32
 70
     1
  0
XRECORD
  5
116D
102
{ACAD_REACTORS
330
116C
102
}
330
116C
100
AcDbXrecord
280
     1
102
RTVSPropertyOp0
 70
     1
102
RTVSPropertyOp1
 70
     1
102
RTVSPropertyOp2
 70
     1
102
RTVSPropertyOp3
 70
     1
102
RTVSPropertyOp4
 70
     1
102
RTVSPropertyOp5
 70
     1
102
RTVSPropertyOp6
 70
     1
102
RTVSPropertyOp7
 70
     1
102
RTVSPropertyOp8
 70
     1
102
RTVSPropertyOp9
 70
     1
102
RTVSPropertyOp10
 70
     1
102
RTVSPropertyOp11
 70
     1
102
RTVSPropertyOp12
 70
     1
102
RTVSPropertyOp13
 70
     1
102
RTVSPropertyOp14
 70
     1
102
RTVSPropertyOp15
 70
     1
102
RTVSPropertyOp16
 70
     1
102
RTVSPropertyOp17
 70
     1
102
RTVSPropertyOp18
 70
     1
102
RTVSPropertyOp19
 70
     1
102
RTVSPropertyOp20
 70
     1
102
RTVSPropertyOp21
 70
     1
102
RTVSPropertyOp22
 70
     1
102
RTVSPropertyOp23
 70
     1
102
RTVSPropertyOp24
 70
     1
102
RTVSPropertyOp25
 70
     1
102
RTVSPropertyOp26
 70
     1
102
RTVSPropertyOp27
 70
     1
102
RTVSPropertyOp28
 70
     1
102
RTVSPropertyOp29
 70
     1
102
RTVSPropertyOp30
 70
     1
102
RTVSPropertyOp31
 70
     1
102
RTVSPropertyOp32
 70
     1
  0
XRECORD
  5
117F
102
{ACAD_REACTORS
330
117E
102
}
330
117E
100
AcDbXrecord
280
     1
102
RTVSPropertyOp0
 70
     0
102
RTVSPropertyOp1
 70
     0
102
RTVSPropertyOp2
 70
     0
102
RTVSPropertyOp3
 70
     0
102
RTVSPropertyOp4
 70
     0
102
RTVSPropertyOp5
 70
     0
102
RTVSPropertyOp6
 70
     0
102
RTVSPropertyOp7
 70
     0
102
RTVSPropertyOp8
 70
     0
102
RTVSPropertyOp9
 70
     0
102
RTVSPropertyOp10
 70
     0
102
RTVSPropertyOp11
 70
     0
102
RTVSPropertyOp12
 70
     0
102
RTVSPropertyOp13
 70
     0
102
RTVSPropertyOp14
 70
     2
102
RTVSPropertyOp15
 70
     0
102
RTVSPropertyOp16
 70
     0
102
RTVSPropertyOp17
 70
     0
102
RTVSPropertyOp18
 70
     0
102
RTVSPropertyOp19
 70
     0
102
RTVSPropertyOp20
 70
     0
102
RTVSPropertyOp21
 70
     0
102
RTVSPropertyOp22
 70
     0
102
RTVSPropertyOp23
 70
     0
102
RTVSPropertyOp24
 70
     0
102
RTVSPropertyOp25
 70
     0
102
RTVSPropertyOp26
 70
     0
102
RTVSPropertyOp27
 70
     0
102
RTVSPropertyOp28
 70
     1
102
RTVSPropertyOp29
 70
     1
102
RTVSPropertyOp30
 70
     1
102
RTVSPropertyOp31
 70
     1
102
RTVSPropertyOp32
 70
     1
  0
XRECORD
  5
1165
102
{ACAD_REACTORS
330
1164
102
}
330
1164
100
AcDbXrecord
280
     1
102
RTVSPropertyOp0
 70
     1
102
RTVSPropertyOp1
 70
     1
102
RTVSPropertyOp2
 70
     1
102
RTVSPropertyOp3
 70
     1
102
RTVSPropertyOp4
 70
     1
102
RTVSPropertyOp5
 70
     1
102
RTVSPropertyOp6
 70
     1
102
RTVSPropertyOp7
 70
     1
102
RTVSPropertyOp8
 70
     1
102
RTVSPropertyOp9
 70
     1
102
RTVSPropertyOp10
 70
     1
102
RTVSPropertyOp11
 70
     1
102
RTVSPropertyOp12
 70
     1
102
RTVSPropertyOp13
 70
     1
102
RTVSPropertyOp14
 70
     1
102
RTVSPropertyOp15
 70
     1
102
RTVSPropertyOp16
 70
     1
102
RTVSPropertyOp17
 70
     1
102
RTVSPropertyOp18
 70
     1
102
RTVSPropertyOp19
 70
     1
102
RTVSPropertyOp20
 70
     1
102
RTVSPropertyOp21
 70
     1
102
RTVSPropertyOp22
 70
     1
102
RTVSPropertyOp23
 70
     1
102
RTVSPropertyOp24
 70
     1
102
RTVSPropertyOp25
 70
     1
102
RTVSPropertyOp26
 70
     1
102
RTVSPropertyOp27
 70
     1
102
RTVSPropertyOp28
 70
     1
102
RTVSPropertyOp29
 70
     1
102
RTVSPropertyOp30
 70
     1
102
RTVSPropertyOp31
 70
     1
102
RTVSPropertyOp32
 70
     1
  0
XRECORD
  5
117B
102
{ACAD_REACTORS
330
117A
102
}
330
117A
100
AcDbXrecord
280
     1
102
RTVSPropertyOp0
 70
     1
102
RTVSPropertyOp1
 70
     1
102
RTVSPropertyOp2
 70
     1
102
RTVSPropertyOp3
 70
     1
102
RTVSPropertyOp4
 70
     1
102
RTVSPropertyOp5
 70
     1
102
RTVSPropertyOp6
 70
     1
102
RTVSPropertyOp7
 70
     1
102
RTVSPropertyOp8
 70
     1
102
RTVSPropertyOp9
 70
     1
102
RTVSPropertyOp10
 70
     1
102
RTVSPropertyOp11
 70
     1
102
RTVSPropertyOp12
 70
     1
102
RTVSPropertyOp13
 70
     1
102
RTVSPropertyOp14
 70
     1
102
RTVSPropertyOp15
 70
     1
102
RTVSPropertyOp16
 70
     1
102
RTVSPropertyOp17
 70
     1
102
RTVSPropertyOp18
 70
     1
102
RTVSPropertyOp19
 70
     1
102
RTVSPropertyOp20
 70
     1
102
RTVSPropertyOp21
 70
     1
102
RTVSPropertyOp22
 70
     1
102
RTVSPropertyOp23
 70
     1
102
RTVSPropertyOp24
 70
     1
102
RTVSPropertyOp25
 70
     1
102
RTVSPropertyOp26
 70
     1
102
RTVSPropertyOp27
 70
     1
102
RTVSPropertyOp28
 70
     1
102
RTVSPropertyOp29
 70
     1
102
RTVSPropertyOp30
 70
     1
102
RTVSPropertyOp31
 70
     1
102
RTVSPropertyOp32
 70
     1
  0
XRECORD
  5
1179
102
{ACAD_REACTORS
330
1178
102
}
330
1178
100
AcDbXrecord
280
     1
102
RTVSPropertyOp0
 70
     1
102
RTVSPropertyOp1
 70
     1
102
RTVSPropertyOp2
 70
     1
102
RTVSPropertyOp3
 70
     1
102
RTVSPropertyOp4
 70
     1
102
RTVSPropertyOp5
 70
     1
102
RTVSPropertyOp6
 70
     1
102
RTVSPropertyOp7
 70
     1
102
RTVSPropertyOp8
 70
     1
102
RTVSPropertyOp9
 70
     1
102
RTVSPropertyOp10
 70
     1
102
RTVSPropertyOp11
 70
     1
102
RTVSPropertyOp12
 70
     1
102
RTVSPropertyOp13
 70
     1
102
RTVSPropertyOp14
 70
     1
102
RTVSPropertyOp15
 70
     1
102
RTVSPropertyOp16
 70
     1
102
RTVSPropertyOp17
 70
     1
102
RTVSPropertyOp18
 70
     1
102
RTVSPropertyOp19
 70
     1
102
RTVSPropertyOp20
 70
     1
102
RTVSPropertyOp21
 70
     1
102
RTVSPropertyOp22
 70
     1
102
RTVSPropertyOp23
 70
     1
102
RTVSPropertyOp24
 70
     1
102
RTVSPropertyOp25
 70
     1
102
RTVSPropertyOp26
 70
     1
102
RTVSPropertyOp27
 70
     1
102
RTVSPropertyOp28
 70
     1
102
RTVSPropertyOp29
 70
     1
102
RTVSPropertyOp30
 70
     1
102
RTVSPropertyOp31
 70
     1
102
RTVSPropertyOp32
 70
     1
  0
XRECORD
  5
1173
102
{ACAD_REACTORS
330
1172
102
}
330
1172
100
AcDbXrecord
280
     1
102
RTVSPropertyOp0
 70
     1
102
RTVSPropertyOp1
 70
     1
102
RTVSPropertyOp2
 70
     1
102
RTVSPropertyOp3
 70
     1
102
RTVSPropertyOp4
 70
     1
102
RTVSPropertyOp5
 70
     1
102
RTVSPropertyOp6
 70
     1
102
RTVSPropertyOp7
 70
     1
102
RTVSPropertyOp8
 70
     1
102
RTVSPropertyOp9
 70
     1
102
RTVSPropertyOp10
 70
     1
102
RTVSPropertyOp11
 70
     1
102
RTVSPropertyOp12
 70
     1
102
RTVSPropertyOp13
 70
     1
102
RTVSPropertyOp14
 70
     1
102
RTVSPropertyOp15
 70
     1
102
RTVSPropertyOp16
 70
     1
102
RTVSPropertyOp17
 70
     1
102
RTVSPropertyOp18
 70
     1
102
RTVSPropertyOp19
 70
     1
102
RTVSPropertyOp20
 70
     1
102
RTVSPropertyOp21
 70
     1
102
RTVSPropertyOp22
 70
     1
102
RTVSPropertyOp23
 70
     1
102
RTVSPropertyOp24
 70
     1
102
RTVSPropertyOp25
 70
     1
102
RTVSPropertyOp26
 70
     1
102
RTVSPropertyOp27
 70
     1
102
RTVSPropertyOp28
 70
     1
102
RTVSPropertyOp29
 70
     1
102
RTVSPropertyOp30
 70
     1
102
RTVSPropertyOp31
 70
     1
102
RTVSPropertyOp32
 70
     1
  0
XRECORD
  5
1175
102
{ACAD_REACTORS
330
1174
102
}
330
1174
100
AcDbXrecord
280
     1
102
RTVSPropertyOp0
 70
     1
102
RTVSPropertyOp1
 70
     1
102
RTVSPropertyOp2
 70
     1
102
RTVSPropertyOp3
 70
     1
102
RTVSPropertyOp4
 70
     1
102
RTVSPropertyOp5
 70
     1
102
RTVSPropertyOp6
 70
     1
102
RTVSPropertyOp7
 70
     1
102
RTVSPropertyOp8
 70
     1
102
RTVSPropertyOp9
 70
     1
102
RTVSPropertyOp10
 70
     1
102
RTVSPropertyOp11
 70
     1
102
RTVSPropertyOp12
 70
     1
102
RTVSPropertyOp13
 70
     1
102
RTVSPropertyOp14
 70
     1
102
RTVSPropertyOp15
 70
     1
102
RTVSPropertyOp16
 70
     1
102
RTVSPropertyOp17
 70
     1
102
RTVSPropertyOp18
 70
     1
102
RTVSPropertyOp19
 70
     1
102
RTVSPropertyOp20
 70
     1
102
RTVSPropertyOp21
 70
     1
102
RTVSPropertyOp22
 70
     1
102
RTVSPropertyOp23
 70
     1
102
RTVSPropertyOp24
 70
     1
102
RTVSPropertyOp25
 70
     1
102
RTVSPropertyOp26
 70
     1
102
RTVSPropertyOp27
 70
     1
102
RTVSPropertyOp28
 70
     1
102
RTVSPropertyOp29
 70
     1
102
RTVSPropertyOp30
 70
     1
102
RTVSPropertyOp31
 70
     1
102
RTVSPropertyOp32
 70
     1
  0
XRECORD
  5
116B
102
{ACAD_REACTORS
330
116A
102
}
330
116A
100
AcDbXrecord
280
     1
102
RTVSPropertyOp0
 70
     1
102
RTVSPropertyOp1
 70
     1
102
RTVSPropertyOp2
 70
     1
102
RTVSPropertyOp3
 70
     1
102
RTVSPropertyOp4
 70
     1
102
RTVSPropertyOp5
 70
     1
102
RTVSPropertyOp6
 70
     1
102
RTVSPropertyOp7
 70
     1
102
RTVSPropertyOp8
 70
     1
102
RTVSPropertyOp9
 70
     1
102
RTVSPropertyOp10
 70
     1
102
RTVSPropertyOp11
 70
     1
102
RTVSPropertyOp12
 70
     1
102
RTVSPropertyOp13
 70
     1
102
RTVSPropertyOp14
 70
     1
102
RTVSPropertyOp15
 70
     1
102
RTVSPropertyOp16
 70
     1
102
RTVSPropertyOp17
 70
     1
102
RTVSPropertyOp18
 70
     1
102
RTVSPropertyOp19
 70
     1
102
RTVSPropertyOp20
 70
     1
102
RTVSPropertyOp21
 70
     1
102
RTVSPropertyOp22
 70
     1
102
RTVSPropertyOp23
 70
     1
102
RTVSPropertyOp24
 70
     1
102
RTVSPropertyOp25
 70
     1
102
RTVSPropertyOp26
 70
     1
102
RTVSPropertyOp27
 70
     1
102
RTVSPropertyOp28
 70
     1
102
RTVSPropertyOp29
 70
     1
102
RTVSPropertyOp30
 70
     1
102
RTVSPropertyOp31
 70
     1
102
RTVSPropertyOp32
 70
     1
  0
XRECORD
  5
115F
102
{ACAD_REACTORS
330
115E
102
}
330
115E
100
AcDbXrecord
280
     1
102
RTVSPropertyOp0
 70
     1
102
RTVSPropertyOp1
 70
     1
102
RTVSPropertyOp2
 70
     1
102
RTVSPropertyOp3
 70
     1
102
RTVSPropertyOp4
 70
     1
102
RTVSPropertyOp5
 70
     1
102
RTVSPropertyOp6
 70
     1
102
RTVSPropertyOp7
 70
     1
102
RTVSPropertyOp8
 70
     1
102
RTVSPropertyOp9
 70
     1
102
RTVSPropertyOp10
 70
     1
102
RTVSPropertyOp11
 70
     1
102
RTVSPropertyOp12
 70
     1
102
RTVSPropertyOp13
 70
     1
102
RTVSPropertyOp14
 70
     1
102
RTVSPropertyOp15
 70
     1
102
RTVSPropertyOp16
 70
     1
102
RTVSPropertyOp17
 70
     1
102
RTVSPropertyOp18
 70
     1
102
RTVSPropertyOp19
 70
     1
102
RTVSPropertyOp20
 70
     1
102
RTVSPropertyOp21
 70
     1
102
RTVSPropertyOp22
 70
     1
102
RTVSPropertyOp23
 70
     1
102
RTVSPropertyOp24
 70
     1
102
RTVSPropertyOp25
 70
     1
102
RTVSPropertyOp26
 70
     1
102
RTVSPropertyOp27
 70
     1
102
RTVSPropertyOp28
 70
     1
102
RTVSPropertyOp29
 70
     1
102
RTVSPropertyOp30
 70
     1
102
RTVSPropertyOp31
 70
     1
102
RTVSPropertyOp32
 70
     1
  0
XRECORD
  5
1177
102
{ACAD_REACTORS
330
1176
102
}
330
1176
100
AcDbXrecord
280
     1
102
RTVSPropertyOp0
 70
     1
102
RTVSPropertyOp1
 70
     1
102
RTVSPropertyOp2
 70
     1
102
RTVSPropertyOp3
 70
     1
102
RTVSPropertyOp4
 70
     1
102
RTVSPropertyOp5
 70
     1
102
RTVSPropertyOp6
 70
     1
102
RTVSPropertyOp7
 70
     1
102
RTVSPropertyOp8
 70
     1
102
RTVSPropertyOp9
 70
     1
102
RTVSPropertyOp10
 70
     1
102
RTVSPropertyOp11
 70
     1
102
RTVSPropertyOp12
 70
     1
102
RTVSPropertyOp13
 70
     1
102
RTVSPropertyOp14
 70
     1
102
RTVSPropertyOp15
 70
     1
102
RTVSPropertyOp16
 70
     1
102
RTVSPropertyOp17
 70
     1
102
RTVSPropertyOp18
 70
     1
102
RTVSPropertyOp19
 70
     1
102
RTVSPropertyOp20
 70
     1
102
RTVSPropertyOp21
 70
     1
102
RTVSPropertyOp22
 70
     1
102
RTVSPropertyOp23
 70
     1
102
RTVSPropertyOp24
 70
     1
102
RTVSPropertyOp25
 70
     1
102
RTVSPropertyOp26
 70
     1
102
RTVSPropertyOp27
 70
     1
102
RTVSPropertyOp28
 70
     1
102
RTVSPropertyOp29
 70
     1
102
RTVSPropertyOp30
 70
     1
102
RTVSPropertyOp31
 70
     1
102
RTVSPropertyOp32
 70
     1
  0
ENDSEC
  0
EOF
