  0
SECTION
  2
HEADER
  9
$ACADVER
  1
AC1015
  9
$ACADMAINTVER
 70
    20
  9
$DWGCODEPAGE
  3
ANSI_1252
  9
$INSBASE
 10
0.0
 20
0.0
 30
0.0
  9
$EXTMIN
 10
-0.0000000274912111
 20
0.0000000469858321
 30
0.0
  9
$EXTMAX
 10
67.99999997250878
 20
38.62667528630168
 30
0.0
  9
$LIMMIN
 10
0.0
 20
0.0
  9
$LIMMAX
 10
12.0
 20
9.0
  9
$ORTHOMODE
 70
     0
  9
$REGENMODE
 70
     1
  9
$FILLMODE
 70
     1
  9
$QTEXTMODE
 70
     0
  9
$MIRRTEXT
 70
     0
  9
$LTSCALE
 40
1.0
  9
$ATTMODE
 70
     1
  9
$TEXTSIZE
 40
0.2
  9
$TRACEWID
 40
0.05
  9
$TEXTSTYLE
  7
Standard
  9
$CLAYER
  8
0
  9
$CELTYPE
  6
ByLayer
  9
$CECOLOR
 62
   256
  9
$CELTSCALE
 40
1.0
  9
$DISPSILH
 70
     0
  9
$DIMSCALE
 40
2.0
  9
$DIMASZ
 40
0.125
  9
$DIMEXO
 40
0.1875
  9
$DIMDLI
 40
0.1875
  9
$DIMRND
 40
0.0
  9
$DIMDLE
 40
0.0
  9
$DIMEXE
 40
0.09
  9
$DIMTP
 40
0.0
  9
$DIMTM
 40
0.0
  9
$DIMTXT
 40
0.093
  9
$DIMCEN
 40
0.0
  9
$DIMTSZ
 40
0.0
  9
$DIMTOL
 70
     0
  9
$DIMLIM
 70
     0
  9
$DIMTIH
 70
     0
  9
$DIMTOH
 70
     0
  9
$DIMSE1
 70
     0
  9
$DIMSE2
 70
     0
  9
$DIMTAD
 70
     3
  9
$DIMZIN
 70
     3
  9
$DIMBLK
  1

  9
$DIMASO
 70
     1
  9
$DIMSHO
 70
     1
  9
$DIMPOST
  1
"
  9
$DIMAPOST
  1
mm
  9
$DIMALT
 70
     0
  9
$DIMALTD
 70
     3
  9
$DIMALTF
 40
25.4
  9
$DIMLFAC
 40
1.0
  9
$DIMTOFL
 70
     0
  9
$DIMTVP
 40
0.0
  9
$DIMTIX
 70
     0
  9
$DIMSOXD
 70
     0
  9
$DIMSAH
 70
     0
  9
$DIMBLK1
  1

  9
$DIMBLK2
  1

  9
$DIMSTYLE
  2
EXT_ON-ON
  9
$DIMCLRD
 70
     0
  9
$DIMCLRE
 70
     0
  9
$DIMCLRT
 70
     0
  9
$DIMTFAC
 40
1.0
  9
$DIMGAP
 40
0.05
  9
$DIMJUST
 70
     0
  9
$DIMSD1
 70
     0
  9
$DIMSD2
 70
     0
  9
$DIMTOLJ
 70
     1
  9
$DIMTZIN
 70
     3
  9
$DIMALTZ
 70
     3
  9
$DIMALTTZ
 70
     3
  9
$DIMUPT
 70
     0
  9
$DIMDEC
 70
     4
  9
$DIMTDEC
 70
     4
  9
$DIMALTU
 70
     5
  9
$DIMALTTD
 70
     3
  9
$DIMTXSTY
  7
Standard
  9
$DIMAUNIT
 70
     0
  9
$DIMADEC
 70
     2
  9
$DIMALTRND
 40
0.0
  9
$DIMAZIN
 70
     0
  9
$DIMDSEP
 70
    46
  9
$DIMATFIT
 70
     0
  9
$DIMFRAC
 70
     2
  9
$DIMLDRBLK
  1

  9
$DIMLUNIT
 70
     5
  9
$DIMLWD
 70
    -2
  9
$DIMLWE
 70
    -2
  9
$DIMTMOVE
 70
     0
  9
$LUNITS
 70
     2
  9
$LUPREC
 70
     5
  9
$SKETCHINC
 40
0.1
  9
$FILLETRAD
 40
0.032
  9
$AUNITS
 70
     0
  9
$AUPREC
 70
     0
  9
$MENU
  1
.
  9
$ELEVATION
 40
0.0
  9
$PELEVATION
 40
0.0
  9
$THICKNESS
 40
0.0
  9
$LIMCHECK
 70
     0
  9
$CHAMFERA
 40
0.0
  9
$CHAMFERB
 40
0.0
  9
$CHAMFERC
 40
0.0
  9
$CHAMFERD
 40
0.0
  9
$SKPOLY
 70
     0
  9
$TDCREATE
 40
2453567.419181204
  9
$TDUCREATE
 40
2453567.627514537
  9
$TDUPDATE
 40
2457807.533037315
  9
$TDUUPDATE
 40
2457807.741370648
  9
$TDINDWG
 40
0.2203612500
  9
$TDUSRTIMER
 40
0.2203612500
  9
$USRTIMER
 70
     1
  9
$ANGBASE
 50
0.0
  9
$ANGDIR
 70
     0
  9
$PDMODE
 70
     0
  9
$PDSIZE
 40
0.0
  9
$PLINEWID
 40
0.0
  9
$SPLFRAME
 70
     0
  9
$SPLINETYPE
 70
     6
  9
$SPLINESEGS
 70
     8
  9
$HANDSEED
  5
2054
  9
$SURFTAB1
 70
     6
  9
$SURFTAB2
 70
     6
  9
$SURFTYPE
 70
     6
  9
$SURFU
 70
     6
  9
$SURFV
 70
     6
  9
$UCSBASE
  2

  9
$UCSNAME
  2

  9
$UCSORG
 10
0.0
 20
0.0
 30
0.0
  9
$UCSXDIR
 10
1.0
 20
0.0
 30
0.0
  9
$UCSYDIR
 10
0.0
 20
1.0
 30
0.0
  9
$UCSORTHOREF
  2

  9
$UCSORTHOVIEW
 70
     0
  9
$UCSORGTOP
 10
0.0
 20
0.0
 30
0.0
  9
$UCSORGBOTTOM
 10
0.0
 20
0.0
 30
0.0
  9
$UCSORGLEFT
 10
0.0
 20
0.0
 30
0.0
  9
$UCSORGRIGHT
 10
0.0
 20
0.0
 30
0.0
  9
$UCSORGFRONT
 10
0.0
 20
0.0
 30
0.0
  9
$UCSORGBACK
 10
0.0
 20
0.0
 30
0.0
  9
$PUCSBASE
  2

  9
$PUCSNAME
  2

  9
$PUCSORG
 10
0.0
 20
0.0
 30
0.0
  9
$PUCSXDIR
 10
1.0
 20
0.0
 30
0.0
  9
$PUCSYDIR
 10
0.0
 20
1.0
 30
0.0
  9
$PUCSORTHOREF
  2

  9
$PUCSORTHOVIEW
 70
     0
  9
$PUCSORGTOP
 10
0.0
 20
0.0
 30
0.0
  9
$PUCSORGBOTTOM
 10
0.0
 20
0.0
 30
0.0
  9
$PUCSORGLEFT
 10
0.0
 20
0.0
 30
0.0
  9
$PUCSORGRIGHT
 10
0.0
 20
0.0
 30
0.0
  9
$PUCSORGFRONT
 10
0.0
 20
0.0
 30
0.0
  9
$PUCSORGBACK
 10
0.0
 20
0.0
 30
0.0
  9
$USERI1
 70
     0
  9
$USERI2
 70
     0
  9
$USERI3
 70
     0
  9
$USERI4
 70
     0
  9
$USERI5
 70
     0
  9
$USERR1
 40
0.0
  9
$USERR2
 40
0.0
  9
$USERR3
 40
0.0
  9
$USERR4
 40
0.0
  9
$USERR5
 40
0.0
  9
$WORLDVIEW
 70
     1
  9
$SHADEDGE
 70
     3
  9
$SHADEDIF
 70
    70
  9
$TILEMODE
 70
     1
  9
$MAXACTVP
 70
    64
  9
$PINSBASE
 10
0.0
 20
0.0
 30
0.0
  9
$PLIMCHECK
 70
     0
  9
$PEXTMIN
 10
0.0
 20
0.0
 30
0.0
  9
$PEXTMAX
 10
0.0
 20
0.0
 30
0.0
  9
$PLIMMIN
 10
0.0
 20
0.0
  9
$PLIMMAX
 10
12.0
 20
9.0
  9
$UNITMODE
 70
     0
  9
$VISRETAIN
 70
     1
  9
$PLINEGEN
 70
     0
  9
$PSLTSCALE
 70
     1
  9
$TREEDEPTH
 70
  3020
  9
$CMLSTYLE
  2
Standard
  9
$CMLJUST
 70
     0
  9
$CMLSCALE
 40
1.0
  9
$PROXYGRAPHICS
 70
     1
  9
$MEASUREMENT
 70
     0
  9
$CELWEIGHT
370
    -1
  9
$ENDCAPS
280
     0
  9
$JOINSTYLE
280
     0
  9
$LWDISPLAY
290
     0
  9
$INSUNITS
 70
     1
  9
$HYPERLINKBASE
  1

  9
$STYLESHEET
  1

  9
$XEDIT
290
     1
  9
$CEPSNTYPE
380
     0
  9
$PSTYLEMODE
290
     1
  9
$FINGERPRINTGUID
  2
{FDEAD576-A652-11D2-9A35-0060089B3A3F}
  9
$VERSIONGUID
  2
{5F24EB53-D80F-4FA5-8215-069438A66C3C}
  9
$EXTNAMES
290
     1
  9
$PSVPSCALE
 40
0.0
  9
$OLESTARTUP
290
     0
  0
ENDSEC
  0
SECTION
  2
CLASSES
  0
CLASS
  1
ACDBDICTIONARYWDFLT
  2
AcDbDictionaryWithDefault
  3
ObjectDBX Classes
 90
        0
280
     0
281
     0
  0
CLASS
  1
ACDBPLACEHOLDER
  2
AcDbPlaceHolder
  3
ObjectDBX Classes
 90
        0
280
     0
281
     0
  0
CLASS
  1
LAYOUT
  2
AcDbLayout
  3
ObjectDBX Classes
 90
        0
280
     0
281
     0
  0
CLASS
  1
DICTIONARYVAR
  2
AcDbDictionaryVar
  3
ObjectDBX Classes
 90
        0
280
     0
281
     0
  0
CLASS
  1
DIMASSOC
  2
AcDbDimAssoc
  3
"AcDbDimAssoc|Product Desc:     AcDim ARX App For Dimension|Company:          Autodesk, Inc.|WEB Address:      www.autodesk.com"
 90
        0
280
     0
281
     0
  0
CLASS
  1
MATERIAL
  2
AcDbMaterial
  3
ObjectDBX Classes
 90
     1153
280
     0
281
     0
  0
CLASS
  1
VISUALSTYLE
  2
AcDbVisualStyle
  3
ObjectDBX Classes
 90
     4095
280
     0
281
     0
  0
CLASS
  1
TABLESTYLE
  2
AcDbTableStyle
  3
ObjectDBX Classes
 90
     4095
280
     0
281
     0
  0
CLASS
  1
SCALE
  2
AcDbScale
  3
ObjectDBX Classes
 90
     1153
280
     0
281
     0
  0
CLASS
  1
MLEADERSTYLE
  2
AcDbMLeaderStyle
  3
ACDB_MLEADERSTYLE_CLASS
 90
     4095
280
     0
281
     0
  0
CLASS
  1
SORTENTSTABLE
  2
AcDbSortentsTable
  3
ObjectDBX Classes
 90
        0
280
     0
281
     0
  0
CLASS
  1
CELLSTYLEMAP
  2
AcDbCellStyleMap
  3
ObjectDBX Classes
 90
     1152
280
     0
281
     0
  0
CLASS
  1
EXACXREFPANELOBJECT
  2
ExAcXREFPanelObject
  3
EXAC_ESW
 90
     1025
280
     0
281
     0
  0
CLASS
  1
NPOCOLLECTION
  2
AcDbImpNonPersistentObjectsCollection
  3
ObjectDBX Classes
 90
     1153
280
     0
281
     0
  0
CLASS
  1
FIELD
  2
AcDbField
  3
ObjectDBX Classes
 90
    33920
280
     0
281
     0
  0
CLASS
  1
FIELDLIST
  2
AcDbFieldList
  3
ObjectDBX Classes
 90
     1152
280
     0
281
     0
  0
ENDSEC
  0
SECTION
  2
TABLES
  0
TABLE
  2
VPORT
  5
8
102
{ACAD_XDICTIONARY
360
17EA
102
}
330
0
100
AcDbSymbolTable
 70
     1
  0
VPORT
  5
175A
330
8
100
AcDbSymbolTableRecord
100
AcDbViewportTableRecord
  2
*Active
 70
     0
 10
0.0
 20
0.0
 11
1.0
 21
1.0
 12
46.10112053283645
 22
19.313338002909
 13
0.0
 23
0.0
 14
0.5
 24
0.5
 15
0.5
 25
0.5
 16
0.0
 26
0.0
 36
1.0
 17
0.0
 27
0.0
 37
0.0
 40
38.89103420772071
 41
2.681260945709281
 42
50.0
 43
0.0
 44
0.0
 50
0.0
 51
0.0
 71
     0
 72
  1000
 73
     1
 74
     3
 75
     0
 76
     0
 77
     0
 78
     0
281
     0
 65
     1
110
0.0
120
0.0
130
0.0
111
1.0
121
0.0
131
0.0
112
0.0
122
1.0
132
0.0
 79
     0
146
0.0
1001
ACAD_NAV_VCDISPLAY
1070
     3
  0
ENDTAB
  0
TABLE
  2
LTYPE
  5
5
330
0
100
AcDbSymbolTable
 70
     3
  0
LTYPE
  5
14
330
5
100
AcDbSymbolTableRecord
100
AcDbLinetypeTableRecord
  2
ByBlock
 70
     0
  3

 72
    65
 73
     0
 40
0.0
  0
LTYPE
  5
15
330
5
100
AcDbSymbolTableRecord
100
AcDbLinetypeTableRecord
  2
ByLayer
 70
     0
  3

 72
    65
 73
     0
 40
0.0
  0
LTYPE
  5
16
330
5
100
AcDbSymbolTableRecord
100
AcDbLinetypeTableRecord
  2
Continuous
 70
     0
  3
Solid line
 72
    65
 73
     0
 40
0.0
  0
LTYPE
  5
1F5E
330
5
100
AcDbSymbolTableRecord
100
AcDbLinetypeTableRecord
  2
DASHED
 70
     0
  3
Dashed __ __ __ __ __ __ __ __ __ __ __ __ __ _
 72
    65
 73
     2
 40
0.75
 49
0.5
 74
     0
 49
-0.25
 74
     0
  0
LTYPE
  5
1F5F
330
5
100
AcDbSymbolTableRecord
100
AcDbLinetypeTableRecord
  2
DOT
 70
     0
  3
Dot . . . . . . . . . . . . . . . . . . . . . .
 72
    65
 73
     2
 40
0.25
 49
0.0
 74
     0
 49
-0.25
 74
     0
  0
ENDTAB
  0
TABLE
  2
LAYER
  5
2
102
{ACAD_XDICTIONARY
360
182A
102
}
330
0
100
AcDbSymbolTable
 70
     7
  0
LAYER
  5
10
102
{ACAD_XDICTIONARY
360
17DE
102
}
330
2
100
AcDbSymbolTableRecord
100
AcDbLayerTableRecord
  2
0
 70
     0
 62
     7
  6
Continuous
370
    -3
390
F
  0
LAYER
  5
23E
330
2
100
AcDbSymbolTableRecord
100
AcDbLayerTableRecord
  2
DEFPOINTS
 70
     0
 62
     7
  6
Continuous
290
     0
370
    -3
390
F
  0
LAYER
  5
23F
102
{ACAD_XDICTIONARY
360
17E0
102
}
330
2
100
AcDbSymbolTableRecord
100
AcDbLayerTableRecord
  2
R-SWTS-DET1
 70
     0
 62
     1
  6
Continuous
370
    -3
390
F
  0
LAYER
  5
240
102
{ACAD_XDICTIONARY
360
17E2
102
}
330
2
100
AcDbSymbolTableRecord
100
AcDbLayerTableRecord
  2
PART_NUMBERS
 70
     0
 62
     6
  6
Continuous
370
    -3
390
F
  0
LAYER
  5
241
102
{ACAD_XDICTIONARY
360
17E4
102
}
330
2
100
AcDbSymbolTableRecord
100
AcDbLayerTableRecord
  2
R-ANNO-DIMS
 70
     0
 62
     3
  6
Continuous
370
    -3
390
F
  0
LAYER
  5
19A1
102
{ACAD_XDICTIONARY
360
19A2
102
}
330
2
100
AcDbSymbolTableRecord
100
AcDbLayerTableRecord
  2
TEXT
 70
     0
 62
     3
  6
Continuous
370
    -3
390
F
  0
LAYER
  5
1F60
330
2
100
AcDbSymbolTableRecord
100
AcDbLayerTableRecord
  2
Kawneer Logo-English
 70
     0
 62
     7
  6
Continuous
370
    -3
390
F
1001
AcAecLayerStandard
1000

1000

1001
AcCmTransparency
1071
        0
  0
ENDTAB
  0
TABLE
  2
STYLE
  5
3
330
0
100
AcDbSymbolTable
 70
     1
  0
STYLE
  5
11
330
3
100
AcDbSymbolTableRecord
100
AcDbTextStyleTableRecord
  2
Standard
 70
     0
 40
0.0
 41
1.0
 50
0.0
 71
     0
 42
0.2
  3
arial.ttf
  4

1001
ACAD
1000
Arial
1071
       34
  0
ENDTAB
  0
TABLE
  2
VIEW
  5
6
330
0
100
AcDbSymbolTable
 70
     0
  0
ENDTAB
  0
TABLE
  2
UCS
  5
7
330
0
100
AcDbSymbolTable
 70
     0
  0
ENDTAB
  0
TABLE
  2
APPID
  5
9
330
0
100
AcDbSymbolTable
 70
    15
  0
APPID
  5
12
330
9
100
AcDbSymbolTableRecord
100
AcDbRegAppTableRecord
  2
ACAD
 70
     0
  0
APPID
  5
19A5
330
9
100
AcDbSymbolTableRecord
100
AcDbRegAppTableRecord
  2
ACAD_NAV_VCDISPLAY
 70
     0
  0
APPID
  5
1F62
330
9
100
AcDbSymbolTableRecord
100
AcDbRegAppTableRecord
  2
ACAD_EXEMPT_FROM_CAD_STANDARDS
 70
     0
  0
APPID
  5
1F63
330
9
100
AcDbSymbolTableRecord
100
AcDbRegAppTableRecord
  2
GradientColor1ACI
 70
     0
  0
APPID
  5
1F64
330
9
100
AcDbSymbolTableRecord
100
AcDbRegAppTableRecord
  2
GradientColor2ACI
 70
     0
  0
APPID
  5
1F65
330
9
100
AcDbSymbolTableRecord
100
AcDbRegAppTableRecord
  2
ACAD_MLEADERVER
 70
     0
  0
APPID
  5
1F66
330
9
100
AcDbSymbolTableRecord
100
AcDbRegAppTableRecord
  2
ACAD_PSEXT
 70
     0
  0
APPID
  5
1F67
330
9
100
AcDbSymbolTableRecord
100
AcDbRegAppTableRecord
  2
ACAD_DSTYLE_DIMJAG
 70
     0
  0
APPID
  5
1F68
330
9
100
AcDbSymbolTableRecord
100
AcDbRegAppTableRecord
  2
ACAD_DSTYLE_DIMTALN
 70
     0
  0
APPID
  5
1F69
330
9
100
AcDbSymbolTableRecord
100
AcDbRegAppTableRecord
  2
ACAD_DSTYLE_DIMBREAK
 70
     0
  0
APPID
  5
1F6A
330
9
100
AcDbSymbolTableRecord
100
AcDbRegAppTableRecord
  2
AcDbDynamicBlockGUID
 70
     0
  0
APPID
  5
1F6B
330
9
100
AcDbSymbolTableRecord
100
AcDbRegAppTableRecord
  2
ACAUTHENVIRON
 70
     0
  0
APPID
  5
1F6C
330
9
100
AcDbSymbolTableRecord
100
AcDbRegAppTableRecord
  2
AcDbDynamicBlockTrueName
 70
     0
  0
APPID
  5
1F6D
330
9
100
AcDbSymbolTableRecord
100
AcDbRegAppTableRecord
  2
AcAecLayerStandard
 70
     0
  0
APPID
  5
1F6E
330
9
100
AcDbSymbolTableRecord
100
AcDbRegAppTableRecord
  2
AcCmTransparency
 70
     0
  0
ENDTAB
  0
TABLE
  2
DIMSTYLE
  5
A
330
0
100
AcDbSymbolTable
 70
     2
100
AcDbDimStyleTable
 71
     1
340
245
  0
DIMSTYLE
105
245
102
{ACAD_REACTORS
330
127C
330
1294
330
12AC
330
12C4
330
12DC
330
12F4
330
130C
330
1324
330
1343
330
135B
330
1373
330
138B
330
13A3
330
13BB
330
13D3
330
13EB
330
144F
330
1467
330
147F
330
1497
330
14AF
330
14C7
330
14DF
330
14F7
330
150F
330
1527
330
153F
330
1557
330
156F
330
1587
102
}
330
A
100
AcDbSymbolTableRecord
100
AcDbDimStyleTableRecord
  2
EXT_ON-ON
 70
     0
  3
"
  4
mm
 40
2.0
 41
0.125
 42
0.1875
 43
0.1875
 44
0.09
 73
     0
 74
     0
 77
     3
 78
     3
140
0.093
141
0.0
147
0.05
171
     3
179
     2
273
     5
274
     3
276
     2
277
     5
284
     3
285
     3
286
     3
289
     0
340
11
  0
DIMSTYLE
105
1F61
330
A
100
AcDbSymbolTableRecord
100
AcDbDimStyleTableRecord
  2
Standard
 70
     0
340
11
  0
ENDTAB
  0
TABLE
  2
BLOCK_RECORD
  5
1
330
0
100
AcDbSymbolTable
 70
    32
  0
BLOCK_RECORD
  5
1F
102
{ACAD_XDICTIONARY
360
17DC
102
}
330
1
100
AcDbSymbolTableRecord
100
AcDbBlockTableRecord
  2
*Model_Space
340
22
  0
BLOCK_RECORD
  5
58
330
1
100
AcDbSymbolTableRecord
100
AcDbBlockTableRecord
  2
*Paper_Space
340
59
  0
BLOCK_RECORD
  5
5D
330
1
100
AcDbSymbolTableRecord
100
AcDbBlockTableRecord
  2
*Paper_Space0
340
5E
  0
BLOCK_RECORD
  5
127D
330
1
100
AcDbSymbolTableRecord
100
AcDbBlockTableRecord
  2
*D1
340
0
  0
BLOCK_RECORD
  5
1295
330
1
100
AcDbSymbolTableRecord
100
AcDbBlockTableRecord
  2
*D2
340
0
  0
BLOCK_RECORD
  5
12AD
330
1
100
AcDbSymbolTableRecord
100
AcDbBlockTableRecord
  2
*D3
340
0
  0
BLOCK_RECORD
  5
12C5
330
1
100
AcDbSymbolTableRecord
100
AcDbBlockTableRecord
  2
*D4
340
0
  0
BLOCK_RECORD
  5
12DD
330
1
100
AcDbSymbolTableRecord
100
AcDbBlockTableRecord
  2
*D5
340
0
  0
BLOCK_RECORD
  5
12F5
330
1
100
AcDbSymbolTableRecord
100
AcDbBlockTableRecord
  2
*D6
340
0
  0
BLOCK_RECORD
  5
130D
330
1
100
AcDbSymbolTableRecord
100
AcDbBlockTableRecord
  2
*D7
340
0
  0
BLOCK_RECORD
  5
1325
330
1
100
AcDbSymbolTableRecord
100
AcDbBlockTableRecord
  2
*D8
340
0
  0
BLOCK_RECORD
  5
1344
330
1
100
AcDbSymbolTableRecord
100
AcDbBlockTableRecord
  2
*D9
340
0
  0
BLOCK_RECORD
  5
135C
330
1
100
AcDbSymbolTableRecord
100
AcDbBlockTableRecord
  2
*D10
340
0
  0
BLOCK_RECORD
  5
1374
330
1
100
AcDbSymbolTableRecord
100
AcDbBlockTableRecord
  2
*D11
340
0
  0
BLOCK_RECORD
  5
138C
330
1
100
AcDbSymbolTableRecord
100
AcDbBlockTableRecord
  2
*D12
340
0
  0
BLOCK_RECORD
  5
13A4
330
1
100
AcDbSymbolTableRecord
100
AcDbBlockTableRecord
  2
*D13
340
0
  0
BLOCK_RECORD
  5
13BC
330
1
100
AcDbSymbolTableRecord
100
AcDbBlockTableRecord
  2
*D14
340
0
  0
BLOCK_RECORD
  5
13D4
330
1
100
AcDbSymbolTableRecord
100
AcDbBlockTableRecord
  2
*D15
340
0
  0
BLOCK_RECORD
  5
13EC
330
1
100
AcDbSymbolTableRecord
100
AcDbBlockTableRecord
  2
*D16
340
0
  0
BLOCK_RECORD
  5
1450
330
1
100
AcDbSymbolTableRecord
100
AcDbBlockTableRecord
  2
*D17
340
0
  0
BLOCK_RECORD
  5
1468
330
1
100
AcDbSymbolTableRecord
100
AcDbBlockTableRecord
  2
*D18
340
0
  0
BLOCK_RECORD
  5
1480
330
1
100
AcDbSymbolTableRecord
100
AcDbBlockTableRecord
  2
*D19
340
0
  0
BLOCK_RECORD
  5
1498
330
1
100
AcDbSymbolTableRecord
100
AcDbBlockTableRecord
  2
*D20
340
0
  0
BLOCK_RECORD
  5
14B0
330
1
100
AcDbSymbolTableRecord
100
AcDbBlockTableRecord
  2
*D21
340
0
  0
BLOCK_RECORD
  5
14C8
330
1
100
AcDbSymbolTableRecord
100
AcDbBlockTableRecord
  2
*D22
340
0
  0
BLOCK_RECORD
  5
14E0
330
1
100
AcDbSymbolTableRecord
100
AcDbBlockTableRecord
  2
*D23
340
0
  0
BLOCK_RECORD
  5
14F8
330
1
100
AcDbSymbolTableRecord
100
AcDbBlockTableRecord
  2
*D24
340
0
  0
BLOCK_RECORD
  5
1510
330
1
100
AcDbSymbolTableRecord
100
AcDbBlockTableRecord
  2
*D25
340
0
  0
BLOCK_RECORD
  5
1528
330
1
100
AcDbSymbolTableRecord
100
AcDbBlockTableRecord
  2
*D26
340
0
  0
BLOCK_RECORD
  5
1540
330
1
100
AcDbSymbolTableRecord
100
AcDbBlockTableRecord
  2
*D27
340
0
  0
BLOCK_RECORD
  5
1558
330
1
100
AcDbSymbolTableRecord
100
AcDbBlockTableRecord
  2
*D28
340
0
  0
BLOCK_RECORD
  5
1570
330
1
100
AcDbSymbolTableRecord
100
AcDbBlockTableRecord
  2
*D29
340
0
  0
BLOCK_RECORD
  5
1588
330
1
100
AcDbSymbolTableRecord
100
AcDbBlockTableRecord
  2
*D30
340
0
  0
BLOCK_RECORD
  5
1F6F
102
{ACAD_XDICTIONARY
360
1F79
102
}
330
1
100
AcDbSymbolTableRecord
100
AcDbBlockTableRecord
  2
Kawneer Logo English
340
0
102
{BLKREFS
331
1F7D
102
}
1001
ACAD
1000
DesignCenter Data
1002
{
1070
     1
1070
     1
1002
}
  0
ENDTAB
  0
ENDSEC
  0
SECTION
  2
BLOCKS
  0
BLOCK
  5
20
330
1F
100
AcDbEntity
  8
0
100
AcDbBlockBegin
  2
*Model_Space
 70
     0
 10
0.0
 20
0.0
 30
0.0
  3
*Model_Space
  1

  0
ENDBLK
  5
21
330
1F
100
AcDbEntity
  8
0
100
AcDbBlockEnd
  0
BLOCK
  5
5A
330
58
100
AcDbEntity
 67
     1
  8
0
100
AcDbBlockBegin
  2
*Paper_Space
 70
     0
 10
0.0
 20
0.0
 30
0.0
  3
*Paper_Space
  1

  0
ENDBLK
  5
5B
330
58
100
AcDbEntity
 67
     1
  8
0
100
AcDbBlockEnd
  0
BLOCK
  5
5F
330
5D
100
AcDbEntity
 67
     1
  8
0
100
AcDbBlockBegin
  2
*Paper_Space0
 70
     0
 10
0.0
 20
0.0
 30
0.0
  3
*Paper_Space0
  1

  0
ENDBLK
  5
60
330
5D
100
AcDbEntity
 67
     1
  8
0
100
AcDbBlockEnd
  0
BLOCK
  5
1287
330
127D
100
AcDbEntity
  8
0
100
AcDbBlockBegin
  2
*D1
 70
     1
 10
0.0
 20
0.0
 30
0.0
  3
*D1
  1

  0
LINE
  5
1838
330
127D
100
AcDbEntity
  8
R-ANNO-DIMS
 62
     0
370
    -2
100
AcDbLine
 10
12.94706923584735
 20
33.7779328650187
 30
0.0
 11
12.94706923584735
 21
34.32447172399922
 31
0.0
  0
LINE
  5
1839
330
127D
100
AcDbEntity
  8
R-ANNO-DIMS
 62
     0
370
    -2
100
AcDbLine
 10
11.94706923584735
 20
33.7779328650187
 30
0.0
 11
11.94706923584735
 21
34.32447172399922
 31
0.0
  0
LINE
  5
183A
330
127D
100
AcDbEntity
  8
R-ANNO-DIMS
 62
     0
370
    -2
100
AcDbLine
 10
12.69706923584735
 20
34.14447172399922
 30
0.0
 11
12.19706923584735
 21
34.14447172399922
 31
0.0
  0
SOLID
  5
183B
330
127D
100
AcDbEntity
  8
R-ANNO-DIMS
 62
     0
100
AcDbTrace
 10
12.69706923584735
 20
34.18613839066588
 30
0.0
 11
12.69706923584735
 21
34.10280505733255
 31
0.0
 12
12.94706923584735
 22
34.14447172399922
 32
0.0
 13
12.94706923584735
 23
34.14447172399922
 33
0.0
  0
SOLID
  5
183C
330
127D
100
AcDbEntity
  8
R-ANNO-DIMS
 62
     0
100
AcDbTrace
 10
12.19706923584735
 20
34.18613839066588
 30
0.0
 11
12.19706923584735
 21
34.10280505733255
 31
0.0
 12
11.94706923584735
 22
34.14447172399922
 32
0.0
 13
11.94706923584735
 23
34.14447172399922
 33
0.0
  0
MTEXT
  5
183D
330
127D
100
AcDbEntity
  8
R-ANNO-DIMS
 62
     0
100
AcDbMText
 10
12.44706923584735
 20
34.33747172399922
 30
0.0
 40
0.186
 41
0.0
 71
     5
 72
     1
  1
\A1;1"
 73
     1
 44
1.0
1001
ACAD
1000
MTEXTBEGIN
1070
    73
1070
     1
1070
    44
1040
1.0
1070
    74
1070
     0
1000
MTEXTEND
  0
POINT
  5
183E
330
127D
100
AcDbEntity
  8
DEFPOINTS
 62
     0
100
AcDbPoint
 10
12.94706923584735
 20
33.4029328650187
 30
0.0
  0
POINT
  5
183F
330
127D
100
AcDbEntity
  8
DEFPOINTS
 62
     0
100
AcDbPoint
 10
11.94706923584735
 20
33.4029328650187
 30
0.0
  0
POINT
  5
1840
330
127D
100
AcDbEntity
  8
DEFPOINTS
 62
     0
100
AcDbPoint
 10
11.94706923584735
 20
34.14447172399922
 30
0.0
  0
ENDBLK
  5
1288
330
127D
100
AcDbEntity
  8
0
100
AcDbBlockEnd
  0
BLOCK
  5
129F
330
1295
100
AcDbEntity
  8
0
100
AcDbBlockBegin
  2
*D2
 70
     1
 10
0.0
 20
0.0
 30
0.0
  3
*D2
  1

  0
LINE
  5
1841
330
1295
100
AcDbEntity
  8
R-ANNO-DIMS
 62
     0
370
    -2
100
AcDbLine
 10
18.9874048682428
 20
35.7779328650187
 30
0.0
 11
18.9874048682428
 21
36.32601612965207
 31
0.0
  0
LINE
  5
1842
330
1295
100
AcDbEntity
  8
R-ANNO-DIMS
 62
     0
370
    -2
100
AcDbLine
 10
17.9874048682428
 20
35.7779328650187
 30
0.0
 11
17.9874048682428
 21
36.32601612965207
 31
0.0
  0
LINE
  5
1843
330
1295
100
AcDbEntity
  8
R-ANNO-DIMS
 62
     0
370
    -2
100
AcDbLine
 10
18.7374048682428
 20
36.14601612965207
 30
0.0
 11
18.2374048682428
 21
36.14601612965207
 31
0.0
  0
SOLID
  5
1844
330
1295
100
AcDbEntity
  8
R-ANNO-DIMS
 62
     0
100
AcDbTrace
 10
18.7374048682428
 20
36.18768279631873
 30
0.0
 11
18.7374048682428
 21
36.10434946298541
 31
0.0
 12
18.9874048682428
 22
36.14601612965207
 32
0.0
 13
18.9874048682428
 23
36.14601612965207
 33
0.0
  0
SOLID
  5
1845
330
1295
100
AcDbEntity
  8
R-ANNO-DIMS
 62
     0
100
AcDbTrace
 10
18.2374048682428
 20
36.18768279631873
 30
0.0
 11
18.2374048682428
 21
36.10434946298541
 31
0.0
 12
17.9874048682428
 22
36.14601612965207
 32
0.0
 13
17.9874048682428
 23
36.14601612965207
 33
0.0
  0
MTEXT
  5
1846
330
1295
100
AcDbEntity
  8
R-ANNO-DIMS
 62
     0
100
AcDbMText
 10
18.4874048682428
 20
36.33901612965207
 30
0.0
 40
0.186
 41
0.0
 71
     5
 72
     1
  1
\A1;1"
 73
     1
 44
1.0
1001
ACAD
1000
MTEXTBEGIN
1070
    73
1070
     1
1070
    44
1040
1.0
1070
    74
1070
     0
1000
MTEXTEND
  0
POINT
  5
1847
330
1295
100
AcDbEntity
  8
DEFPOINTS
 62
     0
100
AcDbPoint
 10
18.9874048682428
 20
35.4029328650187
 30
0.0
  0
POINT
  5
1848
330
1295
100
AcDbEntity
  8
DEFPOINTS
 62
     0
100
AcDbPoint
 10
17.9874048682428
 20
35.4029328650187
 30
0.0
  0
POINT
  5
1849
330
1295
100
AcDbEntity
  8
DEFPOINTS
 62
     0
100
AcDbPoint
 10
17.9874048682428
 20
36.14601612965207
 30
0.0
  0
ENDBLK
  5
12A0
330
1295
100
AcDbEntity
  8
0
100
AcDbBlockEnd
  0
BLOCK
  5
12B7
330
12AD
100
AcDbEntity
  8
0
100
AcDbBlockBegin
  2
*D3
 70
     1
 10
0.0
 20
0.0
 30
0.0
  3
*D3
  1

  0
LINE
  5
184A
330
12AD
100
AcDbEntity
  8
R-ANNO-DIMS
 62
     0
370
    -2
100
AcDbLine
 10
25.63177535763586
 20
36.7779328650187
 30
0.0
 11
25.63177535763586
 21
37.29898909830396
 31
0.0
  0
LINE
  5
184B
330
12AD
100
AcDbEntity
  8
R-ANNO-DIMS
 62
     0
370
    -2
100
AcDbLine
 10
24.63177535763586
 20
36.7779328650187
 30
0.0
 11
24.63177535763586
 21
37.29898909830396
 31
0.0
  0
LINE
  5
184C
330
12AD
100
AcDbEntity
  8
R-ANNO-DIMS
 62
     0
370
    -2
100
AcDbLine
 10
25.38177535763586
 20
37.11898909830396
 30
0.0
 11
24.88177535763586
 21
37.11898909830396
 31
0.0
  0
SOLID
  5
184D
330
12AD
100
AcDbEntity
  8
R-ANNO-DIMS
 62
     0
100
AcDbTrace
 10
25.38177535763586
 20
37.16065576497062
 30
0.0
 11
25.38177535763586
 21
37.07732243163729
 31
0.0
 12
25.63177535763586
 22
37.11898909830396
 32
0.0
 13
25.63177535763586
 23
37.11898909830396
 33
0.0
  0
SOLID
  5
184E
330
12AD
100
AcDbEntity
  8
R-ANNO-DIMS
 62
     0
100
AcDbTrace
 10
24.88177535763586
 20
37.16065576497062
 30
0.0
 11
24.88177535763586
 21
37.07732243163729
 31
0.0
 12
24.63177535763586
 22
37.11898909830396
 32
0.0
 13
24.63177535763586
 23
37.11898909830396
 33
0.0
  0
MTEXT
  5
184F
330
12AD
100
AcDbEntity
  8
R-ANNO-DIMS
 62
     0
100
AcDbMText
 10
25.13177535763586
 20
37.31198909830395
 30
0.0
 40
0.186
 41
0.0
 71
     5
 72
     1
  1
\A1;1"
 73
     1
 44
1.0
1001
ACAD
1000
MTEXTBEGIN
1070
    73
1070
     1
1070
    44
1040
1.0
1070
    74
1070
     0
1000
MTEXTEND
  0
POINT
  5
1850
330
12AD
100
AcDbEntity
  8
DEFPOINTS
 62
     0
100
AcDbPoint
 10
25.63177535763586
 20
36.4029328650187
 30
0.0
  0
POINT
  5
1851
330
12AD
100
AcDbEntity
  8
DEFPOINTS
 62
     0
100
AcDbPoint
 10
24.63177535763586
 20
36.4029328650187
 30
0.0
  0
POINT
  5
1852
330
12AD
100
AcDbEntity
  8
DEFPOINTS
 62
     0
100
AcDbPoint
 10
24.63177535763586
 20
37.11898909830396
 30
0.0
  0
ENDBLK
  5
12B8
330
12AD
100
AcDbEntity
  8
0
100
AcDbBlockEnd
  0
BLOCK
  5
12CF
330
12C5
100
AcDbEntity
  8
0
100
AcDbBlockBegin
  2
*D4
 70
     1
 10
0.0
 20
0.0
 30
0.0
  3
*D4
  1

  0
LINE
  5
1853
330
12C5
100
AcDbEntity
  8
R-ANNO-DIMS
 62
     0
370
    -2
100
AcDbLine
 10
33.54126608203691
 20
37.2779328650187
 30
0.0
 11
33.54126608203691
 21
37.79937522246289
 31
0.0
  0
LINE
  5
1854
330
12C5
100
AcDbEntity
  8
R-ANNO-DIMS
 62
     0
370
    -2
100
AcDbLine
 10
32.54126608203691
 20
37.2779328650187
 30
0.0
 11
32.54126608203691
 21
37.79937522246289
 31
0.0
  0
LINE
  5
1855
330
12C5
100
AcDbEntity
  8
R-ANNO-DIMS
 62
     0
370
    -2
100
AcDbLine
 10
33.29126608203691
 20
37.61937522246289
 30
0.0
 11
32.79126608203692
 21
37.61937522246289
 31
0.0
  0
SOLID
  5
1856
330
12C5
100
AcDbEntity
  8
R-ANNO-DIMS
 62
     0
100
AcDbTrace
 10
33.29126608203691
 20
37.66104188912956
 30
0.0
 11
33.29126608203691
 21
37.57770855579623
 31
0.0
 12
33.54126608203691
 22
37.61937522246289
 32
0.0
 13
33.54126608203691
 23
37.61937522246289
 33
0.0
  0
SOLID
  5
1857
330
12C5
100
AcDbEntity
  8
R-ANNO-DIMS
 62
     0
100
AcDbTrace
 10
32.79126608203692
 20
37.66104188912956
 30
0.0
 11
32.79126608203692
 21
37.57770855579623
 31
0.0
 12
32.54126608203691
 22
37.61937522246289
 32
0.0
 13
32.54126608203691
 23
37.61937522246289
 33
0.0
  0
MTEXT
  5
1858
330
12C5
100
AcDbEntity
  8
R-ANNO-DIMS
 62
     0
100
AcDbMText
 10
33.04126608203691
 20
37.81237522246289
 30
0.0
 40
0.186
 41
0.0
 71
     5
 72
     1
  1
\A1;1"
 73
     1
 44
1.0
1001
ACAD
1000
MTEXTBEGIN
1070
    73
1070
     1
1070
    44
1040
1.0
1070
    74
1070
     0
1000
MTEXTEND
  0
POINT
  5
1859
330
12C5
100
AcDbEntity
  8
DEFPOINTS
 62
     0
100
AcDbPoint
 10
33.54126608203691
 20
36.9029328650187
 30
0.0
  0
POINT
  5
185A
330
12C5
100
AcDbEntity
  8
DEFPOINTS
 62
     0
100
AcDbPoint
 10
32.54126608203691
 20
36.9029328650187
 30
0.0
  0
POINT
  5
185B
330
12C5
100
AcDbEntity
  8
DEFPOINTS
 62
     0
100
AcDbPoint
 10
32.54126608203691
 20
37.61937522246289
 30
0.0
  0
ENDBLK
  5
12D0
330
12C5
100
AcDbEntity
  8
0
100
AcDbBlockEnd
  0
BLOCK
  5
12E7
330
12DD
100
AcDbEntity
  8
0
100
AcDbBlockBegin
  2
*D5
 70
     1
 10
0.0
 20
0.0
 30
0.0
  3
*D5
  1

  0
LINE
  5
185C
330
12DD
100
AcDbEntity
  8
R-ANNO-DIMS
 62
     0
370
    -2
100
AcDbLine
 10
11.57206923584735
 20
33.4029328650187
 30
0.0
 11
11.04036535963136
 21
33.4029328650187
 31
0.0
  0
LINE
  5
185D
330
12DD
100
AcDbEntity
  8
R-ANNO-DIMS
 62
     0
370
    -2
100
AcDbLine
 10
11.57206923584735
 20
32.4029328650187
 30
0.0
 11
11.04036535963136
 21
32.4029328650187
 31
0.0
  0
LINE
  5
185E
330
12DD
100
AcDbEntity
  8
R-ANNO-DIMS
 62
     0
370
    -2
100
AcDbLine
 10
11.22036535963136
 20
33.1529328650187
 30
0.0
 11
11.22036535963136
 21
32.6529328650187
 31
0.0
  0
SOLID
  5
185F
330
12DD
100
AcDbEntity
  8
R-ANNO-DIMS
 62
     0
100
AcDbTrace
 10
11.17869869296469
 20
33.1529328650187
 30
0.0
 11
11.26203202629802
 21
33.1529328650187
 31
0.0
 12
11.22036535963136
 22
33.4029328650187
 32
0.0
 13
11.22036535963136
 23
33.4029328650187
 33
0.0
  0
SOLID
  5
1860
330
12DD
100
AcDbEntity
  8
R-ANNO-DIMS
 62
     0
100
AcDbTrace
 10
11.17869869296469
 20
32.6529328650187
 30
0.0
 11
11.26203202629802
 21
32.6529328650187
 31
0.0
 12
11.22036535963136
 22
32.4029328650187
 32
0.0
 13
11.22036535963136
 23
32.4029328650187
 33
0.0
  0
MTEXT
  5
1861
330
12DD
100
AcDbEntity
  8
R-ANNO-DIMS
 62
     0
100
AcDbMText
 10
11.02736535963135
 20
32.9029328650187
 30
0.0
 40
0.186
 41
0.0
 71
     5
 72
     1
  1
\A1;1"
 11
0.0000000000000001
 21
1.0
 31
0.0
 73
     1
 44
1.0
1001
ACAD
1000
MTEXTBEGIN
1070
    73
1070
     1
1070
    44
1040
1.0
1070
    74
1070
     0
1000
MTEXTEND
  0
POINT
  5
1862
330
12DD
100
AcDbEntity
  8
DEFPOINTS
 62
     0
100
AcDbPoint
 10
11.94706923584735
 20
33.4029328650187
 30
0.0
  0
POINT
  5
1863
330
12DD
100
AcDbEntity
  8
DEFPOINTS
 62
     0
100
AcDbPoint
 10
11.94706923584735
 20
32.4029328650187
 30
0.0
  0
POINT
  5
1864
330
12DD
100
AcDbEntity
  8
DEFPOINTS
 62
     0
100
AcDbPoint
 10
11.22036535963136
 20
32.4029328650187
 30
0.0
  0
ENDBLK
  5
12E8
330
12DD
100
AcDbEntity
  8
0
100
AcDbBlockEnd
  0
BLOCK
  5
12FF
330
12F5
100
AcDbEntity
  8
0
100
AcDbBlockBegin
  2
*D6
 70
     1
 10
0.0
 20
0.0
 30
0.0
  3
*D6
  1

  0
LINE
  5
1865
330
12F5
100
AcDbEntity
  8
R-ANNO-DIMS
 62
     0
370
    -2
100
AcDbLine
 10
17.6124048682428
 20
35.4029328650187
 30
0.0
 11
17.09337568570459
 21
35.4029328650187
 31
0.0
  0
LINE
  5
1866
330
12F5
100
AcDbEntity
  8
R-ANNO-DIMS
 62
     0
370
    -2
100
AcDbLine
 10
17.6124048682428
 20
32.4029328650187
 30
0.0
 11
17.09337568570459
 21
32.4029328650187
 31
0.0
  0
LINE
  5
1867
330
12F5
100
AcDbEntity
  8
R-ANNO-DIMS
 62
     0
370
    -2
100
AcDbLine
 10
17.27337568570459
 20
35.1529328650187
 30
0.0
 11
17.27337568570459
 21
32.6529328650187
 31
0.0
  0
SOLID
  5
1868
330
12F5
100
AcDbEntity
  8
R-ANNO-DIMS
 62
     0
100
AcDbTrace
 10
17.23170901903792
 20
35.1529328650187
 30
0.0
 11
17.31504235237126
 21
35.1529328650187
 31
0.0
 12
17.27337568570459
 22
35.4029328650187
 32
0.0
 13
17.27337568570459
 23
35.4029328650187
 33
0.0
  0
SOLID
  5
1869
330
12F5
100
AcDbEntity
  8
R-ANNO-DIMS
 62
     0
100
AcDbTrace
 10
17.23170901903792
 20
32.6529328650187
 30
0.0
 11
17.31504235237126
 21
32.6529328650187
 31
0.0
 12
17.27337568570459
 22
32.4029328650187
 32
0.0
 13
17.27337568570459
 23
32.4029328650187
 33
0.0
  0
MTEXT
  5
186A
330
12F5
100
AcDbEntity
  8
R-ANNO-DIMS
 62
     0
100
AcDbMText
 10
17.08037568570459
 20
33.90293286501871
 30
0.0
 40
0.186
 41
0.0
 71
     5
 72
     1
  1
\A1;3"
 11
0.0000000000000001
 21
1.0
 31
0.0
 73
     1
 44
1.0
1001
ACAD
1000
MTEXTBEGIN
1070
    73
1070
     1
1070
    44
1040
1.0
1070
    74
1070
     0
1000
MTEXTEND
  0
POINT
  5
186B
330
12F5
100
AcDbEntity
  8
DEFPOINTS
 62
     0
100
AcDbPoint
 10
17.9874048682428
 20
35.4029328650187
 30
0.0
  0
POINT
  5
186C
330
12F5
100
AcDbEntity
  8
DEFPOINTS
 62
     0
100
AcDbPoint
 10
17.9874048682428
 20
32.4029328650187
 30
0.0
  0
POINT
  5
186D
330
12F5
100
AcDbEntity
  8
DEFPOINTS
 62
     0
100
AcDbPoint
 10
17.27337568570459
 20
32.4029328650187
 30
0.0
  0
ENDBLK
  5
1300
330
12F5
100
AcDbEntity
  8
0
100
AcDbBlockEnd
  0
BLOCK
  5
1317
330
130D
100
AcDbEntity
  8
0
100
AcDbBlockBegin
  2
*D7
 70
     1
 10
0.0
 20
0.0
 30
0.0
  3
*D7
  1

  0
LINE
  5
186E
330
130D
100
AcDbEntity
  8
R-ANNO-DIMS
 62
     0
370
    -2
100
AcDbLine
 10
24.25677535763586
 20
36.4029328650187
 30
0.0
 11
23.7346011639605
 21
36.4029328650187
 31
0.0
  0
LINE
  5
186F
330
130D
100
AcDbEntity
  8
R-ANNO-DIMS
 62
     0
370
    -2
100
AcDbLine
 10
24.25677535763586
 20
32.4029328650187
 30
0.0
 11
23.7346011639605
 21
32.4029328650187
 31
0.0
  0
LINE
  5
1870
330
130D
100
AcDbEntity
  8
R-ANNO-DIMS
 62
     0
370
    -2
100
AcDbLine
 10
23.9146011639605
 20
36.1529328650187
 30
0.0
 11
23.9146011639605
 21
32.6529328650187
 31
0.0
  0
SOLID
  5
1871
330
130D
100
AcDbEntity
  8
R-ANNO-DIMS
 62
     0
100
AcDbTrace
 10
23.87293449729383
 20
36.1529328650187
 30
0.0
 11
23.95626783062716
 21
36.1529328650187
 31
0.0
 12
23.9146011639605
 22
36.4029328650187
 32
0.0
 13
23.9146011639605
 23
36.4029328650187
 33
0.0
  0
SOLID
  5
1872
330
130D
100
AcDbEntity
  8
R-ANNO-DIMS
 62
     0
100
AcDbTrace
 10
23.87293449729383
 20
32.6529328650187
 30
0.0
 11
23.95626783062716
 21
32.6529328650187
 31
0.0
 12
23.9146011639605
 22
32.4029328650187
 32
0.0
 13
23.9146011639605
 23
32.4029328650187
 33
0.0
  0
MTEXT
  5
1873
330
130D
100
AcDbEntity
  8
R-ANNO-DIMS
 62
     0
100
AcDbMText
 10
23.72160116396049
 20
34.40293286501871
 30
0.0
 40
0.186
 41
0.0
 71
     5
 72
     1
  1
\A1;4"
 11
0.0000000000000001
 21
1.0
 31
0.0
 73
     1
 44
1.0
1001
ACAD
1000
MTEXTBEGIN
1070
    73
1070
     1
1070
    44
1040
1.0
1070
    74
1070
     0
1000
MTEXTEND
  0
POINT
  5
1874
330
130D
100
AcDbEntity
  8
DEFPOINTS
 62
     0
100
AcDbPoint
 10
24.63177535763586
 20
36.4029328650187
 30
0.0
  0
POINT
  5
1875
330
130D
100
AcDbEntity
  8
DEFPOINTS
 62
     0
100
AcDbPoint
 10
24.63177535763586
 20
32.4029328650187
 30
0.0
  0
POINT
  5
1876
330
130D
100
AcDbEntity
  8
DEFPOINTS
 62
     0
100
AcDbPoint
 10
23.9146011639605
 20
32.4029328650187
 30
0.0
  0
ENDBLK
  5
1318
330
130D
100
AcDbEntity
  8
0
100
AcDbBlockEnd
  0
BLOCK
  5
132F
330
1325
100
AcDbEntity
  8
0
100
AcDbBlockBegin
  2
*D8
 70
     1
 10
0.0
 20
0.0
 30
0.0
  3
*D8
  1

  0
LINE
  5
1877
330
1325
100
AcDbEntity
  8
R-ANNO-DIMS
 62
     0
370
    -2
100
AcDbLine
 10
32.16626608203692
 20
36.9029328650187
 30
0.0
 11
31.62762316243713
 21
36.9029328650187
 31
0.0
  0
LINE
  5
1878
330
1325
100
AcDbEntity
  8
R-ANNO-DIMS
 62
     0
370
    -2
100
AcDbLine
 10
32.16626608203692
 20
32.4029328650187
 30
0.0
 11
31.62762316243713
 21
32.4029328650187
 31
0.0
  0
LINE
  5
1879
330
1325
100
AcDbEntity
  8
R-ANNO-DIMS
 62
     0
370
    -2
100
AcDbLine
 10
31.80762316243713
 20
36.6529328650187
 30
0.0
 11
31.80762316243713
 21
32.6529328650187
 31
0.0
  0
SOLID
  5
187A
330
1325
100
AcDbEntity
  8
R-ANNO-DIMS
 62
     0
100
AcDbTrace
 10
31.76595649577046
 20
36.6529328650187
 30
0.0
 11
31.84928982910379
 21
36.6529328650187
 31
0.0
 12
31.80762316243713
 22
36.9029328650187
 32
0.0
 13
31.80762316243713
 23
36.9029328650187
 33
0.0
  0
SOLID
  5
187B
330
1325
100
AcDbEntity
  8
R-ANNO-DIMS
 62
     0
100
AcDbTrace
 10
31.76595649577046
 20
32.6529328650187
 30
0.0
 11
31.84928982910379
 21
32.6529328650187
 31
0.0
 12
31.80762316243713
 22
32.4029328650187
 32
0.0
 13
31.80762316243713
 23
32.4029328650187
 33
0.0
  0
MTEXT
  5
187C
330
1325
100
AcDbEntity
  8
R-ANNO-DIMS
 62
     0
100
AcDbMText
 10
31.61462316243712
 20
34.65293286501871
 30
0.0
 40
0.186
 41
0.0
 71
     5
 72
     1
  1
\A1;4 1/2"
 11
0.0000000000000001
 21
1.0
 31
0.0
 73
     1
 44
1.0
1001
ACAD
1000
MTEXTBEGIN
1070
    73
1070
     1
1070
    44
1040
1.0
1070
    74
1070
     0
1000
MTEXTEND
  0
POINT
  5
187D
330
1325
100
AcDbEntity
  8
DEFPOINTS
 62
     0
100
AcDbPoint
 10
32.54126608203691
 20
36.9029328650187
 30
0.0
  0
POINT
  5
187E
330
1325
100
AcDbEntity
  8
DEFPOINTS
 62
     0
100
AcDbPoint
 10
32.54126608203691
 20
32.4029328650187
 30
0.0
  0
POINT
  5
187F
330
1325
100
AcDbEntity
  8
DEFPOINTS
 62
     0
100
AcDbPoint
 10
31.80762316243713
 20
32.4029328650187
 30
0.0
  0
ENDBLK
  5
1330
330
1325
100
AcDbEntity
  8
0
100
AcDbBlockEnd
  0
BLOCK
  5
134E
330
1344
100
AcDbEntity
  8
0
100
AcDbBlockBegin
  2
*D9
 70
     1
 10
0.0
 20
0.0
 30
0.0
  3
*D9
  1

  0
LINE
  5
1880
330
1344
100
AcDbEntity
  8
R-ANNO-DIMS
 62
     0
370
    -2
100
AcDbLine
 10
13.69706923584735
 20
25.77699699445791
 30
0.0
 11
13.69706923584735
 21
26.31315556907503
 31
0.0
  0
LINE
  5
1881
330
1344
100
AcDbEntity
  8
R-ANNO-DIMS
 62
     0
370
    -2
100
AcDbLine
 10
11.94706923584735
 20
25.77699699445791
 30
0.0
 11
11.94706923584735
 21
26.31315556907503
 31
0.0
  0
LINE
  5
1882
330
1344
100
AcDbEntity
  8
R-ANNO-DIMS
 62
     0
370
    -2
100
AcDbLine
 10
13.44706923584735
 20
26.13315556907503
 30
0.0
 11
12.19706923584735
 21
26.13315556907503
 31
0.0
  0
SOLID
  5
1883
330
1344
100
AcDbEntity
  8
R-ANNO-DIMS
 62
     0
100
AcDbTrace
 10
13.44706923584735
 20
26.1748222357417
 30
0.0
 11
13.44706923584735
 21
26.09148890240836
 31
0.0
 12
13.69706923584735
 22
26.13315556907503
 32
0.0
 13
13.69706923584735
 23
26.13315556907503
 33
0.0
  0
SOLID
  5
1884
330
1344
100
AcDbEntity
  8
R-ANNO-DIMS
 62
     0
100
AcDbTrace
 10
12.19706923584735
 20
26.1748222357417
 30
0.0
 11
12.19706923584735
 21
26.09148890240836
 31
0.0
 12
11.94706923584735
 22
26.13315556907503
 32
0.0
 13
11.94706923584735
 23
26.13315556907503
 33
0.0
  0
MTEXT
  5
1885
330
1344
100
AcDbEntity
  8
R-ANNO-DIMS
 62
     0
100
AcDbMText
 10
12.82206923584735
 20
26.32615556907503
 30
0.0
 40
0.186
 41
0.0
 71
     5
 72
     1
  1
\A1;1 3/4"
 73
     1
 44
1.0
1001
ACAD
1000
MTEXTBEGIN
1070
    73
1070
     1
1070
    44
1040
1.0
1070
    74
1070
     0
1000
MTEXTEND
  0
POINT
  5
1886
330
1344
100
AcDbEntity
  8
DEFPOINTS
 62
     0
100
AcDbPoint
 10
13.69706923584735
 20
25.4019969944579
 30
0.0
  0
POINT
  5
1887
330
1344
100
AcDbEntity
  8
DEFPOINTS
 62
     0
100
AcDbPoint
 10
11.94706923584735
 20
25.4019969944579
 30
0.0
  0
POINT
  5
1888
330
1344
100
AcDbEntity
  8
DEFPOINTS
 62
     0
100
AcDbPoint
 10
11.94706923584735
 20
26.13315556907503
 30
0.0
  0
ENDBLK
  5
134F
330
1344
100
AcDbEntity
  8
0
100
AcDbBlockEnd
  0
BLOCK
  5
1366
330
135C
100
AcDbEntity
  8
0
100
AcDbBlockBegin
  2
*D10
 70
     1
 10
0.0
 20
0.0
 30
0.0
  3
*D10
  1

  0
LINE
  5
1889
330
135C
100
AcDbEntity
  8
R-ANNO-DIMS
 62
     0
370
    -2
100
AcDbLine
 10
11.57206923584735
 20
25.4019969944579
 30
0.0
 11
11.04715132039994
 21
25.4019969944579
 31
0.0
  0
LINE
  5
188A
330
135C
100
AcDbEntity
  8
R-ANNO-DIMS
 62
     0
370
    -2
100
AcDbLine
 10
11.57206923584735
 20
23.6519969944579
 30
0.0
 11
11.04715132039994
 21
23.6519969944579
 31
0.0
  0
LINE
  5
188B
330
135C
100
AcDbEntity
  8
R-ANNO-DIMS
 62
     0
370
    -2
100
AcDbLine
 10
11.22715132039994
 20
25.15199699445791
 30
0.0
 11
11.22715132039994
 21
23.90199699445791
 31
0.0
  0
SOLID
  5
188C
330
135C
100
AcDbEntity
  8
R-ANNO-DIMS
 62
     0
100
AcDbTrace
 10
11.18548465373327
 20
25.15199699445791
 30
0.0
 11
11.2688179870666
 21
25.15199699445791
 31
0.0
 12
11.22715132039994
 22
25.4019969944579
 32
0.0
 13
11.22715132039994
 23
25.4019969944579
 33
0.0
  0
SOLID
  5
188D
330
135C
100
AcDbEntity
  8
R-ANNO-DIMS
 62
     0
100
AcDbTrace
 10
11.18548465373327
 20
23.90199699445791
 30
0.0
 11
11.2688179870666
 21
23.90199699445791
 31
0.0
 12
11.22715132039994
 22
23.6519969944579
 32
0.0
 13
11.22715132039994
 23
23.6519969944579
 33
0.0
  0
MTEXT
  5
188E
330
135C
100
AcDbEntity
  8
R-ANNO-DIMS
 62
     0
100
AcDbMText
 10
11.03415132039994
 20
24.52699699445791
 30
0.0
 40
0.186
 41
0.0
 71
     5
 72
     1
  1
\A1;1 3/4"
 11
0.0000000000000001
 21
1.0
 31
0.0
 73
     1
 44
1.0
1001
ACAD
1000
MTEXTBEGIN
1070
    73
1070
     1
1070
    44
1040
1.0
1070
    74
1070
     0
1000
MTEXTEND
  0
POINT
  5
188F
330
135C
100
AcDbEntity
  8
DEFPOINTS
 62
     0
100
AcDbPoint
 10
11.94706923584735
 20
25.4019969944579
 30
0.0
  0
POINT
  5
1890
330
135C
100
AcDbEntity
  8
DEFPOINTS
 62
     0
100
AcDbPoint
 10
11.94706923584735
 20
23.6519969944579
 30
0.0
  0
POINT
  5
1891
330
135C
100
AcDbEntity
  8
DEFPOINTS
 62
     0
100
AcDbPoint
 10
11.22715132039994
 20
23.6519969944579
 30
0.0
  0
ENDBLK
  5
1367
330
135C
100
AcDbEntity
  8
0
100
AcDbBlockEnd
  0
BLOCK
  5
137E
330
1374
100
AcDbEntity
  8
0
100
AcDbBlockBegin
  2
*D11
 70
     1
 10
0.0
 20
0.0
 30
0.0
  3
*D11
  1

  0
LINE
  5
1892
330
1374
100
AcDbEntity
  8
R-ANNO-DIMS
 62
     0
370
    -2
100
AcDbLine
 10
19.7374048682428
 20
28.02699699445791
 30
0.0
 11
19.7374048682428
 21
28.53090464526458
 31
0.0
  0
LINE
  5
1893
330
1374
100
AcDbEntity
  8
R-ANNO-DIMS
 62
     0
370
    -2
100
AcDbLine
 10
17.9874048682428
 20
28.02699699445791
 30
0.0
 11
17.9874048682428
 21
28.53090464526458
 31
0.0
  0
LINE
  5
1894
330
1374
100
AcDbEntity
  8
R-ANNO-DIMS
 62
     0
370
    -2
100
AcDbLine
 10
19.4874048682428
 20
28.35090464526458
 30
0.0
 11
18.2374048682428
 21
28.35090464526458
 31
0.0
  0
SOLID
  5
1895
330
1374
100
AcDbEntity
  8
R-ANNO-DIMS
 62
     0
100
AcDbTrace
 10
19.4874048682428
 20
28.39257131193125
 30
0.0
 11
19.4874048682428
 21
28.30923797859791
 31
0.0
 12
19.7374048682428
 22
28.35090464526458
 32
0.0
 13
19.7374048682428
 23
28.35090464526458
 33
0.0
  0
SOLID
  5
1896
330
1374
100
AcDbEntity
  8
R-ANNO-DIMS
 62
     0
100
AcDbTrace
 10
18.2374048682428
 20
28.39257131193125
 30
0.0
 11
18.2374048682428
 21
28.30923797859791
 31
0.0
 12
17.9874048682428
 22
28.35090464526458
 32
0.0
 13
17.9874048682428
 23
28.35090464526458
 33
0.0
  0
MTEXT
  5
1897
330
1374
100
AcDbEntity
  8
R-ANNO-DIMS
 62
     0
100
AcDbMText
 10
18.8624048682428
 20
28.54390464526458
 30
0.0
 40
0.186
 41
0.0
 71
     5
 72
     1
  1
\A1;1 3/4"
 73
     1
 44
1.0
1001
ACAD
1000
MTEXTBEGIN
1070
    73
1070
     1
1070
    44
1040
1.0
1070
    74
1070
     0
1000
MTEXTEND
  0
POINT
  5
1898
330
1374
100
AcDbEntity
  8
DEFPOINTS
 62
     0
100
AcDbPoint
 10
19.7374048682428
 20
27.65199699445791
 30
0.0
  0
POINT
  5
1899
330
1374
100
AcDbEntity
  8
DEFPOINTS
 62
     0
100
AcDbPoint
 10
17.9874048682428
 20
27.65199699445791
 30
0.0
  0
POINT
  5
189A
330
1374
100
AcDbEntity
  8
DEFPOINTS
 62
     0
100
AcDbPoint
 10
17.9874048682428
 20
28.35090464526458
 30
0.0
  0
ENDBLK
  5
137F
330
1374
100
AcDbEntity
  8
0
100
AcDbBlockEnd
  0
BLOCK
  5
1396
330
138C
100
AcDbEntity
  8
0
100
AcDbBlockBegin
  2
*D12
 70
     1
 10
0.0
 20
0.0
 30
0.0
  3
*D12
  1

  0
LINE
  5
189B
330
138C
100
AcDbEntity
  8
R-ANNO-DIMS
 62
     0
370
    -2
100
AcDbLine
 10
17.6124048682428
 20
27.65199699445791
 30
0.0
 11
17.10057452177683
 21
27.65199699445791
 31
0.0
  0
LINE
  5
189C
330
138C
100
AcDbEntity
  8
R-ANNO-DIMS
 62
     0
370
    -2
100
AcDbLine
 10
17.6124048682428
 20
23.6519969944579
 30
0.0
 11
17.10057452177682
 21
23.6519969944579
 31
0.0
  0
LINE
  5
189D
330
138C
100
AcDbEntity
  8
R-ANNO-DIMS
 62
     0
370
    -2
100
AcDbLine
 10
17.28057452177683
 20
27.40199699445791
 30
0.0
 11
17.28057452177683
 21
23.90199699445791
 31
0.0
  0
SOLID
  5
189E
330
138C
100
AcDbEntity
  8
R-ANNO-DIMS
 62
     0
100
AcDbTrace
 10
17.23890785511016
 20
27.40199699445791
 30
0.0
 11
17.3222411884435
 21
27.40199699445791
 31
0.0
 12
17.28057452177683
 22
27.65199699445791
 32
0.0
 13
17.28057452177683
 23
27.65199699445791
 33
0.0
  0
SOLID
  5
189F
330
138C
100
AcDbEntity
  8
R-ANNO-DIMS
 62
     0
100
AcDbTrace
 10
17.23890785511016
 20
23.90199699445791
 30
0.0
 11
17.32224118844349
 21
23.90199699445791
 31
0.0
 12
17.28057452177683
 22
23.6519969944579
 32
0.0
 13
17.28057452177683
 23
23.6519969944579
 33
0.0
  0
MTEXT
  5
18A0
330
138C
100
AcDbEntity
  8
R-ANNO-DIMS
 62
     0
100
AcDbMText
 10
17.08757452177682
 20
25.65199699445791
 30
0.0
 40
0.186
 41
0.0
 71
     5
 72
     1
  1
\A1;4"
 11
0.0000000000000001
 21
1.0
 31
0.0
 73
     1
 44
1.0
1001
ACAD
1000
MTEXTBEGIN
1070
    73
1070
     1
1070
    44
1040
1.0
1070
    74
1070
     0
1000
MTEXTEND
  0
POINT
  5
18A1
330
138C
100
AcDbEntity
  8
DEFPOINTS
 62
     0
100
AcDbPoint
 10
17.9874048682428
 20
27.65199699445791
 30
0.0
  0
POINT
  5
18A2
330
138C
100
AcDbEntity
  8
DEFPOINTS
 62
     0
100
AcDbPoint
 10
17.9874048682428
 20
23.6519969944579
 30
0.0
  0
POINT
  5
18A3
330
138C
100
AcDbEntity
  8
DEFPOINTS
 62
     0
100
AcDbPoint
 10
17.28057452177683
 20
23.6519969944579
 30
0.0
  0
ENDBLK
  5
1397
330
138C
100
AcDbEntity
  8
0
100
AcDbBlockEnd
  0
BLOCK
  5
13AE
330
13A4
100
AcDbEntity
  8
0
100
AcDbBlockBegin
  2
*D13
 70
     1
 10
0.0
 20
0.0
 30
0.0
  3
*D13
  1

  0
LINE
  5
18A4
330
13A4
100
AcDbEntity
  8
R-ANNO-DIMS
 62
     0
370
    -2
100
AcDbLine
 10
26.38177535763586
 20
28.52699699445791
 30
0.0
 11
26.38177535763586
 21
29.02087249933476
 31
0.0
  0
LINE
  5
18A5
330
13A4
100
AcDbEntity
  8
R-ANNO-DIMS
 62
     0
370
    -2
100
AcDbLine
 10
24.63177535763586
 20
28.52699699445791
 30
0.0
 11
24.63177535763586
 21
29.02087249933476
 31
0.0
  0
LINE
  5
18A6
330
13A4
100
AcDbEntity
  8
R-ANNO-DIMS
 62
     0
370
    -2
100
AcDbLine
 10
26.13177535763586
 20
28.84087249933477
 30
0.0
 11
24.88177535763586
 21
28.84087249933477
 31
0.0
  0
SOLID
  5
18A7
330
13A4
100
AcDbEntity
  8
R-ANNO-DIMS
 62
     0
100
AcDbTrace
 10
26.13177535763586
 20
28.88253916600143
 30
0.0
 11
26.13177535763586
 21
28.7992058326681
 31
0.0
 12
26.38177535763586
 22
28.84087249933477
 32
0.0
 13
26.38177535763586
 23
28.84087249933477
 33
0.0
  0
SOLID
  5
18A8
330
13A4
100
AcDbEntity
  8
R-ANNO-DIMS
 62
     0
100
AcDbTrace
 10
24.88177535763586
 20
28.88253916600143
 30
0.0
 11
24.88177535763586
 21
28.7992058326681
 31
0.0
 12
24.63177535763586
 22
28.84087249933477
 32
0.0
 13
24.63177535763586
 23
28.84087249933477
 33
0.0
  0
MTEXT
  5
18A9
330
13A4
100
AcDbEntity
  8
R-ANNO-DIMS
 62
     0
100
AcDbMText
 10
25.50677535763586
 20
29.03387249933477
 30
0.0
 40
0.186
 41
0.0
 71
     5
 72
     1
  1
\A1;1 3/4"
 73
     1
 44
1.0
1001
ACAD
1000
MTEXTBEGIN
1070
    73
1070
     1
1070
    44
1040
1.0
1070
    74
1070
     0
1000
MTEXTEND
  0
POINT
  5
18AA
330
13A4
100
AcDbEntity
  8
DEFPOINTS
 62
     0
100
AcDbPoint
 10
26.38177535763586
 20
28.1519969944579
 30
0.0
  0
POINT
  5
18AB
330
13A4
100
AcDbEntity
  8
DEFPOINTS
 62
     0
100
AcDbPoint
 10
24.63177535763586
 20
28.1519969944579
 30
0.0
  0
POINT
  5
18AC
330
13A4
100
AcDbEntity
  8
DEFPOINTS
 62
     0
100
AcDbPoint
 10
24.63177535763586
 20
28.84087249933477
 30
0.0
  0
ENDBLK
  5
13AF
330
13A4
100
AcDbEntity
  8
0
100
AcDbBlockEnd
  0
BLOCK
  5
13C6
330
13BC
100
AcDbEntity
  8
0
100
AcDbBlockBegin
  2
*D14
 70
     1
 10
0.0
 20
0.0
 30
0.0
  3
*D14
  1

  0
LINE
  5
18AD
330
13BC
100
AcDbEntity
  8
R-ANNO-DIMS
 62
     0
370
    -2
100
AcDbLine
 10
24.25677535763586
 20
28.1519969944579
 30
0.0
 11
23.74185154668596
 21
28.15199699445791
 31
0.0
  0
LINE
  5
18AE
330
13BC
100
AcDbEntity
  8
R-ANNO-DIMS
 62
     0
370
    -2
100
AcDbLine
 10
24.25677535763586
 20
23.6519969944579
 30
0.0
 11
23.74185154668596
 21
23.65199699445791
 31
0.0
  0
LINE
  5
18AF
330
13BC
100
AcDbEntity
  8
R-ANNO-DIMS
 62
     0
370
    -2
100
AcDbLine
 10
23.92185154668596
 20
27.90199699445791
 30
0.0
 11
23.92185154668596
 21
23.90199699445791
 31
0.0
  0
SOLID
  5
18B0
330
13BC
100
AcDbEntity
  8
R-ANNO-DIMS
 62
     0
100
AcDbTrace
 10
23.88018488001929
 20
27.90199699445791
 30
0.0
 11
23.96351821335263
 21
27.90199699445791
 31
0.0
 12
23.92185154668596
 22
28.15199699445791
 32
0.0
 13
23.92185154668596
 23
28.15199699445791
 33
0.0
  0
SOLID
  5
18B1
330
13BC
100
AcDbEntity
  8
R-ANNO-DIMS
 62
     0
100
AcDbTrace
 10
23.88018488001929
 20
23.90199699445791
 30
0.0
 11
23.96351821335263
 21
23.90199699445791
 31
0.0
 12
23.92185154668596
 22
23.65199699445791
 32
0.0
 13
23.92185154668596
 23
23.65199699445791
 33
0.0
  0
MTEXT
  5
18B2
330
13BC
100
AcDbEntity
  8
R-ANNO-DIMS
 62
     0
100
AcDbMText
 10
23.72885154668595
 20
25.90199699445791
 30
0.0
 40
0.186
 41
0.0
 71
     5
 72
     1
  1
\A1;4 1/2"
 11
0.0000000000000001
 21
1.0
 31
0.0
 73
     1
 44
1.0
1001
ACAD
1000
MTEXTBEGIN
1070
    73
1070
     1
1070
    44
1040
1.0
1070
    74
1070
     0
1000
MTEXTEND
  0
POINT
  5
18B3
330
13BC
100
AcDbEntity
  8
DEFPOINTS
 62
     0
100
AcDbPoint
 10
24.63177535763586
 20
28.1519969944579
 30
0.0
  0
POINT
  5
18B4
330
13BC
100
AcDbEntity
  8
DEFPOINTS
 62
     0
100
AcDbPoint
 10
24.63177535763586
 20
23.6519969944579
 30
0.0
  0
POINT
  5
18B5
330
13BC
100
AcDbEntity
  8
DEFPOINTS
 62
     0
100
AcDbPoint
 10
23.92185154668596
 20
23.65199699445791
 30
0.0
  0
ENDBLK
  5
13C7
330
13BC
100
AcDbEntity
  8
0
100
AcDbBlockEnd
  0
BLOCK
  5
13DE
330
13D4
100
AcDbEntity
  8
0
100
AcDbBlockBegin
  2
*D15
 70
     1
 10
0.0
 20
0.0
 30
0.0
  3
*D15
  1

  0
LINE
  5
18B6
330
13D4
100
AcDbEntity
  8
R-ANNO-DIMS
 62
     0
370
    -2
100
AcDbLine
 10
34.29126608203691
 20
30.0269969944579
 30
0.0
 11
34.29126608203691
 21
30.54235153893738
 31
0.0
  0
LINE
  5
18B7
330
13D4
100
AcDbEntity
  8
R-ANNO-DIMS
 62
     0
370
    -2
100
AcDbLine
 10
32.54126608203691
 20
30.0269969944579
 30
0.0
 11
32.54126608203691
 21
30.54235153893738
 31
0.0
  0
LINE
  5
18B8
330
13D4
100
AcDbEntity
  8
R-ANNO-DIMS
 62
     0
370
    -2
100
AcDbLine
 10
34.04126608203692
 20
30.36235153893738
 30
0.0
 11
32.79126608203692
 21
30.36235153893738
 31
0.0
  0
SOLID
  5
18B9
330
13D4
100
AcDbEntity
  8
R-ANNO-DIMS
 62
     0
100
AcDbTrace
 10
34.04126608203692
 20
30.40401820560405
 30
0.0
 11
34.04126608203692
 21
30.32068487227071
 31
0.0
 12
34.29126608203691
 22
30.36235153893738
 32
0.0
 13
34.29126608203691
 23
30.36235153893738
 33
0.0
  0
SOLID
  5
18BA
330
13D4
100
AcDbEntity
  8
R-ANNO-DIMS
 62
     0
100
AcDbTrace
 10
32.79126608203692
 20
30.40401820560405
 30
0.0
 11
32.79126608203692
 21
30.32068487227071
 31
0.0
 12
32.54126608203691
 22
30.36235153893738
 32
0.0
 13
32.54126608203691
 23
30.36235153893738
 33
0.0
  0
MTEXT
  5
18BB
330
13D4
100
AcDbEntity
  8
R-ANNO-DIMS
 62
     0
100
AcDbMText
 10
33.41626608203692
 20
30.55535153893738
 30
0.0
 40
0.186
 41
0.0
 71
     5
 72
     1
  1
\A1;1 3/4"
 73
     1
 44
1.0
1001
ACAD
1000
MTEXTBEGIN
1070
    73
1070
     1
1070
    44
1040
1.0
1070
    74
1070
     0
1000
MTEXTEND
  0
POINT
  5
18BC
330
13D4
100
AcDbEntity
  8
DEFPOINTS
 62
     0
100
AcDbPoint
 10
34.29126608203691
 20
29.6519969944579
 30
0.0
  0
POINT
  5
18BD
330
13D4
100
AcDbEntity
  8
DEFPOINTS
 62
     0
100
AcDbPoint
 10
32.54126608203691
 20
29.6519969944579
 30
0.0
  0
POINT
  5
18BE
330
13D4
100
AcDbEntity
  8
DEFPOINTS
 62
     0
100
AcDbPoint
 10
32.54126608203691
 20
30.36235153893738
 30
0.0
  0
ENDBLK
  5
13DF
330
13D4
100
AcDbEntity
  8
0
100
AcDbBlockEnd
  0
BLOCK
  5
13F6
330
13EC
100
AcDbEntity
  8
0
100
AcDbBlockBegin
  2
*D16
 70
     1
 10
0.0
 20
0.0
 30
0.0
  3
*D16
  1

  0
LINE
  5
18BF
330
13EC
100
AcDbEntity
  8
R-ANNO-DIMS
 62
     0
370
    -2
100
AcDbLine
 10
32.16626608203692
 20
29.6519969944579
 30
0.0
 11
31.6982640461333
 21
29.6519969944579
 31
0.0
  0
LINE
  5
18C0
330
13EC
100
AcDbEntity
  8
R-ANNO-DIMS
 62
     0
370
    -2
100
AcDbLine
 10
32.16626608203692
 20
23.6519969944579
 30
0.0
 11
31.69826404613329
 21
23.6519969944579
 31
0.0
  0
LINE
  5
18C1
330
13EC
100
AcDbEntity
  8
R-ANNO-DIMS
 62
     0
370
    -2
100
AcDbLine
 10
31.8782640461333
 20
29.4019969944579
 30
0.0
 11
31.87826404613329
 21
23.90199699445791
 31
0.0
  0
SOLID
  5
18C2
330
13EC
100
AcDbEntity
  8
R-ANNO-DIMS
 62
     0
100
AcDbTrace
 10
31.83659737946663
 20
29.4019969944579
 30
0.0
 11
31.91993071279997
 21
29.4019969944579
 31
0.0
 12
31.8782640461333
 22
29.6519969944579
 32
0.0
 13
31.8782640461333
 23
29.6519969944579
 33
0.0
  0
SOLID
  5
18C3
330
13EC
100
AcDbEntity
  8
R-ANNO-DIMS
 62
     0
100
AcDbTrace
 10
31.83659737946662
 20
23.90199699445791
 30
0.0
 11
31.91993071279996
 21
23.90199699445791
 31
0.0
 12
31.87826404613329
 22
23.6519969944579
 32
0.0
 13
31.87826404613329
 23
23.6519969944579
 33
0.0
  0
MTEXT
  5
18C4
330
13EC
100
AcDbEntity
  8
R-ANNO-DIMS
 62
     0
100
AcDbMText
 10
31.68526404613329
 20
26.65199699445791
 30
0.0
 40
0.186
 41
0.0
 71
     5
 72
     1
  1
\A1;6"
 11
0.0000000000000001
 21
1.0
 31
0.0
 73
     1
 44
1.0
1001
ACAD
1000
MTEXTBEGIN
1070
    73
1070
     1
1070
    44
1040
1.0
1070
    74
1070
     0
1000
MTEXTEND
  0
POINT
  5
18C5
330
13EC
100
AcDbEntity
  8
DEFPOINTS
 62
     0
100
AcDbPoint
 10
32.54126608203691
 20
29.6519969944579
 30
0.0
  0
POINT
  5
18C6
330
13EC
100
AcDbEntity
  8
DEFPOINTS
 62
     0
100
AcDbPoint
 10
32.54126608203691
 20
23.6519969944579
 30
0.0
  0
POINT
  5
18C7
330
13EC
100
AcDbEntity
  8
DEFPOINTS
 62
     0
100
AcDbPoint
 10
31.87826404613329
 20
23.6519969944579
 30
0.0
  0
ENDBLK
  5
13F7
330
13EC
100
AcDbEntity
  8
0
100
AcDbBlockEnd
  0
BLOCK
  5
145A
330
1450
100
AcDbEntity
  8
0
100
AcDbBlockBegin
  2
*D17
 70
     1
 10
0.0
 20
0.0
 30
0.0
  3
*D17
  1

  0
LINE
  5
18C8
330
1450
100
AcDbEntity
  8
R-ANNO-DIMS
 62
     0
370
    -2
100
AcDbLine
 10
13.94706923584735
 20
18.40389768063792
 30
0.0
 11
13.94706923584735
 21
18.95966025851574
 31
0.0
  0
LINE
  5
18C9
330
1450
100
AcDbEntity
  8
R-ANNO-DIMS
 62
     0
370
    -2
100
AcDbLine
 10
11.94706923584735
 20
18.40389768063792
 30
0.0
 11
11.94706923584735
 21
18.95966025851574
 31
0.0
  0
LINE
  5
18CA
330
1450
100
AcDbEntity
  8
R-ANNO-DIMS
 62
     0
370
    -2
100
AcDbLine
 10
13.69706923584735
 20
18.77966025851575
 30
0.0
 11
12.19706923584735
 21
18.77966025851575
 31
0.0
  0
SOLID
  5
18CB
330
1450
100
AcDbEntity
  8
R-ANNO-DIMS
 62
     0
100
AcDbTrace
 10
13.69706923584735
 20
18.82132692518241
 30
0.0
 11
13.69706923584735
 21
18.73799359184908
 31
0.0
 12
13.94706923584735
 22
18.77966025851575
 32
0.0
 13
13.94706923584735
 23
18.77966025851575
 33
0.0
  0
SOLID
  5
18CC
330
1450
100
AcDbEntity
  8
R-ANNO-DIMS
 62
     0
100
AcDbTrace
 10
12.19706923584735
 20
18.82132692518241
 30
0.0
 11
12.19706923584735
 21
18.73799359184908
 31
0.0
 12
11.94706923584735
 22
18.77966025851575
 32
0.0
 13
11.94706923584735
 23
18.77966025851575
 33
0.0
  0
MTEXT
  5
18CD
330
1450
100
AcDbEntity
  8
R-ANNO-DIMS
 62
     0
100
AcDbMText
 10
12.94706923584735
 20
18.97266025851575
 30
0.0
 40
0.186
 41
0.0
 71
     5
 72
     1
  1
\A1;2"
 73
     1
 44
1.0
1001
ACAD
1000
MTEXTBEGIN
1070
    73
1070
     1
1070
    44
1040
1.0
1070
    74
1070
     0
1000
MTEXTEND
  0
POINT
  5
18CE
330
1450
100
AcDbEntity
  8
DEFPOINTS
 62
     0
100
AcDbPoint
 10
13.94706923584735
 20
18.02889768063792
 30
0.0
  0
POINT
  5
18CF
330
1450
100
AcDbEntity
  8
DEFPOINTS
 62
     0
100
AcDbPoint
 10
11.94706923584735
 20
18.02889768063792
 30
0.0
  0
POINT
  5
18D0
330
1450
100
AcDbEntity
  8
DEFPOINTS
 62
     0
100
AcDbPoint
 10
11.94706923584735
 20
18.77966025851575
 30
0.0
  0
ENDBLK
  5
145B
330
1450
100
AcDbEntity
  8
0
100
AcDbBlockEnd
  0
BLOCK
  5
1472
330
1468
100
AcDbEntity
  8
0
100
AcDbBlockBegin
  2
*D18
 70
     1
 10
0.0
 20
0.0
 30
0.0
  3
*D18
  1

  0
LINE
  5
18D1
330
1468
100
AcDbEntity
  8
R-ANNO-DIMS
 62
     0
370
    -2
100
AcDbLine
 10
20.52172200105701
 20
19.40389768063792
 30
0.0
 11
20.52172200105701
 21
19.9616913535344
 31
0.0
  0
LINE
  5
18D2
330
1468
100
AcDbEntity
  8
R-ANNO-DIMS
 62
     0
370
    -2
100
AcDbLine
 10
18.52172200105701
 20
19.40389768063792
 30
0.0
 11
18.52172200105701
 21
19.9616913535344
 31
0.0
  0
LINE
  5
18D3
330
1468
100
AcDbEntity
  8
R-ANNO-DIMS
 62
     0
370
    -2
100
AcDbLine
 10
20.27172200105701
 20
19.7816913535344
 30
0.0
 11
18.77172200105701
 21
19.7816913535344
 31
0.0
  0
SOLID
  5
18D4
330
1468
100
AcDbEntity
  8
R-ANNO-DIMS
 62
     0
100
AcDbTrace
 10
20.27172200105701
 20
19.82335802020106
 30
0.0
 11
20.27172200105701
 21
19.74002468686773
 31
0.0
 12
20.52172200105701
 22
19.7816913535344
 32
0.0
 13
20.52172200105701
 23
19.7816913535344
 33
0.0
  0
SOLID
  5
18D5
330
1468
100
AcDbEntity
  8
R-ANNO-DIMS
 62
     0
100
AcDbTrace
 10
18.77172200105701
 20
19.82335802020106
 30
0.0
 11
18.77172200105701
 21
19.74002468686773
 31
0.0
 12
18.52172200105701
 22
19.7816913535344
 32
0.0
 13
18.52172200105701
 23
19.7816913535344
 33
0.0
  0
MTEXT
  5
18D6
330
1468
100
AcDbEntity
  8
R-ANNO-DIMS
 62
     0
100
AcDbMText
 10
19.52172200105701
 20
19.9746913535344
 30
0.0
 40
0.186
 41
0.0
 71
     5
 72
     1
  1
\A1;2"
 73
     1
 44
1.0
1001
ACAD
1000
MTEXTBEGIN
1070
    73
1070
     1
1070
    44
1040
1.0
1070
    74
1070
     0
1000
MTEXTEND
  0
POINT
  5
18D7
330
1468
100
AcDbEntity
  8
DEFPOINTS
 62
     0
100
AcDbPoint
 10
20.52172200105701
 20
19.02889768063792
 30
0.0
  0
POINT
  5
18D8
330
1468
100
AcDbEntity
  8
DEFPOINTS
 62
     0
100
AcDbPoint
 10
18.52172200105701
 20
19.02889768063792
 30
0.0
  0
POINT
  5
18D9
330
1468
100
AcDbEntity
  8
DEFPOINTS
 62
     0
100
AcDbPoint
 10
18.52172200105701
 20
19.7816913535344
 30
0.0
  0
ENDBLK
  5
1473
330
1468
100
AcDbEntity
  8
0
100
AcDbBlockEnd
  0
BLOCK
  5
148A
330
1480
100
AcDbEntity
  8
0
100
AcDbBlockBegin
  2
*D19
 70
     1
 10
0.0
 20
0.0
 30
0.0
  3
*D19
  1

  0
LINE
  5
18DA
330
1480
100
AcDbEntity
  8
R-ANNO-DIMS
 62
     0
370
    -2
100
AcDbLine
 10
27.53784278183051
 20
20.40389768063793
 30
0.0
 11
27.53784278183051
 21
20.94136202120746
 31
0.0
  0
LINE
  5
18DB
330
1480
100
AcDbEntity
  8
R-ANNO-DIMS
 62
     0
370
    -2
100
AcDbLine
 10
25.53784278183051
 20
20.40389768063793
 30
0.0
 11
25.53784278183051
 21
20.94136202120746
 31
0.0
  0
LINE
  5
18DC
330
1480
100
AcDbEntity
  8
R-ANNO-DIMS
 62
     0
370
    -2
100
AcDbLine
 10
27.28784278183051
 20
20.76136202120746
 30
0.0
 11
25.78784278183051
 21
20.76136202120746
 31
0.0
  0
SOLID
  5
18DD
330
1480
100
AcDbEntity
  8
R-ANNO-DIMS
 62
     0
100
AcDbTrace
 10
27.28784278183051
 20
20.80302868787413
 30
0.0
 11
27.28784278183051
 21
20.71969535454079
 31
0.0
 12
27.53784278183051
 22
20.76136202120746
 32
0.0
 13
27.53784278183051
 23
20.76136202120746
 33
0.0
  0
SOLID
  5
18DE
330
1480
100
AcDbEntity
  8
R-ANNO-DIMS
 62
     0
100
AcDbTrace
 10
25.78784278183051
 20
20.80302868787413
 30
0.0
 11
25.78784278183051
 21
20.71969535454079
 31
0.0
 12
25.53784278183051
 22
20.76136202120746
 32
0.0
 13
25.53784278183051
 23
20.76136202120746
 33
0.0
  0
MTEXT
  5
18DF
330
1480
100
AcDbEntity
  8
R-ANNO-DIMS
 62
     0
100
AcDbMText
 10
26.53784278183051
 20
20.95436202120746
 30
0.0
 40
0.186
 41
0.0
 71
     5
 72
     1
  1
\A1;2"
 73
     1
 44
1.0
1001
ACAD
1000
MTEXTBEGIN
1070
    73
1070
     1
1070
    44
1040
1.0
1070
    74
1070
     0
1000
MTEXTEND
  0
POINT
  5
18E0
330
1480
100
AcDbEntity
  8
DEFPOINTS
 62
     0
100
AcDbPoint
 10
27.53784278183051
 20
20.02889768063793
 30
0.0
  0
POINT
  5
18E1
330
1480
100
AcDbEntity
  8
DEFPOINTS
 62
     0
100
AcDbPoint
 10
25.53784278183051
 20
20.02889768063793
 30
0.0
  0
POINT
  5
18E2
330
1480
100
AcDbEntity
  8
DEFPOINTS
 62
     0
100
AcDbPoint
 10
25.53784278183051
 20
20.76136202120746
 30
0.0
  0
ENDBLK
  5
148B
330
1480
100
AcDbEntity
  8
0
100
AcDbBlockEnd
  0
BLOCK
  5
14A2
330
1498
100
AcDbEntity
  8
0
100
AcDbBlockBegin
  2
*D20
 70
     1
 10
0.0
 20
0.0
 30
0.0
  3
*D20
  1

  0
LINE
  5
18E3
330
1498
100
AcDbEntity
  8
R-ANNO-DIMS
 62
     0
370
    -2
100
AcDbLine
 10
36.574861599646
 20
19.90389768063792
 30
0.0
 11
36.574861599646
 21
20.43933092618881
 31
0.0
  0
LINE
  5
18E4
330
1498
100
AcDbEntity
  8
R-ANNO-DIMS
 62
     0
370
    -2
100
AcDbLine
 10
33.824861599646
 20
19.90389768063792
 30
0.0
 11
33.824861599646
 21
20.43933092618881
 31
0.0
  0
LINE
  5
18E5
330
1498
100
AcDbEntity
  8
R-ANNO-DIMS
 62
     0
370
    -2
100
AcDbLine
 10
36.324861599646
 20
20.25933092618881
 30
0.0
 11
34.074861599646
 21
20.25933092618881
 31
0.0
  0
SOLID
  5
18E6
330
1498
100
AcDbEntity
  8
R-ANNO-DIMS
 62
     0
100
AcDbTrace
 10
36.324861599646
 20
20.30099759285548
 30
0.0
 11
36.324861599646
 21
20.21766425952214
 31
0.0
 12
36.574861599646
 22
20.25933092618881
 32
0.0
 13
36.574861599646
 23
20.25933092618881
 33
0.0
  0
SOLID
  5
18E7
330
1498
100
AcDbEntity
  8
R-ANNO-DIMS
 62
     0
100
AcDbTrace
 10
34.074861599646
 20
20.30099759285548
 30
0.0
 11
34.074861599646
 21
20.21766425952214
 31
0.0
 12
33.824861599646
 22
20.25933092618881
 32
0.0
 13
33.824861599646
 23
20.25933092618881
 33
0.0
  0
MTEXT
  5
18E8
330
1498
100
AcDbEntity
  8
R-ANNO-DIMS
 62
     0
100
AcDbMText
 10
35.199861599646
 20
20.45233092618881
 30
0.0
 40
0.186
 41
0.0
 71
     5
 72
     1
  1
\A1;2 3/4"
 73
     1
 44
1.0
1001
ACAD
1000
MTEXTBEGIN
1070
    73
1070
     1
1070
    44
1040
1.0
1070
    74
1070
     0
1000
MTEXTEND
  0
POINT
  5
18E9
330
1498
100
AcDbEntity
  8
DEFPOINTS
 62
     0
100
AcDbPoint
 10
36.574861599646
 20
19.52889768063792
 30
0.0
  0
POINT
  5
18EA
330
1498
100
AcDbEntity
  8
DEFPOINTS
 62
     0
100
AcDbPoint
 10
33.824861599646
 20
19.52889768063792
 30
0.0
  0
POINT
  5
18EB
330
1498
100
AcDbEntity
  8
DEFPOINTS
 62
     0
100
AcDbPoint
 10
33.824861599646
 20
20.25933092618881
 30
0.0
  0
ENDBLK
  5
14A3
330
1498
100
AcDbEntity
  8
0
100
AcDbBlockEnd
  0
BLOCK
  5
14BA
330
14B0
100
AcDbEntity
  8
0
100
AcDbBlockBegin
  2
*D21
 70
     1
 10
0.0
 20
0.0
 30
0.0
  3
*D21
  1

  0
LINE
  5
18EC
330
14B0
100
AcDbEntity
  8
R-ANNO-DIMS
 62
     0
370
    -2
100
AcDbLine
 10
33.449861599646
 20
19.52889768063792
 30
0.0
 11
32.94952721043883
 21
19.52889768063792
 31
0.0
  0
LINE
  5
18ED
330
14B0
100
AcDbEntity
  8
R-ANNO-DIMS
 62
     0
370
    -2
100
AcDbLine
 10
33.449861599646
 20
14.02889768063792
 30
0.0
 11
32.94952721043883
 21
14.02889768063792
 31
0.0
  0
LINE
  5
18EE
330
14B0
100
AcDbEntity
  8
R-ANNO-DIMS
 62
     0
370
    -2
100
AcDbLine
 10
33.12952721043883
 20
19.27889768063792
 30
0.0
 11
33.12952721043882
 21
14.27889768063792
 31
0.0
  0
SOLID
  5
18EF
330
14B0
100
AcDbEntity
  8
R-ANNO-DIMS
 62
     0
100
AcDbTrace
 10
33.08786054377217
 20
19.27889768063792
 30
0.0
 11
33.1711938771055
 21
19.27889768063792
 31
0.0
 12
33.12952721043883
 22
19.52889768063792
 32
0.0
 13
33.12952721043883
 23
19.52889768063792
 33
0.0
  0
SOLID
  5
18F0
330
14B0
100
AcDbEntity
  8
R-ANNO-DIMS
 62
     0
100
AcDbTrace
 10
33.08786054377216
 20
14.27889768063792
 30
0.0
 11
33.17119387710549
 21
14.27889768063792
 31
0.0
 12
33.12952721043882
 22
14.02889768063792
 32
0.0
 13
33.12952721043882
 23
14.02889768063792
 33
0.0
  0
MTEXT
  5
18F1
330
14B0
100
AcDbEntity
  8
R-ANNO-DIMS
 62
     0
100
AcDbMText
 10
32.93652721043883
 20
16.77889768063793
 30
0.0
 40
0.186
 41
0.0
 71
     5
 72
     1
  1
\A1;5 1/2"
 11
0.0000000000000001
 21
1.0
 31
0.0
 73
     1
 44
1.0
1001
ACAD
1000
MTEXTBEGIN
1070
    73
1070
     1
1070
    44
1040
1.0
1070
    74
1070
     0
1000
MTEXTEND
  0
POINT
  5
18F2
330
14B0
100
AcDbEntity
  8
DEFPOINTS
 62
     0
100
AcDbPoint
 10
33.824861599646
 20
19.52889768063792
 30
0.0
  0
POINT
  5
18F3
330
14B0
100
AcDbEntity
  8
DEFPOINTS
 62
     0
100
AcDbPoint
 10
33.824861599646
 20
14.02889768063792
 30
0.0
  0
POINT
  5
18F4
330
14B0
100
AcDbEntity
  8
DEFPOINTS
 62
     0
100
AcDbPoint
 10
33.12952721043882
 20
14.02889768063792
 30
0.0
  0
ENDBLK
  5
14BB
330
14B0
100
AcDbEntity
  8
0
100
AcDbBlockEnd
  0
BLOCK
  5
14D2
330
14C8
100
AcDbEntity
  8
0
100
AcDbBlockBegin
  2
*D22
 70
     1
 10
0.0
 20
0.0
 30
0.0
  3
*D22
  1

  0
LINE
  5
18F5
330
14C8
100
AcDbEntity
  8
R-ANNO-DIMS
 62
     0
370
    -2
100
AcDbLine
 10
25.16284278183051
 20
20.02889768063793
 30
0.0
 11
24.6521548544719
 21
20.02889768063793
 31
0.0
  0
LINE
  5
18F6
330
14C8
100
AcDbEntity
  8
R-ANNO-DIMS
 62
     0
370
    -2
100
AcDbLine
 10
25.16284278183051
 20
14.02889768063792
 30
0.0
 11
24.6521548544719
 21
14.02889768063792
 31
0.0
  0
LINE
  5
18F7
330
14C8
100
AcDbEntity
  8
R-ANNO-DIMS
 62
     0
370
    -2
100
AcDbLine
 10
24.83215485447189
 20
19.77889768063792
 30
0.0
 11
24.83215485447189
 21
14.27889768063792
 31
0.0
  0
SOLID
  5
18F8
330
14C8
100
AcDbEntity
  8
R-ANNO-DIMS
 62
     0
100
AcDbTrace
 10
24.79048818780523
 20
19.77889768063792
 30
0.0
 11
24.87382152113856
 21
19.77889768063792
 31
0.0
 12
24.83215485447189
 22
20.02889768063793
 32
0.0
 13
24.83215485447189
 23
20.02889768063793
 33
0.0
  0
SOLID
  5
18F9
330
14C8
100
AcDbEntity
  8
R-ANNO-DIMS
 62
     0
100
AcDbTrace
 10
24.79048818780523
 20
14.27889768063792
 30
0.0
 11
24.87382152113856
 21
14.27889768063792
 31
0.0
 12
24.83215485447189
 22
14.02889768063792
 32
0.0
 13
24.83215485447189
 23
14.02889768063792
 33
0.0
  0
MTEXT
  5
18FA
330
14C8
100
AcDbEntity
  8
R-ANNO-DIMS
 62
     0
100
AcDbMText
 10
24.63915485447189
 20
17.02889768063793
 30
0.0
 40
0.186
 41
0.0
 71
     5
 72
     1
  1
\A1;6"
 11
0.0000000000000001
 21
1.0
 31
0.0
 73
     1
 44
1.0
1001
ACAD
1000
MTEXTBEGIN
1070
    73
1070
     1
1070
    44
1040
1.0
1070
    74
1070
     0
1000
MTEXTEND
  0
POINT
  5
18FB
330
14C8
100
AcDbEntity
  8
DEFPOINTS
 62
     0
100
AcDbPoint
 10
25.53784278183051
 20
20.02889768063793
 30
0.0
  0
POINT
  5
18FC
330
14C8
100
AcDbEntity
  8
DEFPOINTS
 62
     0
100
AcDbPoint
 10
25.53784278183051
 20
14.02889768063792
 30
0.0
  0
POINT
  5
18FD
330
14C8
100
AcDbEntity
  8
DEFPOINTS
 62
     0
100
AcDbPoint
 10
24.83215485447189
 20
14.02889768063792
 30
0.0
  0
ENDBLK
  5
14D3
330
14C8
100
AcDbEntity
  8
0
100
AcDbBlockEnd
  0
BLOCK
  5
14EA
330
14E0
100
AcDbEntity
  8
0
100
AcDbBlockBegin
  2
*D23
 70
     1
 10
0.0
 20
0.0
 30
0.0
  3
*D23
  1

  0
LINE
  5
18FE
330
14E0
100
AcDbEntity
  8
R-ANNO-DIMS
 62
     0
370
    -2
100
AcDbLine
 10
18.14672200105701
 20
19.02889768063792
 30
0.0
 11
17.62338054993194
 21
19.02889768063792
 31
0.0
  0
LINE
  5
18FF
330
14E0
100
AcDbEntity
  8
R-ANNO-DIMS
 62
     0
370
    -2
100
AcDbLine
 10
18.14672200105701
 20
14.02889768063792
 30
0.0
 11
17.62338054993194
 21
14.02889768063792
 31
0.0
  0
LINE
  5
1900
330
14E0
100
AcDbEntity
  8
R-ANNO-DIMS
 62
     0
370
    -2
100
AcDbLine
 10
17.80338054993194
 20
18.77889768063792
 30
0.0
 11
17.80338054993194
 21
14.27889768063792
 31
0.0
  0
SOLID
  5
1901
330
14E0
100
AcDbEntity
  8
R-ANNO-DIMS
 62
     0
100
AcDbTrace
 10
17.76171388326527
 20
18.77889768063792
 30
0.0
 11
17.84504721659861
 21
18.77889768063792
 31
0.0
 12
17.80338054993194
 22
19.02889768063792
 32
0.0
 13
17.80338054993194
 23
19.02889768063792
 33
0.0
  0
SOLID
  5
1902
330
14E0
100
AcDbEntity
  8
R-ANNO-DIMS
 62
     0
100
AcDbTrace
 10
17.76171388326527
 20
14.27889768063792
 30
0.0
 11
17.84504721659861
 21
14.27889768063792
 31
0.0
 12
17.80338054993194
 22
14.02889768063792
 32
0.0
 13
17.80338054993194
 23
14.02889768063792
 33
0.0
  0
MTEXT
  5
1903
330
14E0
100
AcDbEntity
  8
R-ANNO-DIMS
 62
     0
100
AcDbMText
 10
17.61038054993194
 20
16.52889768063793
 30
0.0
 40
0.186
 41
0.0
 71
     5
 72
     1
  1
\A1;5"
 11
0.0000000000000001
 21
1.0
 31
0.0
 73
     1
 44
1.0
1001
ACAD
1000
MTEXTBEGIN
1070
    73
1070
     1
1070
    44
1040
1.0
1070
    74
1070
     0
1000
MTEXTEND
  0
POINT
  5
1904
330
14E0
100
AcDbEntity
  8
DEFPOINTS
 62
     0
100
AcDbPoint
 10
18.52172200105701
 20
19.02889768063792
 30
0.0
  0
POINT
  5
1905
330
14E0
100
AcDbEntity
  8
DEFPOINTS
 62
     0
100
AcDbPoint
 10
18.52172200105701
 20
14.02889768063792
 30
0.0
  0
POINT
  5
1906
330
14E0
100
AcDbEntity
  8
DEFPOINTS
 62
     0
100
AcDbPoint
 10
17.80338054993194
 20
14.02889768063792
 30
0.0
  0
ENDBLK
  5
14EB
330
14E0
100
AcDbEntity
  8
0
100
AcDbBlockEnd
  0
BLOCK
  5
1502
330
14F8
100
AcDbEntity
  8
0
100
AcDbBlockBegin
  2
*D24
 70
     1
 10
0.0
 20
0.0
 30
0.0
  3
*D24
  1

  0
LINE
  5
1907
330
14F8
100
AcDbEntity
  8
R-ANNO-DIMS
 62
     0
370
    -2
100
AcDbLine
 10
11.57206923584735
 20
18.02889768063792
 30
0.0
 11
11.03268089167708
 21
18.02889768063792
 31
0.0
  0
LINE
  5
1908
330
14F8
100
AcDbEntity
  8
R-ANNO-DIMS
 62
     0
370
    -2
100
AcDbLine
 10
11.57206923584735
 20
14.02889768063792
 30
0.0
 11
11.03268089167708
 21
14.02889768063792
 31
0.0
  0
LINE
  5
1909
330
14F8
100
AcDbEntity
  8
R-ANNO-DIMS
 62
     0
370
    -2
100
AcDbLine
 10
11.21268089167708
 20
17.77889768063792
 30
0.0
 11
11.21268089167708
 21
14.27889768063792
 31
0.0
  0
SOLID
  5
190A
330
14F8
100
AcDbEntity
  8
R-ANNO-DIMS
 62
     0
100
AcDbTrace
 10
11.17101422501041
 20
17.77889768063792
 30
0.0
 11
11.25434755834374
 21
17.77889768063792
 31
0.0
 12
11.21268089167708
 22
18.02889768063792
 32
0.0
 13
11.21268089167708
 23
18.02889768063792
 33
0.0
  0
SOLID
  5
190B
330
14F8
100
AcDbEntity
  8
R-ANNO-DIMS
 62
     0
100
AcDbTrace
 10
11.17101422501041
 20
14.27889768063792
 30
0.0
 11
11.25434755834374
 21
14.27889768063792
 31
0.0
 12
11.21268089167708
 22
14.02889768063792
 32
0.0
 13
11.21268089167708
 23
14.02889768063792
 33
0.0
  0
MTEXT
  5
190C
330
14F8
100
AcDbEntity
  8
R-ANNO-DIMS
 62
     0
100
AcDbMText
 10
11.01968089167708
 20
16.02889768063793
 30
0.0
 40
0.186
 41
0.0
 71
     5
 72
     1
  1
\A1;4"
 11
0.0000000000000001
 21
1.0
 31
0.0
 73
     1
 44
1.0
1001
ACAD
1000
MTEXTBEGIN
1070
    73
1070
     1
1070
    44
1040
1.0
1070
    74
1070
     0
1000
MTEXTEND
  0
POINT
  5
190D
330
14F8
100
AcDbEntity
  8
DEFPOINTS
 62
     0
100
AcDbPoint
 10
11.94706923584735
 20
18.02889768063792
 30
0.0
  0
POINT
  5
190E
330
14F8
100
AcDbEntity
  8
DEFPOINTS
 62
     0
100
AcDbPoint
 10
11.94706923584735
 20
14.02889768063792
 30
0.0
  0
POINT
  5
190F
330
14F8
100
AcDbEntity
  8
DEFPOINTS
 62
     0
100
AcDbPoint
 10
11.21268089167708
 20
14.02889768063792
 30
0.0
  0
ENDBLK
  5
1503
330
14F8
100
AcDbEntity
  8
0
100
AcDbBlockEnd
  0
BLOCK
  5
151A
330
1510
100
AcDbEntity
  8
0
100
AcDbBlockBegin
  2
*D25
 70
     1
 10
0.0
 20
0.0
 30
0.0
  3
*D25
  1

  0
LINE
  5
1910
330
1510
100
AcDbEntity
  8
R-ANNO-DIMS
 62
     0
370
    -2
100
AcDbLine
 10
15.94706923584735
 20
9.770734200206902
 30
0.0
 11
15.94706923584735
 21
10.29243098870601
 31
0.0
  0
LINE
  5
1911
330
1510
100
AcDbEntity
  8
R-ANNO-DIMS
 62
     0
370
    -2
100
AcDbLine
 10
11.94706923584735
 20
9.770734200206902
 30
0.0
 11
11.94706923584735
 21
10.29243098870601
 31
0.0
  0
LINE
  5
1912
330
1510
100
AcDbEntity
  8
R-ANNO-DIMS
 62
     0
370
    -2
100
AcDbLine
 10
15.69706923584735
 20
10.11243098870601
 30
0.0
 11
12.19706923584735
 21
10.11243098870601
 31
0.0
  0
SOLID
  5
1913
330
1510
100
AcDbEntity
  8
R-ANNO-DIMS
 62
     0
100
AcDbTrace
 10
15.69706923584735
 20
10.15409765537267
 30
0.0
 11
15.69706923584735
 21
10.07076432203934
 31
0.0
 12
15.94706923584735
 22
10.11243098870601
 32
0.0
 13
15.94706923584735
 23
10.11243098870601
 33
0.0
  0
SOLID
  5
1914
330
1510
100
AcDbEntity
  8
R-ANNO-DIMS
 62
     0
100
AcDbTrace
 10
12.19706923584735
 20
10.15409765537267
 30
0.0
 11
12.19706923584735
 21
10.07076432203934
 31
0.0
 12
11.94706923584735
 22
10.11243098870601
 32
0.0
 13
11.94706923584735
 23
10.11243098870601
 33
0.0
  0
MTEXT
  5
1915
330
1510
100
AcDbEntity
  8
R-ANNO-DIMS
 62
     0
100
AcDbMText
 10
13.94706923584735
 20
10.30543098870601
 30
0.0
 40
0.186
 41
0.0
 71
     5
 72
     1
  1
\A1;4"
 73
     1
 44
1.0
1001
ACAD
1000
MTEXTBEGIN
1070
    73
1070
     1
1070
    44
1040
1.0
1070
    74
1070
     0
1000
MTEXTEND
  0
POINT
  5
1916
330
1510
100
AcDbEntity
  8
DEFPOINTS
 62
     0
100
AcDbPoint
 10
15.94706923584735
 20
9.395734200206902
 30
0.0
  0
POINT
  5
1917
330
1510
100
AcDbEntity
  8
DEFPOINTS
 62
     0
100
AcDbPoint
 10
11.94706923584735
 20
9.395734200206902
 30
0.0
  0
POINT
  5
1918
330
1510
100
AcDbEntity
  8
DEFPOINTS
 62
     0
100
AcDbPoint
 10
11.94706923584735
 20
10.11243098870601
 30
0.0
  0
ENDBLK
  5
151B
330
1510
100
AcDbEntity
  8
0
100
AcDbBlockEnd
  0
BLOCK
  5
1532
330
1528
100
AcDbEntity
  8
0
100
AcDbBlockBegin
  2
*D26
 70
     1
 10
0.0
 20
0.0
 30
0.0
  3
*D26
  1

  0
LINE
  5
1919
330
1528
100
AcDbEntity
  8
R-ANNO-DIMS
 62
     0
370
    -2
100
AcDbLine
 10
11.57206923584735
 20
9.395734200206902
 30
0.0
 11
11.03762841820302
 21
9.395734200206902
 31
0.0
  0
LINE
  5
191A
330
1528
100
AcDbEntity
  8
R-ANNO-DIMS
 62
     0
370
    -2
100
AcDbLine
 10
11.57206923584735
 20
5.395734200206902
 30
0.0
 11
11.03762841820302
 21
5.395734200206902
 31
0.0
  0
LINE
  5
191B
330
1528
100
AcDbEntity
  8
R-ANNO-DIMS
 62
     0
370
    -2
100
AcDbLine
 10
11.21762841820302
 20
9.145734200206902
 30
0.0
 11
11.21762841820302
 21
5.645734200206902
 31
0.0
  0
SOLID
  5
191C
330
1528
100
AcDbEntity
  8
R-ANNO-DIMS
 62
     0
100
AcDbTrace
 10
11.17596175153635
 20
9.145734200206902
 30
0.0
 11
11.25929508486968
 21
9.145734200206902
 31
0.0
 12
11.21762841820302
 22
9.395734200206902
 32
0.0
 13
11.21762841820302
 23
9.395734200206902
 33
0.0
  0
SOLID
  5
191D
330
1528
100
AcDbEntity
  8
R-ANNO-DIMS
 62
     0
100
AcDbTrace
 10
11.17596175153635
 20
5.645734200206902
 30
0.0
 11
11.25929508486968
 21
5.645734200206902
 31
0.0
 12
11.21762841820302
 22
5.395734200206902
 32
0.0
 13
11.21762841820302
 23
5.395734200206902
 33
0.0
  0
MTEXT
  5
191E
330
1528
100
AcDbEntity
  8
R-ANNO-DIMS
 62
     0
100
AcDbMText
 10
11.02462841820302
 20
7.395734200206903
 30
0.0
 40
0.186
 41
0.0
 71
     5
 72
     1
  1
\A1;4"
 11
0.0000000000000001
 21
1.0
 31
0.0
 73
     1
 44
1.0
1001
ACAD
1000
MTEXTBEGIN
1070
    73
1070
     1
1070
    44
1040
1.0
1070
    74
1070
     0
1000
MTEXTEND
  0
POINT
  5
191F
330
1528
100
AcDbEntity
  8
DEFPOINTS
 62
     0
100
AcDbPoint
 10
11.94706923584735
 20
9.395734200206902
 30
0.0
  0
POINT
  5
1920
330
1528
100
AcDbEntity
  8
DEFPOINTS
 62
     0
100
AcDbPoint
 10
11.94706923584735
 20
5.395734200206902
 30
0.0
  0
POINT
  5
1921
330
1528
100
AcDbEntity
  8
DEFPOINTS
 62
     0
100
AcDbPoint
 10
11.21762841820302
 20
5.395734200206902
 30
0.0
  0
ENDBLK
  5
1533
330
1528
100
AcDbEntity
  8
0
100
AcDbBlockEnd
  0
BLOCK
  5
154A
330
1540
100
AcDbEntity
  8
0
100
AcDbBlockBegin
  2
*D27
 70
     1
 10
0.0
 20
0.0
 30
0.0
  3
*D27
  1

  0
LINE
  5
1922
330
1540
100
AcDbEntity
  8
R-ANNO-DIMS
 62
     0
370
    -2
100
AcDbLine
 10
25.14678579864619
 20
10.2707342002069
 30
0.0
 11
25.14678579864619
 21
10.79446208372466
 31
0.0
  0
LINE
  5
1923
330
1540
100
AcDbEntity
  8
R-ANNO-DIMS
 62
     0
370
    -2
100
AcDbLine
 10
20.64678579864619
 20
10.2707342002069
 30
0.0
 11
20.64678579864619
 21
10.79446208372466
 31
0.0
  0
LINE
  5
1924
330
1540
100
AcDbEntity
  8
R-ANNO-DIMS
 62
     0
370
    -2
100
AcDbLine
 10
24.89678579864619
 20
10.61446208372466
 30
0.0
 11
20.89678579864619
 21
10.61446208372466
 31
0.0
  0
SOLID
  5
1925
330
1540
100
AcDbEntity
  8
R-ANNO-DIMS
 62
     0
100
AcDbTrace
 10
24.89678579864619
 20
10.65612875039132
 30
0.0
 11
24.89678579864619
 21
10.57279541705799
 31
0.0
 12
25.14678579864619
 22
10.61446208372466
 32
0.0
 13
25.14678579864619
 23
10.61446208372466
 33
0.0
  0
SOLID
  5
1926
330
1540
100
AcDbEntity
  8
R-ANNO-DIMS
 62
     0
100
AcDbTrace
 10
20.89678579864619
 20
10.65612875039132
 30
0.0
 11
20.89678579864619
 21
10.57279541705799
 31
0.0
 12
20.64678579864619
 22
10.61446208372466
 32
0.0
 13
20.64678579864619
 23
10.61446208372466
 33
0.0
  0
MTEXT
  5
1927
330
1540
100
AcDbEntity
  8
R-ANNO-DIMS
 62
     0
100
AcDbMText
 10
22.89678579864619
 20
10.80746208372466
 30
0.0
 40
0.186
 41
0.0
 71
     5
 72
     1
  1
\A1;4 1/2"
 73
     1
 44
1.0
1001
ACAD
1000
MTEXTBEGIN
1070
    73
1070
     1
1070
    44
1040
1.0
1070
    74
1070
     0
1000
MTEXTEND
  0
POINT
  5
1928
330
1540
100
AcDbEntity
  8
DEFPOINTS
 62
     0
100
AcDbPoint
 10
25.14678579864619
 20
9.895734200206902
 30
0.0
  0
POINT
  5
1929
330
1540
100
AcDbEntity
  8
DEFPOINTS
 62
     0
100
AcDbPoint
 10
20.64678579864619
 20
9.895734200206902
 30
0.0
  0
POINT
  5
192A
330
1540
100
AcDbEntity
  8
DEFPOINTS
 62
     0
100
AcDbPoint
 10
20.64678579864619
 20
10.61446208372466
 30
0.0
  0
ENDBLK
  5
154B
330
1540
100
AcDbEntity
  8
0
100
AcDbBlockEnd
  0
BLOCK
  5
1562
330
1558
100
AcDbEntity
  8
0
100
AcDbBlockBegin
  2
*D28
 70
     1
 10
0.0
 20
0.0
 30
0.0
  3
*D28
  1

  0
LINE
  5
192B
330
1558
100
AcDbEntity
  8
R-ANNO-DIMS
 62
     0
370
    -2
100
AcDbLine
 10
20.27178579864619
 20
9.895734200206902
 30
0.0
 11
19.74754049893429
 21
9.895734200206904
 31
0.0
  0
LINE
  5
192C
330
1558
100
AcDbEntity
  8
R-ANNO-DIMS
 62
     0
370
    -2
100
AcDbLine
 10
20.27178579864619
 20
5.395734200206902
 30
0.0
 11
19.74754049893429
 21
5.395734200206902
 31
0.0
  0
LINE
  5
192D
330
1558
100
AcDbEntity
  8
R-ANNO-DIMS
 62
     0
370
    -2
100
AcDbLine
 10
19.92754049893429
 20
9.645734200206904
 30
0.0
 11
19.92754049893429
 21
5.645734200206902
 31
0.0
  0
SOLID
  5
192E
330
1558
100
AcDbEntity
  8
R-ANNO-DIMS
 62
     0
100
AcDbTrace
 10
19.88587383226763
 20
9.645734200206904
 30
0.0
 11
19.96920716560096
 21
9.645734200206904
 31
0.0
 12
19.92754049893429
 22
9.895734200206904
 32
0.0
 13
19.92754049893429
 23
9.895734200206904
 33
0.0
  0
SOLID
  5
192F
330
1558
100
AcDbEntity
  8
R-ANNO-DIMS
 62
     0
100
AcDbTrace
 10
19.88587383226762
 20
5.645734200206902
 30
0.0
 11
19.96920716560096
 21
5.645734200206902
 31
0.0
 12
19.92754049893429
 22
5.395734200206902
 32
0.0
 13
19.92754049893429
 23
5.395734200206902
 33
0.0
  0
MTEXT
  5
1930
330
1558
100
AcDbEntity
  8
R-ANNO-DIMS
 62
     0
100
AcDbMText
 10
19.73454049893429
 20
7.645734200206907
 30
0.0
 40
0.186
 41
0.0
 71
     5
 72
     1
  1
\A1;4 1/2"
 11
0.0000000000000001
 21
1.0
 31
0.0
 73
     1
 44
1.0
1001
ACAD
1000
MTEXTBEGIN
1070
    73
1070
     1
1070
    44
1040
1.0
1070
    74
1070
     0
1000
MTEXTEND
  0
POINT
  5
1931
330
1558
100
AcDbEntity
  8
DEFPOINTS
 62
     0
100
AcDbPoint
 10
20.64678579864619
 20
9.895734200206902
 30
0.0
  0
POINT
  5
1932
330
1558
100
AcDbEntity
  8
DEFPOINTS
 62
     0
100
AcDbPoint
 10
20.64678579864619
 20
5.395734200206902
 30
0.0
  0
POINT
  5
1933
330
1558
100
AcDbEntity
  8
DEFPOINTS
 62
     0
100
AcDbPoint
 10
19.92754049893429
 20
5.395734200206902
 30
0.0
  0
ENDBLK
  5
1563
330
1558
100
AcDbEntity
  8
0
100
AcDbBlockEnd
  0
BLOCK
  5
157A
330
1570
100
AcDbEntity
  8
0
100
AcDbBlockBegin
  2
*D29
 70
     1
 10
0.0
 20
0.0
 30
0.0
  3
*D29
  1

  0
LINE
  5
1934
330
1570
100
AcDbEntity
  8
R-ANNO-DIMS
 62
     0
370
    -2
100
AcDbLine
 10
29.61988576549041
 20
10.8956342002069
 30
0.0
 11
29.08600123040319
 21
10.8956342002069
 31
0.0
  0
LINE
  5
1935
330
1570
100
AcDbEntity
  8
R-ANNO-DIMS
 62
     0
370
    -2
100
AcDbLine
 10
29.61988576549041
 20
5.395734200206902
 30
0.0
 11
29.08600123040319
 21
5.395734200206902
 31
0.0
  0
LINE
  5
1936
330
1570
100
AcDbEntity
  8
R-ANNO-DIMS
 62
     0
370
    -2
100
AcDbLine
 10
29.26600123040319
 20
10.6456342002069
 30
0.0
 11
29.26600123040319
 21
5.645734200206902
 31
0.0
  0
SOLID
  5
1937
330
1570
100
AcDbEntity
  8
R-ANNO-DIMS
 62
     0
100
AcDbTrace
 10
29.22433456373653
 20
10.6456342002069
 30
0.0
 11
29.30766789706986
 21
10.6456342002069
 31
0.0
 12
29.26600123040319
 22
10.8956342002069
 32
0.0
 13
29.26600123040319
 23
10.8956342002069
 33
0.0
  0
SOLID
  5
1938
330
1570
100
AcDbEntity
  8
R-ANNO-DIMS
 62
     0
100
AcDbTrace
 10
29.22433456373652
 20
5.645734200206902
 30
0.0
 11
29.30766789706986
 21
5.645734200206902
 31
0.0
 12
29.26600123040319
 22
5.395734200206902
 32
0.0
 13
29.26600123040319
 23
5.395734200206902
 33
0.0
  0
MTEXT
  5
1939
330
1570
100
AcDbEntity
  8
R-ANNO-DIMS
 62
     0
100
AcDbMText
 10
29.07300123040318
 20
8.145684200206908
 30
0.0
 40
0.186
 41
0.0
 71
     5
 72
     1
  1
\A1;5 1/2"
 11
0.0000000000000001
 21
1.0
 31
0.0
 73
     1
 44
1.0
1001
ACAD
1000
MTEXTBEGIN
1070
    73
1070
     1
1070
    44
1040
1.0
1070
    74
1070
     0
1000
MTEXTEND
  0
POINT
  5
193A
330
1570
100
AcDbEntity
  8
DEFPOINTS
 62
     0
100
AcDbPoint
 10
29.99488576549041
 20
10.8956342002069
 30
0.0
  0
POINT
  5
193B
330
1570
100
AcDbEntity
  8
DEFPOINTS
 62
     0
100
AcDbPoint
 10
29.99488576549041
 20
5.395734200206902
 30
0.0
  0
POINT
  5
193C
330
1570
100
AcDbEntity
  8
DEFPOINTS
 62
     0
100
AcDbPoint
 10
29.26600123040319
 20
5.395734200206902
 30
0.0
  0
ENDBLK
  5
157B
330
1570
100
AcDbEntity
  8
0
100
AcDbBlockEnd
  0
BLOCK
  5
1592
330
1588
100
AcDbEntity
  8
0
100
AcDbBlockBegin
  2
*D30
 70
     1
 10
0.0
 20
0.0
 30
0.0
  3
*D30
  1

  0
LINE
  5
193D
330
1588
100
AcDbEntity
  8
R-ANNO-DIMS
 62
     0
370
    -2
100
AcDbLine
 10
35.49488576549041
 20
11.2706342002069
 30
0.0
 11
35.49488576549041
 21
11.79852427376196
 31
0.0
  0
LINE
  5
193E
330
1588
100
AcDbEntity
  8
R-ANNO-DIMS
 62
     0
370
    -2
100
AcDbLine
 10
29.99488576549041
 20
11.2706342002069
 30
0.0
 11
29.99488576549041
 21
11.79852427376196
 31
0.0
  0
LINE
  5
193F
330
1588
100
AcDbEntity
  8
R-ANNO-DIMS
 62
     0
370
    -2
100
AcDbLine
 10
35.24488576549041
 20
11.61852427376196
 30
0.0
 11
30.24488576549041
 21
11.61852427376196
 31
0.0
  0
SOLID
  5
1940
330
1588
100
AcDbEntity
  8
R-ANNO-DIMS
 62
     0
100
AcDbTrace
 10
35.24488576549041
 20
11.66019094042863
 30
0.0
 11
35.24488576549041
 21
11.57685760709529
 31
0.0
 12
35.49488576549041
 22
11.61852427376196
 32
0.0
 13
35.49488576549041
 23
11.61852427376196
 33
0.0
  0
SOLID
  5
1941
330
1588
100
AcDbEntity
  8
R-ANNO-DIMS
 62
     0
100
AcDbTrace
 10
30.24488576549041
 20
11.66019094042863
 30
0.0
 11
30.24488576549041
 21
11.57685760709529
 31
0.0
 12
29.99488576549041
 22
11.61852427376196
 32
0.0
 13
29.99488576549041
 23
11.61852427376196
 33
0.0
  0
MTEXT
  5
1942
330
1588
100
AcDbEntity
  8
R-ANNO-DIMS
 62
     0
100
AcDbMText
 10
32.74488576549041
 20
11.81152427376196
 30
0.0
 40
0.186
 41
0.0
 71
     5
 72
     1
  1
\A1;5 1/2"
 73
     1
 44
1.0
1001
ACAD
1000
MTEXTBEGIN
1070
    73
1070
     1
1070
    44
1040
1.0
1070
    74
1070
     0
1000
MTEXTEND
  0
POINT
  5
1943
330
1588
100
AcDbEntity
  8
DEFPOINTS
 62
     0
100
AcDbPoint
 10
35.49488576549041
 20
10.8956342002069
 30
0.0
  0
POINT
  5
1944
330
1588
100
AcDbEntity
  8
DEFPOINTS
 62
     0
100
AcDbPoint
 10
29.99488576549041
 20
10.8956342002069
 30
0.0
  0
POINT
  5
1945
330
1588
100
AcDbEntity
  8
DEFPOINTS
 62
     0
100
AcDbPoint
 10
29.99488576549041
 20
11.61852427376196
 30
0.0
  0
ENDBLK
  5
1593
330
1588
100
AcDbEntity
  8
0
100
AcDbBlockEnd
  0
BLOCK
  5
1F7B
330
1F6F
100
AcDbEntity
  8
0
100
AcDbBlockBegin
  2
Kawneer Logo English
 70
     0
 10
0.0
 20
0.0
 30
0.0
  3
Kawneer Logo English
  1

  0
MTEXT
  5
1F70
102
{ACAD_XDICTIONARY
360
2012
102
}
330
1F6F
100
AcDbEntity
  8
Kawneer Logo-English
100
AcDbMText
 10
1.510096758583198
 20
0.0372523876656778
 30
0.0
 40
0.036
 41
0.6125900866323382
 71
     3
 72
     5
  1
{\fArial TUR|b0|i0|c0|p34;\T1.05;AN ARCONIC COMPANY}
 73
     1
 44
1.0
1001
ACAD
1000
ACAD_MTEXT_COLUMN_INFO_BEGIN
1070
    75
1070
     2
1070
    79
1070
     0
1070
    76
1070
     1
1070
    78
1070
     0
1070
    48
1040
0.6125900866323382
1070
    49
1040
1.0
1070
    50
1070
     1
1040
0.0
1000
ACAD_MTEXT_COLUMN_INFO_END
1000
MTEXTBEGIN
1070
    73
1070
     1
1070
    44
1040
1.0
1070
    74
1070
     0
1000
MTEXTEND
  0
HATCH
  5
1F71
330
1F6F
100
AcDbEntity
  8
Kawneer Logo-English
100
AcDbHatch
 10
0.0
 20
0.0
 30
0.0
210
0.0
220
0.0
230
1.0
  2
SOLID
 70
     1
 71
     0
 91
        1
 92
        1
 93
       81
 72
     1
 10
0.2706169776412204
 20
0.0336337282279411
 11
0.2687512969786691
 21
0.0350329887248546
 72
     1
 10
0.2687512969786696
 20
0.0350329887248547
 11
0.2633408230572721
 21
0.039137486182467
 72
     1
 10
0.2633408230572729
 20
0.0391374861824669
 11
0.2550385441089194
 21
0.0453875164020133
 72
     1
 10
0.2550385441089191
 20
0.0453875164020132
 11
0.2442175962661241
 21
0.053596511317238
 72
     1
 10
0.2442175962661235
 20
0.0535965113172379
 11
0.2314376837276472
 21
0.0632980507625037
 72
     1
 10
0.2314376837276479
 20
0.0632980507625037
 11
0.2172585106922595
 21
0.0741189986052996
 72
     1
 10
0.2172585106922598
 20
0.0741189986052996
 11
0.2019599292593419
 21
0.0856862187131167
 72
     1
 10
0.201959929259341
 20
0.0856862187131167
 11
0.1862882116939105
 21
0.0976265749534437
 72
     1
 10
0.1862882116939102
 20
0.0976265749534437
 11
0.1706164941284813
 21
0.1095669311937706
 72
     1
 10
0.1706164941284811
 20
0.1095669311937709
 11
0.1553179126955632
 21
0.1211341513015875
 72
     1
 10
0.1553179126955642
 20
0.1211341513015876
 11
0.1411387396601757
 21
0.131955099144384
 72
     1
 10
0.1411387396601755
 20
0.1319550991443839
 11
0.1284521111548274
 21
0.141749922622777
 72
     1
 10
0.1284521111548278
 20
0.1417499226227768
 11
0.117631163312031
 21
0.1499589175380016
 72
     1
 10
0.1176311633120304
 20
0.1499589175380017
 11
0.1094221683968068
 21
0.1563022317906752
 72
     1
 10
0.1094221683968062
 20
0.1563022317906754
 11
0.1041049785085351
 21
0.1604067292482882
 72
     1
 10
0.1041049785085351
 20
0.1604067292482878
 11
0.1023325818791119
 21
0.1618992737783286
 72
     1
 10
0.1023325818791116
 20
0.1618992737783289
 11
0.1043848306079176
 21
0.1636716704077524
 72
     1
 10
0.1043848306079194
 20
0.1636716704077524
 11
0.1100751566286996
 21
0.1683358720641301
 72
     1
 10
0.1100751566286986
 20
0.1683358720641301
 11
0.1189371397758159
 21
0.1757053106812067
 72
     1
 10
0.1189371397758161
 20
0.1757053106812067
 11
0.1304110758505067
 21
0.1851269980270901
 72
     1
 10
0.1304110758505059
 20
0.1851269980270902
 11
0.1439372606540007
 21
0.1963210820023967
 72
     1
 10
0.1439372606540017
 20
0.1963210820023967
 11
0.1589559899875385
 21
0.2087278584083611
 72
     1
 10
0.1589559899875379
 20
0.2087278584083611
 11
0.1750941277186041
 21
0.2220674751456017
 72
     1
 10
0.1750941277186047
 20
0.2220674751456017
 11
0.19169868561531
 21
0.2358735120484796
 72
     1
 10
0.1916986856153105
 20
0.2358735120484796
 11
0.208303243512014
 21
0.2495862649182301
 72
     1
 10
0.2083032435120131
 20
0.2495862649182304
 11
0.2244413812430811
 21
0.2628325976223432
 72
     1
 10
0.2244413812430812
 20
0.2628325976223429
 11
0.239460110576618
 21
0.2753326580614352
 72
     1
 10
0.2394601105766174
 20
0.2753326580614351
 11
0.2529862953801122
 21
0.2864334580036143
 72
     1
 10
0.2529862953801132
 20
0.2864334580036143
 11
0.2643669474216756
 21
0.2958551453494973
 72
     1
 10
0.2643669474216757
 20
0.2958551453494973
 11
0.2731356465356649
 21
0.3031312999334466
 72
     1
 10
0.273135646535664
 20
0.3031312999334466
 11
0.2788259725564443
 21
0.3077955015898243
 72
     1
 10
0.278825972556445
 20
0.3077955015898246
 11
0.2807849372521245
 21
0.3094746141861208
 72
     1
 10
0.2807849372521249
 20
0.3094746141861205
 11
0.2798520969208501
 21
0.3094746141861205
 72
     1
 10
0.2798520969208496
 20
0.3094746141861205
 11
0.2769602918938953
 21
0.3095678982192478
 72
     1
 10
0.2769602918938943
 20
0.3095678982192481
 11
0.2724826583037715
 21
0.3095678982192481
 72
     1
 10
0.2724826583037729
 20
0.3095678982192481
 11
0.2666057642167363
 21
0.3095678982192481
 72
     1
 10
0.266605764216735
 20
0.3095678982192481
 11
0.2597027457652953
 21
0.3095678982192481
 72
     1
 10
0.2597027457652956
 20
0.3095678982192481
 11
0.2519601710157094
 21
0.3095678982192481
 72
     1
 10
0.2519601710157104
 20
0.3095678982192481
 11
0.2437511761004851
 21
0.3095678982192481
 72
     1
 10
0.243751176100484
 20
0.3095678982192481
 11
0.2351690450527495
 21
0.3095678982192481
 72
     1
 10
0.2351690450527495
 20
0.3095678982192481
 11
0.2266801980381413
 21
0.3095678982192481
 72
     1
 10
0.2266801980381423
 20
0.3095678982192481
 11
0.2183779190897905
 21
0.3094746141861208
 72
     1
 10
0.2183779190897899
 20
0.3094746141861205
 11
0.2106353443402037
 21
0.3094746141861205
 72
     1
 10
0.2106353443402029
 20
0.3094746141861205
 11
0.2037323258887632
 21
0.3094746141861205
 72
     1
 10
0.203732325888764
 20
0.3094746141861205
 11
0.1978554318017273
 21
0.3094746141861205
 72
     1
 10
0.1978554318017278
 20
0.3094746141861205
 11
0.1932845141784786
 21
0.3094746141861205
 72
     1
 10
0.1932845141784787
 20
0.3094746141861205
 11
0.1903927091515244
 21
0.3094746141861205
 72
     1
 10
0.1903927091515234
 20
0.3094746141861205
 11
0.1893665847871204
 21
0.3094746141861205
 72
     1
 10
0.1893665847871206
 20
0.3094746141861205
 11
0.1879673242902067
 21
0.3077955015898243
 72
     1
 10
0.1879673242902076
 20
0.3077955015898246
 11
0.1841426789319786
 21
0.3030380159003196
 72
     1
 10
0.1841426789319787
 20
0.3030380159003192
 11
0.1780792167786874
 21
0.29576186131637
 72
     1
 10
0.1780792167786873
 20
0.29576186131637
 11
0.170243357995973
 21
0.2862468899373593
 72
     1
 10
0.170243357995973
 20
0.2862468899373593
 11
0.1610082387163447
 21
0.2750528059620528
 72
     1
 10
0.1610082387163438
 20
0.2750528059620528
 11
0.1507469950723126
 21
0.2624594614898328
 72
     1
 10
0.1507469950723133
 20
0.2624594614898328
 11
0.1396461951301336
 21
0.2491198447525922
 72
     1
 10
0.1396461951301333
 20
0.2491198447525922
 11
0.1282655430885727
 21
0.2352205238165866
 72
     1
 10
0.1282655430885726
 20
0.2352205238165868
 11
0.1168848910470102
 21
0.2214144869137089
 72
     1
 10
0.1168848910470102
 20
0.2214144869137087
 11
0.1058773751379587
 21
0.2079815861433408
 72
     1
 10
0.105877375137958
 20
0.2079815861433408
 11
0.0955228474608004
 21
0.1954815257042486
 72
     1
 10
0.0955228474608019
 20
0.1954815257042488
 11
0.0862877281811736
 21
0.1842874417289424
 72
     1
 10
0.0862877281811727
 20
0.1842874417289424
 11
0.0784518693984583
 21
0.1747724703499316
 72
     1
 10
0.0784518693984584
 20
0.1747724703499314
 11
0.0723884072451672
 21
0.1674963157659821
 72
     1
 10
0.0723884072451671
 20
0.1674963157659822
 11
0.0685637618869363
 21
0.1627388300764767
 72
     1
 10
0.0685637618869364
 20
0.1627388300764767
 11
0.0671645013900242
 21
0.1611530015133082
 72
     1
 10
0.0671645013900251
 20
0.1611530015133082
 11
0.0680040576881734
 21
0.1596604569832674
 72
     1
 10
0.0680040576881726
 20
0.1596604569832674
 11
0.0704294425494878
 21
0.1556492435587824
 72
     1
 10
0.0704294425494871
 20
0.1556492435587824
 11
0.0742540879077179
 21
0.1493059293061089
 72
     1
 10
0.0742540879077192
 20
0.1493059293061089
 11
0.0791048576303511
 21
0.1411902184240116
 72
     1
 10
0.0791048576303508
 20
0.1411902184240116
 11
0.0848884676842594
 21
0.1314886789787458
 72
     1
 10
0.0848884676842596
 20
0.1314886789787459
 11
0.0913250659700619
 21
0.1207610151690772
 72
     1
 10
0.0913250659700613
 20
0.1207610151690775
 11
0.0982280844214992
 21
0.1091937950612604
 72
     1
 10
0.0982280844214985
 20
0.1091937950612603
 11
0.1053176709391927
 21
0.0973467228540611
 72
     1
 10
0.105317670939193
 20
0.0973467228540612
 11
0.1124072574568872
 21
0.0854996506468619
 72
     1
 10
0.1124072574568871
 20
0.0854996506468617
 11
0.1193102759083267
 21
0.0739324305390446
 72
     1
 10
0.1193102759083278
 20
0.0739324305390448
 11
0.1257468741941283
 21
0.0632047667293762
 72
     1
 10
0.1257468741941277
 20
0.063204766729376
 11
0.1315304842480362
 21
0.0535032272841102
 72
     1
 10
0.1315304842480365
 20
0.0535032272841104
 11
0.1363812539706702
 21
0.0453875164020132
 72
     1
 10
0.1363812539706699
 20
0.0453875164020132
 11
0.1402058993288989
 21
0.0391374861824667
 72
     1
 10
0.1402058993288988
 20
0.0391374861824669
 11
0.1426312841902157
 21
0.0350329887248546
 72
     1
 10
0.1426312841902164
 20
0.0350329887248547
 11
0.1434708404883648
 21
0.0336337282279412
 72
     1
 10
0.143470840488364
 20
0.0336337282279411
 11
0.2706169776412211
 21
0.0336337282279411
 97
        0
 75
     0
 76
     1
 98
        1
 10
-0.3743130907707726
 20
-0.2500502867693841
1001
ACAD
1010
0.0
1020
0.0
1030
0.0
  0
HATCH
  5
1F72
330
1F6F
100
AcDbEntity
  8
Kawneer Logo-English
100
AcDbHatch
 10
0.0
 20
0.0
 30
0.0
210
0.0
220
0.0
230
1.0
  2
SOLID
 70
     1
 71
     0
 91
        1
 92
        1
 93
       18
 72
     1
 10
0.0001865656044393
 20
0.2563959993365415
 11
-0.0000000024618153
 21
0.113671428651383
 72
     1
 10
-0.0000000024618159
 20
0.1136714286513832
 11
0.0012126899688416
 21
0.1152572572145516
 72
     1
 10
0.0012126899688421
 20
0.1152572572145516
 11
0.0045709151614355
 21
0.1197348908046738
 72
     1
 10
0.004570915161435
 20
0.119734890804674
 11
0.0098881050497044
 21
0.1268244773223682
 72
     1
 10
0.0098881050497044
 20
0.1268244773223682
 11
0.0166978394680158
 21
0.1359663125688683
 72
     1
 10
0.016697839468016
 20
0.1359663125688683
 11
0.0248135503501131
 21
0.1467872604116651
 72
     1
 10
0.024813550350113
 20
0.1467872604116652
 11
0.0338621015634867
 21
0.1588209006851195
 72
     1
 10
0.0338621015634872
 20
0.1588209006851194
 11
0.0434703569756247
 21
0.1716940972567221
 72
     1
 10
0.0434703569756247
 20
0.1716940972567224
 11
0.0534517485202732
 21
0.1850337139939626
 72
     1
 10
0.0534517485202724
 20
0.1850337139939624
 11
0.0634331400649208
 21
0.1983733307312025
 72
     1
 10
0.0634331400649222
 20
0.1983733307312024
 11
0.0730413954770597
 21
0.2112465273028051
 72
     1
 10
0.0730413954770595
 20
0.2112465273028053
 11
0.0820899466904331
 21
0.2233734516093873
 72
     1
 10
0.0820899466904321
 20
0.2233734516093873
 11
0.0902056575725293
 21
0.2341943994521837
 72
     1
 10
0.0902056575725308
 20
0.2341943994521837
 11
0.0970153919908422
 21
0.2433362346986839
 72
     1
 10
0.0970153919908405
 20
0.2433362346986839
 11
0.1022392978459834
 21
0.2503325371832507
 72
     1
 10
0.1022392978459843
 20
0.2503325371832508
 11
0.1056908070717041
 21
0.2549034548065008
 72
     1
 10
0.1056908070717046
 20
0.254903454806501
 11
0.1069034995023621
 21
0.2564892833696694
 72
     1
 10
0.1069034995023625
 20
0.2564892833696695
 11
0.0001865656044399
 21
0.2563959993365418
 97
        0
 75
     0
 76
     1
 98
        1
 10
-0.3743130907707726
 20
-0.2500502867693841
1001
ACAD
1010
0.0
1020
0.0
1030
0.0
  0
HATCH
  5
1F73
330
1F6F
100
AcDbEntity
  8
Kawneer Logo-English
100
AcDbHatch
 10
0.0
 20
0.0
 30
0.0
210
0.0
220
0.0
230
1.0
  2
SOLID
 70
     1
 71
     0
 91
        2
 92
       16
 93
       76
 72
     1
 10
1.358402087941634
 20
0.1650709309046659
 11
1.358402087941634
 21
0.16796273593162
 72
     1
 10
1.358402087941634
 20
0.1679627359316202
 11
1.358402087941634
 21
0.1729067896873803
 72
     1
 10
1.358402087941634
 20
0.1729067896873803
 11
1.358402087941634
 21
0.1791568199069267
 72
     1
 10
1.358402087941634
 20
0.1791568199069267
 11
1.358402087941634
 21
0.1861531223914932
 72
     1
 10
1.358402087941634
 20
0.186153122391493
 11
1.358402087941634
 21
0.1931494248760595
 72
     1
 10
1.358402087941634
 20
0.1931494248760596
 11
1.358402087941634
 21
0.1994927391287338
 72
     1
 10
1.358402087941634
 20
0.1994927391287336
 11
1.358402087941634
 21
0.2044367928844937
 72
     1
 10
1.358402087941634
 20
0.2044367928844937
 11
1.358402087941634
 21
0.2072353138783208
 72
     1
 10
1.358402087941634
 20
0.2072353138783208
 11
1.359894632471676
 21
0.2072353138783208
 72
     1
 10
1.359894632471676
 20
0.2072353138783208
 11
1.362693153465502
 21
0.2072353138783208
 72
     1
 10
1.362693153465502
 20
0.2072353138783208
 11
1.366424514790605
 21
0.2072353138783208
 72
     1
 10
1.366424514790606
 20
0.2072353138783208
 11
1.371088716446983
 21
0.2072353138783208
 72
     1
 10
1.371088716446982
 20
0.2072353138783208
 11
1.376405906335254
 21
0.2072353138783208
 72
     1
 10
1.376405906335254
 20
0.2072353138783208
 11
1.382282800422289
 21
0.2072353138783208
 72
     1
 10
1.38228280042229
 20
0.2072353138783208
 11
1.388346262575581
 21
0.2072353138783208
 72
     1
 10
1.388346262575579
 20
0.2072353138783208
 11
1.394596292795125
 21
0.2072353138783208
 72
     1
 10
1.394596292795125
 20
0.2072353138783208
 11
1.400753038981545
 21
0.2072353138783208
 72
     1
 10
1.400753038981546
 20
0.2072353138783208
 11
1.406723217101709
 21
0.2072353138783208
 72
     1
 10
1.406723217101708
 20
0.2072353138783208
 11
1.412320259089362
 21
0.2072353138783208
 72
     1
 10
1.412320259089362
 20
0.2072353138783208
 11
1.417264312845122
 21
0.2072353138783208
 72
     1
 10
1.417264312845123
 20
0.2072353138783208
 11
1.421368810302735
 21
0.2072353138783208
 72
     1
 10
1.421368810302734
 20
0.2072353138783208
 11
1.424540467429071
 21
0.2072353138783208
 72
     1
 10
1.424540467429072
 20
0.2072353138783208
 11
1.426592716157878
 21
0.2072353138783208
 72
     1
 10
1.426592716157878
 20
0.2072353138783208
 11
1.427338988422898
 21
0.2072353138783208
 72
     1
 10
1.427338988422898
 20
0.2072353138783208
 11
1.430977065714873
 21
0.207142029845193
 72
     1
 10
1.430977065714872
 20
0.207142029845193
 11
1.434335290907465
 21
0.2068621777458102
 72
     1
 10
1.434335290907465
 20
0.2068621777458102
 11
1.435921119470633
 21
0.2066756096795552
 72
     1
 10
1.435921119470633
 20
0.206675609679555
 11
1.437413664000673
 21
0.2063957575801723
 72
     1
 10
1.437413664000674
 20
0.2063957575801723
 11
1.438906208530714
 21
0.2061159054807895
 72
     1
 10
1.438906208530714
 20
0.2061159054807898
 11
1.440398753060756
 21
0.2056494853151523
 72
     1
 10
1.440398753060756
 20
0.2056494853151521
 11
1.441704729524542
 21
0.2050897811163865
 72
     1
 10
1.441704729524542
 20
0.2050897811163866
 11
1.443010705988328
 21
0.204530076917621
 72
     1
 10
1.443010705988329
 20
0.204530076917621
 11
1.444223398418986
 21
0.2036905206194736
 72
     1
 10
1.444223398418985
 20
0.2036905206194736
 11
1.445436090849643
 21
0.2028509643213252
 72
     1
 10
1.445436090849643
 20
0.2028509643213252
 11
1.446555499247174
 21
0.2018248399569224
 72
     1
 10
1.446555499247173
 20
0.2018248399569223
 11
1.447581623611576
 21
0.2007054315593917
 72
     1
 10
1.447581623611578
 20
0.2007054315593915
 11
1.448607747975981
 21
0.1993061710624781
 72
     1
 10
1.448607747975981
 20
0.1993061710624781
 11
1.449540588307258
 21
0.1978136265324374
 72
     1
 10
1.449540588307256
 20
0.1978136265324373
 11
1.450380144605403
 21
0.1961345139361415
 72
     1
 10
1.450380144605404
 20
0.1961345139361415
 11
1.451126416870426
 21
0.1944554013398453
 72
     1
 10
1.451126416870426
 20
0.1944554013398454
 11
1.451592837036063
 21
0.1929628568098046
 72
     1
 10
1.451592837036062
 20
0.1929628568098046
 11
1.451965973168573
 21
0.1913770282466361
 72
     1
 10
1.451965973168574
 20
0.1913770282466361
 11
1.452245825267955
 21
0.1899777677497231
 72
     1
 10
1.452245825267954
 20
0.1899777677497231
 11
1.452432393334211
 21
0.188671791285937
 72
     1
 10
1.452432393334211
 20
0.1886717912859369
 11
1.452432393334211
 21
0.1874590988552789
 72
     1
 10
1.452432393334211
 20
0.1874590988552789
 11
1.452525677367338
 21
0.1863396904577482
 72
     1
 10
1.452525677367337
 20
0.1863396904577481
 11
1.452432393334211
 21
0.1844740097951972
 72
     1
 10
1.452432393334211
 20
0.1844740097951974
 11
1.452245825267955
 21
0.1827948971989012
 72
     1
 10
1.452245825267954
 20
0.1827948971989009
 11
1.451872689135445
 21
0.1810225005694773
 72
     1
 10
1.451872689135446
 20
0.1810225005694774
 11
1.451406268969809
 21
0.1794366720063093
 72
     1
 10
1.451406268969809
 20
0.1794366720063094
 11
1.450846564771043
 21
0.1779441274762682
 72
     1
 10
1.450846564771041
 20
0.1779441274762681
 11
1.450100292506021
 21
0.1764515829462274
 72
     1
 10
1.450100292506023
 20
0.1764515829462275
 11
1.449260736207875
 21
0.1750523224493141
 72
     1
 10
1.449260736207873
 20
0.1750523224493139
 11
1.448327895876597
 21
0.1737463459855283
 72
     1
 10
1.448327895876596
 20
0.1737463459855281
 11
1.44702191941281
 21
0.1723470854886151
 72
     1
 10
1.447021919412811
 20
0.1723470854886151
 11
1.445715942949025
 21
0.1711343930579568
 72
     1
 10
1.445715942949026
 20
0.1711343930579568
 11
1.444316682452114
 21
0.1700149846604262
 72
     1
 10
1.444316682452114
 20
0.1700149846604259
 11
1.442824137922072
 21
0.168988860296023
 72
     1
 10
1.442824137922072
 20
0.168988860296023
 11
1.441238309358904
 21
0.1682425880310024
 72
     1
 10
1.441238309358902
 20
0.1682425880310024
 11
1.439559196762608
 21
0.1674963157659821
 72
     1
 10
1.439559196762608
 20
0.1674963157659822
 11
1.437880084166311
 21
0.1669366115672166
 72
     1
 10
1.437880084166311
 20
0.1669366115672167
 11
1.436107687536888
 21
0.1664701914015788
 72
     1
 10
1.436107687536888
 20
0.1664701914015789
 11
1.434242006874337
 21
0.166003771235941
 72
     1
 10
1.434242006874337
 20
0.1660037712359412
 11
1.432376326211786
 21
0.1657239191365588
 72
     1
 10
1.432376326211785
 20
0.1657239191365585
 11
1.430417361516107
 21
0.1655373510703035
 72
     1
 10
1.430417361516108
 20
0.1655373510703037
 11
1.428458396820429
 21
0.1653507830040482
 72
     1
 10
1.428458396820428
 20
0.1653507830040482
 11
1.424353899362817
 21
0.1651642149377932
 72
     1
 10
1.424353899362817
 20
0.1651642149377932
 11
1.420156117872077
 21
0.1650709309046658
 72
     1
 10
1.420156117872076
 20
0.1650709309046659
 11
1.41773073301076
 21
0.1650709309046659
 72
     1
 10
1.417730733010761
 20
0.1650709309046659
 11
1.411107566658704
 21
0.1650709309046659
 72
     1
 10
1.411107566658702
 20
0.1650709309046659
 11
1.401779163345947
 21
0.1650709309046659
 72
     1
 10
1.401779163345949
 20
0.1650709309046659
 11
1.390958215503152
 21
0.1650709309046659
 72
     1
 10
1.390958215503152
 20
0.1650709309046659
 11
1.379950699594101
 21
0.1650709309046659
 72
     1
 10
1.379950699594099
 20
0.1650709309046659
 11
1.369969308049451
 21
0.1650709309046659
 72
     1
 10
1.369969308049451
 20
0.1650709309046659
 11
1.362320017332992
 21
0.1650709309046659
 72
     1
 10
1.362320017332992
 20
0.1650709309046659
 11
1.358402087941635
 21
0.1650709309046659
 97
        0
 92
        1
 93
      107
 72
     1
 10
1.443756978253348
 20
0.1485596570410883
 11
1.446928635379685
 21
0.1492126452729816
 72
     1
 10
1.446928635379685
 20
0.1492126452729817
 11
1.449540588307256
 21
0.1498656335048746
 72
     1
 10
1.449540588307256
 20
0.1498656335048745
 11
1.451872689135445
 21
0.1506119057698948
 72
     1
 10
1.451872689135446
 20
0.1506119057698946
 11
1.45401822189738
 21
0.1514514620680426
 72
     1
 10
1.45401822189738
 20
0.1514514620680425
 11
1.455883902559929
 21
0.1521977343330632
 72
     1
 10
1.455883902559929
 20
0.1521977343330631
 11
1.457563015156225
 21
0.1530372906312111
 72
     1
 10
1.457563015156225
 20
0.1530372906312111
 11
1.459148843719394
 21
0.1539701309624869
 72
     1
 10
1.459148843719394
 20
0.1539701309624866
 11
1.460641388249434
 21
0.1549029712937624
 72
     1
 10
1.460641388249434
 20
0.1549029712937622
 11
1.462133932779476
 21
0.155835811625038
 72
     1
 10
1.462133932779476
 20
0.155835811625038
 11
1.463439909243262
 21
0.1568619359894408
 72
     1
 10
1.463439909243262
 20
0.1568619359894408
 11
1.464745885707048
 21
0.1579813443869714
 72
     1
 10
1.464745885707047
 20
0.1579813443869716
 11
1.465865294104579
 21
0.1591007527845022
 72
     1
 10
1.465865294104579
 20
0.1591007527845025
 11
1.466984702502109
 21
0.1602201611820331
 72
     1
 10
1.466984702502108
 20
0.1602201611820328
 11
1.468010826866511
 21
0.1613395695795634
 72
     1
 10
1.468010826866511
 20
0.1613395695795637
 11
1.468943667197788
 21
0.1625522620102216
 72
     1
 10
1.468943667197788
 20
0.1625522620102216
 11
1.469876507529063
 21
0.1636716704077522
 72
     1
 10
1.469876507529063
 20
0.1636716704077524
 11
1.470622779794084
 21
0.1648843628384107
 72
     1
 10
1.470622779794084
 20
0.1648843628384107
 11
1.471462336092232
 21
0.1661903393021964
 72
     1
 10
1.471462336092232
 20
0.1661903393021967
 11
1.472115324324125
 21
0.1674030317328546
 72
     1
 10
1.472115324324124
 20
0.1674030317328546
 11
1.472768312556016
 21
0.1686157241635125
 72
     1
 10
1.472768312556017
 20
0.1686157241635125
 11
1.473328016754783
 21
0.1699217006272986
 72
     1
 10
1.473328016754782
 20
0.1699217006272989
 11
1.47379443692042
 21
0.1711343930579568
 72
     1
 10
1.47379443692042
 20
0.1711343930579568
 11
1.474260857086057
 21
0.1724403695217425
 72
     1
 10
1.474260857086058
 20
0.1724403695217424
 11
1.474727277251697
 21
0.1736530619524008
 72
     1
 10
1.474727277251697
 20
0.173653061952401
 11
1.475380265483589
 21
0.1760784468137175
 72
     1
 10
1.475380265483588
 20
0.1760784468137173
 11
1.475846685649225
 21
0.1785038316750338
 72
     1
 10
1.475846685649226
 20
0.1785038316750335
 11
1.476219821781737
 21
0.1808359325032223
 72
     1
 10
1.476219821781738
 20
0.1808359325032223
 11
1.47649967388112
 21
0.1830747492982838
 72
     1
 10
1.47649967388112
 20
0.1830747492982838
 11
1.476592957914248
 21
0.1851269980270901
 72
     1
 10
1.476592957914248
 20
0.1851269980270902
 11
1.476686241947374
 21
0.1870859627227688
 72
     1
 10
1.476686241947375
 20
0.1870859627227687
 11
1.476592957914249
 21
0.1888583593521923
 72
     1
 10
1.476592957914248
 20
0.1888583593521922
 11
1.476499673881119
 21
0.1906307559816158
 72
     1
 10
1.47649967388112
 20
0.1906307559816159
 11
1.476406389847991
 21
0.1924031526110394
 72
     1
 10
1.476406389847991
 20
0.1924031526110394
 11
1.476126537748608
 21
0.1940822652073352
 72
     1
 10
1.476126537748608
 20
0.1940822652073352
 11
1.475846685649226
 21
0.195761377803631
 72
     1
 10
1.475846685649226
 20
0.1957613778036309
 11
1.475566833549843
 21
0.1974404903999272
 72
     1
 10
1.475566833549843
 20
0.1974404903999272
 11
1.475100413384206
 21
0.1990263189630953
 72
     1
 10
1.475100413384205
 20
0.1990263189630952
 11
1.474633993218568
 21
0.2006121475262637
 72
     1
 10
1.474633993218568
 20
0.2006121475262639
 11
1.47416757305293
 21
0.2021046920563051
 72
     1
 10
1.474167573052932
 20
0.2021046920563049
 11
1.473514584821038
 21
0.2035972365863457
 72
     1
 10
1.473514584821037
 20
0.2035972365863459
 11
1.472954880622271
 21
0.2050897811163867
 72
     1
 10
1.472954880622272
 20
0.2050897811163866
 11
1.472208608357252
 21
0.2064890416133
 72
     1
 10
1.472208608357252
 20
0.2064890416133001
 11
1.471462336092232
 21
0.2078883021102135
 72
     1
 10
1.471462336092232
 20
0.2078883021102136
 11
1.470622779794083
 21
0.2091942785739993
 72
     1
 10
1.470622779794084
 20
0.2091942785739991
 11
1.469783223495935
 21
0.2105002550377848
 72
     1
 10
1.469783223495934
 20
0.2105002550377851
 11
1.468850383164659
 21
0.2118062315015707
 72
     1
 10
1.468850383164661
 20
0.2118062315015709
 11
1.467917542833386
 21
0.2130189239322288
 72
     1
 10
1.467917542833385
 20
0.2130189239322289
 11
1.466891418468982
 21
0.2141383323297595
 72
     1
 10
1.466891418468982
 20
0.2141383323297595
 11
1.465772010071451
 21
0.2153510247604178
 72
     1
 10
1.46577201007145
 20
0.215351024760418
 11
1.464652601673919
 21
0.2163771491248209
 72
     1
 10
1.46465260167392
 20
0.2163771491248209
 11
1.463533193276389
 21
0.2174032734892238
 72
     1
 10
1.463533193276389
 20
0.2174032734892238
 11
1.462227216812603
 21
0.2184293978536266
 72
     1
 10
1.462227216812602
 20
0.2184293978536266
 11
1.461014524381945
 21
0.2193622381849024
 72
     1
 10
1.461014524381946
 20
0.2193622381849023
 11
1.459615263885032
 21
0.2202950785161781
 72
     1
 10
1.459615263885031
 20
0.2202950785161782
 11
1.458309287421245
 21
0.2211346348143262
 72
     1
 10
1.458309287421246
 20
0.221134634814326
 11
1.456816742891206
 21
0.221974191112474
 72
     1
 10
1.456816742891206
 20
0.2219741911124738
 11
1.455417482394292
 21
0.2227204633774945
 72
     1
 10
1.455417482394291
 20
0.2227204633774944
 11
1.453831653831122
 21
0.2233734516093874
 72
     1
 10
1.453831653831123
 20
0.2233734516093873
 11
1.452339109301082
 21
0.2240264398412803
 72
     1
 10
1.452339109301082
 20
0.2240264398412803
 11
1.450659996704785
 21
0.2245861440400459
 72
     1
 10
1.450659996704787
 20
0.2245861440400457
 11
1.44907416814162
 21
0.2251458482388108
 72
     1
 10
1.449074168141619
 20
0.2251458482388109
 11
1.447301771512194
 21
0.2256122684044489
 72
     1
 10
1.447301771512194
 20
0.2256122684044488
 11
1.445249522783388
 21
0.2261719726032139
 72
     1
 10
1.445249522783388
 20
0.226171972603214
 11
1.44329055808771
 21
0.2265451087357246
 72
     1
 10
1.443290558087712
 20
0.2265451087357244
 11
1.441145025325778
 21
0.2269182448682345
 72
     1
 10
1.441145025325776
 20
0.2269182448682345
 11
1.438906208530714
 21
0.2271980969676173
 72
     1
 10
1.438906208530714
 20
0.2271980969676173
 11
1.436387539636271
 21
0.2273846650338724
 72
     1
 10
1.436387539636271
 20
0.2273846650338724
 11
1.433495734609316
 21
0.2275712331001274
 72
     1
 10
1.433495734609317
 20
0.2275712331001274
 11
1.430044225383597
 21
0.2276645171332552
 72
     1
 10
1.430044225383597
 20
0.2276645171332549
 11
1.42612629599224
 21
0.2277578011663822
 72
     1
 10
1.42612629599224
 20
0.2277578011663825
 11
1.426033011959112
 21
0.2277578011663825
 72
     1
 10
1.426033011959111
 20
0.2277578011663825
 11
1.33489451159349
 21
0.2277578011663825
 72
     1
 10
1.334894511593491
 20
0.2277578011663825
 11
1.334894511593491
 21
0.0926825211976832
 72
     1
 10
1.334894511593491
 20
0.0926825211976832
 11
1.358588656007891
 21
0.0926825211976832
 72
     1
 10
1.358588656007891
 20
0.0926825211976832
 11
1.358588656007891
 21
0.0947347699264896
 72
     1
 10
1.358588656007891
 20
0.0947347699264896
 11
1.358588656007891
 21
0.1001452438478876
 72
     1
 10
1.358588656007891
 20
0.1001452438478875
 11
1.358588656007891
 21
0.1079811026306024
 72
     1
 10
1.358588656007891
 20
0.1079811026306024
 11
1.358588656007891
 21
0.1170296538439752
 72
     1
 10
1.358588656007891
 20
0.1170296538439753
 11
1.358588656007891
 21
0.1262647731236032
 72
     1
 10
1.358588656007891
 20
0.1262647731236031
 11
1.358588656007891
 21
0.1347536201382103
 72
     1
 10
1.358588656007891
 20
0.1347536201382104
 11
1.358588656007891
 21
0.1412835024571394
 72
     1
 10
1.358588656007891
 20
0.1412835024571393
 11
1.358588656007891
 21
0.1448282957159864
 72
     1
 10
1.358588656007891
 20
0.1448282957159865
 11
1.362320017332992
 21
0.1448282957159865
 72
     1
 10
1.362320017332992
 20
0.1448282957159865
 11
1.369409603850688
 21
0.1448282957159865
 72
     1
 10
1.369409603850688
 20
0.1448282957159865
 11
1.378738007163443
 21
0.1448282957159865
 72
     1
 10
1.378738007163443
 20
0.1448282957159865
 11
1.388999250807475
 21
0.1448282957159865
 72
     1
 10
1.388999250807473
 20
0.1448282957159865
 11
1.399260494451505
 21
0.1448282957159865
 72
     1
 10
1.399260494451506
 20
0.1448282957159865
 11
1.408215761631749
 21
0.1448282957159865
 72
     1
 10
1.408215761631748
 20
0.1448282957159865
 11
1.414745643950677
 21
0.1448282957159865
 72
     1
 10
1.414745643950678
 20
0.1448282957159865
 11
1.41773073301076
 21
0.1448282957159865
 72
     1
 10
1.417730733010761
 20
0.1448282957159865
 11
1.420062833838949
 21
0.1420297747221594
 72
     1
 10
1.420062833838949
 20
0.1420297747221597
 11
1.425193455660966
 21
0.1359663125688683
 72
     1
 10
1.425193455660965
 20
0.1359663125688683
 11
1.432283042178659
 21
0.1275707495873888
 72
     1
 10
1.432283042178659
 20
0.1275707495873886
 11
1.440305469027628
 21
0.1180557782083779
 72
     1
 10
1.440305469027629
 20
0.1180557782083781
 11
1.448234611843471
 21
0.1087273748956225
 72
     1
 10
1.448234611843471
 20
0.1087273748956225
 11
1.455044346261782
 21
0.1006116640135252
 72
     1
 10
1.455044346261782
 20
0.1006116640135252
 11
1.459895115984414
 21
0.0948280539596167
 72
     1
 10
1.459895115984414
 20
0.0948280539596169
 11
1.461760796646965
 21
0.0926825211976832
 72
     1
 10
1.461760796646967
 20
0.0926825211976832
 11
1.49254452757906
 21
0.0926825211976832
 72
     1
 10
1.492544527579059
 20
0.0926825211976832
 11
1.490678846916508
 21
0.0948280539596169
 72
     1
 10
1.490678846916508
 20
0.0948280539596169
 11
1.48564150912762
 21
0.100518379980398
 72
     1
 10
1.48564150912762
 20
0.1005183799803981
 11
1.478458638576797
 21
0.1088206589287502
 72
     1
 10
1.478458638576798
 20
0.1088206589287502
 11
1.470063075595318
 21
0.1183356303077609
 72
     1
 10
1.470063075595317
 20
0.118335630307761
 11
1.461480944547582
 21
0.1282237378192818
 72
     1
 10
1.461480944547582
 20
0.1282237378192818
 11
1.453551801731739
 21
0.1372722890326546
 72
     1
 10
1.45355180173174
 20
0.1372722890326546
 11
1.447395055545323
 21
0.1444551595834761
 72
     1
 10
1.447395055545323
 20
0.1444551595834759
 11
1.443756978253349
 21
0.1485596570410882
 97
        0
 75
     0
 76
     1
 98
        1
 10
-0.3743130907707726
 20
-0.2500502867693841
1001
ACAD
1010
0.0
1020
0.0
1030
0.0
  0
HATCH
  5
1F74
330
1F6F
100
AcDbEntity
  8
Kawneer Logo-English
100
AcDbHatch
 10
0.0
 20
0.0
 30
0.0
210
0.0
220
0.0
230
1.0
  2
SOLID
 70
     1
 71
     0
 91
        1
 92
        1
 93
       87
 72
     1
 10
1.205602841678699
 20
0.1525708704655737
 11
1.207468522341251
 21
0.1525708704655737
 72
     1
 10
1.207468522341252
 20
0.1525708704655737
 11
1.211199883666355
 21
0.1525708704655737
 72
     1
 10
1.211199883666355
 20
0.1525708704655737
 11
1.216517073554626
 21
0.1525708704655737
 72
     1
 10
1.216517073554626
 20
0.1525708704655737
 11
1.223046955873555
 21
0.1525708704655737
 72
     1
 10
1.223046955873553
 20
0.1525708704655737
 11
1.230602962556885
 21
0.1525708704655737
 72
     1
 10
1.230602962556885
 20
0.1525708704655737
 11
1.238998525538365
 21
0.1525708704655737
 72
     1
 10
1.238998525538365
 20
0.1525708704655737
 11
1.247767224652354
 21
0.1525708704655737
 72
     1
 10
1.247767224652355
 20
0.1525708704655737
 11
1.256815775865728
 21
0.1525708704655737
 72
     1
 10
1.256815775865729
 20
0.1525708704655737
 11
1.265771043045974
 21
0.1525708704655737
 72
     1
 10
1.265771043045973
 20
0.1525708704655737
 11
1.274446458126836
 21
0.1525708704655737
 72
     1
 10
1.274446458126837
 20
0.1525708704655737
 11
1.282562169008935
 21
0.1525708704655737
 72
     1
 10
1.282562169008935
 20
0.1525708704655737
 11
1.289745039559756
 21
0.1525708704655737
 72
     1
 10
1.289745039559755
 20
0.1525708704655737
 11
1.295808501713046
 21
0.1525708704655737
 72
     1
 10
1.295808501713046
 20
0.1525708704655737
 11
1.300472703369423
 21
0.1525708704655737
 72
     1
 10
1.300472703369423
 20
0.1525708704655737
 11
1.303457792429505
 21
0.1525708704655737
 72
     1
 10
1.303457792429505
 20
0.1525708704655737
 11
1.304483916793908
 21
0.1525708704655737
 72
     1
 10
1.304483916793908
 20
0.1525708704655737
 11
1.304483916793908
 21
0.1730000737205081
 72
     1
 10
1.304483916793908
 20
0.1730000737205078
 11
1.303457792429505
 21
0.1730000737205078
 72
     1
 10
1.303457792429505
 20
0.1730000737205078
 11
1.300472703369423
 21
0.1730000737205078
 72
     1
 10
1.300472703369423
 20
0.1730000737205078
 11
1.295808501713045
 21
0.1730000737205078
 72
     1
 10
1.295808501713046
 20
0.1730000737205078
 11
1.289745039559754
 21
0.1730000737205078
 72
     1
 10
1.289745039559755
 20
0.1730000737205078
 11
1.282562169008934
 21
0.1730000737205078
 72
     1
 10
1.282562169008935
 20
0.1730000737205078
 11
1.274446458126837
 21
0.1730000737205078
 72
     1
 10
1.274446458126837
 20
0.1730000737205078
 11
1.265771043045975
 21
0.1730000737205078
 72
     1
 10
1.265771043045973
 20
0.1730000737205078
 11
1.256815775865728
 21
0.1730000737205078
 72
     1
 10
1.256815775865729
 20
0.1730000737205078
 11
1.247767224652355
 21
0.1730000737205078
 72
     1
 10
1.247767224652355
 20
0.1730000737205078
 11
1.238998525538365
 21
0.1730000737205078
 72
     1
 10
1.238998525538365
 20
0.1730000737205078
 11
1.230602962556885
 21
0.1730000737205078
 72
     1
 10
1.230602962556885
 20
0.1730000737205078
 11
1.223046955873553
 21
0.1730000737205078
 72
     1
 10
1.223046955873553
 20
0.1730000737205078
 11
1.216517073554625
 21
0.1730000737205078
 72
     1
 10
1.216517073554626
 20
0.1730000737205078
 11
1.211199883666355
 21
0.1730000737205078
 72
     1
 10
1.211199883666355
 20
0.1730000737205078
 11
1.207468522341252
 21
0.1730000737205078
 72
     1
 10
1.207468522341252
 20
0.1730000737205078
 11
1.205602841678701
 21
0.1730000737205078
 72
     1
 10
1.205602841678699
 20
0.1730000737205078
 11
1.205602841678699
 21
0.1754254585818243
 72
     1
 10
1.205602841678699
 20
0.1754254585818245
 11
1.205602841678699
 21
0.1794366720063095
 72
     1
 10
1.205602841678699
 20
0.1794366720063094
 11
1.205602841678699
 21
0.1843807257620694
 72
     1
 10
1.205602841678699
 20
0.1843807257620694
 11
1.205602841678699
 21
0.1898844837165951
 72
     1
 10
1.205602841678699
 20
0.1898844837165951
 11
1.205602841678699
 21
0.1952949576379935
 72
     1
 10
1.205602841678699
 20
0.1952949576379937
 11
1.205602841678699
 21
0.2003322954268815
 72
     1
 10
1.205602841678699
 20
0.2003322954268814
 11
1.205602841678699
 21
0.2042502248182386
 72
     1
 10
1.205602841678699
 20
0.2042502248182386
 11
1.205602841678699
 21
0.206675609679555
 72
     1
 10
1.205602841678699
 20
0.206675609679555
 11
1.207468522341251
 21
0.206675609679555
 72
     1
 10
1.207468522341252
 20
0.206675609679555
 11
1.211293167699483
 21
0.206675609679555
 72
     1
 10
1.211293167699483
 20
0.206675609679555
 11
1.21670364162088
 21
0.206675609679555
 72
     1
 10
1.216703641620879
 20
0.206675609679555
 11
1.223420092006063
 21
0.206675609679555
 72
     1
 10
1.223420092006064
 20
0.206675609679555
 11
1.231255950788778
 21
0.206675609679555
 72
     1
 10
1.231255950788778
 20
0.206675609679555
 11
1.239744797803386
 21
0.206675609679555
 72
     1
 10
1.239744797803385
 20
0.206675609679555
 11
1.248886633049885
 21
0.206675609679555
 72
     1
 10
1.248886633049885
 20
0.206675609679555
 11
1.258121752329513
 21
0.206675609679555
 72
     1
 10
1.258121752329514
 20
0.206675609679555
 11
1.267356871609143
 21
0.206675609679555
 72
     1
 10
1.267356871609142
 20
0.206675609679555
 11
1.276218854756259
 21
0.206675609679555
 72
     1
 10
1.276218854756259
 20
0.206675609679555
 11
1.284521133704611
 21
0.206675609679555
 72
     1
 10
1.284521133704611
 20
0.206675609679555
 11
1.291890572321688
 21
0.206675609679555
 72
     1
 10
1.291890572321688
 20
0.206675609679555
 11
1.298140602541234
 21
0.206675609679555
 72
     1
 10
1.298140602541234
 20
0.206675609679555
 11
1.30289808823074
 21
0.206675609679555
 72
     1
 10
1.30289808823074
 20
0.206675609679555
 11
1.305976461323949
 21
0.206675609679555
 72
     1
 10
1.305976461323949
 20
0.206675609679555
 11
1.30709586972148
 21
0.206675609679555
 72
     1
 10
1.307095869721479
 20
0.206675609679555
 11
1.307095869721479
 21
0.2277578011663822
 72
     1
 10
1.307095869721479
 20
0.2277578011663825
 11
1.304577200827036
 21
0.2277578011663825
 72
     1
 10
1.304577200827037
 20
0.2277578011663825
 11
1.182188549363684
 21
0.2277578011663825
 72
     1
 10
1.182188549363684
 20
0.2277578011663825
 11
1.182188549363684
 21
0.0926825211976832
 72
     1
 10
1.182188549363684
 20
0.0926825211976832
 11
1.311853355410986
 21
0.0926825211976832
 72
     1
 10
1.311853355410985
 20
0.0926825211976832
 11
1.311853355410985
 21
0.113671428651383
 72
     1
 10
1.311853355410985
 20
0.1136714286513832
 11
1.310733947013454
 21
0.1136714286513832
 72
     1
 10
1.310733947013455
 20
0.1136714286513832
 11
1.307469005853991
 21
0.1136714286513832
 72
     1
 10
1.307469005853991
 20
0.1136714286513832
 11
1.302431668065102
 21
0.1136714286513832
 72
     1
 10
1.302431668065103
 20
0.1136714286513832
 11
1.295901785746174
 21
0.1136714286513832
 72
     1
 10
1.295901785746174
 20
0.1136714286513832
 11
1.288159210996586
 21
0.1136714286513832
 72
     1
 10
1.288159210996587
 20
0.1136714286513832
 11
1.279483795915724
 21
0.1136714286513832
 72
     1
 10
1.279483795915723
 20
0.1136714286513832
 11
1.270155392602968
 21
0.1136714286513832
 72
     1
 10
1.270155392602969
 20
0.1136714286513832
 11
1.260547137190832
 21
0.1136714286513832
 72
     1
 10
1.260547137190831
 20
0.1136714286513832
 11
1.250752313712437
 21
0.1136714286513832
 72
     1
 10
1.250752313712437
 20
0.1136714286513832
 11
1.241330626366554
 21
0.1136714286513832
 72
     1
 10
1.241330626366555
 20
0.1136714286513832
 11
1.23237535918631
 21
0.1136714286513832
 72
     1
 10
1.232375359186308
 20
0.1136714286513832
 11
1.224166364271082
 21
0.1136714286513832
 72
     1
 10
1.224166364271083
 20
0.1136714286513832
 11
1.217170061786517
 21
0.1136714286513832
 72
     1
 10
1.217170061786517
 20
0.1136714286513832
 11
1.211479735765737
 21
0.1136714286513832
 72
     1
 10
1.211479735765737
 20
0.1136714286513832
 11
1.20756180637438
 21
0.1136714286513832
 72
     1
 10
1.207561806374379
 20
0.1136714286513832
 11
1.2056028416787
 21
0.1136714286513832
 72
     1
 10
1.205602841678699
 20
0.1136714286513832
 11
1.205602841678699
 21
0.1163766656120825
 72
     1
 10
1.205602841678699
 20
0.1163766656120823
 11
1.205602841678699
 21
0.1209475832353323
 72
     1
 10
1.205602841678699
 20
0.1209475832353325
 11
1.205602841678699
 21
0.1267311932892411
 72
     1
 10
1.205602841678699
 20
0.1267311932892408
 11
1.205602841678699
 21
0.1330745075419143
 72
     1
 10
1.205602841678699
 20
0.1330745075419144
 11
1.205602841678699
 21
0.1395111058277156
 72
     1
 10
1.205602841678699
 20
0.1395111058277158
 11
1.205602841678699
 21
0.1452947158816239
 72
     1
 10
1.205602841678699
 20
0.145294715881624
 11
1.205602841678699
 21
0.1498656335048746
 72
     1
 10
1.205602841678699
 20
0.1498656335048745
 11
1.205602841678699
 21
0.1525708704655738
 97
        0
 75
     0
 76
     1
 98
        1
 10
-0.3743130907707726
 20
-0.2500502867693841
1001
ACAD
1010
0.0
1020
0.0
1030
0.0
  0
HATCH
  5
1F75
330
1F6F
100
AcDbEntity
  8
Kawneer Logo-English
100
AcDbHatch
 10
0.0
 20
0.0
 30
0.0
210
0.0
220
0.0
230
1.0
  2
SOLID
 70
     1
 71
     0
 91
        1
 92
        1
 93
       87
 72
     1
 10
1.049352086190046
 20
0.1525708704655737
 11
1.051217766852597
 21
0.1525708704655737
 72
     1
 10
1.051217766852596
 20
0.1525708704655737
 11
1.054949128177699
 21
0.1525708704655737
 72
     1
 10
1.0549491281777
 20
0.1525708704655737
 11
1.060173034032843
 21
0.1525708704655737
 72
     1
 10
1.060173034032843
 20
0.1525708704655737
 11
1.0667962003849
 21
0.1525708704655737
 72
     1
 10
1.0667962003849
 20
0.1525708704655737
 11
1.074352207068231
 21
0.1525708704655737
 72
     1
 10
1.074352207068232
 20
0.1525708704655737
 11
1.082747770049711
 21
0.1525708704655737
 72
     1
 10
1.082747770049711
 20
0.1525708704655737
 11
1.0915164691637
 21
0.1525708704655737
 72
     1
 10
1.091516469163701
 20
0.1525708704655737
 11
1.100565020377075
 21
0.1525708704655737
 72
     1
 10
1.100565020377073
 20
0.1525708704655737
 11
1.109520287557319
 21
0.1525708704655737
 72
     1
 10
1.10952028755732
 20
0.1525708704655737
 11
1.118195702638183
 21
0.1525708704655737
 72
     1
 10
1.118195702638182
 20
0.1525708704655737
 11
1.126218129487151
 21
0.1525708704655737
 72
     1
 10
1.126218129487152
 20
0.1525708704655737
 11
1.133401000037974
 21
0.1525708704655737
 72
     1
 10
1.133401000037974
 20
0.1525708704655737
 11
1.139557746224391
 21
0.1525708704655737
 72
     1
 10
1.139557746224392
 20
0.1525708704655737
 11
1.14422194788077
 21
0.1525708704655737
 72
     1
 10
1.144221947880769
 20
0.1525708704655737
 11
1.147207036940851
 21
0.1525708704655737
 72
     1
 10
1.147207036940852
 20
0.1525708704655737
 11
1.148233161305255
 21
0.1525708704655737
 72
     1
 10
1.148233161305255
 20
0.1525708704655737
 11
1.148233161305255
 21
0.1730000737205081
 72
     1
 10
1.148233161305255
 20
0.1730000737205078
 11
1.147207036940852
 21
0.1730000737205078
 72
     1
 10
1.147207036940852
 20
0.1730000737205078
 11
1.14422194788077
 21
0.1730000737205078
 72
     1
 10
1.144221947880769
 20
0.1730000737205078
 11
1.139557746224391
 21
0.1730000737205078
 72
     1
 10
1.139557746224392
 20
0.1730000737205078
 11
1.133494284071101
 21
0.1730000737205078
 72
     1
 10
1.133494284071101
 20
0.1730000737205078
 11
1.126218129487152
 21
0.1730000737205078
 72
     1
 10
1.126218129487152
 20
0.1730000737205078
 11
1.118195702638183
 21
0.1730000737205078
 72
     1
 10
1.118195702638182
 20
0.1730000737205078
 11
1.10952028755732
 21
0.1730000737205078
 72
     1
 10
1.10952028755732
 20
0.1730000737205078
 11
1.100565020377074
 21
0.1730000737205078
 72
     1
 10
1.100565020377073
 20
0.1730000737205078
 11
1.0915164691637
 21
0.1730000737205078
 72
     1
 10
1.091516469163701
 20
0.1730000737205078
 11
1.082747770049712
 21
0.1730000737205078
 72
     1
 10
1.082747770049711
 20
0.1730000737205078
 11
1.074352207068231
 21
0.1730000737205078
 72
     1
 10
1.074352207068232
 20
0.1730000737205078
 11
1.0667962003849
 21
0.1730000737205078
 72
     1
 10
1.0667962003849
 20
0.1730000737205078
 11
1.060173034032843
 21
0.1730000737205078
 72
     1
 10
1.060173034032843
 20
0.1730000737205078
 11
1.054949128177701
 21
0.1730000737205078
 72
     1
 10
1.0549491281777
 20
0.1730000737205078
 11
1.051217766852597
 21
0.1730000737205078
 72
     1
 10
1.051217766852596
 20
0.1730000737205078
 11
1.049352086190045
 21
0.1730000737205078
 72
     1
 10
1.049352086190046
 20
0.1730000737205078
 11
1.049352086190046
 21
0.1754254585818243
 72
     1
 10
1.049352086190046
 20
0.1754254585818245
 11
1.049352086190046
 21
0.1794366720063095
 72
     1
 10
1.049352086190046
 20
0.1794366720063094
 11
1.049352086190046
 21
0.1843807257620694
 72
     1
 10
1.049352086190046
 20
0.1843807257620694
 11
1.049352086190046
 21
0.1898844837165951
 72
     1
 10
1.049352086190046
 20
0.1898844837165951
 11
1.049352086190046
 21
0.1952949576379935
 72
     1
 10
1.049352086190046
 20
0.1952949576379937
 11
1.049352086190046
 21
0.2003322954268815
 72
     1
 10
1.049352086190046
 20
0.2003322954268814
 11
1.049352086190046
 21
0.2042502248182386
 72
     1
 10
1.049352086190046
 20
0.2042502248182386
 11
1.049352086190046
 21
0.206675609679555
 72
     1
 10
1.049352086190046
 20
0.206675609679555
 11
1.051217766852597
 21
0.206675609679555
 72
     1
 10
1.051217766852596
 20
0.206675609679555
 11
1.055042412210825
 21
0.206675609679555
 72
     1
 10
1.055042412210827
 20
0.206675609679555
 11
1.060452886132226
 21
0.206675609679555
 72
     1
 10
1.060452886132225
 20
0.206675609679555
 11
1.067169336517409
 21
0.206675609679555
 72
     1
 10
1.06716933651741
 20
0.206675609679555
 11
1.075005195300124
 21
0.206675609679555
 72
     1
 10
1.075005195300123
 20
0.206675609679555
 11
1.083494042314731
 21
0.206675609679555
 72
     1
 10
1.083494042314732
 20
0.206675609679555
 11
1.092542593528105
 21
0.206675609679555
 72
     1
 10
1.092542593528106
 20
0.206675609679555
 11
1.10187099684086
 21
0.206675609679555
 72
     1
 10
1.101870996840861
 20
0.206675609679555
 11
1.111106116120489
 21
0.206675609679555
 72
     1
 10
1.111106116120488
 20
0.206675609679555
 11
1.119968099267605
 21
0.206675609679555
 72
     1
 10
1.119968099267605
 20
0.206675609679555
 11
1.128270378215957
 21
0.206675609679555
 72
     1
 10
1.128270378215957
 20
0.206675609679555
 11
1.135639816833034
 21
0.206675609679555
 72
     1
 10
1.135639816833034
 20
0.206675609679555
 11
1.14188984705258
 21
0.206675609679555
 72
     1
 10
1.141889847052581
 20
0.206675609679555
 11
1.146647332742086
 21
0.206675609679555
 72
     1
 10
1.146647332742086
 20
0.206675609679555
 11
1.149725705835295
 21
0.206675609679555
 72
     1
 10
1.149725705835296
 20
0.206675609679555
 11
1.150845114232827
 21
0.206675609679555
 72
     1
 10
1.150845114232826
 20
0.206675609679555
 11
1.150845114232826
 21
0.2277578011663822
 72
     1
 10
1.150845114232826
 20
0.2277578011663825
 11
1.148326445338383
 21
0.2277578011663825
 72
     1
 10
1.148326445338383
 20
0.2277578011663825
 11
1.025937793875031
 21
0.2277578011663825
 72
     1
 10
1.025937793875032
 20
0.2277578011663825
 11
1.025937793875032
 21
0.0926825211976832
 72
     1
 10
1.025937793875032
 20
0.0926825211976832
 11
1.155602599922332
 21
0.0926825211976832
 72
     1
 10
1.155602599922332
 20
0.0926825211976832
 11
1.155602599922332
 21
0.113671428651383
 72
     1
 10
1.155602599922332
 20
0.1136714286513832
 11
1.154483191524801
 21
0.1136714286513832
 72
     1
 10
1.154483191524799
 20
0.1136714286513832
 11
1.151218250365336
 21
0.1136714286513832
 72
     1
 10
1.151218250365338
 20
0.1136714286513832
 11
1.146180912576449
 21
0.1136714286513832
 72
     1
 10
1.146180912576449
 20
0.1136714286513832
 11
1.13965103025752
 21
0.1136714286513832
 72
     1
 10
1.13965103025752
 20
0.1136714286513832
 11
1.131908455507932
 21
0.1136714286513832
 72
     1
 10
1.131908455507931
 20
0.1136714286513832
 11
1.12323304042707
 21
0.1136714286513832
 72
     1
 10
1.123233040427071
 20
0.1136714286513832
 11
1.113904637114314
 21
0.1136714286513832
 72
     1
 10
1.113904637114314
 20
0.1136714286513832
 11
1.104296381702177
 21
0.1136714286513832
 72
     1
 10
1.104296381702177
 20
0.1136714286513832
 11
1.094501558223783
 21
0.1136714286513832
 72
     1
 10
1.094501558223784
 20
0.1136714286513832
 11
1.085079870877901
 21
0.1136714286513832
 72
     1
 10
1.085079870877899
 20
0.1136714286513832
 11
1.076124603697654
 21
0.1136714286513832
 72
     1
 10
1.076124603697655
 20
0.1136714286513832
 11
1.067915608782429
 21
0.1136714286513832
 72
     1
 10
1.067915608782429
 20
0.1136714286513832
 11
1.060919306297863
 21
0.1136714286513832
 72
     1
 10
1.060919306297863
 20
0.1136714286513832
 11
1.055228980277083
 21
0.1136714286513832
 72
     1
 10
1.055228980277082
 20
0.1136714286513832
 11
1.051311050885725
 21
0.1136714286513832
 72
     1
 10
1.051311050885726
 20
0.1136714286513832
 11
1.049352086190046
 21
0.1136714286513832
 72
     1
 10
1.049352086190046
 20
0.1136714286513832
 11
1.049352086190046
 21
0.1163766656120825
 72
     1
 10
1.049352086190046
 20
0.1163766656120823
 11
1.049352086190046
 21
0.1209475832353323
 72
     1
 10
1.049352086190046
 20
0.1209475832353325
 11
1.049352086190046
 21
0.1267311932892411
 72
     1
 10
1.049352086190046
 20
0.1267311932892408
 11
1.049352086190046
 21
0.1330745075419143
 72
     1
 10
1.049352086190046
 20
0.1330745075419144
 11
1.049352086190046
 21
0.1395111058277156
 72
     1
 10
1.049352086190046
 20
0.1395111058277158
 11
1.049352086190046
 21
0.1452947158816239
 72
     1
 10
1.049352086190046
 20
0.145294715881624
 11
1.049352086190046
 21
0.1498656335048746
 72
     1
 10
1.049352086190046
 20
0.1498656335048745
 11
1.049352086190046
 21
0.1525708704655738
 97
        0
 75
     0
 76
     1
 98
        1
 10
-0.3743130907707726
 20
-0.2500502867693841
1001
ACAD
1010
0.0
1020
0.0
1030
0.0
  0
HATCH
  5
1F76
330
1F6F
100
AcDbEntity
  8
Kawneer Logo-English
100
AcDbHatch
 10
0.0
 20
0.0
 30
0.0
210
0.0
220
0.0
230
1.0
  2
SOLID
 70
     1
 71
     0
 91
        1
 92
        1
 93
       42
 72
     1
 10
0.9725793269260698
 20
0.2277578011663825
 11
0.9725793269260698
 21
0.1354998924032311
 72
     1
 10
0.9725793269260698
 20
0.1354998924032311
 11
0.9729524630585808
 21
0.1264513411898582
 72
     1
 10
0.9729524630585796
 20
0.1264513411898583
 11
0.9729524630585796
 21
0.1255185008585825
 72
     1
 10
0.9729524630585796
 20
0.1255185008585824
 11
0.9731390311248343
 21
0.1238393882622866
 72
     1
 10
0.9731390311248349
 20
0.1238393882622866
 11
0.9717397706279211
 21
0.1254252168254551
 72
     1
 10
0.97173977062792
 20
0.1254252168254551
 11
0.9710867823960281
 21
0.1262647731236031
 72
     1
 10
0.9710867823960294
 20
0.1262647731236031
 11
0.9641837639445897
 21
0.1339140638400625
 72
     1
 10
0.9641837639445899
 20
0.1339140638400624
 11
0.8755639324734129
 21
0.2277578011663823
 72
     1
 10
0.8755639324734115
 20
0.2277578011663825
 11
0.8529891964565429
 21
0.2277578011663825
 72
     1
 10
0.8529891964565434
 20
0.2277578011663825
 11
0.8529891964565434
 21
0.0926825211976832
 72
     1
 10
0.8529891964565434
 20
0.0926825211976832
 11
0.8756572165065401
 21
0.0926825211976832
 72
     1
 10
0.875657216506541
 20
0.0926825211976832
 11
0.875657216506541
 21
0.1927762887435495
 72
     1
 10
0.875657216506541
 20
0.1927762887435495
 11
0.875657216506541
 21
0.1931494248760597
 72
     1
 10
0.875657216506541
 20
0.1931494248760596
 11
0.8755639324734129
 21
0.193988981174208
 72
     1
 10
0.8755639324734115
 20
0.1939889811742079
 11
0.8754706484402849
 21
0.1952949576379935
 72
     1
 10
0.8754706484402859
 20
0.1952949576379937
 11
0.8753773644071577
 21
0.1967875021680344
 72
     1
 10
0.875377364407158
 20
0.1967875021680343
 11
0.8755639324734126
 21
0.1965076500686515
 72
     1
 10
0.8755639324734115
 20
0.1965076500686517
 11
0.8756572165065396
 21
0.1963210820023967
 72
     1
 10
0.875657216506541
 20
0.1963210820023967
 11
0.8764967728046894
 21
0.1954815257042487
 72
     1
 10
0.8764967728046887
 20
0.1954815257042488
 11
0.8781758854009835
 21
0.1936158450416976
 72
     1
 10
0.8781758854009842
 20
0.1936158450416973
 11
0.8797617139641527
 21
0.1917501643791464
 72
     1
 10
0.879761713964152
 20
0.1917501643791466
 11
0.8805079862291723
 21
0.1909106080809982
 72
     1
 10
0.8805079862291727
 20
0.190910608080998
 11
0.8816273946267036
 21
0.1897911996834678
 72
     1
 10
0.8816273946267028
 20
0.1897911996834681
 11
0.884519199653657
 21
0.1867128265902584
 72
     1
 10
0.8845191996536581
 20
0.1867128265902582
 11
0.8891834013100353
 21
0.1818620568676254
 72
     1
 10
0.889183401310035
 20
0.1818620568676252
 11
0.8951535794301982
 21
0.1756120266480794
 72
     1
 10
0.8951535794301985
 20
0.1756120266480794
 11
0.9021498819147662
 21
0.1681493039978751
 72
     1
 10
0.9021498819147669
 20
0.1681493039978752
 11
0.9099857406974814
 21
0.1598470250495227
 72
     1
 10
0.9099857406974813
 20
0.1598470250495225
 11
0.9183813036789613
 21
0.1509850419024051
 72
     1
 10
0.9183813036789612
 20
0.1509850419024052
 11
0.9271500027929521
 21
0.1418432066559046
 72
     1
 10
0.9271500027929509
 20
0.1418432066559046
 11
0.9358254178738118
 21
0.1326080873762767
 72
     1
 10
0.9358254178738132
 20
0.1326080873762767
 11
0.9442209808552931
 21
0.1237461042291589
 72
     1
 10
0.9442209808552931
 20
0.1237461042291589
 11
0.9520568396380092
 21
0.1154438252808068
 72
     1
 10
0.9520568396380092
 20
0.1154438252808068
 11
0.9590531421225751
 21
0.1079811026306025
 72
     1
 10
0.959053142122574
 20
0.1079811026306024
 11
0.9650233202427372
 21
0.101731072411056
 72
     1
 10
0.9650233202427376
 20
0.101731072411056
 11
0.9695942378659868
 21
0.0968803026884232
 72
     1
 10
0.9695942378659871
 20
0.096880302688423
 11
0.9725793269260696
 21
0.0938019295952138
 72
     1
 10
0.9725793269260698
 20
0.093801929595214
 11
0.9736054512904727
 21
0.0926825211976834
 72
     1
 10
0.9736054512904726
 20
0.0926825211976832
 11
0.9952473469760661
 21
0.0926825211976832
 72
     1
 10
0.9952473469760651
 20
0.0926825211976832
 11
0.9952473469760651
 21
0.2277578011663825
 72
     1
 10
0.9952473469760651
 20
0.2277578011663825
 11
0.9927286780816201
 21
0.2277578011663825
 72
     1
 10
0.9927286780816203
 20
0.2277578011663825
 11
0.9725793269260686
 21
0.2277578011663825
 97
        0
 75
     0
 76
     1
 98
        1
 10
-0.3743130907707726
 20
-0.2500502867693841
1001
ACAD
1010
0.0
1020
0.0
1030
0.0
  0
HATCH
  5
1F77
330
1F6F
100
AcDbEntity
  8
Kawneer Logo-English
100
AcDbHatch
 10
0.0
 20
0.0
 30
0.0
210
0.0
220
0.0
230
1.0
  2
SOLID
 70
     1
 71
     0
 91
        2
 92
       16
 93
       32
 72
     1
 10
0.5269615006757409
 20
0.144641727649731
 11
0.5290137494045469
 21
0.148652941074216
 72
     1
 10
0.5290137494045464
 20
0.1486529410742159
 11
0.5322786905640116
 21
0.1551828233931449
 72
     1
 10
0.532278690564012
 20
0.1551828233931452
 11
0.5364764720547521
 21
0.1633918183083696
 72
     1
 10
0.5364764720547526
 20
0.1633918183083696
 11
0.5409541056448736
 21
0.1722538014554874
 72
     1
 10
0.5409541056448726
 20
0.1722538014554873
 11
0.545338455201869
 21
0.1808359325032223
 72
     1
 10
0.5453384552018701
 20
0.1808359325032223
 11
0.5490698165269726
 21
0.1882053711202994
 72
     1
 10
0.549069816526973
 20
0.1882053711202996
 11
0.5515884854214162
 21
0.1932427089091875
 72
     1
 10
0.5515884854214148
 20
0.1932427089091872
 11
0.5526146097858177
 21
0.1952016736048658
 72
     1
 10
0.5526146097858194
 20
0.1952016736048658
 11
0.552801177852074
 21
0.195761377803631
 72
     1
 10
0.5528011778520723
 20
0.1957613778036309
 11
0.5533608820508379
 21
0.1970673542674166
 72
     1
 10
0.5533608820508378
 20
0.1970673542674169
 11
0.5542004383489863
 21
0.1990263189630955
 72
     1
 10
0.5542004383489872
 20
0.1990263189630952
 11
0.5550399946471356
 21
0.2012651357581567
 72
     1
 10
0.5550399946471352
 20
0.2012651357581567
 11
0.5555064148127727
 21
0.2001457273606265
 72
     1
 10
0.5555064148127729
 20
0.2001457273606264
 11
0.5560661190115385
 21
0.198933034929968
 72
     1
 10
0.5560661190115379
 20
0.198933034929968
 11
0.5567191072434298
 21
0.197533774433055
 72
     1
 10
0.5567191072434304
 20
0.197533774433055
 11
0.5574653795084506
 21
0.1959479458698865
 72
     1
 10
0.557465379508451
 20
0.1959479458698865
 11
0.5583049358065995
 21
0.1942688332735902
 72
     1
 10
0.5583049358065986
 20
0.1942688332735903
 11
0.5606370366347874
 21
0.1896046316172126
 72
     1
 10
0.5606370366347871
 20
0.1896046316172126
 11
0.5639952618273804
 21
0.1828881812320289
 72
     1
 10
0.5639952618273814
 20
0.1828881812320287
 11
0.5680064752518651
 21
0.1748657543830587
 72
     1
 10
0.5680064752518637
 20
0.1748657543830589
 11
0.57239082480886
 21
0.1661903393021966
 72
     1
 10
0.5723908248088612
 20
0.1661903393021967
 11
0.5765886062996012
 21
0.1577947763207168
 72
     1
 10
0.5765886062996
 20
0.1577947763207165
 11
0.5803199676247008
 21
0.1503320536705122
 72
     1
 10
0.5803199676247015
 20
0.1503320536705122
 11
0.5831184886185295
 21
0.144641727649731
 72
     1
 10
0.5831184886185295
 20
0.144641727649731
 11
0.5791072751940441
 21
0.144641727649731
 72
     1
 10
0.5791072751940436
 20
0.144641727649731
 11
0.5724841088419869
 21
0.144641727649731
 72
     1
 10
0.5724841088419872
 20
0.144641727649731
 11
0.5641818298936356
 21
0.144641727649731
 72
     1
 10
0.5641818298936352
 20
0.144641727649731
 11
0.5550399946471351
 21
0.144641727649731
 72
     1
 10
0.5550399946471352
 20
0.144641727649731
 11
0.5458981594006351
 21
0.144641727649731
 72
     1
 10
0.5458981594006352
 20
0.144641727649731
 11
0.5375958804522815
 21
0.144641727649731
 72
     1
 10
0.5375958804522814
 20
0.144641727649731
 11
0.5310659981333528
 21
0.144641727649731
 72
     1
 10
0.5310659981333524
 20
0.144641727649731
 11
0.5269615006757405
 21
0.144641727649731
 97
        0
 92
        1
 93
      141
 72
     1
 10
0.5656743744236757
 20
0.2277578011663825
 11
0.544405614870593
 21
0.2277578011663825
 72
     1
 10
0.544405614870593
 20
0.2277578011663825
 11
0.4748157261574382
 21
0.0934287934627039
 72
     1
 10
0.4748157261574378
 20
0.0934287934627039
 11
0.4729500454948865
 21
0.0955743262246376
 72
     1
 10
0.4729500454948874
 20
0.0955743262246376
 11
0.4699649564348049
 21
0.0991191194834847
 72
     1
 10
0.4699649564348043
 20
0.0991191194834847
 11
0.4661403110765752
 21
0.1036900371067346
 72
     1
 10
0.4661403110765754
 20
0.1036900371067347
 11
0.4615693934533244
 21
0.1091005110281331
 72
     1
 10
0.461569393453325
 20
0.109100511028133
 11
0.456345487598182
 21
0.1152572572145517
 72
     1
 10
0.4563454875981812
 20
0.1152572572145516
 11
0.4506551615774008
 21
0.1219737075997353
 72
     1
 10
0.4506551615774015
 20
0.1219737075997354
 11
0.4447782674903648
 21
0.1290632941174296
 72
     1
 10
0.4447782674903636
 20
0.1290632941174296
 11
0.4387148053370722
 21
0.1362461646682511
 72
     1
 10
0.4387148053370727
 20
0.1362461646682512
 11
0.4326513431837832
 21
0.1433357511859454
 72
     1
 10
0.4326513431837844
 20
0.1433357511859453
 11
0.4268677331298759
 21
0.1502387696373844
 72
     1
 10
0.4268677331298756
 20
0.1502387696373844
 11
0.4214572592084763
 21
0.1566753679231857
 72
     1
 10
0.4214572592084754
 20
0.1566753679231858
 11
0.4165132054527153
 21
0.1625522620102216
 72
     1
 10
0.4165132054527163
 20
0.1625522620102216
 11
0.4123154239619763
 21
0.1674963157659821
 72
     1
 10
0.4123154239619753
 20
0.1674963157659822
 11
0.4088639147362555
 21
0.1715075291904667
 72
     1
 10
0.4088639147362568
 20
0.1715075291904669
 11
0.4065318139080681
 21
0.1743993342174211
 72
     1
 10
0.4065318139080665
 20
0.1743993342174211
 11
0.405319121477409
 21
0.1757985947143345
 72
     1
 10
0.4053191214774104
 20
0.1757985947143345
 11
0.4067183819743243
 21
0.1769180031118651
 72
     1
 10
0.4067183819743235
 20
0.1769180031118651
 11
0.4094236189350213
 21
0.1788769678075437
 72
     1
 10
0.4094236189350218
 20
0.1788769678075437
 11
0.4132482642932526
 21
0.1816754888013702
 72
     1
 10
0.4132482642932525
 20
0.1816754888013703
 11
0.4179124659496298
 21
0.1852202820602174
 72
     1
 10
0.417912465949629
 20
0.1852202820602174
 11
0.4232296558379
 21
0.189138211451575
 72
     1
 10
0.4232296558379001
 20
0.1891382114515751
 11
0.4291065499249351
 21
0.1935225610085696
 72
     1
 10
0.4291065499249367
 20
0.1935225610085698
 11
0.4352632961113562
 21
0.1981867626649482
 72
     1
 10
0.4352632961113554
 20
0.1981867626649479
 11
0.4416066103640296
 21
0.2028509643213252
 72
     1
 10
0.4416066103640293
 20
0.2028509643213252
 11
0.4479499246167016
 21
0.2076084500108307
 72
     1
 10
0.4479499246167018
 20
0.2076084500108307
 11
0.4540133867699932
 21
0.2120860836009535
 72
     1
 10
0.4540133867699927
 20
0.2120860836009535
 11
0.4596104287576467
 21
0.2162838650916932
 72
     1
 10
0.4596104287576468
 20
0.216283865091693
 11
0.4646477665465351
 21
0.2200152264167952
 72
     1
 10
0.464647766546535
 20
0.2200152264167951
 11
0.4689388320704013
 21
0.223186883543132
 72
     1
 10
0.4689388320704016
 20
0.2231868835431323
 11
0.4721104891967386
 21
0.2256122684044488
 72
     1
 10
0.4721104891967376
 20
0.2256122684044488
 11
0.4742560219586717
 21
0.2271980969676172
 72
     1
 10
0.4742560219586727
 20
0.2271980969676173
 11
0.475002294223693
 21
0.2277578011663825
 72
     1
 10
0.4750022942236929
 20
0.2277578011663825
 11
0.4674462875403612
 21
0.2277578011663825
 72
     1
 10
0.4674462875403611
 20
0.2277578011663825
 11
0.4395543616352215
 21
0.2277578011663825
 72
     1
 10
0.439554361635222
 20
0.2277578011663825
 11
0.4386215213039473
 21
0.2270115289013622
 72
     1
 10
0.4386215213039466
 20
0.2270115289013622
 11
0.4359162843432469
 21
0.2250525642056836
 72
     1
 10
0.4359162843432465
 20
0.2250525642056836
 11
0.4318117868856346
 21
0.2220674751456017
 72
     1
 10
0.4318117868856351
 20
0.2220674751456017
 11
0.4264013129642376
 21
0.2180562617211167
 72
     1
 10
0.4264013129642379
 20
0.2180562617211168
 11
0.4200579987115638
 21
0.2132987760316117
 72
     1
 10
0.4200579987115641
 20
0.2132987760316114
 11
0.4128751281607416
 21
0.2079815861433408
 72
     1
 10
0.4128751281607408
 20
0.2079815861433408
 11
0.4051325534111546
 21
0.20229126012256
 72
     1
 10
0.4051325534111552
 20
0.20229126012256
 11
0.397016842529058
 21
0.1963210820023964
 72
     1
 10
0.3970168425290583
 20
0.1963210820023967
 11
0.3889011316469611
 21
0.1903509038822331
 72
     1
 10
0.3889011316469611
 20
0.190350903882233
 11
0.3808787047979902
 21
0.1844740097951972
 72
     1
 10
0.3808787047979898
 20
0.1844740097951974
 11
0.3733226981146581
 21
0.1787836837744166
 72
     1
 10
0.373322698114658
 20
0.1787836837744166
 11
0.3663263956300919
 21
0.173653061952401
 72
     1
 10
0.3663263956300931
 20
0.173653061952401
 11
0.3601696494436735
 21
0.169082144329151
 72
     1
 10
0.3601696494436726
 20
0.1690821443291508
 11
0.3550390276216579
 21
0.1653507830040483
 72
     1
 10
0.3550390276216584
 20
0.1653507830040482
 11
0.3513076662965558
 21
0.1625522620102218
 72
     1
 10
0.3513076662965551
 20
0.1625522620102216
 11
0.3490688495014928
 21
0.1609664334470531
 72
     1
 10
0.3490688495014926
 20
0.1609664334470531
 11
0.3490688495014926
 21
0.1631119662089868
 72
     1
 10
0.3490688495014926
 20
0.1631119662089868
 11
0.3490688495014926
 21
0.1662836233353237
 72
     1
 10
0.3490688495014926
 20
0.1662836233353238
 11
0.3490688495014926
 21
0.1702948367598088
 72
     1
 10
0.3490688495014926
 20
0.1702948367598088
 11
0.3490688495014926
 21
0.1749590384161865
 72
     1
 10
0.3490688495014926
 20
0.1749590384161865
 11
0.3490688495014926
 21
0.1801829442713294
 72
     1
 10
0.3490688495014926
 20
0.1801829442713296
 11
0.3490688495014926
 21
0.185779986258983
 72
     1
 10
0.3490688495014926
 20
0.1857799862589829
 11
0.3490688495014926
 21
0.1916568803460187
 72
     1
 10
0.3490688495014926
 20
0.1916568803460186
 11
0.3490688495014926
 21
0.1975337744330549
 72
     1
 10
0.3490688495014926
 20
0.197533774433055
 11
0.3490688495014926
 21
0.2033173844869632
 72
     1
 10
0.3490688495014926
 20
0.2033173844869631
 11
0.3490688495014926
 21
0.2088211424414888
 72
     1
 10
0.3490688495014926
 20
0.2088211424414888
 11
0.3490688495014926
 21
0.2139517642635044
 72
     1
 10
0.3490688495014926
 20
0.2139517642635044
 11
0.3490688495014926
 21
0.2185226818867544
 72
     1
 10
0.3490688495014926
 20
0.2185226818867545
 11
0.3490688495014926
 21
0.2222540432118567
 72
     1
 10
0.3490688495014926
 20
0.2222540432118567
 11
0.3490688495014926
 21
0.2252391322719387
 72
     1
 10
0.3490688495014926
 20
0.2252391322719387
 11
0.3490688495014926
 21
0.2271048129344895
 72
     1
 10
0.3490688495014926
 20
0.2271048129344895
 11
0.3490688495014926
 21
0.2277578011663825
 72
     1
 10
0.3490688495014926
 20
0.2277578011663825
 11
0.3258411252527322
 21
0.2277578011663825
 72
     1
 10
0.3258411252527336
 20
0.2277578011663825
 11
0.3258411252527336
 21
0.0926825211976832
 72
     1
 10
0.3258411252527336
 20
0.0926825211976832
 11
0.3486957133689848
 21
0.0926825211976832
 72
     1
 10
0.3486957133689845
 20
0.0926825211976832
 11
0.3486957133689845
 21
0.0943616337939795
 72
     1
 10
0.3486957133689845
 20
0.0943616337939795
 11
0.3486957133689845
 21
0.0988392673841017
 72
     1
 10
0.3486957133689845
 20
0.0988392673841017
 11
0.3486957133689845
 21
0.1051825816367752
 72
     1
 10
0.3486957133689845
 20
0.1051825816367753
 11
0.3486957133689845
 21
0.1125520202538523
 72
     1
 10
0.3486957133689845
 20
0.1125520202538524
 11
0.3486957133689845
 21
0.1200147429040567
 72
     1
 10
0.3486957133689845
 20
0.1200147429040567
 11
0.3486957133689845
 21
0.1267311932892408
 72
     1
 10
0.3486957133689845
 20
0.1267311932892408
 11
0.3486957133689845
 21
0.1317685310781287
 72
     1
 10
0.3486957133689845
 20
0.1317685310781289
 11
0.3486957133689845
 21
0.1342871999725727
 72
     1
 10
0.3486957133689845
 20
0.1342871999725725
 11
0.3507479620977905
 21
0.1356864604694859
 72
     1
 10
0.35074796209779
 20
0.1356864604694859
 11
0.3548524595554018
 21
0.1387648335626952
 72
     1
 10
0.3548524595554015
 20
0.1387648335626952
 11
0.3605427855761835
 21
0.1428693310203079
 72
     1
 10
0.3605427855761842
 20
0.1428693310203079
 11
0.3668860998288565
 21
0.1476268167098129
 72
     1
 10
0.3668860998288568
 20
0.1476268167098129
 11
0.373322698114659
 21
0.1522910183661906
 72
     1
 10
0.373322698114658
 20
0.1522910183661908
 11
0.3791995922016947
 21
0.1565820838900582
 72
     1
 10
0.3791995922016946
 20
0.1565820838900582
 11
0.3836772257918156
 21
0.1599403090826502
 72
     1
 10
0.3836772257918159
 20
0.1599403090826503
 11
0.386195894686261
 21
0.1618059897452011
 72
     1
 10
0.3861958946862609
 20
0.1618059897452011
 11
0.3873153030837921
 21
0.1604067292482882
 72
     1
 10
0.3873153030837915
 20
0.1604067292482878
 11
0.3894608358457238
 21
0.1577947763207163
 72
     1
 10
0.3894608358457248
 20
0.1577947763207165
 11
0.3925392089389353
 21
0.1541566990287417
 72
     1
 10
0.3925392089389348
 20
0.1541566990287417
 11
0.396457138330292
 21
0.149492497372364
 72
     1
 10
0.3964571383302933
 20
0.149492497372364
 11
0.4009347719204161
 21
0.1442685915172211
 72
     1
 10
0.4009347719204146
 20
0.1442685915172209
 11
0.4057855416430466
 21
0.138391697430185
 72
     1
 10
0.4057855416430463
 20
0.1383916974301853
 11
0.4109161634650628
 21
0.1322349512437666
 72
     1
 10
0.410916163465064
 20
0.1322349512437666
 11
0.4162333533533335
 21
0.1259849210242201
 72
     1
 10
0.4162333533533334
 20
0.1259849210242201
 11
0.4215505432416044
 21
0.1196416067715466
 72
     1
 10
0.4215505432416045
 20
0.1196416067715466
 11
0.4265878810304927
 21
0.113671428651383
 72
     1
 10
0.4265878810304931
 20
0.1136714286513832
 11
0.4312520826868704
 21
0.1079811026306024
 72
     1
 10
0.4312520826868696
 20
0.1079811026306024
 11
0.4355431482107378
 21
0.1029437648417141
 72
     1
 10
0.435543148210738
 20
0.1029437648417139
 11
0.4390879414695842
 21
0.0987459833509739
 72
     1
 10
0.4390879414695843
 20
0.0987459833509741
 11
0.4417931784302841
 21
0.0954810421915098
 72
     1
 10
0.4417931784302845
 20
0.0954810421915096
 11
0.4435655750597076
 21
0.0934287934627037
 72
     1
 10
0.4435655750597074
 20
0.0934287934627039
 11
0.4442185632915993
 21
0.0926825211976832
 72
     1
 10
0.4442185632915985
 20
0.0926825211976832
 11
0.4743493059918004
 21
0.0926825211976832
 72
     1
 10
0.4743493059918001
 20
0.0926825211976832
 11
0.4753754303562029
 21
0.0926825211976832
 72
     1
 10
0.4753754303562033
 20
0.0926825211976832
 11
0.5008419714000258
 21
0.0926825211976832
 72
     1
 10
0.5008419714000265
 20
0.0926825211976832
 11
0.5014949596319184
 21
0.0939884976614689
 72
     1
 10
0.501494959631919
 20
0.0939884976614688
 11
0.5031740722282155
 21
0.0973467228540609
 72
     1
 10
0.503174072228215
 20
0.0973467228540612
 11
0.5055061730564038
 21
0.1021042085435666
 72
     1
 10
0.505506173056403
 20
0.1021042085435665
 11
0.5083046940502291
 21
0.1077012505312196
 72
     1
 10
0.5083046940502292
 20
0.1077012505312194
 11
0.5111032150440553
 21
0.1134848605851279
 72
     1
 10
0.5111032150440549
 20
0.1134848605851281
 11
0.5137151679716264
 21
0.1186154824071433
 72
     1
 10
0.5137151679716277
 20
0.1186154824071433
 11
0.5156741326673071
 21
0.1226266958316283
 72
     1
 10
0.5156741326673076
 20
0.122626695831628
 11
0.5167002570317104
 21
0.1247722285935621
 72
     1
 10
0.5167002570317103
 20
0.1247722285935622
 11
0.5180062334954961
 21
0.1247722285935622
 72
     1
 10
0.5180062334954961
 20
0.1247722285935622
 11
0.5207114704561957
 21
0.1247722285935622
 72
     1
 10
0.5207114704561944
 20
0.1247722285935622
 11
0.5246293998475517
 21
0.1247722285935622
 72
     1
 10
0.5246293998475525
 20
0.1247722285935622
 11
0.5295734536033125
 21
0.1247722285935622
 72
     1
 10
0.5295734536033115
 20
0.1247722285935622
 11
0.5352637796240919
 21
0.1247722285935622
 72
     1
 10
0.5352637796240929
 20
0.1247722285935622
 11
0.5415138098436386
 21
0.1247722285935622
 72
     1
 10
0.5415138098436394
 20
0.1247722285935622
 11
0.5482302602288245
 21
0.1247722285935622
 72
     1
 10
0.5482302602288236
 20
0.1247722285935622
 11
0.5551332786802616
 21
0.1247722285935622
 72
     1
 10
0.5551332786802608
 20
0.1247722285935622
 11
0.5620362971317004
 21
0.1247722285935622
 72
     1
 10
0.5620362971317015
 20
0.1247722285935622
 11
0.5687527475168847
 21
0.1247722285935622
 72
     1
 10
0.5687527475168839
 20
0.1247722285935622
 11
0.5750027777364317
 21
0.1247722285935622
 72
     1
 10
0.5750027777364322
 20
0.1247722285935622
 11
0.5806931037572126
 21
0.1247722285935622
 72
     1
 10
0.5806931037572119
 20
0.1247722285935622
 11
0.585637157512972
 21
0.1247722285935622
 72
     1
 10
0.5856371575129727
 20
0.1247722285935622
 11
0.5895550869043299
 21
0.1247722285935622
 72
     1
 10
0.5895550869043289
 20
0.1247722285935622
 11
0.5922603238650286
 21
0.1247722285935622
 72
     1
 10
0.5922603238650291
 20
0.1247722285935622
 11
0.5935663003288148
 21
0.1247722285935622
 72
     1
 10
0.5935663003288148
 20
0.1247722285935622
 11
0.5945924246932176
 21
0.1226266958316281
 72
     1
 10
0.5945924246932175
 20
0.122626695831628
 11
0.5965513893888953
 21
0.1186154824071431
 72
     1
 10
0.5965513893888957
 20
0.1186154824071433
 11
0.5991633423164672
 21
0.1134848605851281
 72
     1
 10
0.5991633423164667
 20
0.1134848605851281
 11
0.6019618633102946
 21
0.1077012505312196
 72
     1
 10
0.6019618633102959
 20
0.1077012505312194
 11
0.604760384304122
 21
0.1021042085435664
 72
     1
 10
0.6047603843041221
 20
0.1021042085435665
 11
0.6070924851323109
 21
0.0973467228540611
 72
     1
 10
0.6070924851323101
 20
0.0973467228540612
 11
0.6087715977286067
 21
0.0939884976614691
 72
     1
 10
0.6087715977286062
 20
0.0939884976614688
 11
0.609424585960498
 21
0.0926825211976832
 72
     1
 10
0.6094245859604986
 20
0.0926825211976832
 11
0.6363836715343633
 21
0.0926825211976832
 72
     1
 10
0.6363836715343641
 20
0.0926825211976832
 11
0.5671669189537184
 21
0.2277578011663825
 72
     1
 10
0.5671669189537179
 20
0.2277578011663825
 11
0.5656743744236758
 21
0.2277578011663825
 97
        0
 75
     0
 76
     1
 98
        1
 10
-0.3743130907707726
 20
-0.2500502867693841
1001
ACAD
1010
0.0
1020
0.0
1030
0.0
  0
HATCH
  5
1F78
330
1F6F
100
AcDbEntity
  8
Kawneer Logo-English
100
AcDbHatch
 10
0.0
 20
0.0
 30
0.0
210
0.0
220
0.0
230
1.0
  2
SOLID
 70
     1
 71
     0
 91
        1
 92
        1
 93
       69
 72
     1
 10
0.8092389849197205
 20
0.2277578011663825
 11
0.778921674153266
 21
0.1309289747799811
 72
     1
 10
0.778921674153267
 20
0.1309289747799809
 11
0.7781754018882468
 21
0.1287834420180468
 72
     1
 10
0.7781754018882468
 20
0.1287834420180467
 11
0.7776156976894812
 21
0.1270110453886236
 72
     1
 10
0.7776156976894813
 20
0.1270110453886237
 11
0.7771492775238438
 21
0.1253319327923275
 72
     1
 10
0.7771492775238436
 20
0.1253319327923274
 11
0.7766828573582045
 21
0.1238393882622867
 72
     1
 10
0.7766828573582046
 20
0.1238393882622866
 11
0.7764030052588217
 21
0.1248655126266895
 72
     1
 10
0.776403005258822
 20
0.1248655126266896
 11
0.7761231531594392
 21
0.1259849210242202
 72
     1
 10
0.7761231531594391
 20
0.1259849210242201
 11
0.7759365850931844
 21
0.1268244773223681
 72
     1
 10
0.7759365850931843
 20
0.1268244773223682
 11
0.7758433010600562
 21
0.1271976134548783
 72
     1
 10
0.7758433010600552
 20
0.1271976134548783
 11
0.7755634489606744
 21
0.1280371697530267
 72
     1
 10
0.775563448960674
 20
0.1280371697530267
 11
0.7750970287950349
 21
0.1291565781505569
 72
     1
 10
0.7750970287950363
 20
0.1291565781505568
 11
0.773977620397507
 21
0.1323282352768938
 72
     1
 10
0.7739776203975062
 20
0.1323282352768939
 11
0.7721119397349549
 21
0.1372722890326544
 72
     1
 10
0.7721119397349554
 20
0.1372722890326546
 11
0.7697798389067666
 21
0.1436156032853281
 72
     1
 10
0.769779838906767
 20
0.1436156032853281
 11
0.7670746019460673
 21
0.1511716099686602
 72
     1
 10
0.7670746019460668
 20
0.15117160996866
 11
0.7639962288528581
 21
0.1595671729501399
 72
     1
 10
0.7639962288528582
 20
0.15956717295014
 11
0.7606380036602665
 21
0.1686157241635125
 72
     1
 10
0.7606380036602652
 20
0.1686157241635125
 11
0.7572797784676718
 21
0.1778508434431408
 72
     1
 10
0.7572797784676726
 20
0.1778508434431408
 11
0.753921553275081
 21
0.187179246755896
 72
     1
 10
0.7539215532750814
 20
0.1871792467558961
 11
0.7505633280824898
 21
0.1962277979692689
 72
     1
 10
0.7505633280824902
 20
0.1962277979692689
 11
0.7474849549892814
 21
0.2046233609507488
 72
     1
 10
0.7474849549892797
 20
0.2046233609507488
 11
0.74477971802858
 21
0.2121793676340809
 72
     1
 10
0.7447797180285814
 20
0.2121793676340809
 11
0.7424476172003926
 21
0.2185226818867544
 72
     1
 10
0.7424476172003929
 20
0.2185226818867545
 11
0.7405819365378416
 21
0.2234667356425151
 72
     1
 10
0.7405819365378408
 20
0.2234667356425151
 11
0.7394625281403098
 21
0.2266383927688516
 72
     1
 10
0.7394625281403103
 20
0.2266383927688516
 11
0.7390893920078009
 21
0.2277578011663822
 72
     1
 10
0.7390893920078004
 20
0.2277578011663825
 11
0.7191266089185034
 21
0.2277578011663825
 72
     1
 10
0.7191266089185029
 20
0.2277578011663825
 11
0.6843316645619254
 21
0.1336342117406798
 72
     1
 10
0.6843316645619267
 20
0.1336342117406795
 11
0.6832122561643957
 21
0.130649122680598
 72
     1
 10
0.6832122561643961
 20
0.1306491226805981
 11
0.6823726998662476
 21
0.1282237378192816
 72
     1
 10
0.6823726998662468
 20
0.1282237378192818
 11
0.6817197116343549
 21
0.1260782050573481
 72
     1
 10
0.6817197116343552
 20
0.1260782050573481
 11
0.6811600074355896
 21
0.1241192403616695
 72
     1
 10
0.6811600074355884
 20
0.1241192403616695
 11
0.6808801553362055
 21
0.1250520806929446
 72
     1
 10
0.6808801553362059
 20
0.1250520806929445
 11
0.6805070192036949
 21
0.1261714890904751
 72
     1
 10
0.680507019203696
 20
0.1261714890904752
 11
0.6802271671043131
 21
0.1272908974880058
 72
     1
 10
0.680227167104313
 20
0.1272908974880061
 11
0.6798540309718037
 21
0.1286901579849195
 72
     1
 10
0.6798540309718031
 20
0.1286901579849194
 11
0.6794808948392922
 21
0.12980956638245
 72
     1
 10
0.6794808948392932
 20
0.1298095663824503
 11
0.6784547704748904
 21
0.1328879394756595
 72
     1
 10
0.67845477047489
 20
0.1328879394756595
 11
0.6769622259448497
 21
0.1378319932314196
 72
     1
 10
0.6769622259448496
 20
0.1378319932314196
 11
0.6750032612491701
 21
0.1441753074840938
 72
     1
 10
0.6750032612491697
 20
0.1441753074840937
 11
0.6725778763878547
 21
0.1516380301342981
 72
     1
 10
0.6725778763878556
 20
0.1516380301342981
 11
0.6699659234602841
 21
0.160033593115778
 72
     1
 10
0.6699659234602829
 20
0.160033593115778
 11
0.6671674024664549
 21
0.168988860296023
 72
     1
 10
0.6671674024664554
 20
0.168988860296023
 11
0.6642755974395012
 21
0.1782239795756509
 72
     1
 10
0.6642755974395019
 20
0.178223979575651
 11
0.6613837924125477
 21
0.1874590988552789
 72
     1
 10
0.6613837924125466
 20
0.1874590988552789
 11
0.6585852714187205
 21
0.1964143660355239
 72
     1
 10
0.6585852714187204
 20
0.1964143660355237
 11
0.6559733184911489
 21
0.2047166449838762
 72
     1
 10
0.6559733184911494
 20
0.2047166449838765
 11
0.6536412176629606
 21
0.2122726516672082
 72
     1
 10
0.6536412176629614
 20
0.2122726516672082
 11
0.6515889689341538
 21
0.2186159659198823
 72
     1
 10
0.6515889689341537
 20
0.2186159659198821
 11
0.6500964244041133
 21
0.2234667356425149
 72
     1
 10
0.6500964244041132
 20
0.2234667356425151
 11
0.6490703000397104
 21
0.2266383927688516
 72
     1
 10
0.6490703000397105
 20
0.2266383927688516
 11
0.6487904479403276
 21
0.2277578011663822
 72
     1
 10
0.648790447940328
 20
0.2277578011663825
 11
0.6237903270621445
 21
0.2277578011663825
 72
     1
 10
0.6237903270621437
 20
0.2277578011663825
 11
0.6676338226320932
 21
0.0926825211976832
 72
     1
 10
0.6676338226320926
 20
0.0926825211976832
 11
0.6922608073777669
 21
0.0926825211976832
 72
     1
 10
0.6922608073777666
 20
0.0926825211976832
 11
0.726029627369941
 21
0.1855001341596003
 72
     1
 10
0.7260296273699423
 20
0.1855001341596003
 11
0.7269624677012189
 21
0.1882986551534267
 72
     1
 10
0.7269624677012177
 20
0.1882986551534266
 11
0.7278020239993661
 21
0.1906307559816158
 72
     1
 10
0.727802023999367
 20
0.1906307559816159
 11
0.7284550122312589
 21
0.1927762887435496
 72
     1
 10
0.7284550122312581
 20
0.1927762887435495
 11
0.7290147164300237
 21
0.1947352534392281
 72
     1
 10
0.7290147164300232
 20
0.1947352534392282
 11
0.7298542727281716
 21
0.192216584544784
 72
     1
 10
0.729854272728173
 20
0.1922165845447839
 11
0.7306938290263214
 21
0.1894180635509575
 72
     1
 10
0.7306938290263206
 20
0.1894180635509575
 11
0.7318132374238499
 21
0.1863396904577483
 72
     1
 10
0.7318132374238511
 20
0.1863396904577481
 11
0.7331192138876387
 21
0.1827016131657736
 72
     1
 10
0.7331192138876382
 20
0.1827016131657737
 11
0.7654887733828987
 21
0.0926825211976834
 72
     1
 10
0.7654887733828986
 20
0.0926825211976832
 11
0.7895560539298075
 21
0.0926825211976832
 72
     1
 10
0.7895560539298075
 20
0.0926825211976832
 11
0.8341458217647785
 21
0.2277578011663825
 72
     1
 10
0.8341458217647783
 20
0.2277578011663825
 11
0.830601028505932
 21
0.2277578011663825
 72
     1
 10
0.8306010285059324
 20
0.2277578011663825
 11
0.8092389849197216
 21
0.2277578011663825
 97
        0
 75
     0
 76
     1
 98
        1
 10
-0.3743130907707726
 20
-0.2500502867693841
1001
ACAD
1010
0.0
1020
0.0
1030
0.0
  0
ENDBLK
  5
1F7C
330
1F6F
100
AcDbEntity
  8
0
100
AcDbBlockEnd
  0
ENDSEC
  0
SECTION
  2
ENTITIES
  0
MTEXT
  5
5C3
330
1F
100
AcDbEntity
  8
0
 62
     2
100
AcDbMText
 10
38.24221176692105
 20
1.134754100828189
 30
0.0
 40
0.375
 41
11.6667179685679
 71
     2
 72
     5
  1
DETAIL SCALE: 1" = 1"
 73
     1
 44
1.0
1001
ACAD
1000
MTEXTBEGIN
1070
    73
1070
     1
1070
    44
1040
1.0
1070
    74
1070
     0
1000
MTEXTEND
  0
MTEXT
  5
5C4
330
1F
100
AcDbEntity
  8
0
 62
     2
100
AcDbMText
 10
38.24221176692105
 20
3.298895933808736
 30
0.0
 40
0.5
 41
12.2885959693514
 71
     2
 72
     5
  1
MISCELLANEOUS FRAMING\PTUBES
 73
     1
 44
1.0
1001
ACAD
1000
MTEXTBEGIN
1070
    73
1070
     1
1070
    44
1040
1.0
1070
    74
1070
     0
1000
MTEXTEND
  0
LINE
  5
7C3
330
1F
100
AcDbEntity
  8
0
100
AcDbLine
 10
-0.0000000274912111
 20
0.0000000469858321
 30
0.0
 11
-0.0000000274912111
 21
38.62667528630168
 31
0.0
  0
TEXT
  5
7F3
330
1F
100
AcDbEntity
  8
PART_NUMBERS
  6
Continuous
100
AcDbText
 10
11.86436118673412
 20
31.77069063334335
 30
0.0
 40
0.25
  1
069256
 72
     1
 11
12.44706923584735
 21
31.69667971886071
 31
0.0
100
AcDbText
 73
     1
  0
LINE
  5
82A
330
1F
100
AcDbEntity
  8
0
100
AcDbLine
 10
-0.0000000274912111
 20
0.0000000469858321
 30
0.0
 11
67.99999997250878
 21
0.0000000469858321
 31
0.0
  0
LWPOLYLINE
  5
1203
102
{ACAD_REACTORS
330
1293
330
12F3
102
}
330
1F
100
AcDbEntity
  8
R-SWTS-DET1
100
AcDbPolyline
 90
        4
 70
     1
 43
0.0
 10
11.94706923584735
 20
32.4029328650187
 10
12.94706923584735
 20
32.4029328650187
 10
12.94706923584735
 20
33.4029328650187
 10
11.94706923584735
 20
33.4029328650187
  0
LWPOLYLINE
  5
1204
102
{ACAD_REACTORS
330
12AB
330
130B
102
}
330
1F
100
AcDbEntity
  8
R-SWTS-DET1
100
AcDbPolyline
 90
        4
 70
     1
 43
0.0
 10
17.9874048682428
 20
35.4029328650187
 10
18.9874048682428
 20
35.4029328650187
 10
18.9874048682428
 20
32.4029328650187
 10
17.9874048682428
 20
32.4029328650187
  0
LWPOLYLINE
  5
1205
102
{ACAD_REACTORS
330
12C3
330
1323
102
}
330
1F
100
AcDbEntity
  8
R-SWTS-DET1
100
AcDbPolyline
 90
        4
 70
     1
 43
0.0
 10
24.63177535763586
 20
36.4029328650187
 10
25.63177535763586
 20
36.4029328650187
 10
25.63177535763586
 20
32.4029328650187
 10
24.63177535763586
 20
32.4029328650187
  0
LWPOLYLINE
  5
1206
102
{ACAD_REACTORS
330
12DB
330
133B
102
}
330
1F
100
AcDbEntity
  8
R-SWTS-DET1
100
AcDbPolyline
 90
        4
 70
     1
 43
0.0
 10
32.54126608203691
 20
36.9029328650187
 10
33.54126608203691
 20
36.9029328650187
 10
33.54126608203691
 20
32.4029328650187
 10
32.54126608203691
 20
32.4029328650187
  0
LWPOLYLINE
  5
1208
102
{ACAD_REACTORS
330
135A
330
1372
102
}
330
1F
100
AcDbEntity
  8
R-SWTS-DET1
100
AcDbPolyline
 90
        4
 70
     1
 43
0.0
 10
11.94706923584735
 20
23.6519969944579
 10
13.69706923584735
 20
23.6519969944579
 10
13.69706923584735
 20
25.4019969944579
 10
11.94706923584735
 20
25.4019969944579
  0
LWPOLYLINE
  5
1209
102
{ACAD_REACTORS
330
138A
330
13A2
102
}
330
1F
100
AcDbEntity
  8
R-SWTS-DET1
100
AcDbPolyline
 90
        4
 70
     1
 43
0.0
 10
17.9874048682428
 20
23.6519969944579
 10
19.7374048682428
 20
23.6519969944579
 10
19.7374048682428
 20
27.65199699445791
 10
17.9874048682428
 20
27.65199699445791
  0
LWPOLYLINE
  5
120A
102
{ACAD_REACTORS
330
13EA
330
1402
102
}
330
1F
100
AcDbEntity
  8
R-SWTS-DET1
100
AcDbPolyline
 90
        4
 70
     1
 43
0.0
 10
32.54126608203691
 20
23.6519969944579
 10
34.29126608203691
 20
23.6519969944579
 10
34.29126608203691
 20
29.6519969944579
 10
32.54126608203691
 20
29.6519969944579
  0
LWPOLYLINE
  5
120D
102
{ACAD_REACTORS
330
13BA
330
13D2
102
}
330
1F
100
AcDbEntity
  8
R-SWTS-DET1
100
AcDbPolyline
 90
        4
 70
     1
 43
0.0
 10
24.63177535763586
 20
23.6519969944579
 10
26.38177535763586
 20
23.6519969944579
 10
26.38177535763586
 20
28.1519969944579
 10
24.63177535763586
 20
28.1519969944579
  0
LWPOLYLINE
  5
120E
102
{ACAD_REACTORS
330
1466
330
150E
102
}
330
1F
100
AcDbEntity
  8
R-SWTS-DET1
100
AcDbPolyline
 90
        4
 70
     1
 43
0.0
 10
11.94706923584735
 20
14.02889768063792
 10
13.94706923584735
 20
14.02889768063792
 10
13.94706923584735
 20
18.02889768063792
 10
11.94706923584735
 20
18.02889768063792
  0
LWPOLYLINE
  5
120F
102
{ACAD_REACTORS
330
1496
330
14DE
102
}
330
1F
100
AcDbEntity
  8
R-SWTS-DET1
100
AcDbPolyline
 90
        4
 70
     1
 43
0.0
 10
25.53784278183051
 20
14.02889768063792
 10
27.53784278183051
 20
14.02889768063792
 10
27.53784278183051
 20
20.02889768063793
 10
25.53784278183051
 20
20.02889768063793
  0
LWPOLYLINE
  5
1211
102
{ACAD_REACTORS
330
147E
330
14F6
102
}
330
1F
100
AcDbEntity
  8
R-SWTS-DET1
100
AcDbPolyline
 90
        4
 70
     1
 43
0.0
 10
18.52172200105701
 20
14.02889768063792
 10
20.52172200105701
 20
14.02889768063792
 10
20.52172200105701
 20
19.02889768063792
 10
18.52172200105701
 20
19.02889768063792
  0
LWPOLYLINE
  5
1212
102
{ACAD_REACTORS
330
14AE
330
14C6
102
}
330
1F
100
AcDbEntity
  8
R-SWTS-DET1
100
AcDbPolyline
 90
        4
 70
     1
 43
0.0
 10
33.824861599646
 20
14.02889768063792
 10
36.574861599646
 20
14.02889768063792
 10
36.574861599646
 20
19.52889768063792
 10
33.824861599646
 20
19.52889768063792
  0
LWPOLYLINE
  5
1213
102
{ACAD_REACTORS
330
1526
330
153E
102
}
330
1F
100
AcDbEntity
  8
R-SWTS-DET1
100
AcDbPolyline
 90
        4
 70
     1
 43
0.0
 10
11.94706923584735
 20
5.395734200206902
 10
15.94706923584735
 20
5.395734200206902
 10
15.94706923584735
 20
9.395734200206902
 10
11.94706923584735
 20
9.395734200206902
  0
LWPOLYLINE
  5
1214
102
{ACAD_REACTORS
330
1556
330
156E
102
}
330
1F
100
AcDbEntity
  8
R-SWTS-DET1
100
AcDbPolyline
 90
        4
 70
     1
 43
0.0
 10
20.64678579864619
 20
5.395734200206902
 10
25.14678579864619
 20
5.395734200206902
 10
25.14678579864619
 20
9.895734200206902
 10
20.64678579864619
 20
9.895734200206902
  0
LWPOLYLINE
  5
1215
330
1F
100
AcDbEntity
  8
R-SWTS-DET1
100
AcDbPolyline
 90
        4
 70
     1
 43
0.0
 10
12.07206923584735
 20
32.5279328650187
 10
12.82206923584735
 20
32.5279328650187
 10
12.82206923584735
 20
33.2779328650187
 10
12.07206923584735
 20
33.2779328650187
  0
LWPOLYLINE
  5
1216
330
1F
100
AcDbEntity
  8
R-SWTS-DET1
100
AcDbPolyline
 90
        4
 70
     1
 43
0.0
 10
18.1124048682428
 20
35.2779328650187
 10
18.8624048682428
 20
35.2779328650187
 10
18.8624048682428
 20
32.5279328650187
 10
18.1124048682428
 20
32.5279328650187
  0
LWPOLYLINE
  5
1217
330
1F
100
AcDbEntity
  8
R-SWTS-DET1
100
AcDbPolyline
 90
        4
 70
     1
 43
0.0
 10
24.75677535763586
 20
36.2779328650187
 10
25.50677535763586
 20
36.2779328650187
 10
25.50677535763586
 20
32.5279328650187
 10
24.75677535763586
 20
32.5279328650187
  0
LWPOLYLINE
  5
1218
330
1F
100
AcDbEntity
  8
R-SWTS-DET1
100
AcDbPolyline
 90
        4
 70
     1
 43
0.0
 10
32.66626608203691
 20
36.7779328650187
 10
33.41626608203692
 20
36.7779328650187
 10
33.41626608203692
 20
32.5279328650187
 10
32.66626608203691
 20
32.5279328650187
  0
LWPOLYLINE
  5
1219
330
1F
100
AcDbEntity
  8
R-SWTS-DET1
100
AcDbPolyline
 90
        4
 70
     1
 43
0.0
 10
32.66626608203691
 20
23.7769969944579
 10
34.16626608203691
 20
23.7769969944579
 10
34.16626608203691
 20
29.52699699445791
 10
32.66626608203691
 20
29.52699699445791
  0
LWPOLYLINE
  5
121A
330
1F
100
AcDbEntity
  8
R-SWTS-DET1
100
AcDbPolyline
 90
        4
 70
     1
 43
0.0
 10
18.1124048682428
 20
23.7769969944579
 10
19.6124048682428
 20
23.7769969944579
 10
19.6124048682428
 20
27.5269969944579
 10
18.1124048682428
 20
27.5269969944579
  0
LWPOLYLINE
  5
121C
330
1F
100
AcDbEntity
  8
R-SWTS-DET1
100
AcDbPolyline
 90
        4
 70
     1
 43
0.0
 10
12.07206923584735
 20
14.15389768063792
 10
13.82206923584735
 20
14.15389768063792
 10
13.82206923584735
 20
17.90389768063792
 10
12.07206923584735
 20
17.90389768063792
  0
LWPOLYLINE
  5
121E
330
1F
100
AcDbEntity
  8
R-SWTS-DET1
100
AcDbPolyline
 90
        4
 70
     1
 43
0.0
 10
25.66284278183051
 20
14.15389768063792
 10
27.41284278183051
 20
14.15389768063792
 10
27.41284278183051
 20
19.90389768063792
 10
25.66284278183051
 20
19.90389768063792
  0
LWPOLYLINE
  5
121F
330
1F
100
AcDbEntity
  8
R-SWTS-DET1
100
AcDbPolyline
 90
        4
 70
     1
 43
0.0
 10
33.949861599646
 20
14.15389768063792
 10
36.449861599646
 20
14.15389768063792
 10
36.449861599646
 20
19.40389768063792
 10
33.949861599646
 20
19.40389768063792
  0
LWPOLYLINE
  5
1220
330
1F
100
AcDbEntity
  8
R-SWTS-DET1
100
AcDbPolyline
 90
        4
 70
     1
 43
0.0
 10
12.07206923584735
 20
5.520734200206902
 10
15.82206923584735
 20
5.520734200206902
 10
15.82206923584735
 20
9.270734200206902
 10
12.07206923584735
 20
9.270734200206902
  0
LWPOLYLINE
  5
1221
330
1F
100
AcDbEntity
  8
R-SWTS-DET1
100
AcDbPolyline
 90
        4
 70
     1
 43
0.0
 10
20.77178579864619
 20
5.520734200206902
 10
25.02178579864619
 20
5.520734200206902
 10
25.02178579864619
 20
9.770734200206902
 10
20.77178579864619
 20
9.770734200206902
  0
LWPOLYLINE
  5
1254
102
{ACAD_REACTORS
330
159E
102
}
330
1F
100
AcDbEntity
  8
R-SWTS-DET1
100
AcDbPolyline
 90
       14
 70
     1
 43
0.0
 10
33.05688576549041
 20
5.395734200206902
 10
33.12938576549041
 20
5.520734200206902
 10
32.55688576549041
 20
5.520734200206902
 42
-0.4142135623730951
 10
32.49488576549041
 20
5.582734200206903
 10
32.49488576549041
 20
5.645734200206902
 10
33.12938576549041
 20
5.645734200206902
 42
-0.4142135623730951
 10
33.25438576549041
 20
5.520734200206902
 10
35.36988576549041
 20
5.520734200206902
 10
35.36988576549041
 20
10.7706342002069
 10
32.4160985818086
 20
10.7706342002069
 42
-0.5774931948231864
 10
32.38839263144029
 20
10.81864608061456
 10
32.43288576549041
 20
10.8956342002069
 10
35.49488576549041
 20
10.8956342002069
 10
35.49488576549041
 20
5.395734200206902
  0
LWPOLYLINE
  5
1255
102
{ACAD_REACTORS
330
1586
330
159E
102
}
330
1F
100
AcDbEntity
  8
R-SWTS-DET1
100
AcDbPolyline
 90
       14
 70
     1
 43
0.0
 10
32.43288576549041
 20
10.8956342002069
 10
32.36038576549041
 20
10.7706342002069
 10
32.9328857654904
 20
10.7706342002069
 42
-0.4142135623730951
 10
32.99488576549041
 20
10.7086342002069
 10
32.99488576549041
 20
10.6456342002069
 10
32.36038576549041
 20
10.6456342002069
 42
-0.4142135623730951
 10
32.23538576549041
 20
10.7706342002069
 10
30.11988576549041
 20
10.7706342002069
 10
30.11988576549041
 20
5.520734200206902
 10
33.07367294917222
 20
5.520734200206904
 42
-0.5774931948231864
 10
33.10137889954053
 20
5.472722319799247
 10
33.05688576549041
 20
5.395734200206902
 10
29.99488576549041
 20
5.395734200206902
 10
29.99488576549041
 20
10.8956342002069
  0
DIMENSION
  5
127C
102
{ACAD_XDICTIONARY
360
1289
102
}
102
{ACAD_REACTORS
330
1293
102
}
330
1F
100
AcDbEntity
  8
R-ANNO-DIMS
100
AcDbDimension
  2
*D1
 10
11.94706923584735
 20
34.14447172399922
 30
0.0
 11
12.44706923584735
 21
34.33747172399922
 31
0.0
 70
    32
 71
     5
  3
EXT_ON-ON
100
AcDbAlignedDimension
 13
12.94706923584735
 23
33.4029328650187
 33
0.0
 14
11.94706923584735
 24
33.4029328650187
 34
0.0
100
AcDbRotatedDimension
  0
DIMENSION
  5
1294
102
{ACAD_XDICTIONARY
360
12A1
102
}
102
{ACAD_REACTORS
330
12AB
102
}
330
1F
100
AcDbEntity
  8
R-ANNO-DIMS
100
AcDbDimension
  2
*D2
 10
17.9874048682428
 20
36.14601612965207
 30
0.0
 11
18.4874048682428
 21
36.33901612965207
 31
0.0
 70
    32
 71
     5
  3
EXT_ON-ON
100
AcDbAlignedDimension
 13
18.9874048682428
 23
35.4029328650187
 33
0.0
 14
17.9874048682428
 24
35.4029328650187
 34
0.0
100
AcDbRotatedDimension
  0
DIMENSION
  5
12AC
102
{ACAD_XDICTIONARY
360
12B9
102
}
102
{ACAD_REACTORS
330
12C3
102
}
330
1F
100
AcDbEntity
  8
R-ANNO-DIMS
100
AcDbDimension
  2
*D3
 10
24.63177535763586
 20
37.11898909830396
 30
0.0
 11
25.13177535763586
 21
37.31198909830395
 31
0.0
 70
    32
 71
     5
  3
EXT_ON-ON
100
AcDbAlignedDimension
 13
25.63177535763586
 23
36.4029328650187
 33
0.0
 14
24.63177535763586
 24
36.4029328650187
 34
0.0
100
AcDbRotatedDimension
  0
DIMENSION
  5
12C4
102
{ACAD_XDICTIONARY
360
12D1
102
}
102
{ACAD_REACTORS
330
12DB
102
}
330
1F
100
AcDbEntity
  8
R-ANNO-DIMS
100
AcDbDimension
  2
*D4
 10
32.54126608203691
 20
37.61937522246289
 30
0.0
 11
33.04126608203691
 21
37.81237522246289
 31
0.0
 70
    32
 71
     5
  3
EXT_ON-ON
100
AcDbAlignedDimension
 13
33.54126608203691
 23
36.9029328650187
 33
0.0
 14
32.54126608203691
 24
36.9029328650187
 34
0.0
100
AcDbRotatedDimension
  0
DIMENSION
  5
12DC
102
{ACAD_XDICTIONARY
360
12E9
102
}
102
{ACAD_REACTORS
330
12F3
102
}
330
1F
100
AcDbEntity
  8
R-ANNO-DIMS
100
AcDbDimension
  2
*D5
 10
11.22036535963136
 20
32.4029328650187
 30
0.0
 11
11.02736535963135
 21
32.9029328650187
 31
0.0
 70
    32
 71
     5
  3
EXT_ON-ON
100
AcDbAlignedDimension
 13
11.94706923584735
 23
33.4029328650187
 33
0.0
 14
11.94706923584735
 24
32.4029328650187
 34
0.0
 50
90.0
100
AcDbRotatedDimension
  0
DIMENSION
  5
12F4
102
{ACAD_XDICTIONARY
360
1301
102
}
102
{ACAD_REACTORS
330
130B
102
}
330
1F
100
AcDbEntity
  8
R-ANNO-DIMS
100
AcDbDimension
  2
*D6
 10
17.27337568570459
 20
32.4029328650187
 30
0.0
 11
17.08037568570459
 21
33.90293286501871
 31
0.0
 70
    32
 71
     5
 42
3.0
  3
EXT_ON-ON
100
AcDbAlignedDimension
 13
17.9874048682428
 23
35.4029328650187
 33
0.0
 14
17.9874048682428
 24
32.4029328650187
 34
0.0
 50
90.0
100
AcDbRotatedDimension
  0
DIMENSION
  5
130C
102
{ACAD_XDICTIONARY
360
1319
102
}
102
{ACAD_REACTORS
330
1323
102
}
330
1F
100
AcDbEntity
  8
R-ANNO-DIMS
100
AcDbDimension
  2
*D7
 10
23.9146011639605
 20
32.4029328650187
 30
0.0
 11
23.72160116396049
 21
34.40293286501871
 31
0.0
 70
    32
 71
     5
 42
4.0
  3
EXT_ON-ON
100
AcDbAlignedDimension
 13
24.63177535763586
 23
36.4029328650187
 33
0.0
 14
24.63177535763586
 24
32.4029328650187
 34
0.0
 50
90.0
100
AcDbRotatedDimension
  0
DIMENSION
  5
1324
102
{ACAD_XDICTIONARY
360
1331
102
}
102
{ACAD_REACTORS
330
133B
102
}
330
1F
100
AcDbEntity
  8
R-ANNO-DIMS
100
AcDbDimension
  2
*D8
 10
31.80762316243713
 20
32.4029328650187
 30
0.0
 11
31.61462316243712
 21
34.65293286501871
 31
0.0
 70
    32
 71
     5
 42
4.5
  3
EXT_ON-ON
100
AcDbAlignedDimension
 13
32.54126608203691
 23
36.9029328650187
 33
0.0
 14
32.54126608203691
 24
32.4029328650187
 34
0.0
 50
90.0
100
AcDbRotatedDimension
  0
TEXT
  5
133C
330
1F
100
AcDbEntity
  8
PART_NUMBERS
  6
Continuous
100
AcDbText
 10
17.90469681912957
 20
31.77069063334335
 30
0.0
 40
0.25
  1
027881
 72
     1
 11
18.4874048682428
 21
31.69667971886071
 31
0.0
100
AcDbText
 73
     1
  0
TEXT
  5
133D
330
1F
100
AcDbEntity
  8
PART_NUMBERS
  6
Continuous
100
AcDbText
 10
24.54906730852262
 20
31.77069063334335
 30
0.0
 40
0.25
  1
279006
 72
     1
 11
25.13177535763586
 21
31.69667971886071
 31
0.0
100
AcDbText
 73
     1
  0
TEXT
  5
133E
330
1F
100
AcDbEntity
  8
PART_NUMBERS
  6
Continuous
100
AcDbText
 10
32.45855803292368
 20
31.77069063334335
 30
0.0
 40
0.25
  1
279005
 72
     1
 11
33.04126608203691
 21
31.69667971886071
 31
0.0
100
AcDbText
 73
     1
  0
TEXT
  5
133F
330
1F
100
AcDbEntity
  8
PART_NUMBERS
  6
Continuous
100
AcDbText
 10
12.23936118673411
 20
22.91886051367342
 30
0.0
 40
0.25
  1
060110
 72
     1
 11
12.82206923584735
 21
22.84484959919078
 31
0.0
100
AcDbText
 73
     1
  0
TEXT
  5
1340
330
1F
100
AcDbEntity
  8
PART_NUMBERS
  6
Continuous
100
AcDbText
 10
18.27969681912957
 20
22.91886051367343
 30
0.0
 40
0.25
  1
061200
 72
     1
 11
18.8624048682428
 21
22.84484959919078
 31
0.0
100
AcDbText
 73
     1
  0
TEXT
  5
1341
330
1F
100
AcDbEntity
  8
PART_NUMBERS
  6
Continuous
100
AcDbText
 10
24.92406730852263
 20
22.91886051367342
 30
0.0
 40
0.25
  1
060148
 72
     1
 11
25.50677535763587
 21
22.84484959919078
 31
0.0
100
AcDbText
 73
     1
  0
TEXT
  5
1342
330
1F
100
AcDbEntity
  8
PART_NUMBERS
  6
Continuous
100
AcDbText
 10
32.83355803292368
 20
22.91886051367342
 30
0.0
 40
0.25
  1
061221
 72
     1
 11
33.41626608203692
 21
22.84484959919078
 31
0.0
100
AcDbText
 73
     1
  0
DIMENSION
  5
1343
102
{ACAD_XDICTIONARY
360
1350
102
}
102
{ACAD_REACTORS
330
135A
102
}
330
1F
100
AcDbEntity
  8
R-ANNO-DIMS
100
AcDbDimension
  2
*D9
 10
11.94706923584735
 20
26.13315556907503
 30
0.0
 11
12.82206923584735
 21
26.32615556907503
 31
0.0
 70
    32
 71
     5
 42
1.75
  3
EXT_ON-ON
100
AcDbAlignedDimension
 13
13.69706923584735
 23
25.4019969944579
 33
0.0
 14
11.94706923584735
 24
25.4019969944579
 34
0.0
100
AcDbRotatedDimension
  0
DIMENSION
  5
135B
102
{ACAD_XDICTIONARY
360
1368
102
}
102
{ACAD_REACTORS
330
1372
102
}
330
1F
100
AcDbEntity
  8
R-ANNO-DIMS
100
AcDbDimension
  2
*D10
 10
11.22715132039994
 20
23.6519969944579
 30
0.0
 11
11.03415132039994
 21
24.52699699445791
 31
0.0
 70
    32
 71
     5
 42
1.75
  3
EXT_ON-ON
100
AcDbAlignedDimension
 13
11.94706923584735
 23
25.4019969944579
 33
0.0
 14
11.94706923584735
 24
23.6519969944579
 34
0.0
 50
90.0
100
AcDbRotatedDimension
  0
DIMENSION
  5
1373
102
{ACAD_XDICTIONARY
360
1380
102
}
102
{ACAD_REACTORS
330
138A
102
}
330
1F
100
AcDbEntity
  8
R-ANNO-DIMS
100
AcDbDimension
  2
*D11
 10
17.9874048682428
 20
28.35090464526458
 30
0.0
 11
18.8624048682428
 21
28.54390464526458
 31
0.0
 70
    32
 71
     5
 42
1.75
  3
EXT_ON-ON
100
AcDbAlignedDimension
 13
19.7374048682428
 23
27.65199699445791
 33
0.0
 14
17.9874048682428
 24
27.65199699445791
 34
0.0
100
AcDbRotatedDimension
  0
DIMENSION
  5
138B
102
{ACAD_XDICTIONARY
360
1398
102
}
102
{ACAD_REACTORS
330
13A2
102
}
330
1F
100
AcDbEntity
  8
R-ANNO-DIMS
100
AcDbDimension
  2
*D12
 10
17.28057452177683
 20
23.6519969944579
 30
0.0
 11
17.08757452177682
 21
25.65199699445791
 31
0.0
 70
    32
 71
     5
 42
4.0
  3
EXT_ON-ON
100
AcDbAlignedDimension
 13
17.9874048682428
 23
27.65199699445791
 33
0.0
 14
17.9874048682428
 24
23.6519969944579
 34
0.0
 50
90.0
100
AcDbRotatedDimension
  0
DIMENSION
  5
13A3
102
{ACAD_XDICTIONARY
360
13B0
102
}
102
{ACAD_REACTORS
330
13BA
102
}
330
1F
100
AcDbEntity
  8
R-ANNO-DIMS
100
AcDbDimension
  2
*D13
 10
24.63177535763586
 20
28.84087249933477
 30
0.0
 11
25.50677535763586
 21
29.03387249933477
 31
0.0
 70
    32
 71
     5
 42
1.75
  3
EXT_ON-ON
100
AcDbAlignedDimension
 13
26.38177535763586
 23
28.1519969944579
 33
0.0
 14
24.63177535763586
 24
28.1519969944579
 34
0.0
100
AcDbRotatedDimension
  0
DIMENSION
  5
13BB
102
{ACAD_XDICTIONARY
360
13C8
102
}
102
{ACAD_REACTORS
330
13D2
102
}
330
1F
100
AcDbEntity
  8
R-ANNO-DIMS
100
AcDbDimension
  2
*D14
 10
23.92185154668596
 20
23.65199699445791
 30
0.0
 11
23.72885154668595
 21
25.90199699445791
 31
0.0
 70
    32
 71
     5
 42
4.5
  3
EXT_ON-ON
100
AcDbAlignedDimension
 13
24.63177535763586
 23
28.1519969944579
 33
0.0
 14
24.63177535763586
 24
23.6519969944579
 34
0.0
 50
90.0
100
AcDbRotatedDimension
  0
DIMENSION
  5
13D3
102
{ACAD_XDICTIONARY
360
13E0
102
}
102
{ACAD_REACTORS
330
13EA
102
}
330
1F
100
AcDbEntity
  8
R-ANNO-DIMS
100
AcDbDimension
  2
*D15
 10
32.54126608203691
 20
30.36235153893738
 30
0.0
 11
33.41626608203692
 21
30.55535153893738
 31
0.0
 70
    32
 71
     5
 42
1.75
  3
EXT_ON-ON
100
AcDbAlignedDimension
 13
34.29126608203691
 23
29.6519969944579
 33
0.0
 14
32.54126608203691
 24
29.6519969944579
 34
0.0
100
AcDbRotatedDimension
  0
DIMENSION
  5
13EB
102
{ACAD_XDICTIONARY
360
13F8
102
}
102
{ACAD_REACTORS
330
1402
102
}
330
1F
100
AcDbEntity
  8
R-ANNO-DIMS
100
AcDbDimension
  2
*D16
 10
31.87826404613329
 20
23.6519969944579
 30
0.0
 11
31.68526404613329
 21
26.65199699445791
 31
0.0
 70
    32
 71
     5
 42
6.0
  3
EXT_ON-ON
100
AcDbAlignedDimension
 13
32.54126608203691
 23
29.6519969944579
 33
0.0
 14
32.54126608203691
 24
23.6519969944579
 34
0.0
 50
90.0
100
AcDbRotatedDimension
  0
TEXT
  5
144B
330
1F
100
AcDbEntity
  8
PART_NUMBERS
  6
Continuous
100
AcDbText
 10
34.61715355053277
 20
13.32580616068361
 30
0.0
 40
0.25
  1
279007
 72
     1
 11
35.19986159964601
 21
13.25179524620097
 31
0.0
100
AcDbText
 73
     1
  0
TEXT
  5
144C
330
1F
100
AcDbEntity
  8
PART_NUMBERS
  6
Continuous
100
AcDbText
 10
25.95513473271728
 20
13.32580616068361
 30
0.0
 40
0.25
  1
061222
 72
     1
 11
26.53784278183051
 21
13.25179524620097
 31
0.0
100
AcDbText
 73
     1
  0
TEXT
  5
144D
330
1F
100
AcDbEntity
  8
PART_NUMBERS
  6
Continuous
100
AcDbText
 10
18.93901395194378
 20
13.32580616068361
 30
0.0
 40
0.25
  1
061208
 72
     1
 11
19.52172200105701
 21
13.25179524620097
 31
0.0
100
AcDbText
 73
     1
  0
TEXT
  5
144E
330
1F
100
AcDbEntity
  8
PART_NUMBERS
  6
Continuous
100
AcDbText
 10
12.36436118673412
 20
13.32580616068361
 30
0.0
 40
0.25
  1
279004
 72
     1
 11
12.94706923584735
 21
13.25179524620097
 31
0.0
100
AcDbText
 73
     1
  0
DIMENSION
  5
144F
102
{ACAD_XDICTIONARY
360
145C
102
}
102
{ACAD_REACTORS
330
1466
102
}
330
1F
100
AcDbEntity
  8
R-ANNO-DIMS
100
AcDbDimension
  2
*D17
 10
11.94706923584735
 20
18.77966025851575
 30
0.0
 11
12.94706923584735
 21
18.97266025851575
 31
0.0
 70
    32
 71
     5
 42
2.0
  3
EXT_ON-ON
100
AcDbAlignedDimension
 13
13.94706923584735
 23
18.02889768063792
 33
0.0
 14
11.94706923584735
 24
18.02889768063792
 34
0.0
100
AcDbRotatedDimension
  0
DIMENSION
  5
1467
102
{ACAD_XDICTIONARY
360
1474
102
}
102
{ACAD_REACTORS
330
147E
102
}
330
1F
100
AcDbEntity
  8
R-ANNO-DIMS
100
AcDbDimension
  2
*D18
 10
18.52172200105701
 20
19.7816913535344
 30
0.0
 11
19.52172200105701
 21
19.9746913535344
 31
0.0
 70
    32
 71
     5
 42
2.0
  3
EXT_ON-ON
100
AcDbAlignedDimension
 13
20.52172200105701
 23
19.02889768063792
 33
0.0
 14
18.52172200105701
 24
19.02889768063792
 34
0.0
100
AcDbRotatedDimension
  0
DIMENSION
  5
147F
102
{ACAD_XDICTIONARY
360
148C
102
}
102
{ACAD_REACTORS
330
1496
102
}
330
1F
100
AcDbEntity
  8
R-ANNO-DIMS
100
AcDbDimension
  2
*D19
 10
25.53784278183051
 20
20.76136202120746
 30
0.0
 11
26.53784278183051
 21
20.95436202120746
 31
0.0
 70
    32
 71
     5
 42
2.0
  3
EXT_ON-ON
100
AcDbAlignedDimension
 13
27.53784278183051
 23
20.02889768063793
 33
0.0
 14
25.53784278183051
 24
20.02889768063793
 34
0.0
100
AcDbRotatedDimension
  0
DIMENSION
  5
1497
102
{ACAD_XDICTIONARY
360
14A4
102
}
102
{ACAD_REACTORS
330
14AE
102
}
330
1F
100
AcDbEntity
  8
R-ANNO-DIMS
100
AcDbDimension
  2
*D20
 10
33.824861599646
 20
20.25933092618881
 30
0.0
 11
35.199861599646
 21
20.45233092618881
 31
0.0
 70
    32
 71
     5
 42
2.75
  3
EXT_ON-ON
100
AcDbAlignedDimension
 13
36.574861599646
 23
19.52889768063792
 33
0.0
 14
33.824861599646
 24
19.52889768063792
 34
0.0
100
AcDbRotatedDimension
  0
DIMENSION
  5
14AF
102
{ACAD_XDICTIONARY
360
14BC
102
}
102
{ACAD_REACTORS
330
14C6
102
}
330
1F
100
AcDbEntity
  8
R-ANNO-DIMS
100
AcDbDimension
  2
*D21
 10
33.12952721043882
 20
14.02889768063792
 30
0.0
 11
32.93652721043883
 21
16.77889768063793
 31
0.0
 70
    32
 71
     5
 42
5.5
  3
EXT_ON-ON
100
AcDbAlignedDimension
 13
33.824861599646
 23
19.52889768063792
 33
0.0
 14
33.824861599646
 24
14.02889768063792
 34
0.0
 50
90.0
100
AcDbRotatedDimension
  0
DIMENSION
  5
14C7
102
{ACAD_XDICTIONARY
360
14D4
102
}
102
{ACAD_REACTORS
330
14DE
102
}
330
1F
100
AcDbEntity
  8
R-ANNO-DIMS
100
AcDbDimension
  2
*D22
 10
24.83215485447189
 20
14.02889768063792
 30
0.0
 11
24.63915485447189
 21
17.02889768063793
 31
0.0
 70
    32
 71
     5
 42
6.000000000000001
  3
EXT_ON-ON
100
AcDbAlignedDimension
 13
25.53784278183051
 23
20.02889768063793
 33
0.0
 14
25.53784278183051
 24
14.02889768063792
 34
0.0
 50
90.0
100
AcDbRotatedDimension
  0
DIMENSION
  5
14DF
102
{ACAD_XDICTIONARY
360
14EC
102
}
102
{ACAD_REACTORS
330
14F6
102
}
330
1F
100
AcDbEntity
  8
R-ANNO-DIMS
100
AcDbDimension
  2
*D23
 10
17.80338054993194
 20
14.02889768063792
 30
0.0
 11
17.61038054993194
 21
16.52889768063793
 31
0.0
 70
    32
 71
     5
 42
5.0
  3
EXT_ON-ON
100
AcDbAlignedDimension
 13
18.52172200105701
 23
19.02889768063792
 33
0.0
 14
18.52172200105701
 24
14.02889768063792
 34
0.0
 50
90.0
100
AcDbRotatedDimension
  0
DIMENSION
  5
14F7
102
{ACAD_XDICTIONARY
360
1504
102
}
102
{ACAD_REACTORS
330
150E
102
}
330
1F
100
AcDbEntity
  8
R-ANNO-DIMS
100
AcDbDimension
  2
*D24
 10
11.21268089167708
 20
14.02889768063792
 30
0.0
 11
11.01968089167708
 21
16.02889768063793
 31
0.0
 70
    32
 71
     5
 42
4.000000000000001
  3
EXT_ON-ON
100
AcDbAlignedDimension
 13
11.94706923584735
 23
18.02889768063792
 33
0.0
 14
11.94706923584735
 24
14.02889768063792
 34
0.0
 50
90.0
100
AcDbRotatedDimension
  0
DIMENSION
  5
150F
102
{ACAD_XDICTIONARY
360
151C
102
}
102
{ACAD_REACTORS
330
1526
102
}
330
1F
100
AcDbEntity
  8
R-ANNO-DIMS
100
AcDbDimension
  2
*D25
 10
11.94706923584735
 20
10.11243098870601
 30
0.0
 11
13.94706923584735
 21
10.30543098870601
 31
0.0
 70
    32
 71
     5
 42
4.0
  3
EXT_ON-ON
100
AcDbAlignedDimension
 13
15.94706923584735
 23
9.395734200206902
 33
0.0
 14
11.94706923584735
 24
9.395734200206902
 34
0.0
100
AcDbRotatedDimension
  0
DIMENSION
  5
1527
102
{ACAD_XDICTIONARY
360
1534
102
}
102
{ACAD_REACTORS
330
153E
102
}
330
1F
100
AcDbEntity
  8
R-ANNO-DIMS
100
AcDbDimension
  2
*D26
 10
11.21762841820302
 20
5.395734200206902
 30
0.0
 11
11.02462841820302
 21
7.395734200206903
 31
0.0
 70
    32
 71
     5
 42
3.999999999999999
  3
EXT_ON-ON
100
AcDbAlignedDimension
 13
11.94706923584735
 23
9.395734200206902
 33
0.0
 14
11.94706923584735
 24
5.395734200206902
 34
0.0
 50
90.0
100
AcDbRotatedDimension
  0
DIMENSION
  5
153F
102
{ACAD_XDICTIONARY
360
154C
102
}
102
{ACAD_REACTORS
330
1556
102
}
330
1F
100
AcDbEntity
  8
R-ANNO-DIMS
100
AcDbDimension
  2
*D27
 10
20.64678579864619
 20
10.61446208372466
 30
0.0
 11
22.89678579864619
 21
10.80746208372466
 31
0.0
 70
    32
 71
     5
 42
4.5
  3
EXT_ON-ON
100
AcDbAlignedDimension
 13
25.14678579864619
 23
9.895734200206902
 33
0.0
 14
20.64678579864619
 24
9.895734200206902
 34
0.0
100
AcDbRotatedDimension
  0
DIMENSION
  5
1557
102
{ACAD_XDICTIONARY
360
1564
102
}
102
{ACAD_REACTORS
330
156E
102
}
330
1F
100
AcDbEntity
  8
R-ANNO-DIMS
100
AcDbDimension
  2
*D28
 10
19.92754049893429
 20
5.395734200206902
 30
0.0
 11
19.73454049893429
 21
7.645734200206907
 31
0.0
 70
    32
 71
     5
 42
4.5
  3
EXT_ON-ON
100
AcDbAlignedDimension
 13
20.64678579864619
 23
9.895734200206902
 33
0.0
 14
20.64678579864619
 24
5.395734200206902
 34
0.0
 50
90.0
100
AcDbRotatedDimension
  0
DIMENSION
  5
156F
102
{ACAD_XDICTIONARY
360
157C
102
}
102
{ACAD_REACTORS
330
1586
102
}
330
1F
100
AcDbEntity
  8
R-ANNO-DIMS
100
AcDbDimension
  2
*D29
 10
29.26600123040319
 20
5.395734200206902
 30
0.0
 11
29.07300123040318
 21
8.145684200206908
 31
0.0
 70
    32
 71
     5
 42
5.499900000000001
  3
EXT_ON-ON
100
AcDbAlignedDimension
 13
29.99488576549041
 23
10.8956342002069
 33
0.0
 14
29.99488576549041
 24
5.395734200206902
 34
0.0
 50
90.0
100
AcDbRotatedDimension
  0
DIMENSION
  5
1587
102
{ACAD_XDICTIONARY
360
1594
102
}
102
{ACAD_REACTORS
330
159E
102
}
330
1F
100
AcDbEntity
  8
R-ANNO-DIMS
100
AcDbDimension
  2
*D30
 10
29.99488576549041
 20
11.61852427376196
 30
0.0
 11
32.74488576549041
 21
11.81152427376196
 31
0.0
 70
    32
 71
     5
 42
5.5
  3
EXT_ON-ON
100
AcDbAlignedDimension
 13
35.49488576549041
 23
10.8956342002069
 33
0.0
 14
29.99488576549041
 24
10.8956342002069
 34
0.0
100
AcDbRotatedDimension
  0
TEXT
  5
159F
330
1F
100
AcDbEntity
  8
PART_NUMBERS
  6
Continuous
100
AcDbText
 10
13.36436118673412
 20
4.738431855686171
 30
0.0
 40
0.25
  1
061223
 72
     1
 11
13.94706923584735
 21
4.66442094120353
 31
0.0
100
AcDbText
 73
     1
  0
TEXT
  5
15A0
330
1F
100
AcDbEntity
  8
PART_NUMBERS
  6
Continuous
100
AcDbText
 10
22.31407774953296
 20
4.738431855686172
 30
0.0
 40
0.25
  1
060119
 72
     1
 11
22.89678579864619
 21
4.66442094120353
 31
0.0
100
AcDbText
 73
     1
  0
TEXT
  5
15A1
330
1F
100
AcDbEntity
  8
PART_NUMBERS
  6
Continuous
100
AcDbText
 10
29.99488576549041
 20
4.738431855686173
 30
0.0
 40
0.25
  1
064503
 72
     1
 11
30.57759381460364
 21
4.664420941203531
 31
0.0
100
AcDbText
 73
     1
  0
TEXT
  5
15A2
330
1F
100
AcDbEntity
  8
PART_NUMBERS
  6
Continuous
100
AcDbText
 10
34.32946966726394
 20
4.738431855686172
 30
0.0
 40
0.25
  1
064503
 72
     2
 11
35.49488576549041
 21
4.66442094120353
 31
0.0
100
AcDbText
 73
     1
  0
TEXT
  5
15C7
330
1F
100
AcDbEntity
  8
0
  6
Continuous
100
AcDbText
 10
31.83628191542729
 20
3.919503297030999
 30
0.0
 40
0.375
  1
SPLIT TUBE
100
AcDbText
  0
LWPOLYLINE
  5
15D6
330
1F
100
AcDbEntity
  8
R-SWTS-DET1
100
AcDbPolyline
 90
        4
 70
     1
 43
0.0
 10
12.04106923584735
 20
23.7459969944579
 10
13.60306923584735
 20
23.7459969944579
 10
13.60306923584735
 20
25.3079969944579
 10
12.04106923584735
 20
25.3079969944579
  0
LWPOLYLINE
  5
15D7
330
1F
100
AcDbEntity
  8
R-SWTS-DET1
100
AcDbPolyline
 90
        4
 70
     1
 43
0.0
 10
24.72577535763586
 20
23.7459969944579
 10
26.28777535763586
 20
23.7459969944579
 10
26.28777535763586
 20
28.0579969944579
 10
24.72577535763586
 20
28.0579969944579
  0
LWPOLYLINE
  5
17DB
330
1F
100
AcDbEntity
  8
R-SWTS-DET1
100
AcDbPolyline
 90
        4
 70
     1
 43
0.0
 10
18.64672200105701
 20
14.15389768063792
 10
20.39672200105702
 20
14.15389768063792
 10
20.39672200105702
 20
18.90389768063792
 10
18.64672200105701
 20
18.90389768063792
  0
MTEXT
  5
19B3
102
{ACAD_XDICTIONARY
360
19B4
102
}
330
1F
100
AcDbEntity
  8
TEXT
100
AcDbMText
 10
1.000000056907226
 20
2.000000046985832
 30
0.0
 40
0.375
 41
15.4571868900598
 71
     1
 72
     5
  1
ENGINEERING CHANGE:  97910-094 (MARCH 2017)\PFILE NAME:  KCDM010 SHEET 03 OF 04.DWG
 73
     1
 44
1.0
1001
ACAD
1000
ACAD_MTEXT_COLUMN_INFO_BEGIN
1070
    75
1070
     2
1070
    79
1070
     0
1070
    76
1070
     1
1070
    78
1070
     0
1070
    48
1040
15.4571868900598
1070
    49
1040
1.25
1070
    50
1070
     1
1040
0.0
1000
ACAD_MTEXT_COLUMN_INFO_END
1000
MTEXTBEGIN
1070
    73
1070
     1
1070
    44
1040
1.0
1070
    74
1070
     0
1000
MTEXTEND
  0
INSERT
  5
1F7D
330
1F
100
AcDbEntity
  8
0
100
AcDbBlockReference
  2
Kawneer Logo English
 10
1.000000056907226
 20
2.500000046985832
 30
0.0
 41
5.337
 42
5.337
 43
5.337
  0
ENDSEC
  0
SECTION
  2
OBJECTS
  0
DICTIONARY
  5
C
330
0
100
AcDbDictionary
281
     1
  3
ACAD_CIP_PREVIOUS_PRODUCT_INFO
350
198D
  3
ACAD_COLOR
350
73
  3
ACAD_FIELDLIST
350
19B1
  3
ACAD_GROUP
350
D
  3
ACAD_LAYOUT
350
1A
  3
ACAD_MATERIAL
350
72
  3
ACAD_MLEADERSTYLE
350
17B2
  3
ACAD_MLINESTYLE
350
17
  3
ACAD_PLOTSETTINGS
350
19
  3
ACAD_PLOTSTYLENAME
350
E
  3
ACAD_SCALELIST
350
1790
  3
ACAD_TABLESTYLE
350
178E
  3
ACAD_VISUALSTYLE
350
177D
  3
ACDB_RECOMPOSE_DATA
350
2014
  3
AcDbVariableDictionary
350
66
  3
DWGPROPS
350
2015
  0
DICTIONARY
  5
17EA
330
8
100
AcDbDictionary
280
     1
281
     1
  0
DICTIONARY
  5
182A
330
2
100
AcDbDictionary
280
     1
281
     1
  3
ACAD_LAYERSTATES
360
182B
  0
DICTIONARY
  5
17DE
330
10
100
AcDbDictionary
280
     1
281
     1
  3
ADSK_XREC_LAYER_RECONCILED
360
17DF
  0
DICTIONARY
  5
17E0
330
23F
100
AcDbDictionary
280
     1
281
     1
  3
ADSK_XREC_LAYER_RECONCILED
360
17E1
  0
DICTIONARY
  5
17E2
330
240
100
AcDbDictionary
280
     1
281
     1
  3
ADSK_XREC_LAYER_RECONCILED
360
17E3
  0
DICTIONARY
  5
17E4
330
241
100
AcDbDictionary
280
     1
281
     1
  3
ADSK_XREC_LAYER_RECONCILED
360
17E5
  0
DICTIONARY
  5
19A2
330
19A1
100
AcDbDictionary
280
     1
281
     1
  0
DICTIONARY
  5
17DC
330
1F
100
AcDbDictionary
280
     1
281
     1
  3
ACAD_SORTENTS
360
17DD
  0
DICTIONARY
  5
1F79
330
1F6F
100
AcDbDictionary
280
     1
281
     1
  3
ACAD_SORTENTS
360
1F7A
  0
DICTIONARY
  5
2012
330
1F70
100
AcDbDictionary
280
     1
281
     1
  3
ACAD_MTEXT_2008_RT
360
2013
  0
DICTIONARY
  5
1289
330
127C
100
AcDbDictionary
280
     1
281
     1
  3
ACAD_DIMASSOC
360
1293
  0
DICTIONARY
  5
12A1
330
1294
100
AcDbDictionary
280
     1
281
     1
  3
ACAD_DIMASSOC
360
12AB
  0
DICTIONARY
  5
12B9
330
12AC
100
AcDbDictionary
280
     1
281
     1
  3
ACAD_DIMASSOC
360
12C3
  0
DICTIONARY
  5
12D1
330
12C4
100
AcDbDictionary
280
     1
281
     1
  3
ACAD_DIMASSOC
360
12DB
  0
DICTIONARY
  5
12E9
330
12DC
100
AcDbDictionary
280
     1
281
     1
  3
ACAD_DIMASSOC
360
12F3
  0
DICTIONARY
  5
1301
330
12F4
100
AcDbDictionary
280
     1
281
     1
  3
ACAD_DIMASSOC
360
130B
  0
DICTIONARY
  5
1319
330
130C
100
AcDbDictionary
280
     1
281
     1
  3
ACAD_DIMASSOC
360
1323
  0
DICTIONARY
  5
1331
330
1324
100
AcDbDictionary
280
     1
281
     1
  3
ACAD_DIMASSOC
360
133B
  0
DICTIONARY
  5
1350
330
1343
100
AcDbDictionary
280
     1
281
     1
  3
ACAD_DIMASSOC
360
135A
  0
DICTIONARY
  5
1368
330
135B
100
AcDbDictionary
280
     1
281
     1
  3
ACAD_DIMASSOC
360
1372
  0
DICTIONARY
  5
1380
330
1373
100
AcDbDictionary
280
     1
281
     1
  3
ACAD_DIMASSOC
360
138A
  0
DICTIONARY
  5
1398
330
138B
100
AcDbDictionary
280
     1
281
     1
  3
ACAD_DIMASSOC
360
13A2
  0
DICTIONARY
  5
13B0
330
13A3
100
AcDbDictionary
280
     1
281
     1
  3
ACAD_DIMASSOC
360
13BA
  0
DICTIONARY
  5
13C8
330
13BB
100
AcDbDictionary
280
     1
281
     1
  3
ACAD_DIMASSOC
360
13D2
  0
DICTIONARY
  5
13E0
330
13D3
100
AcDbDictionary
280
     1
281
     1
  3
ACAD_DIMASSOC
360
13EA
  0
DICTIONARY
  5
13F8
330
13EB
100
AcDbDictionary
280
     1
281
     1
  3
ACAD_DIMASSOC
360
1402
  0
DICTIONARY
  5
145C
330
144F
100
AcDbDictionary
280
     1
281
     1
  3
ACAD_DIMASSOC
360
1466
  0
DICTIONARY
  5
1474
330
1467
100
AcDbDictionary
280
     1
281
     1
  3
ACAD_DIMASSOC
360
147E
  0
DICTIONARY
  5
148C
330
147F
100
AcDbDictionary
280
     1
281
     1
  3
ACAD_DIMASSOC
360
1496
  0
DICTIONARY
  5
14A4
330
1497
100
AcDbDictionary
280
     1
281
     1
  3
ACAD_DIMASSOC
360
14AE
  0
DICTIONARY
  5
14BC
330
14AF
100
AcDbDictionary
280
     1
281
     1
  3
ACAD_DIMASSOC
360
14C6
  0
DICTIONARY
  5
14D4
330
14C7
100
AcDbDictionary
280
     1
281
     1
  3
ACAD_DIMASSOC
360
14DE
  0
DICTIONARY
  5
14EC
330
14DF
100
AcDbDictionary
280
     1
281
     1
  3
ACAD_DIMASSOC
360
14F6
  0
DICTIONARY
  5
1504
330
14F7
100
AcDbDictionary
280
     1
281
     1
  3
ACAD_DIMASSOC
360
150E
  0
DICTIONARY
  5
151C
330
150F
100
AcDbDictionary
280
     1
281
     1
  3
ACAD_DIMASSOC
360
1526
  0
DICTIONARY
  5
1534
330
1527
100
AcDbDictionary
280
     1
281
     1
  3
ACAD_DIMASSOC
360
153E
  0
DICTIONARY
  5
154C
330
153F
100
AcDbDictionary
280
     1
281
     1
  3
ACAD_DIMASSOC
360
1556
  0
DICTIONARY
  5
1564
330
1557
100
AcDbDictionary
280
     1
281
     1
  3
ACAD_DIMASSOC
360
156E
  0
DICTIONARY
  5
157C
330
156F
100
AcDbDictionary
280
     1
281
     1
  3
ACAD_DIMASSOC
360
1586
  0
DICTIONARY
  5
1594
330
1587
100
AcDbDictionary
280
     1
281
     1
  3
ACAD_DIMASSOC
360
159E
  0
DICTIONARY
  5
19B4
330
19B3
100
AcDbDictionary
280
     1
281
     1
  0
XRECORD
  5
198D
102
{ACAD_REACTORS
330
C
102
}
330
C
100
AcDbXrecord
280
     1
300
ACD
300
2012
300
85730ACD_2012_0F
  0
DICTIONARY
  5
73
102
{ACAD_REACTORS
330
C
102
}
330
C
100
AcDbDictionary
281
     1
  0
FIELDLIST
  5
19B1
102
{ACAD_REACTORS
330
C
102
}
330
C
100
AcDbIdSet
 90
        0
100
AcDbFieldList
  0
DICTIONARY
  5
D
102
{ACAD_REACTORS
330
C
102
}
330
C
100
AcDbDictionary
281
     1
  0
DICTIONARY
  5
1A
102
{ACAD_REACTORS
330
C
102
}
330
C
100
AcDbDictionary
281
     1
  3
Layout1
350
59
  3
Layout2
350
5E
  3
Model
350
22
  0
DICTIONARY
  5
72
102
{ACAD_REACTORS
330
C
102
}
330
C
100
AcDbDictionary
281
     1
  3
ByBlock
350
176D
  3
ByLayer
350
1765
  3
Global
350
1775
  0
DICTIONARY
  5
17B2
102
{ACAD_REACTORS
330
C
102
}
330
C
100
AcDbDictionary
281
     1
  3
Standard
350
17B3
  0
DICTIONARY
  5
17
102
{ACAD_REACTORS
330
C
102
}
330
C
100
AcDbDictionary
281
     1
  3
Standard
350
18
  0
DICTIONARY
  5
19
102
{ACAD_REACTORS
330
C
102
}
330
C
100
AcDbDictionary
281
     1
  0
ACDBDICTIONARYWDFLT
  5
E
102
{ACAD_REACTORS
330
C
102
}
330
C
100
AcDbDictionary
281
     1
  3
Normal
350
F
100
AcDbDictionaryWithDefault
340
F
  0
DICTIONARY
  5
1790
102
{ACAD_REACTORS
330
C
102
}
330
C
100
AcDbDictionary
281
     1
  3
A0
350
1791
  3
A1
350
1F4E
  3
A2
350
1F4F
  3
A3
350
1F50
  3
A4
350
1F51
  3
A5
350
1F52
  3
A6
350
1F53
  3
A7
350
1F54
  3
A8
350
1F55
  3
A9
350
1F56
  3
B0
350
1F57
  3
B1
350
1F58
  3
B2
350
1F59
  3
B3
350
1F5A
  3
B4
350
1F5B
  3
B5
350
1F5C
  3
B6
350
1F5D
  0
DICTIONARY
  5
178E
102
{ACAD_REACTORS
330
C
102
}
330
C
100
AcDbDictionary
281
     1
  3
Standard
350
178F
  0
DICTIONARY
  5
177D
102
{ACAD_REACTORS
330
C
102
}
330
C
100
AcDbDictionary
281
     1
  3
2dWireframe
350
1783
  3
3D Hidden
350
1785
  3
3dWireframe
350
1784
  3
Basic
350
1782
  3
Brighten
350
1789
  3
ColorChange
350
178D
  3
Conceptual
350
1786
  3
Dim
350
1788
  3
EdgeColorOff
350
180B
  3
Facepattern
350
178C
  3
Flat
350
177E
  3
FlatWithEdges
350
177F
  3
Gouraud
350
1780
  3
GouraudWithEdges
350
1781
  3
Hidden
350
1803
  3
JitterOff
350
1809
  3
Linepattern
350
178B
  3
OverhangOff
350
180A
  3
Realistic
350
1787
  3
Shaded
350
1808
  3
Shaded with edges
350
1807
  3
Shades of Gray
350
1804
  3
Sketchy
350
1805
  3
Thicken
350
178A
  3
Wireframe
350
1802
  3
X-Ray
350
1806
  0
XRECORD
  5
2014
102
{ACAD_REACTORS
330
C
102
}
330
C
100
AcDbXrecord
280
     1
 90
        1
330
178F
330
19B3
330
1F70
  0
DICTIONARY
  5
66
102
{ACAD_REACTORS
330
C
102
}
330
C
100
AcDbDictionary
281
     1
  3
CANNOSCALE
350
17FE
  3
CMLEADERSTYLE
350
17FD
  3
CTABLESTYLE
350
17FC
  3
DIMASSOC
350
67
  3
HIDETEXT
350
6B
  3
INDEXCTL
350
1800
  3
LAYEREVAL
350
1F43
  3
LAYERNOTIFY
350
1F44
  3
LIGHTINGUNITS
350
1F42
  3
MSLTSCALE
350
1F41
  3
PROJECTNAME
350
D3C
  3
SORTENTS
350
17FF
  3
XCLIPFRAME
350
2010
  0
XRECORD
  5
2015
102
{ACAD_REACTORS
330
C
102
}
330
C
100
AcDbXrecord
280
     1
  1
DWGPROPS COOKIE
  2

  3

  4

  6

  7

  8
quadiss
  9

300
=
301
=
302
=
303
=
304
=
305
=
306
=
307
=
308
=
309
=
 40
0.2203611574074074
 41
2453567.419181204
 42
2457807.533037315
  1

 90
        0
  0
DICTIONARY
  5
182B
102
{ACAD_REACTORS
330
182A
102
}
330
182A
100
AcDbDictionary
281
     1
  0
XRECORD
  5
17DF
102
{ACAD_REACTORS
330
17DE
102
}
330
17DE
100
AcDbXrecord
280
     1
290
     1
  0
XRECORD
  5
17E1
102
{ACAD_REACTORS
330
17E0
102
}
330
17E0
100
AcDbXrecord
280
     1
290
     1
  0
XRECORD
  5
17E3
102
{ACAD_REACTORS
330
17E2
102
}
330
17E2
100
AcDbXrecord
280
     1
290
     1
  0
XRECORD
  5
17E5
102
{ACAD_REACTORS
330
17E4
102
}
330
17E4
100
AcDbXrecord
280
     1
290
     1
  0
SORTENTSTABLE
  5
17DD
102
{ACAD_REACTORS
330
17DC
102
}
330
17DC
100
AcDbSortentsTable
330
1F
331
144D
  5
144E
331
120D
  5
120D
331
133C
  5
133D
331
127C
  5
1294
331
1221
  5
1254
331
144E
  5
144F
331
133D
  5
133E
331
5C3
  5
5C3
331
14DF
  5
14F7
331
120E
  5
120E
331
144F
  5
1467
331
133E
  5
133F
331
5C4
  5
5C4
331
120F
  5
120F
331
15A0
  5
15A1
331
133F
  5
1340
331
1497
  5
14AF
331
15A1
  5
15A2
331
1211
  5
1211
331
15A2
  5
15C7
331
15D6
  5
15D7
331
13EB
  5
144B
331
1212
  5
1213
331
14F7
  5
150F
331
15D7
  5
17DB
331
1213
  5
1214
331
1214
  5
1215
331
13A3
  5
13BB
331
14AF
  5
14C7
331
17DB
  5
1212
331
1215
  5
1216
331
1216
  5
1217
331
1203
  5
1203
331
1217
  5
1218
331
1204
  5
1204
331
1205
  5
1205
331
1206
  5
1206
331
130C
  5
1324
331
1467
  5
147F
331
13BB
  5
13D3
331
1587
  5
159F
331
15C7
  5
15D6
331
1324
  5
133C
331
1373
  5
138B
331
147F
  5
1497
331
13D3
  5
13EB
331
153F
  5
1557
331
159F
  5
15A0
331
138B
  5
13A3
331
12DC
  5
12F4
331
1340
  5
1341
331
82A
  5
82A
331
1294
  5
12AC
331
1341
  5
1342
331
1557
  5
156F
331
1342
  5
1343
331
1343
  5
135B
331
12F4
  5
130C
331
7C3
  5
7C3
331
12AC
  5
12C4
331
150F
  5
1527
331
156F
  5
1587
331
1218
  5
1219
331
135B
  5
1373
331
1254
  5
1255
331
14C7
  5
14DF
331
1219
  5
121A
331
1255
  5
127C
331
121A
  5
121C
331
1527
  5
153F
331
1208
  5
1208
331
121C
  5
121E
331
1209
  5
1209
331
120A
  5
120A
331
7F3
  5
7F3
331
121E
  5
121F
331
144B
  5
144C
331
12C4
  5
12DC
331
121F
  5
1220
331
144C
  5
144D
331
1220
  5
1221
  0
SORTENTSTABLE
  5
1F7A
102
{ACAD_REACTORS
330
1F79
102
}
330
1F79
100
AcDbSortentsTable
330
1F6F
  0
XRECORD
  5
2013
102
{ACAD_REACTORS
330
2012
102
}
330
2012
100
AcDbXrecord
280
     1
 40
102645.0
  1
\pxqr;{\fArial TUR|b0|i0|c0|p34;\T1.05;AN ARCONIC COMPANY}
  0
DIMASSOC
  5
1293
102
{ACAD_REACTORS
330
1289
102
}
330
1289
100
AcDbDimAssoc
330
127C
 90
        3
 70
     0
 71
     0
  1
AcDbOsnapPointRef
 72
     1
331
1203
 73
     2
 91
        2
 40
1.0
 10
0.0
 20
0.0
 30
2.000000000000000E+50
 75
     0
  1
AcDbOsnapPointRef
 72
     1
331
1203
 73
     2
 91
        3
 40
1.0
 10
0.0
 20
0.0
 30
2.000000000000000E+50
 75
     0
  0
DIMASSOC
  5
12AB
102
{ACAD_REACTORS
330
12A1
102
}
330
12A1
100
AcDbDimAssoc
330
1294
 90
        3
 70
     0
 71
     0
  1
AcDbOsnapPointRef
 72
     1
331
1204
 73
     2
 91
        1
 40
1.0
 10
0.0
 20
0.0
 30
2.000000000000000E+50
 75
     0
  1
AcDbOsnapPointRef
 72
    13
331
1204
 73
     2
 91
        1
 40
0.0
 10
0.0
 20
0.0
 30
2.000000000000000E+50
 75
     0
  0
DIMASSOC
  5
12C3
102
{ACAD_REACTORS
330
12B9
102
}
330
12B9
100
AcDbDimAssoc
330
12AC
 90
        3
 70
     0
 71
     0
  1
AcDbOsnapPointRef
 72
     1
331
1205
 73
     2
 91
        1
 40
1.0
 10
0.0
 20
0.0
 30
2.000000000000000E+50
 75
     0
  1
AcDbOsnapPointRef
 72
    13
331
1205
 73
     2
 91
        1
 40
0.0
 10
0.0
 20
0.0
 30
2.000000000000000E+50
 75
     0
  0
DIMASSOC
  5
12DB
102
{ACAD_REACTORS
330
12D1
102
}
330
12D1
100
AcDbDimAssoc
330
12C4
 90
        3
 70
     0
 71
     0
  1
AcDbOsnapPointRef
 72
     1
331
1206
 73
     2
 91
        1
 40
1.0
 10
0.0
 20
0.0
 30
2.000000000000000E+50
 75
     0
  1
AcDbOsnapPointRef
 72
    13
331
1206
 73
     2
 91
        1
 40
0.0
 10
0.0
 20
0.0
 30
2.000000000000000E+50
 75
     0
  0
DIMASSOC
  5
12F3
102
{ACAD_REACTORS
330
12E9
102
}
330
12E9
100
AcDbDimAssoc
330
12DC
 90
        3
 70
     0
 71
     0
  1
AcDbOsnapPointRef
 72
     1
331
1203
 73
     2
 91
        3
 40
1.0
 10
0.0
 20
0.0
 30
2.000000000000000E+50
 75
     0
  1
AcDbOsnapPointRef
 72
    13
331
1203
 73
     2
 91
        1
 40
0.0
 10
0.0
 20
0.0
 30
2.000000000000000E+50
 75
     0
  0
DIMASSOC
  5
130B
102
{ACAD_REACTORS
330
1301
102
}
330
1301
100
AcDbDimAssoc
330
12F4
 90
        3
 70
     0
 71
     0
  1
AcDbOsnapPointRef
 72
    13
331
1204
 73
     2
 91
        1
 40
0.0
 10
0.0
 20
0.0
 30
2.000000000000000E+50
 75
     0
  1
AcDbOsnapPointRef
 72
     1
331
1204
 73
     2
 91
        3
 40
1.0
 10
0.0
 20
0.0
 30
2.000000000000000E+50
 75
     0
  0
DIMASSOC
  5
1323
102
{ACAD_REACTORS
330
1319
102
}
330
1319
100
AcDbDimAssoc
330
130C
 90
        3
 70
     0
 71
     0
  1
AcDbOsnapPointRef
 72
     1
331
1205
 73
     2
 91
        4
 40
1.0
 10
0.0
 20
0.0
 30
2.000000000000000E+50
 75
     0
  1
AcDbOsnapPointRef
 72
     1
331
1205
 73
     2
 91
        3
 40
1.0
 10
0.0
 20
0.0
 30
2.000000000000000E+50
 75
     0
  0
DIMASSOC
  5
133B
102
{ACAD_REACTORS
330
1331
102
}
330
1331
100
AcDbDimAssoc
330
1324
 90
        3
 70
     0
 71
     0
  1
AcDbOsnapPointRef
 72
     1
331
1206
 73
     2
 91
        4
 40
1.0
 10
0.0
 20
0.0
 30
2.000000000000000E+50
 75
     0
  1
AcDbOsnapPointRef
 72
     1
331
1206
 73
     2
 91
        3
 40
1.0
 10
0.0
 20
0.0
 30
2.000000000000000E+50
 75
     0
  0
DIMASSOC
  5
135A
102
{ACAD_REACTORS
330
1350
102
}
330
1350
100
AcDbDimAssoc
330
1343
 90
        3
 70
     0
 71
     0
  1
AcDbOsnapPointRef
 72
     1
331
1208
 73
     2
 91
        2
 40
1.0
 10
0.0
 20
0.0
 30
2.000000000000000E+50
 75
     0
  1
AcDbOsnapPointRef
 72
     1
331
1208
 73
     2
 91
        3
 40
1.0
 10
0.0
 20
0.0
 30
2.000000000000000E+50
 75
     0
  0
DIMASSOC
  5
1372
102
{ACAD_REACTORS
330
1368
102
}
330
1368
100
AcDbDimAssoc
330
135B
 90
        3
 70
     0
 71
     0
  1
AcDbOsnapPointRef
 72
     1
331
1208
 73
     2
 91
        3
 40
1.0
 10
0.0
 20
0.0
 30
2.000000000000000E+50
 75
     0
  1
AcDbOsnapPointRef
 72
     1
331
1208
 73
     2
 91
        4
 40
1.0
 10
0.0
 20
0.0
 30
2.000000000000000E+50
 75
     0
  0
DIMASSOC
  5
138A
102
{ACAD_REACTORS
330
1380
102
}
330
1380
100
AcDbDimAssoc
330
1373
 90
        3
 70
     0
 71
     0
  1
AcDbOsnapPointRef
 72
     1
331
1209
 73
     2
 91
        2
 40
1.0
 10
0.0
 20
0.0
 30
2.000000000000000E+50
 75
     0
  1
AcDbOsnapPointRef
 72
     1
331
1209
 73
     2
 91
        3
 40
1.0
 10
0.0
 20
0.0
 30
2.000000000000000E+50
 75
     0
  0
DIMASSOC
  5
13A2
102
{ACAD_REACTORS
330
1398
102
}
330
1398
100
AcDbDimAssoc
330
138B
 90
        3
 70
     0
 71
     0
  1
AcDbOsnapPointRef
 72
     1
331
1209
 73
     2
 91
        3
 40
1.0
 10
0.0
 20
0.0
 30
2.000000000000000E+50
 75
     0
  1
AcDbOsnapPointRef
 72
    13
331
1209
 73
     2
 91
        1
 40
0.0
 10
0.0
 20
0.0
 30
2.000000000000000E+50
 75
     0
  0
DIMASSOC
  5
13BA
102
{ACAD_REACTORS
330
13B0
102
}
330
13B0
100
AcDbDimAssoc
330
13A3
 90
        3
 70
     0
 71
     0
  1
AcDbOsnapPointRef
 72
     1
331
120D
 73
     2
 91
        2
 40
1.0
 10
0.0
 20
0.0
 30
2.000000000000000E+50
 75
     0
  1
AcDbOsnapPointRef
 72
     1
331
120D
 73
     2
 91
        3
 40
1.0
 10
0.0
 20
0.0
 30
2.000000000000000E+50
 75
     0
  0
DIMASSOC
  5
13D2
102
{ACAD_REACTORS
330
13C8
102
}
330
13C8
100
AcDbDimAssoc
330
13BB
 90
        3
 70
     0
 71
     0
  1
AcDbOsnapPointRef
 72
     1
331
120D
 73
     2
 91
        3
 40
1.0
 10
0.0
 20
0.0
 30
2.000000000000000E+50
 75
     0
  1
AcDbOsnapPointRef
 72
    13
331
120D
 73
     2
 91
        1
 40
0.0
 10
0.0
 20
0.0
 30
2.000000000000000E+50
 75
     0
  0
DIMASSOC
  5
13EA
102
{ACAD_REACTORS
330
13E0
102
}
330
13E0
100
AcDbDimAssoc
330
13D3
 90
        3
 70
     0
 71
     0
  1
AcDbOsnapPointRef
 72
     1
331
120A
 73
     2
 91
        2
 40
1.0
 10
0.0
 20
0.0
 30
2.000000000000000E+50
 75
     0
  1
AcDbOsnapPointRef
 72
     1
331
120A
 73
     2
 91
        3
 40
1.0
 10
0.0
 20
0.0
 30
2.000000000000000E+50
 75
     0
  0
DIMASSOC
  5
1402
102
{ACAD_REACTORS
330
13F8
102
}
330
13F8
100
AcDbDimAssoc
330
13EB
 90
        3
 70
     0
 71
     0
  1
AcDbOsnapPointRef
 72
     1
331
120A
 73
     2
 91
        3
 40
1.0
 10
0.0
 20
0.0
 30
2.000000000000000E+50
 75
     0
  1
AcDbOsnapPointRef
 72
    13
331
120A
 73
     2
 91
        1
 40
0.0
 10
0.0
 20
0.0
 30
2.000000000000000E+50
 75
     0
  0
DIMASSOC
  5
1466
102
{ACAD_REACTORS
330
145C
102
}
330
145C
100
AcDbDimAssoc
330
144F
 90
        3
 70
     0
 71
     0
  1
AcDbOsnapPointRef
 72
     1
331
120E
 73
     2
 91
        2
 40
1.0
 10
0.0
 20
0.0
 30
2.000000000000000E+50
 75
     0
  1
AcDbOsnapPointRef
 72
     1
331
120E
 73
     2
 91
        3
 40
1.0
 10
0.0
 20
0.0
 30
2.000000000000000E+50
 75
     0
  0
DIMASSOC
  5
147E
102
{ACAD_REACTORS
330
1474
102
}
330
1474
100
AcDbDimAssoc
330
1467
 90
        3
 70
     0
 71
     0
  1
AcDbOsnapPointRef
 72
     1
331
1211
 73
     2
 91
        2
 40
1.0
 10
0.0
 20
0.0
 30
2.000000000000000E+50
 75
     0
  1
AcDbOsnapPointRef
 72
     1
331
1211
 73
     2
 91
        3
 40
1.0
 10
0.0
 20
0.0
 30
2.000000000000000E+50
 75
     0
  0
DIMASSOC
  5
1496
102
{ACAD_REACTORS
330
148C
102
}
330
148C
100
AcDbDimAssoc
330
147F
 90
        3
 70
     0
 71
     0
  1
AcDbOsnapPointRef
 72
     1
331
120F
 73
     2
 91
        2
 40
1.0
 10
0.0
 20
0.0
 30
2.000000000000000E+50
 75
     0
  1
AcDbOsnapPointRef
 72
     1
331
120F
 73
     2
 91
        3
 40
1.0
 10
0.0
 20
0.0
 30
2.000000000000000E+50
 75
     0
  0
DIMASSOC
  5
14AE
102
{ACAD_REACTORS
330
14A4
102
}
330
14A4
100
AcDbDimAssoc
330
1497
 90
        3
 70
     0
 71
     0
  1
AcDbOsnapPointRef
 72
     1
331
1212
 73
     2
 91
        2
 40
1.0
 10
0.0
 20
0.0
 30
2.000000000000000E+50
 75
     0
  1
AcDbOsnapPointRef
 72
     1
331
1212
 73
     2
 91
        3
 40
1.0
 10
0.0
 20
0.0
 30
2.000000000000000E+50
 75
     0
  0
DIMASSOC
  5
14C6
102
{ACAD_REACTORS
330
14BC
102
}
330
14BC
100
AcDbDimAssoc
330
14AF
 90
        3
 70
     0
 71
     0
  1
AcDbOsnapPointRef
 72
     1
331
1212
 73
     2
 91
        3
 40
1.0
 10
0.0
 20
0.0
 30
2.000000000000000E+50
 75
     0
  1
AcDbOsnapPointRef
 72
     1
331
1212
 73
     2
 91
        4
 40
1.0
 10
0.0
 20
0.0
 30
2.000000000000000E+50
 75
     0
  0
DIMASSOC
  5
14DE
102
{ACAD_REACTORS
330
14D4
102
}
330
14D4
100
AcDbDimAssoc
330
14C7
 90
        3
 70
     0
 71
     0
  1
AcDbOsnapPointRef
 72
     1
331
120F
 73
     2
 91
        3
 40
1.0
 10
0.0
 20
0.0
 30
2.000000000000000E+50
 75
     0
  1
AcDbOsnapPointRef
 72
    13
331
120F
 73
     2
 91
        1
 40
0.0
 10
0.0
 20
0.0
 30
2.000000000000000E+50
 75
     0
  0
DIMASSOC
  5
14F6
102
{ACAD_REACTORS
330
14EC
102
}
330
14EC
100
AcDbDimAssoc
330
14DF
 90
        3
 70
     0
 71
     0
  1
AcDbOsnapPointRef
 72
     1
331
1211
 73
     2
 91
        3
 40
1.0
 10
0.0
 20
0.0
 30
2.000000000000000E+50
 75
     0
  1
AcDbOsnapPointRef
 72
    13
331
1211
 73
     2
 91
        1
 40
0.0
 10
0.0
 20
0.0
 30
2.000000000000000E+50
 75
     0
  0
DIMASSOC
  5
150E
102
{ACAD_REACTORS
330
1504
102
}
330
1504
100
AcDbDimAssoc
330
14F7
 90
        3
 70
     0
 71
     0
  1
AcDbOsnapPointRef
 72
     1
331
120E
 73
     2
 91
        3
 40
1.0
 10
0.0
 20
0.0
 30
2.000000000000000E+50
 75
     0
  1
AcDbOsnapPointRef
 72
    13
331
120E
 73
     2
 91
        1
 40
0.0
 10
0.0
 20
0.0
 30
2.000000000000000E+50
 75
     0
  0
DIMASSOC
  5
1526
102
{ACAD_REACTORS
330
151C
102
}
330
151C
100
AcDbDimAssoc
330
150F
 90
        3
 70
     0
 71
     0
  1
AcDbOsnapPointRef
 72
     1
331
1213
 73
     2
 91
        2
 40
1.0
 10
0.0
 20
0.0
 30
2.000000000000000E+50
 75
     0
  1
AcDbOsnapPointRef
 72
     1
331
1213
 73
     2
 91
        3
 40
1.0
 10
0.0
 20
0.0
 30
2.000000000000000E+50
 75
     0
  0
DIMASSOC
  5
153E
102
{ACAD_REACTORS
330
1534
102
}
330
1534
100
AcDbDimAssoc
330
1527
 90
        3
 70
     0
 71
     0
  1
AcDbOsnapPointRef
 72
     1
331
1213
 73
     2
 91
        3
 40
1.0
 10
0.0
 20
0.0
 30
2.000000000000000E+50
 75
     0
  1
AcDbOsnapPointRef
 72
    13
331
1213
 73
     2
 91
        1
 40
0.0
 10
0.0
 20
0.0
 30
2.000000000000000E+50
 75
     0
  0
DIMASSOC
  5
1556
102
{ACAD_REACTORS
330
154C
102
}
330
154C
100
AcDbDimAssoc
330
153F
 90
        3
 70
     0
 71
     0
  1
AcDbOsnapPointRef
 72
     1
331
1214
 73
     2
 91
        2
 40
1.0
 10
0.0
 20
0.0
 30
2.000000000000000E+50
 75
     0
  1
AcDbOsnapPointRef
 72
     1
331
1214
 73
     2
 91
        3
 40
1.0
 10
0.0
 20
0.0
 30
2.000000000000000E+50
 75
     0
  0
DIMASSOC
  5
156E
102
{ACAD_REACTORS
330
1564
102
}
330
1564
100
AcDbDimAssoc
330
1557
 90
        3
 70
     0
 71
     0
  1
AcDbOsnapPointRef
 72
     1
331
1214
 73
     2
 91
        3
 40
1.0
 10
0.0
 20
0.0
 30
2.000000000000000E+50
 75
     0
  1
AcDbOsnapPointRef
 72
    13
331
1214
 73
     2
 91
        1
 40
0.0
 10
0.0
 20
0.0
 30
2.000000000000000E+50
 75
     0
  0
DIMASSOC
  5
1586
102
{ACAD_REACTORS
330
157C
102
}
330
157C
100
AcDbDimAssoc
330
156F
 90
        3
 70
     0
 71
     0
  1
AcDbOsnapPointRef
 72
     1
331
1255
 73
     2
 91
       13
 40
1.0
 10
0.0
 20
0.0
 30
2.000000000000000E+50
 75
     0
  1
AcDbOsnapPointRef
 72
     1
331
1255
 73
     2
 91
       12
 40
0.9999999999999998
 10
0.0
 20
0.0
 30
2.000000000000000E+50
 75
     0
  0
DIMASSOC
  5
159E
102
{ACAD_REACTORS
330
1594
102
}
330
1594
100
AcDbDimAssoc
330
1587
 90
        3
 70
     0
 71
     0
  1
AcDbOsnapPointRef
 72
     1
331
1254
 73
     2
 91
       12
 40
0.9999999999999998
 10
0.0
 20
0.0
 30
2.000000000000000E+50
 75
     0
  1
AcDbOsnapPointRef
 72
    13
331
1255
 73
     2
 91
       14
 40
0.0
 10
0.0
 20
0.0
 30
2.000000000000000E+50
 75
     0
  0
LAYOUT
  5
59
102
{ACAD_XDICTIONARY
360
2018
102
}
102
{ACAD_REACTORS
330
1A
102
}
330
1A
100
AcDbPlotSettings
  1

  2
None
  4

  6

 40
0.0
 41
0.0
 42
0.0
 43
0.0
 44
0.0
 45
0.0
 46
0.0
 47
0.0
 48
0.0
 49
0.0
140
0.0
141
0.0
142
1.0
143
1.0
 70
   688
 72
     0
 73
     0
 74
     5
  7

 75
    16
147
1.0
148
0.0
149
0.0
100
AcDbLayout
  1
Layout1
 70
     1
 71
     1
 10
0.0
 20
0.0
 11
12.0
 21
9.0
 12
0.0
 22
0.0
 32
0.0
 14
0.0
 24
0.0
 34
0.0
 15
0.0
 25
0.0
 35
0.0
146
0.0
 13
0.0
 23
0.0
 33
0.0
 16
1.0
 26
0.0
 36
0.0
 17
0.0
 27
1.0
 37
0.0
 76
     0
330
58
  0
LAYOUT
  5
5E
102
{ACAD_XDICTIONARY
360
201A
102
}
102
{ACAD_REACTORS
330
1A
102
}
330
1A
100
AcDbPlotSettings
  1

  2
None
  4

  6

 40
0.0
 41
0.0
 42
0.0
 43
0.0
 44
0.0
 45
0.0
 46
0.0
 47
0.0
 48
0.0
 49
0.0
140
0.0
141
0.0
142
1.0
143
1.0
 70
   688
 72
     0
 73
     0
 74
     5
  7

 75
    16
147
1.0
148
0.0
149
0.0
100
AcDbLayout
  1
Layout2
 70
     1
 71
     2
 10
0.0
 20
0.0
 11
12.0
 21
9.0
 12
0.0
 22
0.0
 32
0.0
 14
0.0
 24
0.0
 34
0.0
 15
0.0
 25
0.0
 35
0.0
146
0.0
 13
0.0
 23
0.0
 33
0.0
 16
1.0
 26
0.0
 36
0.0
 17
0.0
 27
1.0
 37
0.0
 76
     0
330
5D
  0
LAYOUT
  5
22
102
{ACAD_XDICTIONARY
360
2016
102
}
102
{ACAD_REACTORS
330
1A
102
}
330
1A
100
AcDbPlotSettings
  1

  2
none_device
  4
ANSI_A_(8.50_x_11.00_Inches)
  6

 40
6.349999904632568
 41
19.04999923706055
 42
6.350006103515625
 43
19.04998779296875
 44
215.8999938964844
 45
279.3999938964844
 46
0.0
 47
0.0
 48
0.0
 49
0.0
140
0.0
141
0.0
142
1.0
143
2.584895464708373
 70
 11952
 72
     0
 73
     1
 74
     0
  7

 75
     0
147
0.3868628397755418
148
0.0
149
0.0
100
AcDbLayout
  1
Model
 70
     1
 71
     0
 10
0.0
 20
0.0
 11
12.0
 21
9.0
 12
0.0
 22
0.0
 32
0.0
 14
0.0
 24
0.0
 34
0.0
 15
0.0
 25
0.0
 35
0.0
146
0.0
 13
0.0
 23
0.0
 33
0.0
 16
1.0
 26
0.0
 36
0.0
 17
0.0
 27
1.0
 37
0.0
 76
     0
330
1F
331
175A
  0
MATERIAL
  5
176D
102
{ACAD_XDICTIONARY
360
176E
102
}
102
{ACAD_REACTORS
330
72
102
}
330
72
100
AcDbMaterial
  1
ByBlock
 72
     0
 43
0.0208333333333333
 43
0.0
 43
0.0
 43
0.0
 43
0.0
 43
0.0208333333333333
 43
0.0
 43
0.0
 43
0.0
 43
0.0
 43
1.0
 43
0.0
 43
0.0
 43
0.0
 43
0.0
 43
1.0
 77
     0
 47
0.0208333333333333
 47
0.0
 47
0.0
 47
0.0
 47
0.0
 47
0.0208333333333333
 47
0.0
 47
0.0
 47
0.0
 47
0.0
 47
1.0
 47
0.0
 47
0.0
 47
0.0
 47
0.0
 47
1.0
171
     0
 49
0.0208333333333333
 49
0.0
 49
0.0
 49
0.0
 49
0.0
 49
0.0208333333333333
 49
0.0
 49
0.0
 49
0.0
 49
0.0
 49
1.0
 49
0.0
 49
0.0
 49
0.0
 49
0.0
 49
1.0
175
     0
142
0.0208333333333333
142
0.0
142
0.0
142
0.0
142
0.0
142
0.0208333333333333
142
0.0
142
0.0
142
0.0
142
0.0
142
1.0
142
0.0
142
0.0
142
0.0
142
0.0
142
1.0
179
     0
144
0.0208333333333333
144
0.0
144
0.0
144
0.0
144
0.0
144
0.0208333333333333
144
0.0
144
0.0
144
0.0
144
0.0
144
1.0
144
0.0
144
0.0
144
0.0
144
0.0
144
1.0
147
0.0208333333333333
147
0.0
147
0.0
147
0.0
147
0.0
147
0.0208333333333333
147
0.0
147
0.0
147
0.0
147
0.0
147
1.0
147
0.0
147
0.0
147
0.0
147
0.0
147
1.0
  0
MATERIAL
  5
1765
102
{ACAD_XDICTIONARY
360
1766
102
}
102
{ACAD_REACTORS
330
72
102
}
330
72
100
AcDbMaterial
  1
ByLayer
 72
     0
 43
0.0208333333333333
 43
0.0
 43
0.0
 43
0.0
 43
0.0
 43
0.0208333333333333
 43
0.0
 43
0.0
 43
0.0
 43
0.0
 43
1.0
 43
0.0
 43
0.0
 43
0.0
 43
0.0
 43
1.0
 77
     0
 47
0.0208333333333333
 47
0.0
 47
0.0
 47
0.0
 47
0.0
 47
0.0208333333333333
 47
0.0
 47
0.0
 47
0.0
 47
0.0
 47
1.0
 47
0.0
 47
0.0
 47
0.0
 47
0.0
 47
1.0
171
     0
 49
0.0208333333333333
 49
0.0
 49
0.0
 49
0.0
 49
0.0
 49
0.0208333333333333
 49
0.0
 49
0.0
 49
0.0
 49
0.0
 49
1.0
 49
0.0
 49
0.0
 49
0.0
 49
0.0
 49
1.0
175
     0
142
0.0208333333333333
142
0.0
142
0.0
142
0.0
142
0.0
142
0.0208333333333333
142
0.0
142
0.0
142
0.0
142
0.0
142
1.0
142
0.0
142
0.0
142
0.0
142
0.0
142
1.0
179
     0
144
0.0208333333333333
144
0.0
144
0.0
144
0.0
144
0.0
144
0.0208333333333333
144
0.0
144
0.0
144
0.0
144
0.0
144
1.0
144
0.0
144
0.0
144
0.0
144
0.0
144
1.0
147
0.0208333333333333
147
0.0
147
0.0
147
0.0
147
0.0
147
0.0208333333333333
147
0.0
147
0.0
147
0.0
147
0.0
147
1.0
147
0.0
147
0.0
147
0.0
147
0.0
147
1.0
  0
MATERIAL
  5
1775
102
{ACAD_XDICTIONARY
360
1776
102
}
102
{ACAD_REACTORS
330
72
102
}
330
72
100
AcDbMaterial
  1
Global
 72
     0
 43
0.0208333333333333
 43
0.0
 43
0.0
 43
0.0
 43
0.0
 43
0.0208333333333333
 43
0.0
 43
0.0
 43
0.0
 43
0.0
 43
1.0
 43
0.0
 43
0.0
 43
0.0
 43
0.0
 43
1.0
 77
     0
 47
0.0208333333333333
 47
0.0
 47
0.0
 47
0.0
 47
0.0
 47
0.0208333333333333
 47
0.0
 47
0.0
 47
0.0
 47
0.0
 47
1.0
 47
0.0
 47
0.0
 47
0.0
 47
0.0
 47
1.0
171
     0
 49
0.0208333333333333
 49
0.0
 49
0.0
 49
0.0
 49
0.0
 49
0.0208333333333333
 49
0.0
 49
0.0
 49
0.0
 49
0.0
 49
1.0
 49
0.0
 49
0.0
 49
0.0
 49
0.0
 49
1.0
175
     0
142
0.0208333333333333
142
0.0
142
0.0
142
0.0
142
0.0
142
0.0208333333333333
142
0.0
142
0.0
142
0.0
142
0.0
142
1.0
142
0.0
142
0.0
142
0.0
142
0.0
142
1.0
179
     0
144
0.0208333333333333
144
0.0
144
0.0
144
0.0
144
0.0
144
0.0208333333333333
144
0.0
144
0.0
144
0.0
144
0.0
144
1.0
144
0.0
144
0.0
144
0.0
144
0.0
144
1.0
147
0.0208333333333333
147
0.0
147
0.0
147
0.0
147
0.0
147
0.0208333333333333
147
0.0
147
0.0
147
0.0
147
0.0
147
1.0
147
0.0
147
0.0
147
0.0
147
0.0
147
1.0
  0
MLEADERSTYLE
  5
17B3
102
{ACAD_REACTORS
330
17B2
102
}
330
17B2
100
AcDbMLeaderStyle
170
     2
171
     1
172
     0
 90
        2
 40
0.0
 41
0.0
173
     1
 91
-1056964608
340
14
 92
       -2
290
     1
 42
0.09
291
     1
 43
0.36
  3
Standard
 44
0.18
300

342
11
174
     1
178
     6
175
     1
176
     0
 93
-1056964608
 45
0.18
292
     0
297
     0
 46
0.18
 94
-1056964608
 47
1.0
 49
1.0
140
1.0
293
     1
141
0.0
294
     1
177
     0
142
1.0
295
     0
296
     0
143
0.125
1001
ACAD_MLEADERVER
1070
     2
  0
MLINESTYLE
  5
18
102
{ACAD_REACTORS
330
17
102
}
330
17
100
AcDbMlineStyle
  2
STANDARD
 70
     0
  3

 62
   256
 51
90.0
 52
90.0
 71
     2
 49
0.5
 62
   256
  6
BYLAYER
 49
-0.5
 62
   256
  6
BYLAYER
  0
ACDBPLACEHOLDER
  5
F
102
{ACAD_REACTORS
330
E
102
}
330
E
  0
SCALE
  5
1791
102
{ACAD_REACTORS
330
1790
102
}
330
1790
100
AcDbScale
 70
     0
300
1:1
140
1.0
141
1.0
290
     1
  0
SCALE
  5
1F4E
102
{ACAD_REACTORS
330
1790
102
}
330
1790
100
AcDbScale
 70
     0
300
1/128" = 1'-0"
140
0.0078125
141
12.0
290
     0
  0
SCALE
  5
1F4F
102
{ACAD_REACTORS
330
1790
102
}
330
1790
100
AcDbScale
 70
     0
300
1/64" = 1'-0"
140
0.015625
141
12.0
290
     0
  0
SCALE
  5
1F50
102
{ACAD_REACTORS
330
1790
102
}
330
1790
100
AcDbScale
 70
     0
300
1/32" = 1'-0"
140
0.03125
141
12.0
290
     0
  0
SCALE
  5
1F51
102
{ACAD_REACTORS
330
1790
102
}
330
1790
100
AcDbScale
 70
     0
300
1/16" = 1'-0"
140
0.0625
141
12.0
290
     0
  0
SCALE
  5
1F52
102
{ACAD_REACTORS
330
1790
102
}
330
1790
100
AcDbScale
 70
     0
300
3/32" = 1'-0"
140
0.09375
141
12.0
290
     0
  0
SCALE
  5
1F53
102
{ACAD_REACTORS
330
1790
102
}
330
1790
100
AcDbScale
 70
     0
300
1/8" = 1'-0"
140
0.125
141
12.0
290
     0
  0
SCALE
  5
1F54
102
{ACAD_REACTORS
330
1790
102
}
330
1790
100
AcDbScale
 70
     0
300
3/16" = 1'-0"
140
0.1875
141
12.0
290
     0
  0
SCALE
  5
1F55
102
{ACAD_REACTORS
330
1790
102
}
330
1790
100
AcDbScale
 70
     0
300
1/4" = 1'-0"
140
0.25
141
12.0
290
     0
  0
SCALE
  5
1F56
102
{ACAD_REACTORS
330
1790
102
}
330
1790
100
AcDbScale
 70
     0
300
3/8" = 1'-0"
140
0.375
141
12.0
290
     0
  0
SCALE
  5
1F57
102
{ACAD_REACTORS
330
1790
102
}
330
1790
100
AcDbScale
 70
     0
300
1/2" = 1'-0"
140
0.5
141
12.0
290
     0
  0
SCALE
  5
1F58
102
{ACAD_REACTORS
330
1790
102
}
330
1790
100
AcDbScale
 70
     0
300
3/4" = 1'-0"
140
0.75
141
12.0
290
     0
  0
SCALE
  5
1F59
102
{ACAD_REACTORS
330
1790
102
}
330
1790
100
AcDbScale
 70
     0
300
1" = 1'-0"
140
1.0
141
12.0
290
     0
  0
SCALE
  5
1F5A
102
{ACAD_REACTORS
330
1790
102
}
330
1790
100
AcDbScale
 70
     0
300
1-1/2" = 1'-0"
140
1.5
141
12.0
290
     0
  0
SCALE
  5
1F5B
102
{ACAD_REACTORS
330
1790
102
}
330
1790
100
AcDbScale
 70
     0
300
3" = 1'-0"
140
3.0
141
12.0
290
     0
  0
SCALE
  5
1F5C
102
{ACAD_REACTORS
330
1790
102
}
330
1790
100
AcDbScale
 70
     0
300
6" = 1'-0"
140
6.0
141
12.0
290
     0
  0
SCALE
  5
1F5D
102
{ACAD_REACTORS
330
1790
102
}
330
1790
100
AcDbScale
 70
     0
300
1'-0" = 1'-0"
140
12.0
141
12.0
290
     0
  0
TABLESTYLE
  5
178F
102
{ACAD_XDICTIONARY
360
17E6
102
}
102
{ACAD_REACTORS
330
178E
102
}
330
178E
100
AcDbTableStyle
  3
Standard
 70
     0
 71
     0
 40
0.06
 41
0.06
280
     0
281
     0
  7
Standard
140
0.18
170
     2
 62
     0
 63
     7
283
     0
274
    -2
284
     1
 64
     0
275
    -2
285
     1
 65
     0
276
    -2
286
     1
 66
     0
277
    -2
287
     1
 67
     0
278
    -2
288
     1
 68
     0
279
    -2
289
     1
 69
     0
  7
Standard
140
0.25
170
     5
 62
     0
 63
     7
283
     0
274
    -2
284
     1
 64
     0
275
    -2
285
     1
 65
     0
276
    -2
286
     1
 66
     0
277
    -2
287
     1
 67
     0
278
    -2
288
     1
 68
     0
279
    -2
289
     1
 69
     0
  7
Standard
140
0.18
170
     5
 62
     0
 63
     7
283
     0
274
    -2
284
     1
 64
     0
275
    -2
285
     1
 65
     0
276
    -2
286
     1
 66
     0
277
    -2
287
     1
 67
     0
278
    -2
288
     1
 68
     0
279
    -2
289
     1
 69
     0
  0
VISUALSTYLE
  5
1783
102
{ACAD_XDICTIONARY
360
2029
102
}
102
{ACAD_REACTORS
330
177D
102
}
330
177D
100
AcDbVisualStyle
  2
2dWireframe
 70
     4
 71
     0
 72
     2
 73
     0
 90
        0
 40
-0.6
 41
-30.0
 62
     5
 63
     7
 74
     1
 91
        4
 64
     7
 65
   257
 75
     1
175
     1
 42
1.0
 92
        0
 66
   257
 43
1.0
 76
     1
 77
     6
 78
     2
 67
     7
 79
     5
170
     0
171
     0
290
     0
174
     0
 93
        1
 44
0.0
173
     0
291
     0
 45
0.0
1001
ACAD
1000
AcDbSavedByObjectVersion
1070
     0
  0
VISUALSTYLE
  5
1785
102
{ACAD_XDICTIONARY
360
202D
102
}
102
{ACAD_REACTORS
330
177D
102
}
330
177D
100
AcDbVisualStyle
  2
3D Hidden
 70
     6
 71
     1
 72
     2
 73
     2
 90
        0
 40
-0.6
 41
-30.0
 62
     5
 63
     7
 74
     2
 91
        2
 64
     7
 65
   257
 75
     2
175
     1
 42
40.0
 92
        0
 66
   257
 43
1.0
 76
     1
 77
     6
 78
     2
 67
     7
 79
     3
170
     0
171
     0
290
     0
174
     0
 93
        1
 44
0.0
173
     0
291
     0
 45
0.0
1001
ACAD
1000
AcDbSavedByObjectVersion
1070
     0
  0
VISUALSTYLE
  5
1784
102
{ACAD_XDICTIONARY
360
202B
102
}
102
{ACAD_REACTORS
330
177D
102
}
330
177D
100
AcDbVisualStyle
  2
3dWireframe
 70
     5
 71
     0
 72
     2
 73
     0
 90
        0
 40
-0.6
 41
-30.0
 62
     5
 63
     7
 74
     1
 91
        4
 64
     7
 65
   257
 75
     1
175
     1
 42
1.0
 92
        0
 66
   257
 43
1.0
 76
     1
 77
     6
 78
     2
 67
     7
 79
     5
170
     0
171
     0
290
     0
174
     0
 93
        1
 44
0.0
173
     0
291
     0
 45
0.0
1001
ACAD
1000
AcDbSavedByObjectVersion
1070
     0
  0
VISUALSTYLE
  5
1782
102
{ACAD_XDICTIONARY
360
2027
102
}
102
{ACAD_REACTORS
330
177D
102
}
330
177D
100
AcDbVisualStyle
  2
Basic
 70
     7
 71
     1
 72
     0
 73
     1
 90
        0
 40
-0.6
 41
-30.0
 62
     5
 63
     7
 74
     0
 91
        4
 64
     7
 65
   257
 75
     1
175
     1
 42
1.0
 92
        8
 66
     7
 43
1.0
 76
     1
 77
     6
 78
     2
 67
     7
 79
     5
170
     0
171
     0
290
     0
174
     0
 93
        1
 44
0.0
173
     0
291
     1
 45
0.0
1001
ACAD
1000
AcDbSavedByObjectVersion
1070
     0
  0
VISUALSTYLE
  5
1789
102
{ACAD_XDICTIONARY
360
2035
102
}
102
{ACAD_REACTORS
330
177D
102
}
330
177D
100
AcDbVisualStyle
  2
Brighten
 70
    12
 71
     2
 72
     2
 73
     0
 90
        0
 40
-0.6
 41
-30.0
 62
     5
 63
     7
 74
     1
 91
        4
 64
     7
 65
   257
 75
     1
175
     1
 42
1.0
 92
        8
 66
     7
 43
1.0
 76
     1
 77
     6
 78
     2
 67
     7
 79
     5
170
     0
171
     0
290
     0
174
     0
 93
        1
 44
50.0
173
     0
291
     1
 45
0.0
1001
ACAD
1000
AcDbSavedByObjectVersion
1070
     0
  0
VISUALSTYLE
  5
178D
102
{ACAD_XDICTIONARY
360
203D
102
}
102
{ACAD_REACTORS
330
177D
102
}
330
177D
100
AcDbVisualStyle
  2
ColorChange
 70
    16
 71
     2
 72
     2
 73
     3
 90
        0
 40
-0.6
 41
-30.0
 62
     5
 63
     8
 74
     1
 91
        4
 64
     7
 65
   257
 75
     1
175
     1
 42
1.0
 92
        8
 66
     8
 43
1.0
 76
     1
 77
     6
 78
     2
 67
     7
 79
     5
170
     0
171
     0
290
     0
174
     0
 93
        1
 44
0.0
173
     0
291
     1
 45
0.0
1001
ACAD
1000
AcDbSavedByObjectVersion
1070
     0
  0
VISUALSTYLE
  5
1786
102
{ACAD_XDICTIONARY
360
202F
102
}
102
{ACAD_REACTORS
330
177D
102
}
330
177D
100
AcDbVisualStyle
  2
Conceptual
 70
     9
 71
     3
 72
     2
 73
     0
 90
        0
 40
-0.6
 41
-30.0
 62
     5
 63
     7
 74
     2
 91
        2
 64
     7
 65
   257
 75
     1
175
     1
 42
40.0
 92
        8
 66
     7
 43
1.0
 76
     1
 77
     6
 78
     2
 67
     7
 79
     3
170
     0
171
     0
290
     0
174
     0
 93
        1
 44
0.0
173
     0
291
     0
 45
0.0
1001
ACAD
1000
AcDbSavedByObjectVersion
1070
     0
  0
VISUALSTYLE
  5
1788
102
{ACAD_XDICTIONARY
360
2033
102
}
102
{ACAD_REACTORS
330
177D
102
}
330
177D
100
AcDbVisualStyle
  2
Dim
 70
    11
 71
     2
 72
     2
 73
     0
 90
        0
 40
-0.6
 41
-30.0
 62
     5
 63
     7
 74
     1
 91
        4
 64
     7
 65
   257
 75
     1
175
     1
 42
1.0
 92
        8
 66
     7
 43
1.0
 76
     1
 77
     6
 78
     2
 67
     7
 79
     5
170
     0
171
     0
290
     0
174
     0
 93
        1
 44
-50.0
173
     0
291
     1
 45
0.0
1001
ACAD
1000
AcDbSavedByObjectVersion
1070
     0
  0
VISUALSTYLE
  5
180B
102
{ACAD_XDICTIONARY
360
2052
102
}
102
{ACAD_REACTORS
330
177D
102
}
330
177D
100
AcDbVisualStyle
  2
EdgeColorOff
 70
    22
 71
     2
 72
     2
 73
     0
 90
        0
 40
-0.6
 41
-30.0
 62
     5
 63
     7
 74
     1
 91
        4
 64
     7
 65
   257
 75
     1
175
     1
 42
1.0
 92
        8
 66
     7
 43
1.0
 76
     1
 77
     6
 78
     2
 67
     7
 79
     5
170
     0
171
     0
290
     0
174
     0
 93
        1
 44
0.0
173
     0
291
     1
 45
0.0
1001
ACAD
1000
AcDbSavedByObjectVersion
1070
     0
  0
VISUALSTYLE
  5
178C
102
{ACAD_XDICTIONARY
360
203B
102
}
102
{ACAD_REACTORS
330
177D
102
}
330
177D
100
AcDbVisualStyle
  2
Facepattern
 70
    15
 71
     2
 72
     2
 73
     0
 90
        0
 40
-0.6
 41
-30.0
 62
     5
 63
     7
 74
     1
 91
        4
 64
     7
 65
   257
 75
     1
175
     1
 42
1.0
 92
        8
 66
     7
 43
1.0
 76
     1
 77
     6
 78
     2
 67
     7
 79
     5
170
     0
171
     0
290
     0
174
     0
 93
        1
 44
0.0
173
     0
291
     1
 45
0.0
1001
ACAD
1000
AcDbSavedByObjectVersion
1070
     0
  0
VISUALSTYLE
  5
177E
102
{ACAD_XDICTIONARY
360
201F
102
}
102
{ACAD_REACTORS
330
177D
102
}
330
177D
100
AcDbVisualStyle
  2
Flat
 70
     0
 71
     2
 72
     1
 73
     1
 90
        2
 40
-0.6
 41
30.0
 62
     5
 63
     7
 74
     0
 91
        4
 64
     7
 65
   257
 75
     1
175
     1
 42
1.0
 92
        8
 66
     7
 43
1.0
 76
     1
 77
     6
 78
     2
 67
     7
 79
     5
170
     0
171
     0
290
     0
174
     0
 93
       13
 44
0.0
173
     0
291
     1
 45
0.0
1001
ACAD
1000
AcDbSavedByObjectVersion
1070
     0
  0
VISUALSTYLE
  5
177F
102
{ACAD_XDICTIONARY
360
2021
102
}
102
{ACAD_REACTORS
330
177D
102
}
330
177D
100
AcDbVisualStyle
  2
FlatWithEdges
 70
     1
 71
     2
 72
     1
 73
     1
 90
        2
 40
-0.6
 41
30.0
 62
     5
 63
     7
 74
     1
 91
        4
 64
     7
 65
   257
 75
     1
175
     1
 42
1.0
 92
        0
 66
   257
 43
1.0
 76
     1
 77
     6
 78
     2
 67
     7
 79
     5
170
     0
171
     0
290
     0
174
     0
 93
       13
 44
0.0
173
     0
291
     1
 45
0.0
1001
ACAD
1000
AcDbSavedByObjectVersion
1070
     0
  0
VISUALSTYLE
  5
1780
102
{ACAD_XDICTIONARY
360
2023
102
}
102
{ACAD_REACTORS
330
177D
102
}
330
177D
100
AcDbVisualStyle
  2
Gouraud
 70
     2
 71
     2
 72
     2
 73
     1
 90
        2
 40
-0.6
 41
30.0
 62
     5
 63
     7
 74
     0
 91
        4
 64
     7
 65
   257
 75
     1
175
     1
 42
1.0
 92
        0
 66
     7
 43
1.0
 76
     1
 77
     6
 78
     2
 67
     7
 79
     5
170
     0
171
     0
290
     0
174
     0
 93
       13
 44
0.0
173
     0
291
     1
 45
0.0
1001
ACAD
1000
AcDbSavedByObjectVersion
1070
     0
  0
VISUALSTYLE
  5
1781
102
{ACAD_XDICTIONARY
360
2025
102
}
102
{ACAD_REACTORS
330
177D
102
}
330
177D
100
AcDbVisualStyle
  2
GouraudWithEdges
 70
     3
 71
     2
 72
     2
 73
     1
 90
        2
 40
-0.6
 41
30.0
 62
     5
 63
     7
 74
     1
 91
        4
 64
     7
 65
   257
 75
     1
175
     1
 42
1.0
 92
        0
 66
   257
 43
1.0
 76
     1
 77
     6
 78
     2
 67
     7
 79
     5
170
     0
171
     0
290
     0
174
     0
 93
       13
 44
0.0
173
     0
291
     1
 45
0.0
1001
ACAD
1000
AcDbSavedByObjectVersion
1070
     0
  0
VISUALSTYLE
  5
1803
102
{ACAD_XDICTIONARY
360
2042
102
}
102
{ACAD_REACTORS
330
177D
102
}
330
177D
100
AcDbVisualStyle
  2
Hidden
 70
     6
 71
     1
 72
     2
 73
     2
 90
        0
 40
-0.6
 41
-30.0
 62
     5
 63
     7
 74
     2
 91
        2
 64
     7
 65
   257
 75
     2
175
     1
 42
40.0
 92
        0
 66
   257
 43
1.0
 76
     1
 77
     6
 78
     2
 67
     7
 79
     3
170
     0
171
     0
290
     0
174
     0
 93
        1
 44
0.0
173
     0
291
     0
 45
0.0
1001
ACAD
1000
AcDbSavedByObjectVersion
1070
     0
  0
VISUALSTYLE
  5
1809
102
{ACAD_XDICTIONARY
360
204E
102
}
102
{ACAD_REACTORS
330
177D
102
}
330
177D
100
AcDbVisualStyle
  2
JitterOff
 70
    20
 71
     2
 72
     2
 73
     0
 90
        0
 40
-0.6
 41
-30.0
 62
     5
 63
     7
 74
     1
 91
        4
 64
     7
 65
   257
 75
     1
175
     1
 42
1.0
 92
       10
 66
     7
 43
1.0
 76
     1
 77
     6
 78
     2
 67
     7
 79
     5
170
     0
171
     0
290
     0
174
     0
 93
        1
 44
0.0
173
     0
291
     1
 45
0.0
1001
ACAD
1000
AcDbSavedByObjectVersion
1070
     0
  0
VISUALSTYLE
  5
178B
102
{ACAD_XDICTIONARY
360
2039
102
}
102
{ACAD_REACTORS
330
177D
102
}
330
177D
100
AcDbVisualStyle
  2
Linepattern
 70
    14
 71
     2
 72
     2
 73
     0
 90
        0
 40
-0.6
 41
-30.0
 62
     5
 63
     7
 74
     1
 91
        4
 64
     7
 65
   257
 75
     7
175
     7
 42
1.0
 92
        8
 66
     7
 43
1.0
 76
     1
 77
     6
 78
     2
 67
     7
 79
     5
170
     0
171
     0
290
     0
174
     0
 93
        1
 44
0.0
173
     0
291
     1
 45
0.0
1001
ACAD
1000
AcDbSavedByObjectVersion
1070
     0
  0
VISUALSTYLE
  5
180A
102
{ACAD_XDICTIONARY
360
2050
102
}
102
{ACAD_REACTORS
330
177D
102
}
330
177D
100
AcDbVisualStyle
  2
OverhangOff
 70
    21
 71
     2
 72
     2
 73
     0
 90
        0
 40
-0.6
 41
-30.0
 62
     5
 63
     7
 74
     1
 91
        4
 64
     7
 65
   257
 75
     1
175
     1
 42
1.0
 92
        9
 66
     7
 43
1.0
 76
     1
 77
     6
 78
     2
 67
     7
 79
     5
170
     0
171
     0
290
     0
174
     0
 93
        1
 44
0.0
173
     0
291
     1
 45
0.0
1001
ACAD
1000
AcDbSavedByObjectVersion
1070
     0
  0
VISUALSTYLE
  5
1787
102
{ACAD_XDICTIONARY
360
2031
102
}
102
{ACAD_REACTORS
330
177D
102
}
330
177D
100
AcDbVisualStyle
  2
Realistic
 70
     8
 71
     2
 72
     2
 73
     0
 90
        0
 40
-0.6
 41
-30.0
 62
     5
 63
     7
 74
     1
 91
        0
 64
     7
 65
   257
 75
     1
175
     1
 42
1.0
 92
        8
 66
     8
 43
1.0
 76
     1
 77
     6
 78
     2
 67
     7
 79
     5
170
     0
171
     0
290
     0
174
     0
 93
       13
 44
0.0
173
     0
291
     0
 45
0.0
1001
ACAD
1000
AcDbSavedByObjectVersion
1070
     0
  0
VISUALSTYLE
  5
1808
102
{ACAD_XDICTIONARY
360
204C
102
}
102
{ACAD_REACTORS
330
177D
102
}
330
177D
100
AcDbVisualStyle
  2
Shaded
 70
    27
 71
     2
 72
     2
 73
     1
 90
        2
 40
-0.6
 41
30.0
 62
     5
 63
     7
 74
     0
 91
        4
 64
     7
 65
   257
 75
     1
175
     1
 42
1.0
 92
        8
 66
   257
 43
1.0
 76
     1
 77
     6
 78
     2
 67
     8
 79
     3
170
     0
171
     0
290
     0
174
     0
 93
        5
 44
0.0
173
     0
291
     0
 45
0.0
1001
ACAD
1000
AcDbSavedByObjectVersion
1070
     0
  0
VISUALSTYLE
  5
1807
102
{ACAD_XDICTIONARY
360
204A
102
}
102
{ACAD_REACTORS
330
177D
102
}
330
177D
100
AcDbVisualStyle
  2
Shaded with edges
 70
    26
 71
     2
 72
     2
 73
     1
 90
        2
 40
-0.6
 41
30.0
 62
     5
 63
     7
 74
     1
 91
       10
 64
     7
 65
   257
 75
     2
175
     1
 42
1.0
 92
        8
 66
   257
 43
1.0
 76
     1
 77
     6
 78
     2
 67
     7
 79
     3
170
     0
171
     0
290
     0
174
     0
 93
        5
 44
0.0
173
     0
291
     0
 45
0.0
1001
ACAD
1000
AcDbSavedByObjectVersion
1070
     0
  0
VISUALSTYLE
  5
1804
102
{ACAD_XDICTIONARY
360
2044
102
}
102
{ACAD_REACTORS
330
177D
102
}
330
177D
100
AcDbVisualStyle
  2
Shades of Gray
 70
    23
 71
     2
 72
     2
 73
     3
 90
        0
 40
-0.6
 41
-30.0
 62
     5
 63
     7
 74
     2
 91
        2
 64
     7
 65
     7
 75
     1
175
     1
 42
40.0
 92
        8
 66
     7
 43
1.0
 76
     1
 77
     6
 78
     2
 67
     7
 79
     3
170
     0
171
     0
290
     0
174
     0
 93
        1
 44
0.0
173
     0
291
     0
 45
0.0
1001
ACAD
1000
AcDbSavedByObjectVersion
1070
     0
  0
VISUALSTYLE
  5
1805
102
{ACAD_XDICTIONARY
360
2046
102
}
102
{ACAD_REACTORS
330
177D
102
}
330
177D
100
AcDbVisualStyle
  2
Sketchy
 70
    24
 71
     1
 72
     2
 73
     2
 90
        0
 40
-0.6
 41
-30.0
 62
     5
 63
     7
 74
     2
 91
        2
 64
     7
 65
     7
 75
     1
175
     1
 42
40.0
 92
       11
 66
     7
 43
1.0
 76
     1
 77
     6
 78
     2
 67
     7
 79
     6
170
     0
171
     0
290
     0
174
     0
 93
        1
 44
0.0
173
     0
291
     0
 45
0.0
1001
ACAD
1000
AcDbSavedByObjectVersion
1070
     0
  0
VISUALSTYLE
  5
178A
102
{ACAD_XDICTIONARY
360
2037
102
}
102
{ACAD_REACTORS
330
177D
102
}
330
177D
100
AcDbVisualStyle
  2
Thicken
 70
    13
 71
     2
 72
     2
 73
     0
 90
        0
 40
-0.6
 41
-30.0
 62
     5
 63
     7
 74
     1
 91
        4
 64
     7
 65
   257
 75
     1
175
     1
 42
1.0
 92
       12
 66
     7
 43
1.0
 76
     1
 77
     6
 78
     2
 67
     7
 79
     5
170
     0
171
     0
290
     0
174
     0
 93
        1
 44
0.0
173
     0
291
     1
 45
0.0
1001
ACAD
1000
AcDbSavedByObjectVersion
1070
     0
  0
VISUALSTYLE
  5
1802
102
{ACAD_XDICTIONARY
360
2040
102
}
102
{ACAD_REACTORS
330
177D
102
}
330
177D
100
AcDbVisualStyle
  2
Wireframe
 70
     5
 71
     0
 72
     2
 73
     0
 90
        0
 40
-0.6
 41
-30.0
 62
     5
 63
     7
 74
     1
 91
        4
 64
     7
 65
   257
 75
     1
175
     1
 42
1.0
 92
        0
 66
   257
 43
1.0
 76
     1
 77
     6
 78
     2
 67
     7
 79
     3
170
     0
171
     0
290
     0
174
     0
 93
        1
 44
0.0
173
     0
291
     0
 45
0.0
1001
ACAD
1000
AcDbSavedByObjectVersion
1070
     0
  0
VISUALSTYLE
  5
1806
102
{ACAD_XDICTIONARY
360
2048
102
}
102
{ACAD_REACTORS
330
177D
102
}
330
177D
100
AcDbVisualStyle
  2
X-Ray
 70
    25
 71
     2
 72
     2
 73
     1
 90
        1
 40
0.5
 41
-30.0
 62
     5
 63
     7
 74
     1
 91
        0
 64
     7
 65
   257
 75
     1
175
     1
 42
1.0
 92
        8
 66
     7
 43
1.0
 76
     1
 77
     6
 78
     2
 67
     7
 79
     3
170
     0
171
     0
290
     0
174
     0
 93
       13
 44
0.0
173
     0
291
     0
 45
0.0
1001
ACAD
1000
AcDbSavedByObjectVersion
1070
     0
  0
DICTIONARYVAR
  5
17FE
102
{ACAD_REACTORS
330
66
102
}
330
66
100
DictionaryVariables
280
     0
  1
1:1
  0
DICTIONARYVAR
  5
17FD
102
{ACAD_REACTORS
330
66
102
}
330
66
100
DictionaryVariables
280
     0
  1
STANDARD
  0
DICTIONARYVAR
  5
17FC
102
{ACAD_REACTORS
330
66
102
}
330
66
100
DictionaryVariables
280
     0
  1
STANDARD
  0
DICTIONARYVAR
  5
67
102
{ACAD_REACTORS
330
66
102
}
330
66
100
DictionaryVariables
280
     0
  1
2
  0
DICTIONARYVAR
  5
6B
102
{ACAD_REACTORS
330
66
102
}
330
66
100
DictionaryVariables
280
     0
  1
1
  0
DICTIONARYVAR
  5
1800
102
{ACAD_REACTORS
330
66
102
}
330
66
100
DictionaryVariables
280
     0
  1
0
  0
DICTIONARYVAR
  5
1F43
102
{ACAD_REACTORS
330
66
102
}
330
66
100
DictionaryVariables
280
     0
  1
1
  0
DICTIONARYVAR
  5
1F44
102
{ACAD_REACTORS
330
66
102
}
330
66
100
DictionaryVariables
280
     0
  1
15
  0
DICTIONARYVAR
  5
1F42
102
{ACAD_REACTORS
330
66
102
}
330
66
100
DictionaryVariables
280
     0
  1
0
  0
DICTIONARYVAR
  5
1F41
102
{ACAD_REACTORS
330
66
102
}
330
66
100
DictionaryVariables
280
     0
  1
0
  0
DICTIONARYVAR
  5
D3C
102
{ACAD_REACTORS
330
66
102
}
330
66
100
DictionaryVariables
280
     0
  1

  0
DICTIONARYVAR
  5
17FF
102
{ACAD_REACTORS
330
66
102
}
330
66
100
DictionaryVariables
280
     0
  1
127
  0
DICTIONARYVAR
  5
2010
102
{ACAD_REACTORS
330
66
102
}
330
66
100
DictionaryVariables
280
     0
  1
2
  0
DICTIONARY
  5
2018
330
59
100
AcDbDictionary
280
     1
281
     1
  3
ACAD_XREC_ROUNDTRIP
360
2019
  0
DICTIONARY
  5
201A
330
5E
100
AcDbDictionary
280
     1
281
     1
  3
ACAD_XREC_ROUNDTRIP
360
201B
  0
DICTIONARY
  5
2016
330
22
100
AcDbDictionary
280
     1
281
     1
  3
ACAD_XREC_ROUNDTRIP
360
2017
  0
DICTIONARY
  5
176E
330
176D
100
AcDbDictionary
280
     1
281
     1
  3
ACAD_XREC_ROUNDTRIP
360
201D
  3
BUMPTILE
360
1770
  3
DIFFUSETILE
360
176F
  3
OPACITYTILE
360
1773
  3
REFLECTIONTILE
360
1772
  3
REFRACTIONTILE
360
1774
  3
SPECULARTILE
360
1771
  0
DICTIONARY
  5
1766
330
1765
100
AcDbDictionary
280
     1
281
     1
  3
ACAD_XREC_ROUNDTRIP
360
201C
  3
BUMPTILE
360
1768
  3
DIFFUSETILE
360
1767
  3
OPACITYTILE
360
176B
  3
REFLECTIONTILE
360
176A
  3
REFRACTIONTILE
360
176C
  3
SPECULARTILE
360
1769
  0
DICTIONARY
  5
1776
330
1775
100
AcDbDictionary
280
     1
281
     1
  3
ACAD_XREC_ROUNDTRIP
360
201E
  3
BUMPTILE
360
1778
  3
DIFFUSETILE
360
1777
  3
OPACITYTILE
360
177B
  3
REFLECTIONTILE
360
177A
  3
REFRACTIONTILE
360
177C
  3
SPECULARTILE
360
1779
  0
DICTIONARY
  5
17E6
330
178F
100
AcDbDictionary
280
     1
281
     1
  3
ACAD_ROUNDTRIP_2008_TABLESTYLE_CELLSTYLEMAP
360
2011
  3
ACAD_XREC_ROUNDTRIP
360
203F
  0
DICTIONARY
  5
2029
330
1783
100
AcDbDictionary
280
     1
281
     1
  3
ACAD_XREC_ROUNDTRIP
360
202A
  0
DICTIONARY
  5
202D
330
1785
100
AcDbDictionary
280
     1
281
     1
  3
ACAD_XREC_ROUNDTRIP
360
202E
  0
DICTIONARY
  5
202B
330
1784
100
AcDbDictionary
280
     1
281
     1
  3
ACAD_XREC_ROUNDTRIP
360
202C
  0
DICTIONARY
  5
2027
330
1782
100
AcDbDictionary
280
     1
281
     1
  3
ACAD_XREC_ROUNDTRIP
360
2028
  0
DICTIONARY
  5
2035
330
1789
100
AcDbDictionary
280
     1
281
     1
  3
ACAD_XREC_ROUNDTRIP
360
2036
  0
DICTIONARY
  5
203D
330
178D
100
AcDbDictionary
280
     1
281
     1
  3
ACAD_XREC_ROUNDTRIP
360
203E
  0
DICTIONARY
  5
202F
330
1786
100
AcDbDictionary
280
     1
281
     1
  3
ACAD_XREC_ROUNDTRIP
360
2030
  0
DICTIONARY
  5
2033
330
1788
100
AcDbDictionary
280
     1
281
     1
  3
ACAD_XREC_ROUNDTRIP
360
2034
  0
DICTIONARY
  5
2052
330
180B
100
AcDbDictionary
280
     1
281
     1
  3
ACAD_XREC_ROUNDTRIP
360
2053
  0
DICTIONARY
  5
203B
330
178C
100
AcDbDictionary
280
     1
281
     1
  3
ACAD_XREC_ROUNDTRIP
360
203C
  0
DICTIONARY
  5
201F
330
177E
100
AcDbDictionary
280
     1
281
     1
  3
ACAD_XREC_ROUNDTRIP
360
2020
  0
DICTIONARY
  5
2021
330
177F
100
AcDbDictionary
280
     1
281
     1
  3
ACAD_XREC_ROUNDTRIP
360
2022
  0
DICTIONARY
  5
2023
330
1780
100
AcDbDictionary
280
     1
281
     1
  3
ACAD_XREC_ROUNDTRIP
360
2024
  0
DICTIONARY
  5
2025
330
1781
100
AcDbDictionary
280
     1
281
     1
  3
ACAD_XREC_ROUNDTRIP
360
2026
  0
DICTIONARY
  5
2042
330
1803
100
AcDbDictionary
280
     1
281
     1
  3
ACAD_XREC_ROUNDTRIP
360
2043
  0
DICTIONARY
  5
204E
330
1809
100
AcDbDictionary
280
     1
281
     1
  3
ACAD_XREC_ROUNDTRIP
360
204F
  0
DICTIONARY
  5
2039
330
178B
100
AcDbDictionary
280
     1
281
     1
  3
ACAD_XREC_ROUNDTRIP
360
203A
  0
DICTIONARY
  5
2050
330
180A
100
AcDbDictionary
280
     1
281
     1
  3
ACAD_XREC_ROUNDTRIP
360
2051
  0
DICTIONARY
  5
2031
330
1787
100
AcDbDictionary
280
     1
281
     1
  3
ACAD_XREC_ROUNDTRIP
360
2032
  0
DICTIONARY
  5
204C
330
1808
100
AcDbDictionary
280
     1
281
     1
  3
ACAD_XREC_ROUNDTRIP
360
204D
  0
DICTIONARY
  5
204A
330
1807
100
AcDbDictionary
280
     1
281
     1
  3
ACAD_XREC_ROUNDTRIP
360
204B
  0
DICTIONARY
  5
2044
330
1804
100
AcDbDictionary
280
     1
281
     1
  3
ACAD_XREC_ROUNDTRIP
360
2045
  0
DICTIONARY
  5
2046
330
1805
100
AcDbDictionary
280
     1
281
     1
  3
ACAD_XREC_ROUNDTRIP
360
2047
  0
DICTIONARY
  5
2037
330
178A
100
AcDbDictionary
280
     1
281
     1
  3
ACAD_XREC_ROUNDTRIP
360
2038
  0
DICTIONARY
  5
2040
330
1802
100
AcDbDictionary
280
     1
281
     1
  3
ACAD_XREC_ROUNDTRIP
360
2041
  0
DICTIONARY
  5
2048
330
1806
100
AcDbDictionary
280
     1
281
     1
  3
ACAD_XREC_ROUNDTRIP
360
2049
  0
XRECORD
  5
2019
102
{ACAD_REACTORS
330
2018
102
}
330
2018
100
AcDbXrecord
280
     1
102
SHADEPLOT
 70
     0
102
SHADEPLOTRESLEVEL
 70
     2
102
SHADEPLOTCUSTOMDPI
 70
   300
  0
XRECORD
  5
201B
102
{ACAD_REACTORS
330
201A
102
}
330
201A
100
AcDbXrecord
280
     1
102
SHADEPLOT
 70
     0
102
SHADEPLOTRESLEVEL
 70
     2
102
SHADEPLOTCUSTOMDPI
 70
   300
  0
XRECORD
  5
2017
102
{ACAD_REACTORS
330
2016
102
}
330
2016
100
AcDbXrecord
280
     1
102
SHADEPLOT
 70
     0
102
SHADEPLOTRESLEVEL
 70
     2
102
SHADEPLOTCUSTOMDPI
 70
   300
  0
XRECORD
  5
201D
102
{ACAD_REACTORS
330
176E
102
}
330
176E
100
AcDbXrecord
280
     1
102
MATERIAL
148
0.0
149
0.0
149
0.0
 93
        0
 94
      127
282
     0
 72
     0
 77
     0
171
     0
175
     0
179
     0
273
     0
  0
XRECORD
  5
1770
102
{ACAD_REACTORS
330
176E
102
}
330
176E
100
AcDbXrecord
280
     1
270
     1
271
     1
  0
XRECORD
  5
176F
102
{ACAD_REACTORS
330
176E
102
}
330
176E
100
AcDbXrecord
280
     1
270
     1
271
     1
  0
XRECORD
  5
1773
102
{ACAD_REACTORS
330
176E
102
}
330
176E
100
AcDbXrecord
280
     1
270
     1
271
     1
  0
XRECORD
  5
1772
102
{ACAD_REACTORS
330
176E
102
}
330
176E
100
AcDbXrecord
280
     1
270
     1
271
     1
  0
XRECORD
  5
1774
102
{ACAD_REACTORS
330
176E
102
}
330
176E
100
AcDbXrecord
280
     1
270
     1
271
     1
  0
XRECORD
  5
1771
102
{ACAD_REACTORS
330
176E
102
}
330
176E
100
AcDbXrecord
280
     1
270
     1
271
     1
  0
XRECORD
  5
201C
102
{ACAD_REACTORS
330
1766
102
}
330
1766
100
AcDbXrecord
280
     1
102
MATERIAL
148
0.0
149
0.0
149
0.0
 93
        0
 94
      127
282
     0
 72
     0
 77
     0
171
     0
175
     0
179
     0
273
     0
  0
XRECORD
  5
1768
102
{ACAD_REACTORS
330
1766
102
}
330
1766
100
AcDbXrecord
280
     1
270
     1
271
     1
  0
XRECORD
  5
1767
102
{ACAD_REACTORS
330
1766
102
}
330
1766
100
AcDbXrecord
280
     1
270
     1
271
     1
  0
XRECORD
  5
176B
102
{ACAD_REACTORS
330
1766
102
}
330
1766
100
AcDbXrecord
280
     1
270
     1
271
     1
  0
XRECORD
  5
176A
102
{ACAD_REACTORS
330
1766
102
}
330
1766
100
AcDbXrecord
280
     1
270
     1
271
     1
  0
XRECORD
  5
176C
102
{ACAD_REACTORS
330
1766
102
}
330
1766
100
AcDbXrecord
280
     1
270
     1
271
     1
  0
XRECORD
  5
1769
102
{ACAD_REACTORS
330
1766
102
}
330
1766
100
AcDbXrecord
280
     1
270
     1
271
     1
  0
XRECORD
  5
201E
102
{ACAD_REACTORS
330
1776
102
}
330
1776
100
AcDbXrecord
280
     1
102
MATERIAL
148
0.0
149
0.0
149
0.0
 93
        0
 94
      127
282
     0
 72
     0
 77
     0
171
     0
175
     0
179
     0
273
     0
  0
XRECORD
  5
1778
102
{ACAD_REACTORS
330
1776
102
}
330
1776
100
AcDbXrecord
280
     1
270
     1
271
     1
  0
XRECORD
  5
1777
102
{ACAD_REACTORS
330
1776
102
}
330
1776
100
AcDbXrecord
280
     1
270
     1
271
     1
  0
XRECORD
  5
177B
102
{ACAD_REACTORS
330
1776
102
}
330
1776
100
AcDbXrecord
280
     1
270
     1
271
     1
  0
XRECORD
  5
177A
102
{ACAD_REACTORS
330
1776
102
}
330
1776
100
AcDbXrecord
280
     1
270
     1
271
     1
  0
XRECORD
  5
177C
102
{ACAD_REACTORS
330
1776
102
}
330
1776
100
AcDbXrecord
280
     1
270
     1
271
     1
  0
XRECORD
  5
1779
102
{ACAD_REACTORS
330
1776
102
}
330
1776
100
AcDbXrecord
280
     1
270
     1
271
     1
  0
CELLSTYLEMAP
  5
2011
102
{ACAD_REACTORS
330
17E6
102
}
330
17E6
100
AcDbCellStyleMap
 90
        3
300
CELLSTYLE
  1
TABLEFORMAT_BEGIN
 90
        5
170
     1
 91
        0
 92
    32768
 62
   257
 93
        1
300
CONTENTFORMAT
  1
CONTENTFORMAT_BEGIN
 90
        0
 91
        0
 92
      512
 93
        0
300

 40
0.0
140
1.0
 94
        5
 62
     0
340
11
144
0.25
309
CONTENTFORMAT_END
171
     0
 94
        0
309
TABLEFORMAT_END
  1
CELLSTYLE_BEGIN
 90
        1
 91
        1
300
_TITLE
309
CELLSTYLE_END
300
CELLSTYLE
  1
TABLEFORMAT_BEGIN
 90
        5
170
     1
 91
        0
 92
        0
 62
   257
 93
        1
300
CONTENTFORMAT
  1
CONTENTFORMAT_BEGIN
 90
        0
 91
        0
 92
      512
 93
        0
300

 40
0.0
140
1.0
 94
        5
 62
     0
340
11
144
0.18
309
CONTENTFORMAT_END
171
     0
 94
        0
309
TABLEFORMAT_END
  1
CELLSTYLE_BEGIN
 90
        2
 91
        1
300
_HEADER
309
CELLSTYLE_END
300
CELLSTYLE
  1
TABLEFORMAT_BEGIN
 90
        5
170
     1
 91
        0
 92
        0
 62
   257
 93
        1
300
CONTENTFORMAT
  1
CONTENTFORMAT_BEGIN
 90
        0
 91
        0
 92
      512
 93
        0
300

 40
0.0
140
1.0
 94
        2
 62
     0
340
11
144
0.18
309
CONTENTFORMAT_END
171
     0
 94
        0
309
TABLEFORMAT_END
  1
CELLSTYLE_BEGIN
 90
        3
 91
        2
300
_DATA
309
CELLSTYLE_END
  0
XRECORD
  5
203F
102
{ACAD_REACTORS
330
17E6
102
}
330
17E6
100
AcDbXrecord
280
     1
102
ACAD_ROUNDTRIP_PRE2007_TABLESTYLE
 90
      512
 91
        0
  1

 92
      512
 93
        0
  2

 94
      512
 95
        0
  3

  0
XRECORD
  5
202A
102
{ACAD_REACTORS
330
2029
102
}
330
2029
100
AcDbXrecord
280
     1
102
RTVSPropertyOp0
 70
     1
102
RTVSPropertyOp1
 70
     1
102
RTVSPropertyOp2
 70
     1
102
RTVSPropertyOp3
 70
     1
102
RTVSPropertyOp4
 70
     1
102
RTVSPropertyOp5
 70
     1
102
RTVSPropertyOp6
 70
     1
102
RTVSPropertyOp7
 70
     1
102
RTVSPropertyOp8
 70
     1
102
RTVSPropertyOp9
 70
     1
102
RTVSPropertyOp10
 70
     1
102
RTVSPropertyOp11
 70
     1
102
RTVSPropertyOp12
 70
     1
102
RTVSPropertyOp13
 70
     1
102
RTVSPropertyOp14
 70
     1
102
RTVSPropertyOp15
 70
     1
102
RTVSPropertyOp16
 70
     1
102
RTVSPropertyOp17
 70
     1
102
RTVSPropertyOp18
 70
     1
102
RTVSPropertyOp19
 70
     1
102
RTVSPropertyOp20
 70
     1
102
RTVSPropertyOp21
 70
     1
102
RTVSPropertyOp22
 70
     1
102
RTVSPropertyOp23
 70
     1
102
RTVSPropertyOp24
 70
     1
102
RTVSPropertyOp25
 70
     1
102
RTVSPropertyOp26
 70
     1
102
RTVSPropertyOp27
 70
     1
102
RTVSPropertyOp28
 70
     1
102
RTVSPropertyOp29
 70
     1
102
RTVSPropertyOp30
 70
     1
102
RTVSPropertyOp31
 70
     1
102
RTVSPropertyOp32
 70
     1
  0
XRECORD
  5
202E
102
{ACAD_REACTORS
330
202D
102
}
330
202D
100
AcDbXrecord
280
     1
102
RTVSPropertyOp0
 70
     1
102
RTVSPropertyOp1
 70
     1
102
RTVSPropertyOp2
 70
     1
102
RTVSPropertyOp3
 70
     1
102
RTVSPropertyOp4
 70
     1
102
RTVSPropertyOp5
 70
     1
102
RTVSPropertyOp6
 70
     1
102
RTVSPropertyOp7
 70
     1
102
RTVSPropertyOp8
 70
     1
102
RTVSPropertyOp9
 70
     1
102
RTVSPropertyOp10
 70
     1
102
RTVSPropertyOp11
 70
     1
102
RTVSPropertyOp12
 70
     1
102
RTVSPropertyOp13
 70
     1
102
RTVSPropertyOp14
 70
     1
102
RTVSPropertyOp15
 70
     1
102
RTVSPropertyOp16
 70
     1
102
RTVSPropertyOp17
 70
     1
102
RTVSPropertyOp18
 70
     1
102
RTVSPropertyOp19
 70
     1
102
RTVSPropertyOp20
 70
     1
102
RTVSPropertyOp21
 70
     1
102
RTVSPropertyOp22
 70
     1
102
RTVSPropertyOp23
 70
     1
102
RTVSPropertyOp24
 70
     1
102
RTVSPropertyOp25
 70
     1
102
RTVSPropertyOp26
 70
     1
102
RTVSPropertyOp27
 70
     1
102
RTVSPropertyOp28
 70
     1
102
RTVSPropertyOp29
 70
     1
102
RTVSPropertyOp30
 70
     1
102
RTVSPropertyOp31
 70
     1
102
RTVSPropertyOp32
 70
     1
  0
XRECORD
  5
202C
102
{ACAD_REACTORS
330
202B
102
}
330
202B
100
AcDbXrecord
280
     1
102
RTVSPropertyOp0
 70
     1
102
RTVSPropertyOp1
 70
     1
102
RTVSPropertyOp2
 70
     1
102
RTVSPropertyOp3
 70
     1
102
RTVSPropertyOp4
 70
     1
102
RTVSPropertyOp5
 70
     1
102
RTVSPropertyOp6
 70
     1
102
RTVSPropertyOp7
 70
     1
102
RTVSPropertyOp8
 70
     1
102
RTVSPropertyOp9
 70
     1
102
RTVSPropertyOp10
 70
     1
102
RTVSPropertyOp11
 70
     1
102
RTVSPropertyOp12
 70
     1
102
RTVSPropertyOp13
 70
     1
102
RTVSPropertyOp14
 70
     1
102
RTVSPropertyOp15
 70
     1
102
RTVSPropertyOp16
 70
     1
102
RTVSPropertyOp17
 70
     1
102
RTVSPropertyOp18
 70
     1
102
RTVSPropertyOp19
 70
     1
102
RTVSPropertyOp20
 70
     1
102
RTVSPropertyOp21
 70
     1
102
RTVSPropertyOp22
 70
     1
102
RTVSPropertyOp23
 70
     1
102
RTVSPropertyOp24
 70
     1
102
RTVSPropertyOp25
 70
     1
102
RTVSPropertyOp26
 70
     1
102
RTVSPropertyOp27
 70
     1
102
RTVSPropertyOp28
 70
     1
102
RTVSPropertyOp29
 70
     1
102
RTVSPropertyOp30
 70
     1
102
RTVSPropertyOp31
 70
     1
102
RTVSPropertyOp32
 70
     1
  0
XRECORD
  5
2028
102
{ACAD_REACTORS
330
2027
102
}
330
2027
100
AcDbXrecord
280
     1
102
RTVSPropertyOp0
 70
     1
102
RTVSPropertyOp1
 70
     1
102
RTVSPropertyOp2
 70
     1
102
RTVSPropertyOp3
 70
     1
102
RTVSPropertyOp4
 70
     1
102
RTVSPropertyOp5
 70
     1
102
RTVSPropertyOp6
 70
     1
102
RTVSPropertyOp7
 70
     1
102
RTVSPropertyOp8
 70
     1
102
RTVSPropertyOp9
 70
     1
102
RTVSPropertyOp10
 70
     1
102
RTVSPropertyOp11
 70
     1
102
RTVSPropertyOp12
 70
     1
102
RTVSPropertyOp13
 70
     1
102
RTVSPropertyOp14
 70
     1
102
RTVSPropertyOp15
 70
     1
102
RTVSPropertyOp16
 70
     1
102
RTVSPropertyOp17
 70
     1
102
RTVSPropertyOp18
 70
     1
102
RTVSPropertyOp19
 70
     1
102
RTVSPropertyOp20
 70
     1
102
RTVSPropertyOp21
 70
     1
102
RTVSPropertyOp22
 70
     1
102
RTVSPropertyOp23
 70
     1
102
RTVSPropertyOp24
 70
     1
102
RTVSPropertyOp25
 70
     1
102
RTVSPropertyOp26
 70
     1
102
RTVSPropertyOp27
 70
     1
102
RTVSPropertyOp28
 70
     1
102
RTVSPropertyOp29
 70
     1
102
RTVSPropertyOp30
 70
     1
102
RTVSPropertyOp31
 70
     1
102
RTVSPropertyOp32
 70
     1
  0
XRECORD
  5
2036
102
{ACAD_REACTORS
330
2035
102
}
330
2035
100
AcDbXrecord
280
     1
102
RTVSPropertyOp0
 70
     1
102
RTVSPropertyOp1
 70
     1
102
RTVSPropertyOp2
 70
     1
102
RTVSPropertyOp3
 70
     1
102
RTVSPropertyOp4
 70
     1
102
RTVSPropertyOp5
 70
     1
102
RTVSPropertyOp6
 70
     1
102
RTVSPropertyOp7
 70
     1
102
RTVSPropertyOp8
 70
     1
102
RTVSPropertyOp9
 70
     1
102
RTVSPropertyOp10
 70
     1
102
RTVSPropertyOp11
 70
     1
102
RTVSPropertyOp12
 70
     1
102
RTVSPropertyOp13
 70
     1
102
RTVSPropertyOp14
 70
     1
102
RTVSPropertyOp15
 70
     1
102
RTVSPropertyOp16
 70
     1
102
RTVSPropertyOp17
 70
     1
102
RTVSPropertyOp18
 70
     1
102
RTVSPropertyOp19
 70
     1
102
RTVSPropertyOp20
 70
     1
102
RTVSPropertyOp21
 70
     1
102
RTVSPropertyOp22
 70
     1
102
RTVSPropertyOp23
 70
     1
102
RTVSPropertyOp24
 70
     1
102
RTVSPropertyOp25
 70
     1
102
RTVSPropertyOp26
 70
     1
102
RTVSPropertyOp27
 70
     1
102
RTVSPropertyOp28
 70
     1
102
RTVSPropertyOp29
 70
     1
102
RTVSPropertyOp30
 70
     1
102
RTVSPropertyOp31
 70
     1
102
RTVSPropertyOp32
 70
     1
  0
XRECORD
  5
203E
102
{ACAD_REACTORS
330
203D
102
}
330
203D
100
AcDbXrecord
280
     1
102
RTVSPropertyOp0
 70
     1
102
RTVSPropertyOp1
 70
     1
102
RTVSPropertyOp2
 70
     1
102
RTVSPropertyOp3
 70
     1
102
RTVSPropertyOp4
 70
     1
102
RTVSPropertyOp5
 70
     1
102
RTVSPropertyOp6
 70
     1
102
RTVSPropertyOp7
 70
     1
102
RTVSPropertyOp8
 70
     1
102
RTVSPropertyOp9
 70
     1
102
RTVSPropertyOp10
 70
     1
102
RTVSPropertyOp11
 70
     1
102
RTVSPropertyOp12
 70
     1
102
RTVSPropertyOp13
 70
     1
102
RTVSPropertyOp14
 70
     1
102
RTVSPropertyOp15
 70
     1
102
RTVSPropertyOp16
 70
     1
102
RTVSPropertyOp17
 70
     1
102
RTVSPropertyOp18
 70
     1
102
RTVSPropertyOp19
 70
     1
102
RTVSPropertyOp20
 70
     1
102
RTVSPropertyOp21
 70
     1
102
RTVSPropertyOp22
 70
     1
102
RTVSPropertyOp23
 70
     1
102
RTVSPropertyOp24
 70
     1
102
RTVSPropertyOp25
 70
     1
102
RTVSPropertyOp26
 70
     1
102
RTVSPropertyOp27
 70
     1
102
RTVSPropertyOp28
 70
     1
102
RTVSPropertyOp29
 70
     1
102
RTVSPropertyOp30
 70
     1
102
RTVSPropertyOp31
 70
     1
102
RTVSPropertyOp32
 70
     1
  0
XRECORD
  5
2030
102
{ACAD_REACTORS
330
202F
102
}
330
202F
100
AcDbXrecord
280
     1
102
RTVSPropertyOp0
 70
     1
102
RTVSPropertyOp1
 70
     1
102
RTVSPropertyOp2
 70
     1
102
RTVSPropertyOp3
 70
     1
102
RTVSPropertyOp4
 70
     1
102
RTVSPropertyOp5
 70
     1
102
RTVSPropertyOp6
 70
     1
102
RTVSPropertyOp7
 70
     1
102
RTVSPropertyOp8
 70
     1
102
RTVSPropertyOp9
 70
     1
102
RTVSPropertyOp10
 70
     1
102
RTVSPropertyOp11
 70
     1
102
RTVSPropertyOp12
 70
     1
102
RTVSPropertyOp13
 70
     1
102
RTVSPropertyOp14
 70
     1
102
RTVSPropertyOp15
 70
     1
102
RTVSPropertyOp16
 70
     1
102
RTVSPropertyOp17
 70
     1
102
RTVSPropertyOp18
 70
     1
102
RTVSPropertyOp19
 70
     1
102
RTVSPropertyOp20
 70
     1
102
RTVSPropertyOp21
 70
     1
102
RTVSPropertyOp22
 70
     1
102
RTVSPropertyOp23
 70
     1
102
RTVSPropertyOp24
 70
     1
102
RTVSPropertyOp25
 70
     1
102
RTVSPropertyOp26
 70
     1
102
RTVSPropertyOp27
 70
     1
102
RTVSPropertyOp28
 70
     1
102
RTVSPropertyOp29
 70
     1
102
RTVSPropertyOp30
 70
     1
102
RTVSPropertyOp31
 70
     1
102
RTVSPropertyOp32
 70
     1
  0
XRECORD
  5
2034
102
{ACAD_REACTORS
330
2033
102
}
330
2033
100
AcDbXrecord
280
     1
102
RTVSPropertyOp0
 70
     1
102
RTVSPropertyOp1
 70
     1
102
RTVSPropertyOp2
 70
     1
102
RTVSPropertyOp3
 70
     1
102
RTVSPropertyOp4
 70
     1
102
RTVSPropertyOp5
 70
     1
102
RTVSPropertyOp6
 70
     1
102
RTVSPropertyOp7
 70
     1
102
RTVSPropertyOp8
 70
     1
102
RTVSPropertyOp9
 70
     1
102
RTVSPropertyOp10
 70
     1
102
RTVSPropertyOp11
 70
     1
102
RTVSPropertyOp12
 70
     1
102
RTVSPropertyOp13
 70
     1
102
RTVSPropertyOp14
 70
     1
102
RTVSPropertyOp15
 70
     1
102
RTVSPropertyOp16
 70
     1
102
RTVSPropertyOp17
 70
     1
102
RTVSPropertyOp18
 70
     1
102
RTVSPropertyOp19
 70
     1
102
RTVSPropertyOp20
 70
     1
102
RTVSPropertyOp21
 70
     1
102
RTVSPropertyOp22
 70
     1
102
RTVSPropertyOp23
 70
     1
102
RTVSPropertyOp24
 70
     1
102
RTVSPropertyOp25
 70
     1
102
RTVSPropertyOp26
 70
     1
102
RTVSPropertyOp27
 70
     1
102
RTVSPropertyOp28
 70
     1
102
RTVSPropertyOp29
 70
     1
102
RTVSPropertyOp30
 70
     1
102
RTVSPropertyOp31
 70
     1
102
RTVSPropertyOp32
 70
     1
  0
XRECORD
  5
2053
102
{ACAD_REACTORS
330
2052
102
}
330
2052
100
AcDbXrecord
280
     1
102
RTVSPropertyOp0
 70
     0
102
RTVSPropertyOp1
 70
     0
102
RTVSPropertyOp2
 70
     0
102
RTVSPropertyOp3
 70
     0
102
RTVSPropertyOp4
 70
     0
102
RTVSPropertyOp5
 70
     0
102
RTVSPropertyOp6
 70
     0
102
RTVSPropertyOp7
 70
     0
102
RTVSPropertyOp8
 70
     0
102
RTVSPropertyOp9
 70
     0
102
RTVSPropertyOp10
 70
     0
102
RTVSPropertyOp11
 70
     0
102
RTVSPropertyOp12
 70
     0
102
RTVSPropertyOp13
 70
     0
102
RTVSPropertyOp14
 70
     2
102
RTVSPropertyOp15
 70
     0
102
RTVSPropertyOp16
 70
     0
102
RTVSPropertyOp17
 70
     0
102
RTVSPropertyOp18
 70
     0
102
RTVSPropertyOp19
 70
     0
102
RTVSPropertyOp20
 70
     0
102
RTVSPropertyOp21
 70
     0
102
RTVSPropertyOp22
 70
     0
102
RTVSPropertyOp23
 70
     0
102
RTVSPropertyOp24
 70
     0
102
RTVSPropertyOp25
 70
     0
102
RTVSPropertyOp26
 70
     0
102
RTVSPropertyOp27
 70
     0
102
RTVSPropertyOp28
 70
     1
102
RTVSPropertyOp29
 70
     1
102
RTVSPropertyOp30
 70
     1
102
RTVSPropertyOp31
 70
     1
102
RTVSPropertyOp32
 70
     1
  0
XRECORD
  5
203C
102
{ACAD_REACTORS
330
203B
102
}
330
203B
100
AcDbXrecord
280
     1
102
RTVSPropertyOp0
 70
     1
102
RTVSPropertyOp1
 70
     1
102
RTVSPropertyOp2
 70
     1
102
RTVSPropertyOp3
 70
     1
102
RTVSPropertyOp4
 70
     1
102
RTVSPropertyOp5
 70
     1
102
RTVSPropertyOp6
 70
     1
102
RTVSPropertyOp7
 70
     1
102
RTVSPropertyOp8
 70
     1
102
RTVSPropertyOp9
 70
     1
102
RTVSPropertyOp10
 70
     1
102
RTVSPropertyOp11
 70
     1
102
RTVSPropertyOp12
 70
     1
102
RTVSPropertyOp13
 70
     1
102
RTVSPropertyOp14
 70
     1
102
RTVSPropertyOp15
 70
     1
102
RTVSPropertyOp16
 70
     1
102
RTVSPropertyOp17
 70
     1
102
RTVSPropertyOp18
 70
     1
102
RTVSPropertyOp19
 70
     1
102
RTVSPropertyOp20
 70
     1
102
RTVSPropertyOp21
 70
     1
102
RTVSPropertyOp22
 70
     1
102
RTVSPropertyOp23
 70
     1
102
RTVSPropertyOp24
 70
     1
102
RTVSPropertyOp25
 70
     1
102
RTVSPropertyOp26
 70
     1
102
RTVSPropertyOp27
 70
     1
102
RTVSPropertyOp28
 70
     1
102
RTVSPropertyOp29
 70
     1
102
RTVSPropertyOp30
 70
     1
102
RTVSPropertyOp31
 70
     1
102
RTVSPropertyOp32
 70
     1
  0
XRECORD
  5
2020
102
{ACAD_REACTORS
330
201F
102
}
330
201F
100
AcDbXrecord
280
     1
102
RTVSPropertyOp0
 70
     1
102
RTVSPropertyOp1
 70
     1
102
RTVSPropertyOp2
 70
     1
102
RTVSPropertyOp3
 70
     1
102
RTVSPropertyOp4
 70
     1
102
RTVSPropertyOp5
 70
     1
102
RTVSPropertyOp6
 70
     1
102
RTVSPropertyOp7
 70
     1
102
RTVSPropertyOp8
 70
     1
102
RTVSPropertyOp9
 70
     1
102
RTVSPropertyOp10
 70
     1
102
RTVSPropertyOp11
 70
     1
102
RTVSPropertyOp12
 70
     1
102
RTVSPropertyOp13
 70
     1
102
RTVSPropertyOp14
 70
     1
102
RTVSPropertyOp15
 70
     1
102
RTVSPropertyOp16
 70
     1
102
RTVSPropertyOp17
 70
     1
102
RTVSPropertyOp18
 70
     1
102
RTVSPropertyOp19
 70
     1
102
RTVSPropertyOp20
 70
     1
102
RTVSPropertyOp21
 70
     1
102
RTVSPropertyOp22
 70
     1
102
RTVSPropertyOp23
 70
     1
102
RTVSPropertyOp24
 70
     1
102
RTVSPropertyOp25
 70
     1
102
RTVSPropertyOp26
 70
     1
102
RTVSPropertyOp27
 70
     1
102
RTVSPropertyOp28
 70
     1
102
RTVSPropertyOp29
 70
     1
102
RTVSPropertyOp30
 70
     1
102
RTVSPropertyOp31
 70
     1
102
RTVSPropertyOp32
 70
     1
  0
XRECORD
  5
2022
102
{ACAD_REACTORS
330
2021
102
}
330
2021
100
AcDbXrecord
280
     1
102
RTVSPropertyOp0
 70
     1
102
RTVSPropertyOp1
 70
     1
102
RTVSPropertyOp2
 70
     1
102
RTVSPropertyOp3
 70
     1
102
RTVSPropertyOp4
 70
     1
102
RTVSPropertyOp5
 70
     1
102
RTVSPropertyOp6
 70
     1
102
RTVSPropertyOp7
 70
     1
102
RTVSPropertyOp8
 70
     1
102
RTVSPropertyOp9
 70
     1
102
RTVSPropertyOp10
 70
     1
102
RTVSPropertyOp11
 70
     1
102
RTVSPropertyOp12
 70
     1
102
RTVSPropertyOp13
 70
     1
102
RTVSPropertyOp14
 70
     1
102
RTVSPropertyOp15
 70
     1
102
RTVSPropertyOp16
 70
     1
102
RTVSPropertyOp17
 70
     1
102
RTVSPropertyOp18
 70
     1
102
RTVSPropertyOp19
 70
     1
102
RTVSPropertyOp20
 70
     1
102
RTVSPropertyOp21
 70
     1
102
RTVSPropertyOp22
 70
     1
102
RTVSPropertyOp23
 70
     1
102
RTVSPropertyOp24
 70
     1
102
RTVSPropertyOp25
 70
     1
102
RTVSPropertyOp26
 70
     1
102
RTVSPropertyOp27
 70
     1
102
RTVSPropertyOp28
 70
     1
102
RTVSPropertyOp29
 70
     1
102
RTVSPropertyOp30
 70
     1
102
RTVSPropertyOp31
 70
     1
102
RTVSPropertyOp32
 70
     1
  0
XRECORD
  5
2024
102
{ACAD_REACTORS
330
2023
102
}
330
2023
100
AcDbXrecord
280
     1
102
RTVSPropertyOp0
 70
     1
102
RTVSPropertyOp1
 70
     1
102
RTVSPropertyOp2
 70
     1
102
RTVSPropertyOp3
 70
     1
102
RTVSPropertyOp4
 70
     1
102
RTVSPropertyOp5
 70
     1
102
RTVSPropertyOp6
 70
     1
102
RTVSPropertyOp7
 70
     1
102
RTVSPropertyOp8
 70
     1
102
RTVSPropertyOp9
 70
     1
102
RTVSPropertyOp10
 70
     1
102
RTVSPropertyOp11
 70
     1
102
RTVSPropertyOp12
 70
     1
102
RTVSPropertyOp13
 70
     1
102
RTVSPropertyOp14
 70
     1
102
RTVSPropertyOp15
 70
     1
102
RTVSPropertyOp16
 70
     1
102
RTVSPropertyOp17
 70
     1
102
RTVSPropertyOp18
 70
     1
102
RTVSPropertyOp19
 70
     1
102
RTVSPropertyOp20
 70
     1
102
RTVSPropertyOp21
 70
     1
102
RTVSPropertyOp22
 70
     1
102
RTVSPropertyOp23
 70
     1
102
RTVSPropertyOp24
 70
     1
102
RTVSPropertyOp25
 70
     1
102
RTVSPropertyOp26
 70
     1
102
RTVSPropertyOp27
 70
     1
102
RTVSPropertyOp28
 70
     1
102
RTVSPropertyOp29
 70
     1
102
RTVSPropertyOp30
 70
     1
102
RTVSPropertyOp31
 70
     1
102
RTVSPropertyOp32
 70
     1
  0
XRECORD
  5
2026
102
{ACAD_REACTORS
330
2025
102
}
330
2025
100
AcDbXrecord
280
     1
102
RTVSPropertyOp0
 70
     1
102
RTVSPropertyOp1
 70
     1
102
RTVSPropertyOp2
 70
     1
102
RTVSPropertyOp3
 70
     1
102
RTVSPropertyOp4
 70
     1
102
RTVSPropertyOp5
 70
     1
102
RTVSPropertyOp6
 70
     1
102
RTVSPropertyOp7
 70
     1
102
RTVSPropertyOp8
 70
     1
102
RTVSPropertyOp9
 70
     1
102
RTVSPropertyOp10
 70
     1
102
RTVSPropertyOp11
 70
     1
102
RTVSPropertyOp12
 70
     1
102
RTVSPropertyOp13
 70
     1
102
RTVSPropertyOp14
 70
     1
102
RTVSPropertyOp15
 70
     1
102
RTVSPropertyOp16
 70
     1
102
RTVSPropertyOp17
 70
     1
102
RTVSPropertyOp18
 70
     1
102
RTVSPropertyOp19
 70
     1
102
RTVSPropertyOp20
 70
     1
102
RTVSPropertyOp21
 70
     1
102
RTVSPropertyOp22
 70
     1
102
RTVSPropertyOp23
 70
     1
102
RTVSPropertyOp24
 70
     1
102
RTVSPropertyOp25
 70
     1
102
RTVSPropertyOp26
 70
     1
102
RTVSPropertyOp27
 70
     1
102
RTVSPropertyOp28
 70
     1
102
RTVSPropertyOp29
 70
     1
102
RTVSPropertyOp30
 70
     1
102
RTVSPropertyOp31
 70
     1
102
RTVSPropertyOp32
 70
     1
  0
XRECORD
  5
2043
102
{ACAD_REACTORS
330
2042
102
}
330
2042
100
AcDbXrecord
280
     1
102
RTVSPropertyOp0
 70
     1
102
RTVSPropertyOp1
 70
     1
102
RTVSPropertyOp2
 70
     1
102
RTVSPropertyOp3
 70
     1
102
RTVSPropertyOp4
 70
     1
102
RTVSPropertyOp5
 70
     1
102
RTVSPropertyOp6
 70
     1
102
RTVSPropertyOp7
 70
     1
102
RTVSPropertyOp8
 70
     1
102
RTVSPropertyOp9
 70
     1
102
RTVSPropertyOp10
 70
     1
102
RTVSPropertyOp11
 70
     1
102
RTVSPropertyOp12
 70
     1
102
RTVSPropertyOp13
 70
     1
102
RTVSPropertyOp14
 70
     1
102
RTVSPropertyOp15
 70
     1
102
RTVSPropertyOp16
 70
     1
102
RTVSPropertyOp17
 70
     1
102
RTVSPropertyOp18
 70
     1
102
RTVSPropertyOp19
 70
     1
102
RTVSPropertyOp20
 70
     1
102
RTVSPropertyOp21
 70
     1
102
RTVSPropertyOp22
 70
     1
102
RTVSPropertyOp23
 70
     1
102
RTVSPropertyOp24
 70
     1
102
RTVSPropertyOp25
 70
     1
102
RTVSPropertyOp26
 70
     1
102
RTVSPropertyOp27
 70
     1
102
RTVSPropertyOp28
 70
     1
102
RTVSPropertyOp29
 70
     1
102
RTVSPropertyOp30
 70
     1
102
RTVSPropertyOp31
 70
     1
102
RTVSPropertyOp32
 70
     1
  0
XRECORD
  5
204F
102
{ACAD_REACTORS
330
204E
102
}
330
204E
100
AcDbXrecord
280
     1
102
RTVSPropertyOp0
 70
     0
102
RTVSPropertyOp1
 70
     0
102
RTVSPropertyOp2
 70
     0
102
RTVSPropertyOp3
 70
     0
102
RTVSPropertyOp4
 70
     0
102
RTVSPropertyOp5
 70
     0
102
RTVSPropertyOp6
 70
     0
102
RTVSPropertyOp7
 70
     0
102
RTVSPropertyOp8
 70
     0
102
RTVSPropertyOp9
 70
     0
102
RTVSPropertyOp10
 70
     0
102
RTVSPropertyOp11
 70
     0
102
RTVSPropertyOp12
 70
     0
102
RTVSPropertyOp13
 70
     0
102
RTVSPropertyOp14
 70
     2
102
RTVSPropertyOp15
 70
     0
102
RTVSPropertyOp16
 70
     0
102
RTVSPropertyOp17
 70
     0
102
RTVSPropertyOp18
 70
     0
102
RTVSPropertyOp19
 70
     0
102
RTVSPropertyOp20
 70
     0
102
RTVSPropertyOp21
 70
     0
102
RTVSPropertyOp22
 70
     0
102
RTVSPropertyOp23
 70
     0
102
RTVSPropertyOp24
 70
     0
102
RTVSPropertyOp25
 70
     0
102
RTVSPropertyOp26
 70
     0
102
RTVSPropertyOp27
 70
     0
102
RTVSPropertyOp28
 70
     1
102
RTVSPropertyOp29
 70
     1
102
RTVSPropertyOp30
 70
     1
102
RTVSPropertyOp31
 70
     1
102
RTVSPropertyOp32
 70
     1
  0
XRECORD
  5
203A
102
{ACAD_REACTORS
330
2039
102
}
330
2039
100
AcDbXrecord
280
     1
102
RTVSPropertyOp0
 70
     1
102
RTVSPropertyOp1
 70
     1
102
RTVSPropertyOp2
 70
     1
102
RTVSPropertyOp3
 70
     1
102
RTVSPropertyOp4
 70
     1
102
RTVSPropertyOp5
 70
     1
102
RTVSPropertyOp6
 70
     1
102
RTVSPropertyOp7
 70
     1
102
RTVSPropertyOp8
 70
     1
102
RTVSPropertyOp9
 70
     1
102
RTVSPropertyOp10
 70
     1
102
RTVSPropertyOp11
 70
     1
102
RTVSPropertyOp12
 70
     1
102
RTVSPropertyOp13
 70
     1
102
RTVSPropertyOp14
 70
     1
102
RTVSPropertyOp15
 70
     1
102
RTVSPropertyOp16
 70
     1
102
RTVSPropertyOp17
 70
     1
102
RTVSPropertyOp18
 70
     1
102
RTVSPropertyOp19
 70
     1
102
RTVSPropertyOp20
 70
     1
102
RTVSPropertyOp21
 70
     1
102
RTVSPropertyOp22
 70
     1
102
RTVSPropertyOp23
 70
     1
102
RTVSPropertyOp24
 70
     1
102
RTVSPropertyOp25
 70
     1
102
RTVSPropertyOp26
 70
     1
102
RTVSPropertyOp27
 70
     1
102
RTVSPropertyOp28
 70
     1
102
RTVSPropertyOp29
 70
     1
102
RTVSPropertyOp30
 70
     1
102
RTVSPropertyOp31
 70
     1
102
RTVSPropertyOp32
 70
     1
  0
XRECORD
  5
2051
102
{ACAD_REACTORS
330
2050
102
}
330
2050
100
AcDbXrecord
280
     1
102
RTVSPropertyOp0
 70
     0
102
RTVSPropertyOp1
 70
     0
102
RTVSPropertyOp2
 70
     0
102
RTVSPropertyOp3
 70
     0
102
RTVSPropertyOp4
 70
     0
102
RTVSPropertyOp5
 70
     0
102
RTVSPropertyOp6
 70
     0
102
RTVSPropertyOp7
 70
     0
102
RTVSPropertyOp8
 70
     0
102
RTVSPropertyOp9
 70
     0
102
RTVSPropertyOp10
 70
     0
102
RTVSPropertyOp11
 70
     0
102
RTVSPropertyOp12
 70
     0
102
RTVSPropertyOp13
 70
     0
102
RTVSPropertyOp14
 70
     2
102
RTVSPropertyOp15
 70
     0
102
RTVSPropertyOp16
 70
     0
102
RTVSPropertyOp17
 70
     0
102
RTVSPropertyOp18
 70
     0
102
RTVSPropertyOp19
 70
     0
102
RTVSPropertyOp20
 70
     0
102
RTVSPropertyOp21
 70
     0
102
RTVSPropertyOp22
 70
     0
102
RTVSPropertyOp23
 70
     0
102
RTVSPropertyOp24
 70
     0
102
RTVSPropertyOp25
 70
     0
102
RTVSPropertyOp26
 70
     0
102
RTVSPropertyOp27
 70
     0
102
RTVSPropertyOp28
 70
     1
102
RTVSPropertyOp29
 70
     1
102
RTVSPropertyOp30
 70
     1
102
RTVSPropertyOp31
 70
     1
102
RTVSPropertyOp32
 70
     1
  0
XRECORD
  5
2032
102
{ACAD_REACTORS
330
2031
102
}
330
2031
100
AcDbXrecord
280
     1
102
RTVSPropertyOp0
 70
     1
102
RTVSPropertyOp1
 70
     1
102
RTVSPropertyOp2
 70
     1
102
RTVSPropertyOp3
 70
     1
102
RTVSPropertyOp4
 70
     1
102
RTVSPropertyOp5
 70
     1
102
RTVSPropertyOp6
 70
     1
102
RTVSPropertyOp7
 70
     1
102
RTVSPropertyOp8
 70
     1
102
RTVSPropertyOp9
 70
     1
102
RTVSPropertyOp10
 70
     1
102
RTVSPropertyOp11
 70
     1
102
RTVSPropertyOp12
 70
     1
102
RTVSPropertyOp13
 70
     1
102
RTVSPropertyOp14
 70
     1
102
RTVSPropertyOp15
 70
     1
102
RTVSPropertyOp16
 70
     1
102
RTVSPropertyOp17
 70
     1
102
RTVSPropertyOp18
 70
     1
102
RTVSPropertyOp19
 70
     1
102
RTVSPropertyOp20
 70
     1
102
RTVSPropertyOp21
 70
     1
102
RTVSPropertyOp22
 70
     1
102
RTVSPropertyOp23
 70
     1
102
RTVSPropertyOp24
 70
     1
102
RTVSPropertyOp25
 70
     1
102
RTVSPropertyOp26
 70
     1
102
RTVSPropertyOp27
 70
     1
102
RTVSPropertyOp28
 70
     1
102
RTVSPropertyOp29
 70
     1
102
RTVSPropertyOp30
 70
     1
102
RTVSPropertyOp31
 70
     1
102
RTVSPropertyOp32
 70
     1
  0
XRECORD
  5
204D
102
{ACAD_REACTORS
330
204C
102
}
330
204C
100
AcDbXrecord
280
     1
102
RTVSPropertyOp0
 70
     1
102
RTVSPropertyOp1
 70
     1
102
RTVSPropertyOp2
 70
     1
102
RTVSPropertyOp3
 70
     1
102
RTVSPropertyOp4
 70
     1
102
RTVSPropertyOp5
 70
     1
102
RTVSPropertyOp6
 70
     1
102
RTVSPropertyOp7
 70
     1
102
RTVSPropertyOp8
 70
     1
102
RTVSPropertyOp9
 70
     1
102
RTVSPropertyOp10
 70
     1
102
RTVSPropertyOp11
 70
     1
102
RTVSPropertyOp12
 70
     1
102
RTVSPropertyOp13
 70
     1
102
RTVSPropertyOp14
 70
     1
102
RTVSPropertyOp15
 70
     1
102
RTVSPropertyOp16
 70
     1
102
RTVSPropertyOp17
 70
     1
102
RTVSPropertyOp18
 70
     1
102
RTVSPropertyOp19
 70
     1
102
RTVSPropertyOp20
 70
     1
102
RTVSPropertyOp21
 70
     1
102
RTVSPropertyOp22
 70
     1
102
RTVSPropertyOp23
 70
     1
102
RTVSPropertyOp24
 70
     1
102
RTVSPropertyOp25
 70
     1
102
RTVSPropertyOp26
 70
     1
102
RTVSPropertyOp27
 70
     1
102
RTVSPropertyOp28
 70
     1
102
RTVSPropertyOp29
 70
     1
102
RTVSPropertyOp30
 70
     1
102
RTVSPropertyOp31
 70
     1
102
RTVSPropertyOp32
 70
     1
  0
XRECORD
  5
204B
102
{ACAD_REACTORS
330
204A
102
}
330
204A
100
AcDbXrecord
280
     1
102
RTVSPropertyOp0
 70
     1
102
RTVSPropertyOp1
 70
     1
102
RTVSPropertyOp2
 70
     1
102
RTVSPropertyOp3
 70
     1
102
RTVSPropertyOp4
 70
     1
102
RTVSPropertyOp5
 70
     1
102
RTVSPropertyOp6
 70
     1
102
RTVSPropertyOp7
 70
     1
102
RTVSPropertyOp8
 70
     1
102
RTVSPropertyOp9
 70
     1
102
RTVSPropertyOp10
 70
     1
102
RTVSPropertyOp11
 70
     1
102
RTVSPropertyOp12
 70
     1
102
RTVSPropertyOp13
 70
     1
102
RTVSPropertyOp14
 70
     1
102
RTVSPropertyOp15
 70
     1
102
RTVSPropertyOp16
 70
     1
102
RTVSPropertyOp17
 70
     1
102
RTVSPropertyOp18
 70
     1
102
RTVSPropertyOp19
 70
     1
102
RTVSPropertyOp20
 70
     1
102
RTVSPropertyOp21
 70
     1
102
RTVSPropertyOp22
 70
     1
102
RTVSPropertyOp23
 70
     1
102
RTVSPropertyOp24
 70
     1
102
RTVSPropertyOp25
 70
     1
102
RTVSPropertyOp26
 70
     1
102
RTVSPropertyOp27
 70
     1
102
RTVSPropertyOp28
 70
     1
102
RTVSPropertyOp29
 70
     1
102
RTVSPropertyOp30
 70
     1
102
RTVSPropertyOp31
 70
     1
102
RTVSPropertyOp32
 70
     1
  0
XRECORD
  5
2045
102
{ACAD_REACTORS
330
2044
102
}
330
2044
100
AcDbXrecord
280
     1
102
RTVSPropertyOp0
 70
     1
102
RTVSPropertyOp1
 70
     1
102
RTVSPropertyOp2
 70
     1
102
RTVSPropertyOp3
 70
     1
102
RTVSPropertyOp4
 70
     1
102
RTVSPropertyOp5
 70
     1
102
RTVSPropertyOp6
 70
     1
102
RTVSPropertyOp7
 70
     1
102
RTVSPropertyOp8
 70
     1
102
RTVSPropertyOp9
 70
     1
102
RTVSPropertyOp10
 70
     1
102
RTVSPropertyOp11
 70
     1
102
RTVSPropertyOp12
 70
     1
102
RTVSPropertyOp13
 70
     1
102
RTVSPropertyOp14
 70
     1
102
RTVSPropertyOp15
 70
     1
102
RTVSPropertyOp16
 70
     1
102
RTVSPropertyOp17
 70
     1
102
RTVSPropertyOp18
 70
     1
102
RTVSPropertyOp19
 70
     1
102
RTVSPropertyOp20
 70
     1
102
RTVSPropertyOp21
 70
     1
102
RTVSPropertyOp22
 70
     1
102
RTVSPropertyOp23
 70
     1
102
RTVSPropertyOp24
 70
     1
102
RTVSPropertyOp25
 70
     1
102
RTVSPropertyOp26
 70
     1
102
RTVSPropertyOp27
 70
     1
102
RTVSPropertyOp28
 70
     1
102
RTVSPropertyOp29
 70
     1
102
RTVSPropertyOp30
 70
     1
102
RTVSPropertyOp31
 70
     1
102
RTVSPropertyOp32
 70
     1
  0
XRECORD
  5
2047
102
{ACAD_REACTORS
330
2046
102
}
330
2046
100
AcDbXrecord
280
     1
102
RTVSPropertyOp0
 70
     1
102
RTVSPropertyOp1
 70
     1
102
RTVSPropertyOp2
 70
     1
102
RTVSPropertyOp3
 70
     1
102
RTVSPropertyOp4
 70
     1
102
RTVSPropertyOp5
 70
     1
102
RTVSPropertyOp6
 70
     1
102
RTVSPropertyOp7
 70
     1
102
RTVSPropertyOp8
 70
     1
102
RTVSPropertyOp9
 70
     1
102
RTVSPropertyOp10
 70
     1
102
RTVSPropertyOp11
 70
     1
102
RTVSPropertyOp12
 70
     1
102
RTVSPropertyOp13
 70
     1
102
RTVSPropertyOp14
 70
     1
102
RTVSPropertyOp15
 70
     1
102
RTVSPropertyOp16
 70
     1
102
RTVSPropertyOp17
 70
     1
102
RTVSPropertyOp18
 70
     1
102
RTVSPropertyOp19
 70
     1
102
RTVSPropertyOp20
 70
     1
102
RTVSPropertyOp21
 70
     1
102
RTVSPropertyOp22
 70
     1
102
RTVSPropertyOp23
 70
     1
102
RTVSPropertyOp24
 70
     1
102
RTVSPropertyOp25
 70
     1
102
RTVSPropertyOp26
 70
     1
102
RTVSPropertyOp27
 70
     1
102
RTVSPropertyOp28
 70
     1
102
RTVSPropertyOp29
 70
     1
102
RTVSPropertyOp30
 70
     1
102
RTVSPropertyOp31
 70
     1
102
RTVSPropertyOp32
 70
     1
  0
XRECORD
  5
2038
102
{ACAD_REACTORS
330
2037
102
}
330
2037
100
AcDbXrecord
280
     1
102
RTVSPropertyOp0
 70
     1
102
RTVSPropertyOp1
 70
     1
102
RTVSPropertyOp2
 70
     1
102
RTVSPropertyOp3
 70
     1
102
RTVSPropertyOp4
 70
     1
102
RTVSPropertyOp5
 70
     1
102
RTVSPropertyOp6
 70
     1
102
RTVSPropertyOp7
 70
     1
102
RTVSPropertyOp8
 70
     1
102
RTVSPropertyOp9
 70
     1
102
RTVSPropertyOp10
 70
     1
102
RTVSPropertyOp11
 70
     1
102
RTVSPropertyOp12
 70
     1
102
RTVSPropertyOp13
 70
     1
102
RTVSPropertyOp14
 70
     1
102
RTVSPropertyOp15
 70
     1
102
RTVSPropertyOp16
 70
     1
102
RTVSPropertyOp17
 70
     1
102
RTVSPropertyOp18
 70
     1
102
RTVSPropertyOp19
 70
     1
102
RTVSPropertyOp20
 70
     1
102
RTVSPropertyOp21
 70
     1
102
RTVSPropertyOp22
 70
     1
102
RTVSPropertyOp23
 70
     1
102
RTVSPropertyOp24
 70
     1
102
RTVSPropertyOp25
 70
     1
102
RTVSPropertyOp26
 70
     1
102
RTVSPropertyOp27
 70
     1
102
RTVSPropertyOp28
 70
     1
102
RTVSPropertyOp29
 70
     1
102
RTVSPropertyOp30
 70
     1
102
RTVSPropertyOp31
 70
     1
102
RTVSPropertyOp32
 70
     1
  0
XRECORD
  5
2041
102
{ACAD_REACTORS
330
2040
102
}
330
2040
100
AcDbXrecord
280
     1
102
RTVSPropertyOp0
 70
     1
102
RTVSPropertyOp1
 70
     1
102
RTVSPropertyOp2
 70
     1
102
RTVSPropertyOp3
 70
     1
102
RTVSPropertyOp4
 70
     1
102
RTVSPropertyOp5
 70
     1
102
RTVSPropertyOp6
 70
     1
102
RTVSPropertyOp7
 70
     1
102
RTVSPropertyOp8
 70
     1
102
RTVSPropertyOp9
 70
     1
102
RTVSPropertyOp10
 70
     1
102
RTVSPropertyOp11
 70
     1
102
RTVSPropertyOp12
 70
     1
102
RTVSPropertyOp13
 70
     1
102
RTVSPropertyOp14
 70
     1
102
RTVSPropertyOp15
 70
     1
102
RTVSPropertyOp16
 70
     1
102
RTVSPropertyOp17
 70
     1
102
RTVSPropertyOp18
 70
     1
102
RTVSPropertyOp19
 70
     1
102
RTVSPropertyOp20
 70
     1
102
RTVSPropertyOp21
 70
     1
102
RTVSPropertyOp22
 70
     1
102
RTVSPropertyOp23
 70
     1
102
RTVSPropertyOp24
 70
     1
102
RTVSPropertyOp25
 70
     1
102
RTVSPropertyOp26
 70
     1
102
RTVSPropertyOp27
 70
     1
102
RTVSPropertyOp28
 70
     1
102
RTVSPropertyOp29
 70
     1
102
RTVSPropertyOp30
 70
     1
102
RTVSPropertyOp31
 70
     1
102
RTVSPropertyOp32
 70
     1
  0
XRECORD
  5
2049
102
{ACAD_REACTORS
330
2048
102
}
330
2048
100
AcDbXrecord
280
     1
102
RTVSPropertyOp0
 70
     1
102
RTVSPropertyOp1
 70
     1
102
RTVSPropertyOp2
 70
     1
102
RTVSPropertyOp3
 70
     1
102
RTVSPropertyOp4
 70
     1
102
RTVSPropertyOp5
 70
     1
102
RTVSPropertyOp6
 70
     1
102
RTVSPropertyOp7
 70
     1
102
RTVSPropertyOp8
 70
     1
102
RTVSPropertyOp9
 70
     1
102
RTVSPropertyOp10
 70
     1
102
RTVSPropertyOp11
 70
     1
102
RTVSPropertyOp12
 70
     1
102
RTVSPropertyOp13
 70
     1
102
RTVSPropertyOp14
 70
     1
102
RTVSPropertyOp15
 70
     1
102
RTVSPropertyOp16
 70
     1
102
RTVSPropertyOp17
 70
     1
102
RTVSPropertyOp18
 70
     1
102
RTVSPropertyOp19
 70
     1
102
RTVSPropertyOp20
 70
     1
102
RTVSPropertyOp21
 70
     1
102
RTVSPropertyOp22
 70
     1
102
RTVSPropertyOp23
 70
     1
102
RTVSPropertyOp24
 70
     1
102
RTVSPropertyOp25
 70
     1
102
RTVSPropertyOp26
 70
     1
102
RTVSPropertyOp27
 70
     1
102
RTVSPropertyOp28
 70
     1
102
RTVSPropertyOp29
 70
     1
102
RTVSPropertyOp30
 70
     1
102
RTVSPropertyOp31
 70
     1
102
RTVSPropertyOp32
 70
     1
  0
ENDSEC
  0
EOF
