  0
SECTION
  2
HEADER
  9
$ACADVER
  1
AC1015
  9
$ACADMAINTVER
 70
    20
  9
$DWGCODEPAGE
  3
ANSI_1252
  9
$INSBASE
 10
0.0
 20
0.0
 30
0.0
  9
$EXTMIN
 10
-0.0000000274912111
 20
0.0000000469858321
 30
0.0
  9
$EXTMAX
 10
67.99999997250878
 20
38.62667528630168
 30
0.0
  9
$LIMMIN
 10
0.0
 20
0.0
  9
$LIMMAX
 10
12.0
 20
9.0
  9
$ORTHOMODE
 70
     0
  9
$REGENMODE
 70
     1
  9
$FILLMODE
 70
     1
  9
$QTEXTMODE
 70
     0
  9
$MIRRTEXT
 70
     0
  9
$LTSCALE
 40
1.0
  9
$ATTMODE
 70
     1
  9
$TEXTSIZE
 40
0.2
  9
$TRACEWID
 40
0.05
  9
$TEXTSTYLE
  7
Standard
  9
$CLAYER
  8
0
  9
$CELTYPE
  6
ByLayer
  9
$CECOLOR
 62
   256
  9
$CELTSCALE
 40
1.0
  9
$DISPSILH
 70
     0
  9
$DIMSCALE
 40
2.0
  9
$DIMASZ
 40
0.125
  9
$DIMEXO
 40
0.1875
  9
$DIMDLI
 40
0.1875
  9
$DIMRND
 40
0.0
  9
$DIMDLE
 40
0.0
  9
$DIMEXE
 40
0.09
  9
$DIMTP
 40
0.0
  9
$DIMTM
 40
0.0
  9
$DIMTXT
 40
0.093
  9
$DIMCEN
 40
0.0
  9
$DIMTSZ
 40
0.0
  9
$DIMTOL
 70
     0
  9
$DIMLIM
 70
     0
  9
$DIMTIH
 70
     0
  9
$DIMTOH
 70
     0
  9
$DIMSE1
 70
     0
  9
$DIMSE2
 70
     0
  9
$DIMTAD
 70
     3
  9
$DIMZIN
 70
     3
  9
$DIMBLK
  1

  9
$DIMASO
 70
     1
  9
$DIMSHO
 70
     1
  9
$DIMPOST
  1
"
  9
$DIMAPOST
  1
mm
  9
$DIMALT
 70
     0
  9
$DIMALTD
 70
     3
  9
$DIMALTF
 40
25.4
  9
$DIMLFAC
 40
1.0
  9
$DIMTOFL
 70
     0
  9
$DIMTVP
 40
0.0
  9
$DIMTIX
 70
     0
  9
$DIMSOXD
 70
     0
  9
$DIMSAH
 70
     0
  9
$DIMBLK1
  1

  9
$DIMBLK2
  1

  9
$DIMSTYLE
  2
EXT_ON-ON
  9
$DIMCLRD
 70
     0
  9
$DIMCLRE
 70
     0
  9
$DIMCLRT
 70
     0
  9
$DIMTFAC
 40
1.0
  9
$DIMGAP
 40
0.05
  9
$DIMJUST
 70
     0
  9
$DIMSD1
 70
     0
  9
$DIMSD2
 70
     0
  9
$DIMTOLJ
 70
     1
  9
$DIMTZIN
 70
     3
  9
$DIMALTZ
 70
     3
  9
$DIMALTTZ
 70
     3
  9
$DIMUPT
 70
     0
  9
$DIMDEC
 70
     4
  9
$DIMTDEC
 70
     4
  9
$DIMALTU
 70
     5
  9
$DIMALTTD
 70
     3
  9
$DIMTXSTY
  7
Standard
  9
$DIMAUNIT
 70
     0
  9
$DIMADEC
 70
     2
  9
$DIMALTRND
 40
0.0
  9
$DIMAZIN
 70
     0
  9
$DIMDSEP
 70
    46
  9
$DIMATFIT
 70
     0
  9
$DIMFRAC
 70
     2
  9
$DIMLDRBLK
  1

  9
$DIMLUNIT
 70
     5
  9
$DIMLWD
 70
    -2
  9
$DIMLWE
 70
    -2
  9
$DIMTMOVE
 70
     0
  9
$LUNITS
 70
     2
  9
$LUPREC
 70
     5
  9
$SKETCHINC
 40
0.1
  9
$FILLETRAD
 40
0.0
  9
$AUNITS
 70
     0
  9
$AUPREC
 70
     0
  9
$MENU
  1
.
  9
$ELEVATION
 40
0.0
  9
$PELEVATION
 40
0.0
  9
$THICKNESS
 40
0.0
  9
$LIMCHECK
 70
     0
  9
$CHAMFERA
 40
0.0
  9
$CHAMFERB
 40
0.0
  9
$CHAMFERC
 40
0.0
  9
$CHAMFERD
 40
0.0
  9
$SKPOLY
 70
     0
  9
$TDCREATE
 40
2453567.419181204
  9
$TDUCREATE
 40
2453567.627514537
  9
$TDUPDATE
 40
2457807.533094120
  9
$TDUUPDATE
 40
2457807.741427454
  9
$TDINDWG
 40
0.2232099421
  9
$TDUSRTIMER
 40
0.2232099421
  9
$USRTIMER
 70
     1
  9
$ANGBASE
 50
0.0
  9
$ANGDIR
 70
     0
  9
$PDMODE
 70
     0
  9
$PDSIZE
 40
0.0
  9
$PLINEWID
 40
0.0
  9
$SPLFRAME
 70
     0
  9
$SPLINETYPE
 70
     6
  9
$SPLINESEGS
 70
     8
  9
$HANDSEED
  5
1AA5
  9
$SURFTAB1
 70
     6
  9
$SURFTAB2
 70
     6
  9
$SURFTYPE
 70
     6
  9
$SURFU
 70
     6
  9
$SURFV
 70
     6
  9
$UCSBASE
  2

  9
$UCSNAME
  2

  9
$UCSORG
 10
0.0
 20
0.0
 30
0.0
  9
$UCSXDIR
 10
1.0
 20
0.0
 30
0.0
  9
$UCSYDIR
 10
0.0
 20
1.0
 30
0.0
  9
$UCSORTHOREF
  2

  9
$UCSORTHOVIEW
 70
     0
  9
$UCSORGTOP
 10
0.0
 20
0.0
 30
0.0
  9
$UCSORGBOTTOM
 10
0.0
 20
0.0
 30
0.0
  9
$UCSORGLEFT
 10
0.0
 20
0.0
 30
0.0
  9
$UCSORGRIGHT
 10
0.0
 20
0.0
 30
0.0
  9
$UCSORGFRONT
 10
0.0
 20
0.0
 30
0.0
  9
$UCSORGBACK
 10
0.0
 20
0.0
 30
0.0
  9
$PUCSBASE
  2

  9
$PUCSNAME
  2

  9
$PUCSORG
 10
0.0
 20
0.0
 30
0.0
  9
$PUCSXDIR
 10
1.0
 20
0.0
 30
0.0
  9
$PUCSYDIR
 10
0.0
 20
1.0
 30
0.0
  9
$PUCSORTHOREF
  2

  9
$PUCSORTHOVIEW
 70
     0
  9
$PUCSORGTOP
 10
0.0
 20
0.0
 30
0.0
  9
$PUCSORGBOTTOM
 10
0.0
 20
0.0
 30
0.0
  9
$PUCSORGLEFT
 10
0.0
 20
0.0
 30
0.0
  9
$PUCSORGRIGHT
 10
0.0
 20
0.0
 30
0.0
  9
$PUCSORGFRONT
 10
0.0
 20
0.0
 30
0.0
  9
$PUCSORGBACK
 10
0.0
 20
0.0
 30
0.0
  9
$USERI1
 70
     0
  9
$USERI2
 70
     0
  9
$USERI3
 70
     0
  9
$USERI4
 70
     0
  9
$USERI5
 70
     0
  9
$USERR1
 40
0.0
  9
$USERR2
 40
0.0
  9
$USERR3
 40
0.0
  9
$USERR4
 40
0.0
  9
$USERR5
 40
0.0
  9
$WORLDVIEW
 70
     1
  9
$SHADEDGE
 70
     3
  9
$SHADEDIF
 70
    70
  9
$TILEMODE
 70
     1
  9
$MAXACTVP
 70
    64
  9
$PINSBASE
 10
0.0
 20
0.0
 30
0.0
  9
$PLIMCHECK
 70
     0
  9
$PEXTMIN
 10
0.0
 20
0.0
 30
0.0
  9
$PEXTMAX
 10
0.0
 20
0.0
 30
0.0
  9
$PLIMMIN
 10
0.0
 20
0.0
  9
$PLIMMAX
 10
12.0
 20
9.0
  9
$UNITMODE
 70
     0
  9
$VISRETAIN
 70
     1
  9
$PLINEGEN
 70
     0
  9
$PSLTSCALE
 70
     1
  9
$TREEDEPTH
 70
  3020
  9
$CMLSTYLE
  2
Standard
  9
$CMLJUST
 70
     0
  9
$CMLSCALE
 40
1.0
  9
$PROXYGRAPHICS
 70
     1
  9
$MEASUREMENT
 70
     0
  9
$CELWEIGHT
370
    -1
  9
$ENDCAPS
280
     0
  9
$JOINSTYLE
280
     0
  9
$LWDISPLAY
290
     0
  9
$INSUNITS
 70
     1
  9
$HYPERLINKBASE
  1

  9
$STYLESHEET
  1

  9
$XEDIT
290
     1
  9
$CEPSNTYPE
380
     0
  9
$PSTYLEMODE
290
     1
  9
$FINGERPRINTGUID
  2
{FDEAD576-A652-11D2-9A35-0060089B3A3F}
  9
$VERSIONGUID
  2
{2E8407A8-C3C1-4639-8139-29803ACE58AD}
  9
$EXTNAMES
290
     1
  9
$PSVPSCALE
 40
0.0
  9
$OLESTARTUP
290
     0
  0
ENDSEC
  0
SECTION
  2
CLASSES
  0
CLASS
  1
ACDBDICTIONARYWDFLT
  2
AcDbDictionaryWithDefault
  3
ObjectDBX Classes
 90
        0
280
     0
281
     0
  0
CLASS
  1
ACDBPLACEHOLDER
  2
AcDbPlaceHolder
  3
ObjectDBX Classes
 90
        0
280
     0
281
     0
  0
CLASS
  1
LAYOUT
  2
AcDbLayout
  3
ObjectDBX Classes
 90
        0
280
     0
281
     0
  0
CLASS
  1
DICTIONARYVAR
  2
AcDbDictionaryVar
  3
ObjectDBX Classes
 90
        0
280
     0
281
     0
  0
CLASS
  1
DIMASSOC
  2
AcDbDimAssoc
  3
"AcDbDimAssoc|Product Desc:     AcDim ARX App For Dimension|Company:          Autodesk, Inc.|WEB Address:      www.autodesk.com"
 90
    32768
280
     0
281
     0
  0
CLASS
  1
MATERIAL
  2
AcDbMaterial
  3
ObjectDBX Classes
 90
     1153
280
     0
281
     0
  0
CLASS
  1
VISUALSTYLE
  2
AcDbVisualStyle
  3
ObjectDBX Classes
 90
     4095
280
     0
281
     0
  0
CLASS
  1
TABLESTYLE
  2
AcDbTableStyle
  3
ObjectDBX Classes
 90
     4095
280
     0
281
     0
  0
CLASS
  1
SCALE
  2
AcDbScale
  3
ObjectDBX Classes
 90
     1153
280
     0
281
     0
  0
CLASS
  1
MLEADERSTYLE
  2
AcDbMLeaderStyle
  3
ACDB_MLEADERSTYLE_CLASS
 90
     4095
280
     0
281
     0
  0
CLASS
  1
SORTENTSTABLE
  2
AcDbSortentsTable
  3
ObjectDBX Classes
 90
        0
280
     0
281
     0
  0
CLASS
  1
CELLSTYLEMAP
  2
AcDbCellStyleMap
  3
ObjectDBX Classes
 90
     1152
280
     0
281
     0
  0
CLASS
  1
EXACXREFPANELOBJECT
  2
ExAcXREFPanelObject
  3
EXAC_ESW
 90
     1025
280
     0
281
     0
  0
CLASS
  1
NPOCOLLECTION
  2
AcDbImpNonPersistentObjectsCollection
  3
ObjectDBX Classes
 90
     1153
280
     0
281
     0
  0
CLASS
  1
FIELD
  2
AcDbField
  3
ObjectDBX Classes
 90
    33920
280
     0
281
     0
  0
CLASS
  1
FIELDLIST
  2
AcDbFieldList
  3
ObjectDBX Classes
 90
     1152
280
     0
281
     0
  0
ENDSEC
  0
SECTION
  2
TABLES
  0
TABLE
  2
VPORT
  5
8
102
{ACAD_XDICTIONARY
360
133D
102
}
330
0
100
AcDbSymbolTable
 70
     1
  0
VPORT
  5
12AC
330
8
100
AcDbSymbolTableRecord
100
AcDbViewportTableRecord
  2
*Active
 70
     0
 10
0.0
 20
0.0
 11
1.0
 21
1.0
 12
46.09861188731552
 22
19.313338002909
 13
0.0
 23
0.0
 14
0.5
 24
0.5
 15
0.5
 25
0.5
 16
0.0
 26
0.0
 36
1.0
 17
0.0
 27
0.0
 37
0.0
 40
38.88297182842375
 41
2.681260945709281
 42
50.0
 43
0.0
 44
0.0
 50
0.0
 51
0.0
 71
     0
 72
  1000
 73
     1
 74
     3
 75
     0
 76
     0
 77
     0
 78
     0
281
     0
 65
     1
110
0.0
120
0.0
130
0.0
111
1.0
121
0.0
131
0.0
112
0.0
122
1.0
132
0.0
 79
     0
146
0.0
1001
ACAD_NAV_VCDISPLAY
1070
     3
  0
ENDTAB
  0
TABLE
  2
LTYPE
  5
5
330
0
100
AcDbSymbolTable
 70
     4
  0
LTYPE
  5
14
330
5
100
AcDbSymbolTableRecord
100
AcDbLinetypeTableRecord
  2
ByBlock
 70
     0
  3

 72
    65
 73
     0
 40
0.0
  0
LTYPE
  5
15
330
5
100
AcDbSymbolTableRecord
100
AcDbLinetypeTableRecord
  2
ByLayer
 70
     0
  3

 72
    65
 73
     0
 40
0.0
  0
LTYPE
  5
16
330
5
100
AcDbSymbolTableRecord
100
AcDbLinetypeTableRecord
  2
Continuous
 70
     0
  3
Solid line
 72
    65
 73
     0
 40
0.0
  0
LTYPE
  5
23D
330
5
100
AcDbSymbolTableRecord
100
AcDbLinetypeTableRecord
  2
CENTER
 70
     0
  3
CENTER LINE
 72
    65
 73
     4
 40
2.0
 49
1.25
 74
     0
 49
-0.25
 74
     0
 49
0.25
 74
     0
 49
-0.25
 74
     0
  0
LTYPE
  5
19AD
330
5
100
AcDbSymbolTableRecord
100
AcDbLinetypeTableRecord
  2
DASHED
 70
     0
  3
Dashed __ __ __ __ __ __ __ __ __ __ __ __ __ _
 72
    65
 73
     2
 40
0.75
 49
0.5
 74
     0
 49
-0.25
 74
     0
  0
LTYPE
  5
19AE
330
5
100
AcDbSymbolTableRecord
100
AcDbLinetypeTableRecord
  2
DOT
 70
     0
  3
Dot . . . . . . . . . . . . . . . . . . . . . .
 72
    65
 73
     2
 40
0.25
 49
0.0
 74
     0
 49
-0.25
 74
     0
  0
ENDTAB
  0
TABLE
  2
LAYER
  5
2
102
{ACAD_XDICTIONARY
360
131C
102
}
330
0
100
AcDbSymbolTable
 70
     9
  0
LAYER
  5
10
102
{ACAD_XDICTIONARY
360
132C
102
}
330
2
100
AcDbSymbolTableRecord
100
AcDbLayerTableRecord
  2
0
 70
     0
 62
     7
  6
Continuous
370
    -3
390
F
  0
LAYER
  5
23E
330
2
100
AcDbSymbolTableRecord
100
AcDbLayerTableRecord
  2
DEFPOINTS
 70
     0
 62
     7
  6
Continuous
290
     0
370
    -3
390
F
  0
LAYER
  5
23F
102
{ACAD_XDICTIONARY
360
132E
102
}
330
2
100
AcDbSymbolTableRecord
100
AcDbLayerTableRecord
  2
R-SWTS-DET1
 70
     0
 62
     1
  6
Continuous
370
    -3
390
F
  0
LAYER
  5
240
102
{ACAD_XDICTIONARY
360
1330
102
}
330
2
100
AcDbSymbolTableRecord
100
AcDbLayerTableRecord
  2
PART_NUMBERS
 70
     0
 62
     6
  6
Continuous
370
    -3
390
F
  0
LAYER
  5
241
102
{ACAD_XDICTIONARY
360
1332
102
}
330
2
100
AcDbSymbolTableRecord
100
AcDbLayerTableRecord
  2
R-ANNO-DIMS
 70
     0
 62
     3
  6
Continuous
370
    -3
390
F
  0
LAYER
  5
242
102
{ACAD_XDICTIONARY
360
1334
102
}
330
2
100
AcDbSymbolTableRecord
100
AcDbLayerTableRecord
  2
R-SWTS-DET2
 70
     0
 62
     4
  6
Continuous
370
    -3
390
F
  0
LAYER
  5
244
102
{ACAD_XDICTIONARY
360
1336
102
}
330
2
100
AcDbSymbolTableRecord
100
AcDbLayerTableRecord
  2
R-ANNO-TEXT
 70
     0
 62
     6
  6
Continuous
370
    -3
390
F
  0
LAYER
  5
1397
102
{ACAD_XDICTIONARY
360
1398
102
}
330
2
100
AcDbSymbolTableRecord
100
AcDbLayerTableRecord
  2
TEXT
 70
     0
 62
     3
  6
Continuous
370
    -3
390
F
  0
LAYER
  5
19AF
330
2
100
AcDbSymbolTableRecord
100
AcDbLayerTableRecord
  2
Kawneer Logo-English
 70
     0
 62
     7
  6
Continuous
370
    -3
390
F
1001
AcAecLayerStandard
1000

1000

1001
AcCmTransparency
1071
        0
  0
ENDTAB
  0
TABLE
  2
STYLE
  5
3
330
0
100
AcDbSymbolTable
 70
     1
  0
STYLE
  5
11
330
3
100
AcDbSymbolTableRecord
100
AcDbTextStyleTableRecord
  2
Standard
 70
     0
 40
0.0
 41
1.0
 50
0.0
 71
     0
 42
0.2
  3
arial.ttf
  4

1001
ACAD
1000
Arial
1071
       34
  0
ENDTAB
  0
TABLE
  2
VIEW
  5
6
330
0
100
AcDbSymbolTable
 70
     0
  0
ENDTAB
  0
TABLE
  2
UCS
  5
7
330
0
100
AcDbSymbolTable
 70
     0
  0
ENDTAB
  0
TABLE
  2
APPID
  5
9
330
0
100
AcDbSymbolTable
 70
    15
  0
APPID
  5
12
330
9
100
AcDbSymbolTableRecord
100
AcDbRegAppTableRecord
  2
ACAD
 70
     0
  0
APPID
  5
139B
330
9
100
AcDbSymbolTableRecord
100
AcDbRegAppTableRecord
  2
ACAD_NAV_VCDISPLAY
 70
     0
  0
APPID
  5
19B1
330
9
100
AcDbSymbolTableRecord
100
AcDbRegAppTableRecord
  2
ACAD_EXEMPT_FROM_CAD_STANDARDS
 70
     0
  0
APPID
  5
19B2
330
9
100
AcDbSymbolTableRecord
100
AcDbRegAppTableRecord
  2
GradientColor1ACI
 70
     0
  0
APPID
  5
19B3
330
9
100
AcDbSymbolTableRecord
100
AcDbRegAppTableRecord
  2
GradientColor2ACI
 70
     0
  0
APPID
  5
19B4
330
9
100
AcDbSymbolTableRecord
100
AcDbRegAppTableRecord
  2
ACAD_MLEADERVER
 70
     0
  0
APPID
  5
19B5
330
9
100
AcDbSymbolTableRecord
100
AcDbRegAppTableRecord
  2
ACAD_PSEXT
 70
     0
  0
APPID
  5
19B6
330
9
100
AcDbSymbolTableRecord
100
AcDbRegAppTableRecord
  2
ACAD_DSTYLE_DIMJAG
 70
     0
  0
APPID
  5
19B7
330
9
100
AcDbSymbolTableRecord
100
AcDbRegAppTableRecord
  2
ACAD_DSTYLE_DIMTALN
 70
     0
  0
APPID
  5
19B8
330
9
100
AcDbSymbolTableRecord
100
AcDbRegAppTableRecord
  2
ACAD_DSTYLE_DIMBREAK
 70
     0
  0
APPID
  5
19B9
330
9
100
AcDbSymbolTableRecord
100
AcDbRegAppTableRecord
  2
AcDbDynamicBlockGUID
 70
     0
  0
APPID
  5
19BA
330
9
100
AcDbSymbolTableRecord
100
AcDbRegAppTableRecord
  2
ACAUTHENVIRON
 70
     0
  0
APPID
  5
19BB
330
9
100
AcDbSymbolTableRecord
100
AcDbRegAppTableRecord
  2
AcDbDynamicBlockTrueName
 70
     0
  0
APPID
  5
19BC
330
9
100
AcDbSymbolTableRecord
100
AcDbRegAppTableRecord
  2
AcAecLayerStandard
 70
     0
  0
APPID
  5
19BD
330
9
100
AcDbSymbolTableRecord
100
AcDbRegAppTableRecord
  2
AcCmTransparency
 70
     0
  0
ENDTAB
  0
TABLE
  2
DIMSTYLE
  5
A
330
0
100
AcDbSymbolTable
 70
     2
100
AcDbDimStyleTable
 71
     1
340
245
  0
DIMSTYLE
105
245
102
{ACAD_REACTORS
330
59F
330
5AE
330
5AF
330
5B0
330
5B1
330
5B2
330
5B3
330
5B4
330
5B5
330
5B6
330
5B7
330
5B9
330
5BA
330
5BB
330
541
330
542
102
}
330
A
100
AcDbSymbolTableRecord
100
AcDbDimStyleTableRecord
  2
EXT_ON-ON
 70
     0
  3
"
  4
mm
 40
2.0
 41
0.125
 42
0.1875
 43
0.1875
 44
0.09
 73
     0
 74
     0
 77
     3
 78
     3
140
0.093
141
0.0
147
0.05
171
     3
179
     2
273
     5
274
     3
276
     2
277
     5
284
     3
285
     3
286
     3
289
     0
340
11
  0
DIMSTYLE
105
19B0
330
A
100
AcDbSymbolTableRecord
100
AcDbDimStyleTableRecord
  2
Standard
 70
     0
340
11
  0
ENDTAB
  0
TABLE
  2
BLOCK_RECORD
  5
1
330
0
100
AcDbSymbolTable
 70
    18
  0
BLOCK_RECORD
  5
1F
330
1
100
AcDbSymbolTableRecord
100
AcDbBlockTableRecord
  2
*Model_Space
340
22
  0
BLOCK_RECORD
  5
58
330
1
100
AcDbSymbolTableRecord
100
AcDbBlockTableRecord
  2
*Paper_Space
340
59
  0
BLOCK_RECORD
  5
5D
330
1
100
AcDbSymbolTableRecord
100
AcDbBlockTableRecord
  2
*Paper_Space0
340
5E
  0
BLOCK_RECORD
  5
82B
330
1
100
AcDbSymbolTableRecord
100
AcDbBlockTableRecord
  2
*D1
340
0
  0
BLOCK_RECORD
  5
837
330
1
100
AcDbSymbolTableRecord
100
AcDbBlockTableRecord
  2
*D2
340
0
  0
BLOCK_RECORD
  5
843
330
1
100
AcDbSymbolTableRecord
100
AcDbBlockTableRecord
  2
*D3
340
0
  0
BLOCK_RECORD
  5
84F
330
1
100
AcDbSymbolTableRecord
100
AcDbBlockTableRecord
  2
*D4
340
0
  0
BLOCK_RECORD
  5
85B
330
1
100
AcDbSymbolTableRecord
100
AcDbBlockTableRecord
  2
*D5
340
0
  0
BLOCK_RECORD
  5
867
330
1
100
AcDbSymbolTableRecord
100
AcDbBlockTableRecord
  2
*D6
340
0
  0
BLOCK_RECORD
  5
873
330
1
100
AcDbSymbolTableRecord
100
AcDbBlockTableRecord
  2
*D7
340
0
  0
BLOCK_RECORD
  5
87F
330
1
100
AcDbSymbolTableRecord
100
AcDbBlockTableRecord
  2
*D8
340
0
  0
BLOCK_RECORD
  5
88B
330
1
100
AcDbSymbolTableRecord
100
AcDbBlockTableRecord
  2
*D9
340
0
  0
BLOCK_RECORD
  5
897
330
1
100
AcDbSymbolTableRecord
100
AcDbBlockTableRecord
  2
*D10
340
0
  0
BLOCK_RECORD
  5
8A3
330
1
100
AcDbSymbolTableRecord
100
AcDbBlockTableRecord
  2
*D11
340
0
  0
BLOCK_RECORD
  5
8AF
330
1
100
AcDbSymbolTableRecord
100
AcDbBlockTableRecord
  2
*D12
340
0
  0
BLOCK_RECORD
  5
8BC
330
1
100
AcDbSymbolTableRecord
100
AcDbBlockTableRecord
  2
*D13
340
0
  0
BLOCK_RECORD
  5
8C8
330
1
100
AcDbSymbolTableRecord
100
AcDbBlockTableRecord
  2
*D14
340
0
  0
BLOCK_RECORD
  5
9B1
330
1
100
AcDbSymbolTableRecord
100
AcDbBlockTableRecord
  2
*D15
340
0
  0
BLOCK_RECORD
  5
9BD
330
1
100
AcDbSymbolTableRecord
100
AcDbBlockTableRecord
  2
*D16
340
0
  0
BLOCK_RECORD
  5
19C0
102
{ACAD_XDICTIONARY
360
19CA
102
}
330
1
100
AcDbSymbolTableRecord
100
AcDbBlockTableRecord
  2
Kawneer Logo English
340
0
102
{BLKREFS
331
19CE
102
}
1001
ACAD
1000
DesignCenter Data
1002
{
1070
     1
1070
     1
1002
}
  0
ENDTAB
  0
ENDSEC
  0
SECTION
  2
BLOCKS
  0
BLOCK
  5
20
330
1F
100
AcDbEntity
  8
0
100
AcDbBlockBegin
  2
*Model_Space
 70
     0
 10
0.0
 20
0.0
 30
0.0
  3
*Model_Space
  1

  0
ENDBLK
  5
21
330
1F
100
AcDbEntity
  8
0
100
AcDbBlockEnd
  0
BLOCK
  5
5A
330
58
100
AcDbEntity
 67
     1
  8
0
100
AcDbBlockBegin
  2
*Paper_Space
 70
     0
 10
0.0
 20
0.0
 30
0.0
  3
*Paper_Space
  1

  0
ENDBLK
  5
5B
330
58
100
AcDbEntity
 67
     1
  8
0
100
AcDbBlockEnd
  0
BLOCK
  5
5F
330
5D
100
AcDbEntity
 67
     1
  8
0
100
AcDbBlockBegin
  2
*Paper_Space0
 70
     0
 10
0.0
 20
0.0
 30
0.0
  3
*Paper_Space0
  1

  0
ENDBLK
  5
60
330
5D
100
AcDbEntity
 67
     1
  8
0
100
AcDbBlockEnd
  0
BLOCK
  5
835
330
82B
100
AcDbEntity
  8
0
100
AcDbBlockBegin
  2
*D1
 70
     1
 10
0.0
 20
0.0
 30
0.0
  3
*D1
  1

  0
LINE
  5
1284
330
82B
100
AcDbEntity
  8
R-ANNO-DIMS
 62
     0
370
    -2
100
AcDbLine
 10
28.48484144555509
 20
14.95180955915607
 30
0.0
 11
28.48484144555509
 21
15.66120985142088
 31
0.0
  0
LINE
  5
1285
330
82B
100
AcDbEntity
  8
R-ANNO-DIMS
 62
     0
370
    -2
100
AcDbLine
 10
34.48494144555508
 20
14.95180955915607
 30
0.0
 11
34.48494144555508
 21
15.66120985142088
 31
0.0
  0
LINE
  5
1286
330
82B
100
AcDbEntity
  8
R-ANNO-DIMS
 62
     0
370
    -2
100
AcDbLine
 10
28.73484144555509
 20
15.48120985142088
 30
0.0
 11
34.23494144555508
 21
15.48120985142088
 31
0.0
  0
SOLID
  5
1287
330
82B
100
AcDbEntity
  8
R-ANNO-DIMS
 62
     0
100
AcDbTrace
 10
28.73484144555509
 20
15.52287651808755
 30
0.0
 11
28.73484144555509
 21
15.43954318475422
 31
0.0
 12
28.48484144555509
 22
15.48120985142088
 32
0.0
 13
28.48484144555509
 23
15.48120985142088
 33
0.0
  0
SOLID
  5
1288
330
82B
100
AcDbEntity
  8
R-ANNO-DIMS
 62
     0
100
AcDbTrace
 10
34.23494144555508
 20
15.52287651808755
 30
0.0
 11
34.23494144555508
 21
15.43954318475422
 31
0.0
 12
34.48494144555508
 22
15.48120985142088
 32
0.0
 13
34.48494144555508
 23
15.48120985142088
 33
0.0
  0
MTEXT
  5
1289
330
82B
100
AcDbEntity
  8
R-ANNO-DIMS
 62
     0
100
AcDbMText
 10
31.48489144555508
 20
15.67420985142088
 30
0.0
 40
0.186
 41
0.0
 71
     5
 72
     1
  1
\A1;6"
 73
     1
 44
1.0
1001
ACAD
1000
MTEXTBEGIN
1070
    73
1070
     1
1070
    44
1040
1.0
1070
    74
1070
     0
1000
MTEXTEND
  0
POINT
  5
128A
330
82B
100
AcDbEntity
  8
DEFPOINTS
 62
     0
100
AcDbPoint
 10
28.48484144555509
 20
14.57680955915607
 30
0.0
  0
POINT
  5
128B
330
82B
100
AcDbEntity
  8
DEFPOINTS
 62
     0
100
AcDbPoint
 10
34.48494144555508
 20
14.57680955915607
 30
0.0
  0
POINT
  5
128C
330
82B
100
AcDbEntity
  8
DEFPOINTS
 62
     0
100
AcDbPoint
 10
34.48494144555508
 20
15.48120985142088
 30
0.0
  0
ENDBLK
  5
836
330
82B
100
AcDbEntity
  8
0
100
AcDbBlockEnd
  0
BLOCK
  5
841
330
837
100
AcDbEntity
  8
0
100
AcDbBlockBegin
  2
*D2
 70
     1
 10
0.0
 20
0.0
 30
0.0
  3
*D2
  1

  0
LINE
  5
127B
330
837
100
AcDbEntity
  8
R-ANNO-DIMS
 62
     0
370
    -2
100
AcDbLine
 10
29.54774783091253
 20
20.45764540337346
 30
0.0
 11
30.65539613722505
 21
20.45764540337346
 31
0.0
  0
LINE
  5
127C
330
837
100
AcDbEntity
  8
R-ANNO-DIMS
 62
     0
370
    -2
100
AcDbLine
 10
29.54774783091253
 20
21.70442158058303
 30
0.0
 11
30.65539613722505
 21
21.70442158058303
 31
0.0
  0
LINE
  5
127D
330
837
100
AcDbEntity
  8
R-ANNO-DIMS
 62
     0
370
    -2
100
AcDbLine
 10
30.47539613722505
 20
20.70764540337346
 30
0.0
 11
30.47539613722505
 21
21.45442158058303
 31
0.0
  0
SOLID
  5
127E
330
837
100
AcDbEntity
  8
R-ANNO-DIMS
 62
     0
100
AcDbTrace
 10
30.43372947055838
 20
20.70764540337346
 30
0.0
 11
30.51706280389172
 21
20.70764540337346
 31
0.0
 12
30.47539613722505
 22
20.45764540337346
 32
0.0
 13
30.47539613722505
 23
20.45764540337346
 33
0.0
  0
SOLID
  5
127F
330
837
100
AcDbEntity
  8
R-ANNO-DIMS
 62
     0
100
AcDbTrace
 10
30.43372947055838
 20
21.45442158058303
 30
0.0
 11
30.51706280389172
 21
21.45442158058303
 31
0.0
 12
30.47539613722505
 22
21.70442158058303
 32
0.0
 13
30.47539613722505
 23
21.70442158058303
 33
0.0
  0
MTEXT
  5
1280
330
837
100
AcDbEntity
  8
R-ANNO-DIMS
 62
     0
100
AcDbMText
 10
30.28239613722504
 20
21.08103349197825
 30
0.0
 40
0.186
 41
0.0
 71
     5
 72
     1
  1
\A1;1 1/4"
 11
0.0000000000000001
 21
1.0
 31
0.0
 73
     1
 44
1.0
1001
ACAD
1000
MTEXTBEGIN
1070
    73
1070
     1
1070
    44
1040
1.0
1070
    74
1070
     0
1000
MTEXTEND
  0
POINT
  5
1281
330
837
100
AcDbEntity
  8
DEFPOINTS
 62
     0
100
AcDbPoint
 10
29.17274783091253
 20
20.45764540337346
 30
0.0
  0
POINT
  5
1282
330
837
100
AcDbEntity
  8
DEFPOINTS
 62
     0
100
AcDbPoint
 10
29.17274783091253
 20
21.70442158058303
 30
0.0
  0
POINT
  5
1283
330
837
100
AcDbEntity
  8
DEFPOINTS
 62
     0
100
AcDbPoint
 10
30.47539613722505
 20
21.70442158058303
 30
0.0
  0
ENDBLK
  5
842
330
837
100
AcDbEntity
  8
0
100
AcDbBlockEnd
  0
BLOCK
  5
84D
330
843
100
AcDbEntity
  8
0
100
AcDbBlockBegin
  2
*D3
 70
     1
 10
0.0
 20
0.0
 30
0.0
  3
*D3
  1

  0
LINE
  5
1272
330
843
100
AcDbEntity
  8
R-ANNO-DIMS
 62
     0
370
    -2
100
AcDbLine
 10
22.42274783091254
 20
22.08264540337346
 30
0.0
 11
22.42274783091254
 21
22.86134997364705
 31
0.0
  0
LINE
  5
1273
330
843
100
AcDbEntity
  8
R-ANNO-DIMS
 62
     0
370
    -2
100
AcDbLine
 10
29.17274783091253
 20
22.08264540337346
 30
0.0
 11
29.17274783091253
 21
22.86134997364705
 31
0.0
  0
LINE
  5
1274
330
843
100
AcDbEntity
  8
R-ANNO-DIMS
 62
     0
370
    -2
100
AcDbLine
 10
22.67274783091254
 20
22.68134997364705
 30
0.0
 11
28.92274783091253
 21
22.68134997364705
 31
0.0
  0
SOLID
  5
1275
330
843
100
AcDbEntity
  8
R-ANNO-DIMS
 62
     0
100
AcDbTrace
 10
22.67274783091254
 20
22.72301664031372
 30
0.0
 11
22.67274783091254
 21
22.63968330698038
 31
0.0
 12
22.42274783091254
 22
22.68134997364705
 32
0.0
 13
22.42274783091254
 23
22.68134997364705
 33
0.0
  0
SOLID
  5
1276
330
843
100
AcDbEntity
  8
R-ANNO-DIMS
 62
     0
100
AcDbTrace
 10
28.92274783091253
 20
22.72301664031372
 30
0.0
 11
28.92274783091253
 21
22.63968330698038
 31
0.0
 12
29.17274783091253
 22
22.68134997364705
 32
0.0
 13
29.17274783091253
 23
22.68134997364705
 33
0.0
  0
MTEXT
  5
1277
330
843
100
AcDbEntity
  8
R-ANNO-DIMS
 62
     0
100
AcDbMText
 10
25.79774783091253
 20
22.87434997364705
 30
0.0
 40
0.186
 41
0.0
 71
     5
 72
     1
  1
\A1;6 3/4"
 73
     1
 44
1.0
1001
ACAD
1000
MTEXTBEGIN
1070
    73
1070
     1
1070
    44
1040
1.0
1070
    74
1070
     0
1000
MTEXTEND
  0
POINT
  5
1278
330
843
100
AcDbEntity
  8
DEFPOINTS
 62
     0
100
AcDbPoint
 10
22.42274783091254
 20
21.70764540337346
 30
0.0
  0
POINT
  5
1279
330
843
100
AcDbEntity
  8
DEFPOINTS
 62
     0
100
AcDbPoint
 10
29.17274783091253
 20
21.70764540337346
 30
0.0
  0
POINT
  5
127A
330
843
100
AcDbEntity
  8
DEFPOINTS
 62
     0
100
AcDbPoint
 10
29.17274783091253
 20
22.68134997364705
 30
0.0
  0
ENDBLK
  5
84E
330
843
100
AcDbEntity
  8
0
100
AcDbBlockEnd
  0
BLOCK
  5
859
330
84F
100
AcDbEntity
  8
0
100
AcDbBlockBegin
  2
*D4
 70
     1
 10
0.0
 20
0.0
 30
0.0
  3
*D4
  1

  0
LINE
  5
1269
330
84F
100
AcDbEntity
  8
R-ANNO-DIMS
 62
     0
370
    -2
100
AcDbLine
 10
29.24056354072371
 20
27.98626935551701
 30
0.0
 11
30.16957173788298
 21
27.98626935551701
 31
0.0
  0
LINE
  5
126A
330
84F
100
AcDbEntity
  8
R-ANNO-DIMS
 62
     0
370
    -2
100
AcDbLine
 10
29.24056354072371
 20
26.61126935551701
 30
0.0
 11
30.16957173788298
 21
26.61126935551701
 31
0.0
  0
LINE
  5
126B
330
84F
100
AcDbEntity
  8
R-ANNO-DIMS
 62
     0
370
    -2
100
AcDbLine
 10
29.98957173788298
 20
27.73626935551701
 30
0.0
 11
29.98957173788298
 21
26.86126935551701
 31
0.0
  0
SOLID
  5
126C
330
84F
100
AcDbEntity
  8
R-ANNO-DIMS
 62
     0
100
AcDbTrace
 10
29.94790507121632
 20
27.73626935551701
 30
0.0
 11
30.03123840454965
 21
27.73626935551701
 31
0.0
 12
29.98957173788298
 22
27.98626935551701
 32
0.0
 13
29.98957173788298
 23
27.98626935551701
 33
0.0
  0
SOLID
  5
126D
330
84F
100
AcDbEntity
  8
R-ANNO-DIMS
 62
     0
100
AcDbTrace
 10
29.94790507121632
 20
26.86126935551701
 30
0.0
 11
30.03123840454965
 21
26.86126935551701
 31
0.0
 12
29.98957173788298
 22
26.61126935551701
 32
0.0
 13
29.98957173788298
 23
26.61126935551701
 33
0.0
  0
MTEXT
  5
126E
330
84F
100
AcDbEntity
  8
R-ANNO-DIMS
 62
     0
100
AcDbMText
 10
29.79657173788297
 20
27.29876935551701
 30
0.0
 40
0.186
 41
0.0
 71
     5
 72
     1
  1
\A1;1 3/8"
 11
0.0000000000000001
 21
1.0
 31
0.0
 73
     1
 44
1.0
1001
ACAD
1000
MTEXTBEGIN
1070
    73
1070
     1
1070
    44
1040
1.0
1070
    74
1070
     0
1000
MTEXTEND
  0
POINT
  5
126F
330
84F
100
AcDbEntity
  8
DEFPOINTS
 62
     0
100
AcDbPoint
 10
28.86556354072371
 20
27.98626935551701
 30
0.0
  0
POINT
  5
1270
330
84F
100
AcDbEntity
  8
DEFPOINTS
 62
     0
100
AcDbPoint
 10
28.86556354072371
 20
26.61126935551701
 30
0.0
  0
POINT
  5
1271
330
84F
100
AcDbEntity
  8
DEFPOINTS
 62
     0
100
AcDbPoint
 10
29.98957173788298
 20
26.61126935551701
 30
0.0
  0
ENDBLK
  5
85A
330
84F
100
AcDbEntity
  8
0
100
AcDbBlockEnd
  0
BLOCK
  5
865
330
85B
100
AcDbEntity
  8
0
100
AcDbBlockBegin
  2
*D5
 70
     1
 10
0.0
 20
0.0
 30
0.0
  3
*D5
  1

  0
LINE
  5
1260
330
85B
100
AcDbEntity
  8
R-ANNO-DIMS
 62
     0
370
    -2
100
AcDbLine
 10
28.86556354072371
 20
28.36126935551701
 30
0.0
 11
28.86556354072371
 21
29.13982015704998
 31
0.0
  0
LINE
  5
1261
330
85B
100
AcDbEntity
  8
R-ANNO-DIMS
 62
     0
370
    -2
100
AcDbLine
 10
22.74056354072371
 20
28.36126935551701
 30
0.0
 11
22.74056354072371
 21
29.13982015704998
 31
0.0
  0
LINE
  5
1262
330
85B
100
AcDbEntity
  8
R-ANNO-DIMS
 62
     0
370
    -2
100
AcDbLine
 10
28.61556354072371
 20
28.95982015704998
 30
0.0
 11
22.99056354072371
 21
28.95982015704998
 31
0.0
  0
SOLID
  5
1263
330
85B
100
AcDbEntity
  8
R-ANNO-DIMS
 62
     0
100
AcDbTrace
 10
28.61556354072371
 20
29.00148682371665
 30
0.0
 11
28.61556354072371
 21
28.91815349038332
 31
0.0
 12
28.86556354072371
 22
28.95982015704998
 32
0.0
 13
28.86556354072371
 23
28.95982015704998
 33
0.0
  0
SOLID
  5
1264
330
85B
100
AcDbEntity
  8
R-ANNO-DIMS
 62
     0
100
AcDbTrace
 10
22.99056354072371
 20
29.00148682371665
 30
0.0
 11
22.99056354072371
 21
28.91815349038332
 31
0.0
 12
22.74056354072371
 22
28.95982015704998
 32
0.0
 13
22.74056354072371
 23
28.95982015704998
 33
0.0
  0
MTEXT
  5
1265
330
85B
100
AcDbEntity
  8
R-ANNO-DIMS
 62
     0
100
AcDbMText
 10
25.80306354072371
 20
29.15282015704999
 30
0.0
 40
0.186
 41
0.0
 71
     5
 72
     1
  1
\A1;6 1/8"
 73
     1
 44
1.0
1001
ACAD
1000
MTEXTBEGIN
1070
    73
1070
     1
1070
    44
1040
1.0
1070
    74
1070
     0
1000
MTEXTEND
  0
POINT
  5
1266
330
85B
100
AcDbEntity
  8
DEFPOINTS
 62
     0
100
AcDbPoint
 10
28.86556354072371
 20
27.98626935551701
 30
0.0
  0
POINT
  5
1267
330
85B
100
AcDbEntity
  8
DEFPOINTS
 62
     0
100
AcDbPoint
 10
22.74056354072371
 20
27.98626935551701
 30
0.0
  0
POINT
  5
1268
330
85B
100
AcDbEntity
  8
DEFPOINTS
 62
     0
100
AcDbPoint
 10
22.74056354072371
 20
28.95982015704998
 30
0.0
  0
ENDBLK
  5
866
330
85B
100
AcDbEntity
  8
0
100
AcDbBlockEnd
  0
BLOCK
  5
871
330
867
100
AcDbEntity
  8
0
100
AcDbBlockBegin
  2
*D6
 70
     1
 10
0.0
 20
0.0
 30
0.0
  3
*D6
  1

  0
LINE
  5
1257
330
867
100
AcDbEntity
  8
R-ANNO-DIMS
 62
     0
370
    -2
100
AcDbLine
 10
28.28090969682522
 20
32.99746782168494
 30
0.0
 11
29.26699645701427
 21
32.99746782168494
 31
0.0
  0
LINE
  5
1258
330
867
100
AcDbEntity
  8
R-ANNO-DIMS
 62
     0
370
    -2
100
AcDbLine
 10
28.28090969682522
 20
34.24746782168494
 30
0.0
 11
29.26699645701427
 21
34.24746782168494
 31
0.0
  0
LINE
  5
1259
330
867
100
AcDbEntity
  8
R-ANNO-DIMS
 62
     0
370
    -2
100
AcDbLine
 10
29.08699645701427
 20
33.24746782168494
 30
0.0
 11
29.08699645701427
 21
33.99746782168494
 31
0.0
  0
SOLID
  5
125A
330
867
100
AcDbEntity
  8
R-ANNO-DIMS
 62
     0
100
AcDbTrace
 10
29.0453297903476
 20
33.24746782168494
 30
0.0
 11
29.12866312368093
 21
33.24746782168494
 31
0.0
 12
29.08699645701427
 22
32.99746782168494
 32
0.0
 13
29.08699645701427
 23
32.99746782168494
 33
0.0
  0
SOLID
  5
125B
330
867
100
AcDbEntity
  8
R-ANNO-DIMS
 62
     0
100
AcDbTrace
 10
29.0453297903476
 20
33.99746782168494
 30
0.0
 11
29.12866312368093
 21
33.99746782168494
 31
0.0
 12
29.08699645701427
 22
34.24746782168494
 32
0.0
 13
29.08699645701427
 23
34.24746782168494
 33
0.0
  0
MTEXT
  5
125C
330
867
100
AcDbEntity
  8
R-ANNO-DIMS
 62
     0
100
AcDbMText
 10
28.89399645701426
 20
33.62246782168494
 30
0.0
 40
0.186
 41
0.0
 71
     5
 72
     1
  1
\A1;1 1/4"
 11
0.0000000000000001
 21
1.0
 31
0.0
 73
     1
 44
1.0
1001
ACAD
1000
MTEXTBEGIN
1070
    73
1070
     1
1070
    44
1040
1.0
1070
    74
1070
     0
1000
MTEXTEND
  0
POINT
  5
125D
330
867
100
AcDbEntity
  8
DEFPOINTS
 62
     0
100
AcDbPoint
 10
27.90590969682522
 20
32.99746782168494
 30
0.0
  0
POINT
  5
125E
330
867
100
AcDbEntity
  8
DEFPOINTS
 62
     0
100
AcDbPoint
 10
27.90590969682522
 20
34.24746782168494
 30
0.0
  0
POINT
  5
125F
330
867
100
AcDbEntity
  8
DEFPOINTS
 62
     0
100
AcDbPoint
 10
29.08699645701427
 20
34.24746782168494
 30
0.0
  0
ENDBLK
  5
872
330
867
100
AcDbEntity
  8
0
100
AcDbBlockEnd
  0
BLOCK
  5
87D
330
873
100
AcDbEntity
  8
0
100
AcDbBlockBegin
  2
*D7
 70
     1
 10
0.0
 20
0.0
 30
0.0
  3
*D7
  1

  0
LINE
  5
124E
330
873
100
AcDbEntity
  8
R-ANNO-DIMS
 62
     0
370
    -2
100
AcDbLine
 10
22.90595969682522
 20
34.62246782168494
 30
0.0
 11
22.90595969682522
 21
35.45467885467548
 31
0.0
  0
LINE
  5
124F
330
873
100
AcDbEntity
  8
R-ANNO-DIMS
 62
     0
370
    -2
100
AcDbLine
 10
27.90590969682522
 20
34.62246782168494
 30
0.0
 11
27.90590969682522
 21
35.45467885467548
 31
0.0
  0
LINE
  5
1250
330
873
100
AcDbEntity
  8
R-ANNO-DIMS
 62
     0
370
    -2
100
AcDbLine
 10
23.15595969682522
 20
35.27467885467548
 30
0.0
 11
27.65590969682522
 21
35.27467885467548
 31
0.0
  0
SOLID
  5
1251
330
873
100
AcDbEntity
  8
R-ANNO-DIMS
 62
     0
100
AcDbTrace
 10
23.15595969682522
 20
35.31634552134214
 30
0.0
 11
23.15595969682522
 21
35.23301218800881
 31
0.0
 12
22.90595969682522
 22
35.27467885467548
 32
0.0
 13
22.90595969682522
 23
35.27467885467548
 33
0.0
  0
SOLID
  5
1252
330
873
100
AcDbEntity
  8
R-ANNO-DIMS
 62
     0
100
AcDbTrace
 10
27.65590969682522
 20
35.31634552134214
 30
0.0
 11
27.65590969682522
 21
35.23301218800881
 31
0.0
 12
27.90590969682522
 22
35.27467885467548
 32
0.0
 13
27.90590969682522
 23
35.27467885467548
 33
0.0
  0
MTEXT
  5
1253
330
873
100
AcDbEntity
  8
R-ANNO-DIMS
 62
     0
100
AcDbMText
 10
25.40593469682522
 20
35.46767885467548
 30
0.0
 40
0.186
 41
0.0
 71
     5
 72
     1
  1
\A1;5"
 73
     1
 44
1.0
1001
ACAD
1000
MTEXTBEGIN
1070
    73
1070
     1
1070
    44
1040
1.0
1070
    74
1070
     0
1000
MTEXTEND
  0
POINT
  5
1254
330
873
100
AcDbEntity
  8
DEFPOINTS
 62
     0
100
AcDbPoint
 10
22.90595969682522
 20
34.24746782168494
 30
0.0
  0
POINT
  5
1255
330
873
100
AcDbEntity
  8
DEFPOINTS
 62
     0
100
AcDbPoint
 10
27.90590969682522
 20
34.24746782168494
 30
0.0
  0
POINT
  5
1256
330
873
100
AcDbEntity
  8
DEFPOINTS
 62
     0
100
AcDbPoint
 10
27.90590969682522
 20
35.27467885467548
 30
0.0
  0
ENDBLK
  5
87E
330
873
100
AcDbEntity
  8
0
100
AcDbBlockEnd
  0
BLOCK
  5
889
330
87F
100
AcDbEntity
  8
0
100
AcDbBlockBegin
  2
*D8
 70
     1
 10
0.0
 20
0.0
 30
0.0
  3
*D8
  1

  0
LINE
  5
1245
330
87F
100
AcDbEntity
  8
R-ANNO-DIMS
 62
     0
370
    -2
100
AcDbLine
 10
17.34866479185262
 20
20.70764540337346
 30
0.0
 11
18.1462491959704
 21
20.70764540337346
 31
0.0
  0
LINE
  5
1246
330
87F
100
AcDbEntity
  8
R-ANNO-DIMS
 62
     0
370
    -2
100
AcDbLine
 10
17.34866479185262
 20
21.70764540337346
 30
0.0
 11
18.1462491959704
 21
21.70764540337346
 31
0.0
  0
LINE
  5
1247
330
87F
100
AcDbEntity
  8
R-ANNO-DIMS
 62
     0
370
    -2
100
AcDbLine
 10
17.9662491959704
 20
20.95764540337346
 30
0.0
 11
17.9662491959704
 21
21.45764540337346
 31
0.0
  0
SOLID
  5
1248
330
87F
100
AcDbEntity
  8
R-ANNO-DIMS
 62
     0
100
AcDbTrace
 10
17.92458252930374
 20
20.95764540337346
 30
0.0
 11
18.00791586263707
 21
20.95764540337346
 31
0.0
 12
17.9662491959704
 22
20.70764540337346
 32
0.0
 13
17.9662491959704
 23
20.70764540337346
 33
0.0
  0
SOLID
  5
1249
330
87F
100
AcDbEntity
  8
R-ANNO-DIMS
 62
     0
100
AcDbTrace
 10
17.92458252930374
 20
21.45764540337346
 30
0.0
 11
18.00791586263707
 21
21.45764540337346
 31
0.0
 12
17.9662491959704
 22
21.70764540337346
 32
0.0
 13
17.9662491959704
 23
21.70764540337346
 33
0.0
  0
MTEXT
  5
124A
330
87F
100
AcDbEntity
  8
R-ANNO-DIMS
 62
     0
100
AcDbMText
 10
17.7732491959704
 20
21.20764540337346
 30
0.0
 40
0.186
 41
0.0
 71
     5
 72
     1
  1
\A1;1"
 11
0.0000000000000001
 21
1.0
 31
0.0
 73
     1
 44
1.0
1001
ACAD
1000
MTEXTBEGIN
1070
    73
1070
     1
1070
    44
1040
1.0
1070
    74
1070
     0
1000
MTEXTEND
  0
POINT
  5
124B
330
87F
100
AcDbEntity
  8
DEFPOINTS
 62
     0
100
AcDbPoint
 10
16.97366479185262
 20
20.70764540337346
 30
0.0
  0
POINT
  5
124C
330
87F
100
AcDbEntity
  8
DEFPOINTS
 62
     0
100
AcDbPoint
 10
16.97366479185262
 20
21.70764540337346
 30
0.0
  0
POINT
  5
124D
330
87F
100
AcDbEntity
  8
DEFPOINTS
 62
     0
100
AcDbPoint
 10
17.9662491959704
 20
21.70764540337346
 30
0.0
  0
ENDBLK
  5
88A
330
87F
100
AcDbEntity
  8
0
100
AcDbBlockEnd
  0
BLOCK
  5
895
330
88B
100
AcDbEntity
  8
0
100
AcDbBlockBegin
  2
*D9
 70
     1
 10
0.0
 20
0.0
 30
0.0
  3
*D9
  1

  0
LINE
  5
123C
330
88B
100
AcDbEntity
  8
R-ANNO-DIMS
 62
     0
370
    -2
100
AcDbLine
 10
12.72371479185262
 20
22.08264540337346
 30
0.0
 11
12.72371479185262
 21
22.89109460360565
 31
0.0
  0
LINE
  5
123D
330
88B
100
AcDbEntity
  8
R-ANNO-DIMS
 62
     0
370
    -2
100
AcDbLine
 10
16.97366479185262
 20
22.08264540337346
 30
0.0
 11
16.97366479185262
 21
22.89109460360565
 31
0.0
  0
LINE
  5
123E
330
88B
100
AcDbEntity
  8
R-ANNO-DIMS
 62
     0
370
    -2
100
AcDbLine
 10
12.97371479185262
 20
22.71109460360565
 30
0.0
 11
16.72366479185262
 21
22.71109460360565
 31
0.0
  0
SOLID
  5
123F
330
88B
100
AcDbEntity
  8
R-ANNO-DIMS
 62
     0
100
AcDbTrace
 10
12.97371479185262
 20
22.75276127027232
 30
0.0
 11
12.97371479185262
 21
22.66942793693898
 31
0.0
 12
12.72371479185262
 22
22.71109460360565
 32
0.0
 13
12.72371479185262
 23
22.71109460360565
 33
0.0
  0
SOLID
  5
1240
330
88B
100
AcDbEntity
  8
R-ANNO-DIMS
 62
     0
100
AcDbTrace
 10
16.72366479185262
 20
22.75276127027232
 30
0.0
 11
16.72366479185262
 21
22.66942793693898
 31
0.0
 12
16.97366479185262
 22
22.71109460360565
 32
0.0
 13
16.97366479185262
 23
22.71109460360565
 33
0.0
  0
MTEXT
  5
1241
330
88B
100
AcDbEntity
  8
R-ANNO-DIMS
 62
     0
100
AcDbMText
 10
14.84868979185262
 20
22.90409460360566
 30
0.0
 40
0.186
 41
0.0
 71
     5
 72
     1
  1
\A1;4 1/4"
 73
     1
 44
1.0
1001
ACAD
1000
MTEXTBEGIN
1070
    73
1070
     1
1070
    44
1040
1.0
1070
    74
1070
     0
1000
MTEXTEND
  0
POINT
  5
1242
330
88B
100
AcDbEntity
  8
DEFPOINTS
 62
     0
100
AcDbPoint
 10
12.72371479185262
 20
21.70764540337346
 30
0.0
  0
POINT
  5
1243
330
88B
100
AcDbEntity
  8
DEFPOINTS
 62
     0
100
AcDbPoint
 10
16.97366479185262
 20
21.70764540337346
 30
0.0
  0
POINT
  5
1244
330
88B
100
AcDbEntity
  8
DEFPOINTS
 62
     0
100
AcDbPoint
 10
16.97366479185262
 20
22.71109460360565
 30
0.0
  0
ENDBLK
  5
896
330
88B
100
AcDbEntity
  8
0
100
AcDbBlockEnd
  0
BLOCK
  5
8A1
330
897
100
AcDbEntity
  8
0
100
AcDbBlockBegin
  2
*D10
 70
     1
 10
0.0
 20
0.0
 30
0.0
  3
*D10
  1

  0
LINE
  5
1233
330
897
100
AcDbEntity
  8
R-ANNO-DIMS
 62
     0
370
    -2
100
AcDbLine
 10
16.67110800853713
 20
26.73626935551701
 30
0.0
 11
17.54837997351196
 21
26.73626935551701
 31
0.0
  0
LINE
  5
1234
330
897
100
AcDbEntity
  8
R-ANNO-DIMS
 62
     0
370
    -2
100
AcDbLine
 10
16.68710800853713
 20
27.98626935551701
 30
0.0
 11
17.54837997351196
 21
27.98626935551701
 31
0.0
  0
LINE
  5
1235
330
897
100
AcDbEntity
  8
R-ANNO-DIMS
 62
     0
370
    -2
100
AcDbLine
 10
17.36837997351196
 20
26.98626935551701
 30
0.0
 11
17.36837997351196
 21
27.73626935551701
 31
0.0
  0
SOLID
  5
1236
330
897
100
AcDbEntity
  8
R-ANNO-DIMS
 62
     0
100
AcDbTrace
 10
17.32671330684529
 20
26.98626935551701
 30
0.0
 11
17.41004664017863
 21
26.98626935551701
 31
0.0
 12
17.36837997351196
 22
26.73626935551701
 32
0.0
 13
17.36837997351196
 23
26.73626935551701
 33
0.0
  0
SOLID
  5
1237
330
897
100
AcDbEntity
  8
R-ANNO-DIMS
 62
     0
100
AcDbTrace
 10
17.32671330684529
 20
27.73626935551701
 30
0.0
 11
17.41004664017863
 21
27.73626935551701
 31
0.0
 12
17.36837997351196
 22
27.98626935551701
 32
0.0
 13
17.36837997351196
 23
27.98626935551701
 33
0.0
  0
MTEXT
  5
1238
330
897
100
AcDbEntity
  8
R-ANNO-DIMS
 62
     0
100
AcDbMText
 10
17.17537997351195
 20
27.36126935551701
 30
0.0
 40
0.186
 41
0.0
 71
     5
 72
     1
  1
\A1;1 1/4"
 11
0.0000000000000001
 21
1.0
 31
0.0
 73
     1
 44
1.0
1001
ACAD
1000
MTEXTBEGIN
1070
    73
1070
     1
1070
    44
1040
1.0
1070
    74
1070
     0
1000
MTEXTEND
  0
POINT
  5
1239
330
897
100
AcDbEntity
  8
DEFPOINTS
 62
     0
100
AcDbPoint
 10
16.29610800853713
 20
26.73626935551701
 30
0.0
  0
POINT
  5
123A
330
897
100
AcDbEntity
  8
DEFPOINTS
 62
     0
100
AcDbPoint
 10
16.31210800853713
 20
27.98626935551701
 30
0.0
  0
POINT
  5
123B
330
897
100
AcDbEntity
  8
DEFPOINTS
 62
     0
100
AcDbPoint
 10
17.36837997351196
 20
27.98626935551701
 30
0.0
  0
ENDBLK
  5
8A2
330
897
100
AcDbEntity
  8
0
100
AcDbBlockEnd
  0
BLOCK
  5
8AD
330
8A3
100
AcDbEntity
  8
0
100
AcDbBlockBegin
  2
*D11
 70
     1
 10
0.0
 20
0.0
 30
0.0
  3
*D11
  1

  0
LINE
  5
122A
330
8A3
100
AcDbEntity
  8
R-ANNO-DIMS
 62
     0
370
    -2
100
AcDbLine
 10
13.56210800853713
 20
28.36126935551701
 30
0.0
 11
13.56210800853713
 21
29.15659199514737
 31
0.0
  0
LINE
  5
122B
330
8A3
100
AcDbEntity
  8
R-ANNO-DIMS
 62
     0
370
    -2
100
AcDbLine
 10
16.31210800853713
 20
28.36126935551701
 30
0.0
 11
16.31210800853713
 21
29.15659199514737
 31
0.0
  0
LINE
  5
122C
330
8A3
100
AcDbEntity
  8
R-ANNO-DIMS
 62
     0
370
    -2
100
AcDbLine
 10
13.81210800853713
 20
28.97659199514738
 30
0.0
 11
16.06210800853713
 21
28.97659199514738
 31
0.0
  0
SOLID
  5
122D
330
8A3
100
AcDbEntity
  8
R-ANNO-DIMS
 62
     0
100
AcDbTrace
 10
13.81210800853713
 20
29.01825866181404
 30
0.0
 11
13.81210800853713
 21
28.93492532848071
 31
0.0
 12
13.56210800853713
 22
28.97659199514738
 32
0.0
 13
13.56210800853713
 23
28.97659199514738
 33
0.0
  0
SOLID
  5
122E
330
8A3
100
AcDbEntity
  8
R-ANNO-DIMS
 62
     0
100
AcDbTrace
 10
16.06210800853713
 20
29.01825866181404
 30
0.0
 11
16.06210800853713
 21
28.93492532848071
 31
0.0
 12
16.31210800853713
 22
28.97659199514738
 32
0.0
 13
16.31210800853713
 23
28.97659199514738
 33
0.0
  0
MTEXT
  5
122F
330
8A3
100
AcDbEntity
  8
R-ANNO-DIMS
 62
     0
100
AcDbMText
 10
14.93710800853713
 20
29.16959199514737
 30
0.0
 40
0.186
 41
0.0
 71
     5
 72
     1
  1
\A1;2 3/4"
 73
     1
 44
1.0
1001
ACAD
1000
MTEXTBEGIN
1070
    73
1070
     1
1070
    44
1040
1.0
1070
    74
1070
     0
1000
MTEXTEND
  0
POINT
  5
1230
330
8A3
100
AcDbEntity
  8
DEFPOINTS
 62
     0
100
AcDbPoint
 10
13.56210800853713
 20
27.98626935551701
 30
0.0
  0
POINT
  5
1231
330
8A3
100
AcDbEntity
  8
DEFPOINTS
 62
     0
100
AcDbPoint
 10
16.31210800853713
 20
27.98626935551701
 30
0.0
  0
POINT
  5
1232
330
8A3
100
AcDbEntity
  8
DEFPOINTS
 62
     0
100
AcDbPoint
 10
16.31210800853713
 20
28.97659199514738
 30
0.0
  0
ENDBLK
  5
8AE
330
8A3
100
AcDbEntity
  8
0
100
AcDbBlockEnd
  0
BLOCK
  5
8BA
330
8AF
100
AcDbEntity
  8
0
100
AcDbBlockBegin
  2
*D12
 70
     1
 10
0.0
 20
0.0
 30
0.0
  3
*D12
  1

  0
LINE
  5
1220
330
8AF
100
AcDbEntity
  8
R-ANNO-DIMS
 62
     0
370
    -2
100
AcDbLine
 10
15.64248720567341
 20
33.49746282168494
 30
0.0
 11
16.91703195378127
 21
33.49746282168494
 31
0.0
  0
LINE
  5
1221
330
8AF
100
AcDbEntity
  8
R-ANNO-DIMS
 62
     0
370
    -2
100
AcDbLine
 10
15.70448720567341
 20
34.24746782168494
 30
0.0
 11
16.91703195378127
 21
34.24746782168493
 31
0.0
  0
LINE
  5
1222
330
8AF
100
AcDbEntity
  8
R-ANNO-DIMS
 62
     0
370
    -2
100
AcDbLine
 10
16.73703195378127
 20
33.24746282168494
 30
0.0
 11
16.73703195378127
 21
32.99746282168494
 31
0.0
  0
LINE
  5
1223
330
8AF
100
AcDbEntity
  8
R-ANNO-DIMS
 62
     0
370
    -2
100
AcDbLine
 10
16.73703195378127
 20
34.49746782168493
 30
0.0
 11
16.73703195378127
 21
35.56746782168493
 31
0.0
  0
SOLID
  5
1224
330
8AF
100
AcDbEntity
  8
R-ANNO-DIMS
 62
     0
100
AcDbTrace
 10
16.6953652871146
 20
33.24746282168494
 30
0.0
 11
16.77869862044794
 21
33.24746282168494
 31
0.0
 12
16.73703195378127
 22
33.49746282168494
 32
0.0
 13
16.73703195378127
 23
33.49746282168494
 33
0.0
  0
SOLID
  5
1225
330
8AF
100
AcDbEntity
  8
R-ANNO-DIMS
 62
     0
100
AcDbTrace
 10
16.6953652871146
 20
34.49746782168493
 30
0.0
 11
16.77869862044794
 21
34.49746782168493
 31
0.0
 12
16.73703195378127
 22
34.24746782168493
 32
0.0
 13
16.73703195378127
 23
34.24746782168493
 33
0.0
  0
MTEXT
  5
1226
330
8AF
100
AcDbEntity
  8
R-ANNO-DIMS
 62
     0
100
AcDbMText
 10
16.54403195378126
 20
35.15746782168494
 30
0.0
 40
0.186
 41
0.0
 71
     5
 72
     1
  1
\A1;3/4"
 11
0.0000000000000001
 21
1.0
 31
0.0
 73
     1
 44
1.0
1001
ACAD
1000
MTEXTBEGIN
1070
    73
1070
     1
1070
    44
1040
1.0
1070
    74
1070
     0
1000
MTEXTEND
  0
POINT
  5
1227
330
8AF
100
AcDbEntity
  8
DEFPOINTS
 62
     0
100
AcDbPoint
 10
15.26748720567341
 20
33.49746282168494
 30
0.0
  0
POINT
  5
1228
330
8AF
100
AcDbEntity
  8
DEFPOINTS
 62
     0
100
AcDbPoint
 10
15.32948720567341
 20
34.24746782168494
 30
0.0
  0
POINT
  5
1229
330
8AF
100
AcDbEntity
  8
DEFPOINTS
 62
     0
100
AcDbPoint
 10
16.73703195378127
 20
34.24746782168493
 30
0.0
  0
ENDBLK
  5
8BB
330
8AF
100
AcDbEntity
  8
0
100
AcDbBlockEnd
  0
BLOCK
  5
8C6
330
8BC
100
AcDbEntity
  8
0
100
AcDbBlockBegin
  2
*D13
 70
     1
 10
0.0
 20
0.0
 30
0.0
  3
*D13
  1

  0
LINE
  5
1217
330
8BC
100
AcDbEntity
  8
R-ANNO-DIMS
 62
     0
370
    -2
100
AcDbLine
 10
14.17448720567341
 20
34.24746782168494
 30
0.0
 11
13.30383528008578
 21
34.24746782168494
 31
0.0
  0
LINE
  5
1218
330
8BC
100
AcDbEntity
  8
R-ANNO-DIMS
 62
     0
370
    -2
100
AcDbLine
 10
14.17448720567341
 20
32.74746282168396
 30
0.0
 11
13.30383528008578
 21
32.74746282168396
 31
0.0
  0
LINE
  5
1219
330
8BC
100
AcDbEntity
  8
R-ANNO-DIMS
 62
     0
370
    -2
100
AcDbLine
 10
13.48383528008578
 20
33.99746782168494
 30
0.0
 11
13.48383528008578
 21
32.99746282168396
 31
0.0
  0
SOLID
  5
121A
330
8BC
100
AcDbEntity
  8
R-ANNO-DIMS
 62
     0
100
AcDbTrace
 10
13.44216861341912
 20
33.99746782168494
 30
0.0
 11
13.52550194675245
 21
33.99746782168494
 31
0.0
 12
13.48383528008578
 22
34.24746782168494
 32
0.0
 13
13.48383528008578
 23
34.24746782168494
 33
0.0
  0
SOLID
  5
121B
330
8BC
100
AcDbEntity
  8
R-ANNO-DIMS
 62
     0
100
AcDbTrace
 10
13.44216861341912
 20
32.99746282168396
 30
0.0
 11
13.52550194675245
 21
32.99746282168396
 31
0.0
 12
13.48383528008578
 22
32.74746282168396
 32
0.0
 13
13.48383528008578
 23
32.74746282168396
 33
0.0
  0
MTEXT
  5
121C
330
8BC
100
AcDbEntity
  8
R-ANNO-DIMS
 62
     0
100
AcDbMText
 10
13.29083528008578
 20
33.49746532168444
 30
0.0
 40
0.186
 41
0.0
 71
     5
 72
     1
  1
\A1;1 1/2"
 11
0.0000000000000001
 21
1.0
 31
0.0
 73
     1
 44
1.0
1001
ACAD
1000
MTEXTBEGIN
1070
    73
1070
     1
1070
    44
1040
1.0
1070
    74
1070
     0
1000
MTEXTEND
  0
POINT
  5
121D
330
8BC
100
AcDbEntity
  8
DEFPOINTS
 62
     0
100
AcDbPoint
 10
14.54948720567341
 20
34.24746782168494
 30
0.0
  0
POINT
  5
121E
330
8BC
100
AcDbEntity
  8
DEFPOINTS
 62
     0
100
AcDbPoint
 10
14.54948720567341
 20
32.74746282168396
 30
0.0
  0
POINT
  5
121F
330
8BC
100
AcDbEntity
  8
DEFPOINTS
 62
     0
100
AcDbPoint
 10
13.48383528008578
 20
32.74746282168396
 30
0.0
  0
ENDBLK
  5
8C7
330
8BC
100
AcDbEntity
  8
0
100
AcDbBlockEnd
  0
BLOCK
  5
8D3
330
8C8
100
AcDbEntity
  8
0
100
AcDbBlockBegin
  2
*D14
 70
     1
 10
0.0
 20
0.0
 30
0.0
  3
*D14
  1

  0
LINE
  5
120D
330
8C8
100
AcDbEntity
  8
R-ANNO-DIMS
 62
     0
370
    -2
100
AcDbLine
 10
15.32948720567341
 20
34.62246782168494
 30
0.0
 11
15.32948720567341
 21
35.4510328463821
 31
0.0
  0
LINE
  5
120E
330
8C8
100
AcDbEntity
  8
R-ANNO-DIMS
 62
     0
370
    -2
100
AcDbLine
 10
14.54948720567341
 20
34.62246782168494
 30
0.0
 11
14.54948720567341
 21
35.4510328463821
 31
0.0
  0
LINE
  5
120F
330
8C8
100
AcDbEntity
  8
R-ANNO-DIMS
 62
     0
370
    -2
100
AcDbLine
 10
15.57948720567341
 20
35.2710328463821
 30
0.0
 11
15.82948720567341
 21
35.2710328463821
 31
0.0
  0
LINE
  5
1210
330
8C8
100
AcDbEntity
  8
R-ANNO-DIMS
 62
     0
370
    -2
100
AcDbLine
 10
14.29948720567341
 20
35.2710328463821
 30
0.0
 11
13.22948720567341
 21
35.2710328463821
 31
0.0
  0
SOLID
  5
1211
330
8C8
100
AcDbEntity
  8
R-ANNO-DIMS
 62
     0
100
AcDbTrace
 10
15.57948720567341
 20
35.31269951304877
 30
0.0
 11
15.57948720567341
 21
35.22936617971544
 31
0.0
 12
15.32948720567341
 22
35.2710328463821
 32
0.0
 13
15.32948720567341
 23
35.2710328463821
 33
0.0
  0
SOLID
  5
1212
330
8C8
100
AcDbEntity
  8
R-ANNO-DIMS
 62
     0
100
AcDbTrace
 10
14.29948720567341
 20
35.31269951304877
 30
0.0
 11
14.29948720567341
 21
35.22936617971544
 31
0.0
 12
14.54948720567341
 22
35.2710328463821
 32
0.0
 13
14.54948720567341
 23
35.2710328463821
 33
0.0
  0
MTEXT
  5
1213
330
8C8
100
AcDbEntity
  8
R-ANNO-DIMS
 62
     0
100
AcDbMText
 10
13.63948720567341
 20
35.4640328463821
 30
0.0
 40
0.186
 41
0.0
 71
     5
 72
     1
  1
\A1;3/4"
 73
     1
 44
1.0
1001
ACAD
1000
MTEXTBEGIN
1070
    73
1070
     1
1070
    44
1040
1.0
1070
    74
1070
     0
1000
MTEXTEND
  0
POINT
  5
1214
330
8C8
100
AcDbEntity
  8
DEFPOINTS
 62
     0
100
AcDbPoint
 10
15.32948720567341
 20
34.24746782168494
 30
0.0
  0
POINT
  5
1215
330
8C8
100
AcDbEntity
  8
DEFPOINTS
 62
     0
100
AcDbPoint
 10
14.54948720567341
 20
34.24746782168494
 30
0.0
  0
POINT
  5
1216
330
8C8
100
AcDbEntity
  8
DEFPOINTS
 62
     0
100
AcDbPoint
 10
14.54948720567341
 20
35.2710328463821
 30
0.0
  0
ENDBLK
  5
8D4
330
8C8
100
AcDbEntity
  8
0
100
AcDbBlockEnd
  0
BLOCK
  5
9BB
330
9B1
100
AcDbEntity
  8
0
100
AcDbBlockBegin
  2
*D15
 70
     1
 10
0.0
 20
0.0
 30
0.0
  3
*D15
  1

  0
LINE
  5
1554
330
9B1
100
AcDbEntity
  8
R-ANNO-DIMS
 62
     0
370
    -2
100
AcDbLine
 10
12.86769988712138
 20
14.95180955915607
 30
0.0
 11
12.86769988712138
 21
15.66120985142088
 31
0.0
  0
LINE
  5
1555
330
9B1
100
AcDbEntity
  8
R-ANNO-DIMS
 62
     0
370
    -2
100
AcDbLine
 10
8.867699887121382
 20
14.95180955915607
 30
0.0
 11
8.867699887121382
 21
15.66120985142088
 31
0.0
  0
LINE
  5
1556
330
9B1
100
AcDbEntity
  8
R-ANNO-DIMS
 62
     0
370
    -2
100
AcDbLine
 10
12.61769988712138
 20
15.48120985142088
 30
0.0
 11
9.117699887121382
 21
15.48120985142088
 31
0.0
  0
SOLID
  5
1557
330
9B1
100
AcDbEntity
  8
R-ANNO-DIMS
 62
     0
100
AcDbTrace
 10
12.61769988712138
 20
15.52287651808755
 30
0.0
 11
12.61769988712138
 21
15.43954318475422
 31
0.0
 12
12.86769988712138
 22
15.48120985142088
 32
0.0
 13
12.86769988712138
 23
15.48120985142088
 33
0.0
  0
SOLID
  5
1558
330
9B1
100
AcDbEntity
  8
R-ANNO-DIMS
 62
     0
100
AcDbTrace
 10
9.117699887121382
 20
15.52287651808755
 30
0.0
 11
9.117699887121382
 21
15.43954318475422
 31
0.0
 12
8.867699887121382
 22
15.48120985142088
 32
0.0
 13
8.867699887121382
 23
15.48120985142088
 33
0.0
  0
MTEXT
  5
1559
330
9B1
100
AcDbEntity
  8
R-ANNO-DIMS
 62
     0
100
AcDbMText
 10
10.86769988712138
 20
15.67420985142088
 30
0.0
 40
0.186
 41
0.0
 71
     5
 72
     1
  1
\A1;4"
 73
     1
 44
1.0
1001
ACAD
1000
MTEXTBEGIN
1070
    73
1070
     1
1070
    44
1040
1.0
1070
    74
1070
     0
1000
MTEXTEND
  0
POINT
  5
155A
330
9B1
100
AcDbEntity
  8
DEFPOINTS
 62
     0
100
AcDbPoint
 10
12.86769988712138
 20
14.57680955915607
 30
0.0
  0
POINT
  5
155B
330
9B1
100
AcDbEntity
  8
DEFPOINTS
 62
     0
100
AcDbPoint
 10
8.867699887121382
 20
14.57680955915607
 30
0.0
  0
POINT
  5
155C
330
9B1
100
AcDbEntity
  8
DEFPOINTS
 62
     0
100
AcDbPoint
 10
8.867699887121382
 20
15.48120985142088
 30
0.0
  0
ENDBLK
  5
9BC
330
9B1
100
AcDbEntity
  8
0
100
AcDbBlockEnd
  0
BLOCK
  5
9C7
330
9BD
100
AcDbEntity
  8
0
100
AcDbBlockBegin
  2
*D16
 70
     1
 10
0.0
 20
0.0
 30
0.0
  3
*D16
  1

  0
LINE
  5
128D
330
9BD
100
AcDbEntity
  8
R-ANNO-DIMS
 62
     0
370
    -2
100
AcDbLine
 10
19.38909217648921
 20
14.95180955915607
 30
0.0
 11
19.38909217648921
 21
15.66120985142088
 31
0.0
  0
LINE
  5
128E
330
9BD
100
AcDbEntity
  8
R-ANNO-DIMS
 62
     0
370
    -2
100
AcDbLine
 10
23.38909217648922
 20
14.95180955915607
 30
0.0
 11
23.38909217648922
 21
15.66120985142088
 31
0.0
  0
LINE
  5
128F
330
9BD
100
AcDbEntity
  8
R-ANNO-DIMS
 62
     0
370
    -2
100
AcDbLine
 10
19.63909217648921
 20
15.48120985142088
 30
0.0
 11
23.13909217648921
 21
15.48120985142088
 31
0.0
  0
SOLID
  5
1290
330
9BD
100
AcDbEntity
  8
R-ANNO-DIMS
 62
     0
100
AcDbTrace
 10
19.63909217648921
 20
15.52287651808755
 30
0.0
 11
19.63909217648921
 21
15.43954318475422
 31
0.0
 12
19.38909217648921
 22
15.48120985142088
 32
0.0
 13
19.38909217648921
 23
15.48120985142088
 33
0.0
  0
SOLID
  5
1291
330
9BD
100
AcDbEntity
  8
R-ANNO-DIMS
 62
     0
100
AcDbTrace
 10
23.13909217648921
 20
15.52287651808755
 30
0.0
 11
23.13909217648921
 21
15.43954318475422
 31
0.0
 12
23.38909217648922
 22
15.48120985142088
 32
0.0
 13
23.38909217648922
 23
15.48120985142088
 33
0.0
  0
MTEXT
  5
1292
330
9BD
100
AcDbEntity
  8
R-ANNO-DIMS
 62
     0
100
AcDbMText
 10
21.38909217648921
 20
15.67420985142088
 30
0.0
 40
0.186
 41
0.0
 71
     5
 72
     1
  1
\A1;4"
 73
     1
 44
1.0
1001
ACAD
1000
MTEXTBEGIN
1070
    73
1070
     1
1070
    44
1040
1.0
1070
    74
1070
     0
1000
MTEXTEND
  0
POINT
  5
1293
330
9BD
100
AcDbEntity
  8
DEFPOINTS
 62
     0
100
AcDbPoint
 10
19.38909217648921
 20
14.57680955915607
 30
0.0
  0
POINT
  5
1294
330
9BD
100
AcDbEntity
  8
DEFPOINTS
 62
     0
100
AcDbPoint
 10
23.38909217648922
 20
14.57680955915607
 30
0.0
  0
POINT
  5
1295
330
9BD
100
AcDbEntity
  8
DEFPOINTS
 62
     0
100
AcDbPoint
 10
23.38909217648922
 20
15.48120985142088
 30
0.0
  0
ENDBLK
  5
9C8
330
9BD
100
AcDbEntity
  8
0
100
AcDbBlockEnd
  0
BLOCK
  5
19CC
330
19C0
100
AcDbEntity
  8
0
100
AcDbBlockBegin
  2
Kawneer Logo English
 70
     0
 10
0.0
 20
0.0
 30
0.0
  3
Kawneer Logo English
  1

  0
MTEXT
  5
19C1
102
{ACAD_XDICTIONARY
360
1A63
102
}
330
19C0
100
AcDbEntity
  8
Kawneer Logo-English
100
AcDbMText
 10
1.510096758583198
 20
0.0372523876656778
 30
0.0
 40
0.036
 41
0.6125900866323382
 71
     3
 72
     5
  1
{\fArial TUR|b0|i0|c0|p34;\T1.05;AN ARCONIC COMPANY}
 73
     1
 44
1.0
1001
ACAD
1000
ACAD_MTEXT_COLUMN_INFO_BEGIN
1070
    75
1070
     2
1070
    79
1070
     0
1070
    76
1070
     1
1070
    78
1070
     0
1070
    48
1040
0.6125900866323382
1070
    49
1040
1.0
1070
    50
1070
     1
1040
0.0
1000
ACAD_MTEXT_COLUMN_INFO_END
1000
MTEXTBEGIN
1070
    73
1070
     1
1070
    44
1040
1.0
1070
    74
1070
     0
1000
MTEXTEND
  0
HATCH
  5
19C2
330
19C0
100
AcDbEntity
  8
Kawneer Logo-English
100
AcDbHatch
 10
0.0
 20
0.0
 30
0.0
210
0.0
220
0.0
230
1.0
  2
SOLID
 70
     1
 71
     0
 91
        1
 92
        1
 93
       81
 72
     1
 10
0.2706169776412204
 20
0.0336337282279411
 11
0.2687512969786691
 21
0.0350329887248546
 72
     1
 10
0.2687512969786696
 20
0.0350329887248547
 11
0.2633408230572721
 21
0.039137486182467
 72
     1
 10
0.2633408230572729
 20
0.0391374861824669
 11
0.2550385441089194
 21
0.0453875164020133
 72
     1
 10
0.2550385441089191
 20
0.0453875164020132
 11
0.2442175962661241
 21
0.053596511317238
 72
     1
 10
0.2442175962661235
 20
0.0535965113172379
 11
0.2314376837276472
 21
0.0632980507625037
 72
     1
 10
0.2314376837276479
 20
0.0632980507625037
 11
0.2172585106922595
 21
0.0741189986052996
 72
     1
 10
0.2172585106922598
 20
0.0741189986052996
 11
0.2019599292593419
 21
0.0856862187131167
 72
     1
 10
0.201959929259341
 20
0.0856862187131167
 11
0.1862882116939105
 21
0.0976265749534437
 72
     1
 10
0.1862882116939102
 20
0.0976265749534437
 11
0.1706164941284813
 21
0.1095669311937706
 72
     1
 10
0.1706164941284811
 20
0.1095669311937709
 11
0.1553179126955632
 21
0.1211341513015875
 72
     1
 10
0.1553179126955642
 20
0.1211341513015876
 11
0.1411387396601757
 21
0.131955099144384
 72
     1
 10
0.1411387396601755
 20
0.1319550991443839
 11
0.1284521111548274
 21
0.141749922622777
 72
     1
 10
0.1284521111548278
 20
0.1417499226227768
 11
0.117631163312031
 21
0.1499589175380016
 72
     1
 10
0.1176311633120304
 20
0.1499589175380017
 11
0.1094221683968068
 21
0.1563022317906752
 72
     1
 10
0.1094221683968062
 20
0.1563022317906754
 11
0.1041049785085351
 21
0.1604067292482882
 72
     1
 10
0.1041049785085351
 20
0.1604067292482878
 11
0.1023325818791119
 21
0.1618992737783286
 72
     1
 10
0.1023325818791116
 20
0.1618992737783289
 11
0.1043848306079176
 21
0.1636716704077524
 72
     1
 10
0.1043848306079194
 20
0.1636716704077524
 11
0.1100751566286996
 21
0.1683358720641301
 72
     1
 10
0.1100751566286986
 20
0.1683358720641301
 11
0.1189371397758159
 21
0.1757053106812067
 72
     1
 10
0.1189371397758161
 20
0.1757053106812067
 11
0.1304110758505067
 21
0.1851269980270901
 72
     1
 10
0.1304110758505059
 20
0.1851269980270902
 11
0.1439372606540007
 21
0.1963210820023967
 72
     1
 10
0.1439372606540017
 20
0.1963210820023967
 11
0.1589559899875385
 21
0.2087278584083611
 72
     1
 10
0.1589559899875379
 20
0.2087278584083611
 11
0.1750941277186041
 21
0.2220674751456017
 72
     1
 10
0.1750941277186047
 20
0.2220674751456017
 11
0.19169868561531
 21
0.2358735120484796
 72
     1
 10
0.1916986856153105
 20
0.2358735120484796
 11
0.208303243512014
 21
0.2495862649182301
 72
     1
 10
0.2083032435120131
 20
0.2495862649182304
 11
0.2244413812430811
 21
0.2628325976223432
 72
     1
 10
0.2244413812430812
 20
0.2628325976223429
 11
0.239460110576618
 21
0.2753326580614352
 72
     1
 10
0.2394601105766174
 20
0.2753326580614351
 11
0.2529862953801122
 21
0.2864334580036143
 72
     1
 10
0.2529862953801132
 20
0.2864334580036143
 11
0.2643669474216756
 21
0.2958551453494973
 72
     1
 10
0.2643669474216757
 20
0.2958551453494973
 11
0.2731356465356649
 21
0.3031312999334466
 72
     1
 10
0.273135646535664
 20
0.3031312999334466
 11
0.2788259725564443
 21
0.3077955015898243
 72
     1
 10
0.278825972556445
 20
0.3077955015898246
 11
0.2807849372521245
 21
0.3094746141861208
 72
     1
 10
0.2807849372521249
 20
0.3094746141861205
 11
0.2798520969208501
 21
0.3094746141861205
 72
     1
 10
0.2798520969208496
 20
0.3094746141861205
 11
0.2769602918938953
 21
0.3095678982192478
 72
     1
 10
0.2769602918938943
 20
0.3095678982192481
 11
0.2724826583037715
 21
0.3095678982192481
 72
     1
 10
0.2724826583037729
 20
0.3095678982192481
 11
0.2666057642167363
 21
0.3095678982192481
 72
     1
 10
0.266605764216735
 20
0.3095678982192481
 11
0.2597027457652953
 21
0.3095678982192481
 72
     1
 10
0.2597027457652956
 20
0.3095678982192481
 11
0.2519601710157094
 21
0.3095678982192481
 72
     1
 10
0.2519601710157104
 20
0.3095678982192481
 11
0.2437511761004851
 21
0.3095678982192481
 72
     1
 10
0.243751176100484
 20
0.3095678982192481
 11
0.2351690450527495
 21
0.3095678982192481
 72
     1
 10
0.2351690450527495
 20
0.3095678982192481
 11
0.2266801980381413
 21
0.3095678982192481
 72
     1
 10
0.2266801980381423
 20
0.3095678982192481
 11
0.2183779190897905
 21
0.3094746141861208
 72
     1
 10
0.2183779190897899
 20
0.3094746141861205
 11
0.2106353443402037
 21
0.3094746141861205
 72
     1
 10
0.2106353443402029
 20
0.3094746141861205
 11
0.2037323258887632
 21
0.3094746141861205
 72
     1
 10
0.203732325888764
 20
0.3094746141861205
 11
0.1978554318017273
 21
0.3094746141861205
 72
     1
 10
0.1978554318017278
 20
0.3094746141861205
 11
0.1932845141784786
 21
0.3094746141861205
 72
     1
 10
0.1932845141784787
 20
0.3094746141861205
 11
0.1903927091515244
 21
0.3094746141861205
 72
     1
 10
0.1903927091515234
 20
0.3094746141861205
 11
0.1893665847871204
 21
0.3094746141861205
 72
     1
 10
0.1893665847871206
 20
0.3094746141861205
 11
0.1879673242902067
 21
0.3077955015898243
 72
     1
 10
0.1879673242902076
 20
0.3077955015898246
 11
0.1841426789319786
 21
0.3030380159003196
 72
     1
 10
0.1841426789319787
 20
0.3030380159003192
 11
0.1780792167786874
 21
0.29576186131637
 72
     1
 10
0.1780792167786873
 20
0.29576186131637
 11
0.170243357995973
 21
0.2862468899373593
 72
     1
 10
0.170243357995973
 20
0.2862468899373593
 11
0.1610082387163447
 21
0.2750528059620528
 72
     1
 10
0.1610082387163438
 20
0.2750528059620528
 11
0.1507469950723126
 21
0.2624594614898328
 72
     1
 10
0.1507469950723133
 20
0.2624594614898328
 11
0.1396461951301336
 21
0.2491198447525922
 72
     1
 10
0.1396461951301333
 20
0.2491198447525922
 11
0.1282655430885727
 21
0.2352205238165866
 72
     1
 10
0.1282655430885726
 20
0.2352205238165868
 11
0.1168848910470102
 21
0.2214144869137089
 72
     1
 10
0.1168848910470102
 20
0.2214144869137087
 11
0.1058773751379587
 21
0.2079815861433408
 72
     1
 10
0.105877375137958
 20
0.2079815861433408
 11
0.0955228474608004
 21
0.1954815257042486
 72
     1
 10
0.0955228474608019
 20
0.1954815257042488
 11
0.0862877281811736
 21
0.1842874417289424
 72
     1
 10
0.0862877281811727
 20
0.1842874417289424
 11
0.0784518693984583
 21
0.1747724703499316
 72
     1
 10
0.0784518693984584
 20
0.1747724703499314
 11
0.0723884072451672
 21
0.1674963157659821
 72
     1
 10
0.0723884072451671
 20
0.1674963157659822
 11
0.0685637618869363
 21
0.1627388300764767
 72
     1
 10
0.0685637618869364
 20
0.1627388300764767
 11
0.0671645013900242
 21
0.1611530015133082
 72
     1
 10
0.0671645013900251
 20
0.1611530015133082
 11
0.0680040576881734
 21
0.1596604569832674
 72
     1
 10
0.0680040576881726
 20
0.1596604569832674
 11
0.0704294425494878
 21
0.1556492435587824
 72
     1
 10
0.0704294425494871
 20
0.1556492435587824
 11
0.0742540879077179
 21
0.1493059293061089
 72
     1
 10
0.0742540879077192
 20
0.1493059293061089
 11
0.0791048576303511
 21
0.1411902184240116
 72
     1
 10
0.0791048576303508
 20
0.1411902184240116
 11
0.0848884676842594
 21
0.1314886789787458
 72
     1
 10
0.0848884676842596
 20
0.1314886789787459
 11
0.0913250659700619
 21
0.1207610151690772
 72
     1
 10
0.0913250659700613
 20
0.1207610151690775
 11
0.0982280844214992
 21
0.1091937950612604
 72
     1
 10
0.0982280844214985
 20
0.1091937950612603
 11
0.1053176709391927
 21
0.0973467228540611
 72
     1
 10
0.105317670939193
 20
0.0973467228540612
 11
0.1124072574568872
 21
0.0854996506468619
 72
     1
 10
0.1124072574568871
 20
0.0854996506468617
 11
0.1193102759083267
 21
0.0739324305390446
 72
     1
 10
0.1193102759083278
 20
0.0739324305390448
 11
0.1257468741941283
 21
0.0632047667293762
 72
     1
 10
0.1257468741941277
 20
0.063204766729376
 11
0.1315304842480362
 21
0.0535032272841102
 72
     1
 10
0.1315304842480365
 20
0.0535032272841104
 11
0.1363812539706702
 21
0.0453875164020132
 72
     1
 10
0.1363812539706699
 20
0.0453875164020132
 11
0.1402058993288989
 21
0.0391374861824667
 72
     1
 10
0.1402058993288988
 20
0.0391374861824669
 11
0.1426312841902157
 21
0.0350329887248546
 72
     1
 10
0.1426312841902164
 20
0.0350329887248547
 11
0.1434708404883648
 21
0.0336337282279412
 72
     1
 10
0.143470840488364
 20
0.0336337282279411
 11
0.2706169776412211
 21
0.0336337282279411
 97
        0
 75
     0
 76
     1
 98
        1
 10
-0.3743130907707726
 20
-0.2500502867693841
1001
ACAD
1010
0.0
1020
0.0
1030
0.0
  0
HATCH
  5
19C3
330
19C0
100
AcDbEntity
  8
Kawneer Logo-English
100
AcDbHatch
 10
0.0
 20
0.0
 30
0.0
210
0.0
220
0.0
230
1.0
  2
SOLID
 70
     1
 71
     0
 91
        1
 92
        1
 93
       18
 72
     1
 10
0.0001865656044393
 20
0.2563959993365415
 11
-0.0000000024618153
 21
0.113671428651383
 72
     1
 10
-0.0000000024618159
 20
0.1136714286513832
 11
0.0012126899688416
 21
0.1152572572145516
 72
     1
 10
0.0012126899688421
 20
0.1152572572145516
 11
0.0045709151614355
 21
0.1197348908046738
 72
     1
 10
0.004570915161435
 20
0.119734890804674
 11
0.0098881050497044
 21
0.1268244773223682
 72
     1
 10
0.0098881050497044
 20
0.1268244773223682
 11
0.0166978394680158
 21
0.1359663125688683
 72
     1
 10
0.016697839468016
 20
0.1359663125688683
 11
0.0248135503501131
 21
0.1467872604116651
 72
     1
 10
0.024813550350113
 20
0.1467872604116652
 11
0.0338621015634867
 21
0.1588209006851195
 72
     1
 10
0.0338621015634872
 20
0.1588209006851194
 11
0.0434703569756247
 21
0.1716940972567221
 72
     1
 10
0.0434703569756247
 20
0.1716940972567224
 11
0.0534517485202732
 21
0.1850337139939626
 72
     1
 10
0.0534517485202724
 20
0.1850337139939624
 11
0.0634331400649208
 21
0.1983733307312025
 72
     1
 10
0.0634331400649222
 20
0.1983733307312024
 11
0.0730413954770597
 21
0.2112465273028051
 72
     1
 10
0.0730413954770595
 20
0.2112465273028053
 11
0.0820899466904331
 21
0.2233734516093873
 72
     1
 10
0.0820899466904321
 20
0.2233734516093873
 11
0.0902056575725293
 21
0.2341943994521837
 72
     1
 10
0.0902056575725308
 20
0.2341943994521837
 11
0.0970153919908422
 21
0.2433362346986839
 72
     1
 10
0.0970153919908405
 20
0.2433362346986839
 11
0.1022392978459834
 21
0.2503325371832507
 72
     1
 10
0.1022392978459843
 20
0.2503325371832508
 11
0.1056908070717041
 21
0.2549034548065008
 72
     1
 10
0.1056908070717046
 20
0.254903454806501
 11
0.1069034995023621
 21
0.2564892833696694
 72
     1
 10
0.1069034995023625
 20
0.2564892833696695
 11
0.0001865656044399
 21
0.2563959993365418
 97
        0
 75
     0
 76
     1
 98
        1
 10
-0.3743130907707726
 20
-0.2500502867693841
1001
ACAD
1010
0.0
1020
0.0
1030
0.0
  0
HATCH
  5
19C4
330
19C0
100
AcDbEntity
  8
Kawneer Logo-English
100
AcDbHatch
 10
0.0
 20
0.0
 30
0.0
210
0.0
220
0.0
230
1.0
  2
SOLID
 70
     1
 71
     0
 91
        2
 92
       16
 93
       76
 72
     1
 10
1.358402087941634
 20
0.1650709309046659
 11
1.358402087941634
 21
0.16796273593162
 72
     1
 10
1.358402087941634
 20
0.1679627359316202
 11
1.358402087941634
 21
0.1729067896873803
 72
     1
 10
1.358402087941634
 20
0.1729067896873803
 11
1.358402087941634
 21
0.1791568199069267
 72
     1
 10
1.358402087941634
 20
0.1791568199069267
 11
1.358402087941634
 21
0.1861531223914932
 72
     1
 10
1.358402087941634
 20
0.186153122391493
 11
1.358402087941634
 21
0.1931494248760595
 72
     1
 10
1.358402087941634
 20
0.1931494248760596
 11
1.358402087941634
 21
0.1994927391287338
 72
     1
 10
1.358402087941634
 20
0.1994927391287336
 11
1.358402087941634
 21
0.2044367928844937
 72
     1
 10
1.358402087941634
 20
0.2044367928844937
 11
1.358402087941634
 21
0.2072353138783208
 72
     1
 10
1.358402087941634
 20
0.2072353138783208
 11
1.359894632471676
 21
0.2072353138783208
 72
     1
 10
1.359894632471676
 20
0.2072353138783208
 11
1.362693153465502
 21
0.2072353138783208
 72
     1
 10
1.362693153465502
 20
0.2072353138783208
 11
1.366424514790605
 21
0.2072353138783208
 72
     1
 10
1.366424514790606
 20
0.2072353138783208
 11
1.371088716446983
 21
0.2072353138783208
 72
     1
 10
1.371088716446982
 20
0.2072353138783208
 11
1.376405906335254
 21
0.2072353138783208
 72
     1
 10
1.376405906335254
 20
0.2072353138783208
 11
1.382282800422289
 21
0.2072353138783208
 72
     1
 10
1.38228280042229
 20
0.2072353138783208
 11
1.388346262575581
 21
0.2072353138783208
 72
     1
 10
1.388346262575579
 20
0.2072353138783208
 11
1.394596292795125
 21
0.2072353138783208
 72
     1
 10
1.394596292795125
 20
0.2072353138783208
 11
1.400753038981545
 21
0.2072353138783208
 72
     1
 10
1.400753038981546
 20
0.2072353138783208
 11
1.406723217101709
 21
0.2072353138783208
 72
     1
 10
1.406723217101708
 20
0.2072353138783208
 11
1.412320259089362
 21
0.2072353138783208
 72
     1
 10
1.412320259089362
 20
0.2072353138783208
 11
1.417264312845122
 21
0.2072353138783208
 72
     1
 10
1.417264312845123
 20
0.2072353138783208
 11
1.421368810302735
 21
0.2072353138783208
 72
     1
 10
1.421368810302734
 20
0.2072353138783208
 11
1.424540467429071
 21
0.2072353138783208
 72
     1
 10
1.424540467429072
 20
0.2072353138783208
 11
1.426592716157878
 21
0.2072353138783208
 72
     1
 10
1.426592716157878
 20
0.2072353138783208
 11
1.427338988422898
 21
0.2072353138783208
 72
     1
 10
1.427338988422898
 20
0.2072353138783208
 11
1.430977065714873
 21
0.207142029845193
 72
     1
 10
1.430977065714872
 20
0.207142029845193
 11
1.434335290907465
 21
0.2068621777458102
 72
     1
 10
1.434335290907465
 20
0.2068621777458102
 11
1.435921119470633
 21
0.2066756096795552
 72
     1
 10
1.435921119470633
 20
0.206675609679555
 11
1.437413664000673
 21
0.2063957575801723
 72
     1
 10
1.437413664000674
 20
0.2063957575801723
 11
1.438906208530714
 21
0.2061159054807895
 72
     1
 10
1.438906208530714
 20
0.2061159054807898
 11
1.440398753060756
 21
0.2056494853151523
 72
     1
 10
1.440398753060756
 20
0.2056494853151521
 11
1.441704729524542
 21
0.2050897811163865
 72
     1
 10
1.441704729524542
 20
0.2050897811163866
 11
1.443010705988328
 21
0.204530076917621
 72
     1
 10
1.443010705988329
 20
0.204530076917621
 11
1.444223398418986
 21
0.2036905206194736
 72
     1
 10
1.444223398418985
 20
0.2036905206194736
 11
1.445436090849643
 21
0.2028509643213252
 72
     1
 10
1.445436090849643
 20
0.2028509643213252
 11
1.446555499247174
 21
0.2018248399569224
 72
     1
 10
1.446555499247173
 20
0.2018248399569223
 11
1.447581623611576
 21
0.2007054315593917
 72
     1
 10
1.447581623611578
 20
0.2007054315593915
 11
1.448607747975981
 21
0.1993061710624781
 72
     1
 10
1.448607747975981
 20
0.1993061710624781
 11
1.449540588307258
 21
0.1978136265324374
 72
     1
 10
1.449540588307256
 20
0.1978136265324373
 11
1.450380144605403
 21
0.1961345139361415
 72
     1
 10
1.450380144605404
 20
0.1961345139361415
 11
1.451126416870426
 21
0.1944554013398453
 72
     1
 10
1.451126416870426
 20
0.1944554013398454
 11
1.451592837036063
 21
0.1929628568098046
 72
     1
 10
1.451592837036062
 20
0.1929628568098046
 11
1.451965973168573
 21
0.1913770282466361
 72
     1
 10
1.451965973168574
 20
0.1913770282466361
 11
1.452245825267955
 21
0.1899777677497231
 72
     1
 10
1.452245825267954
 20
0.1899777677497231
 11
1.452432393334211
 21
0.188671791285937
 72
     1
 10
1.452432393334211
 20
0.1886717912859369
 11
1.452432393334211
 21
0.1874590988552789
 72
     1
 10
1.452432393334211
 20
0.1874590988552789
 11
1.452525677367338
 21
0.1863396904577482
 72
     1
 10
1.452525677367337
 20
0.1863396904577481
 11
1.452432393334211
 21
0.1844740097951972
 72
     1
 10
1.452432393334211
 20
0.1844740097951974
 11
1.452245825267955
 21
0.1827948971989012
 72
     1
 10
1.452245825267954
 20
0.1827948971989009
 11
1.451872689135445
 21
0.1810225005694773
 72
     1
 10
1.451872689135446
 20
0.1810225005694774
 11
1.451406268969809
 21
0.1794366720063093
 72
     1
 10
1.451406268969809
 20
0.1794366720063094
 11
1.450846564771043
 21
0.1779441274762682
 72
     1
 10
1.450846564771041
 20
0.1779441274762681
 11
1.450100292506021
 21
0.1764515829462274
 72
     1
 10
1.450100292506023
 20
0.1764515829462275
 11
1.449260736207875
 21
0.1750523224493141
 72
     1
 10
1.449260736207873
 20
0.1750523224493139
 11
1.448327895876597
 21
0.1737463459855283
 72
     1
 10
1.448327895876596
 20
0.1737463459855281
 11
1.44702191941281
 21
0.1723470854886151
 72
     1
 10
1.447021919412811
 20
0.1723470854886151
 11
1.445715942949025
 21
0.1711343930579568
 72
     1
 10
1.445715942949026
 20
0.1711343930579568
 11
1.444316682452114
 21
0.1700149846604262
 72
     1
 10
1.444316682452114
 20
0.1700149846604259
 11
1.442824137922072
 21
0.168988860296023
 72
     1
 10
1.442824137922072
 20
0.168988860296023
 11
1.441238309358904
 21
0.1682425880310024
 72
     1
 10
1.441238309358902
 20
0.1682425880310024
 11
1.439559196762608
 21
0.1674963157659821
 72
     1
 10
1.439559196762608
 20
0.1674963157659822
 11
1.437880084166311
 21
0.1669366115672166
 72
     1
 10
1.437880084166311
 20
0.1669366115672167
 11
1.436107687536888
 21
0.1664701914015788
 72
     1
 10
1.436107687536888
 20
0.1664701914015789
 11
1.434242006874337
 21
0.166003771235941
 72
     1
 10
1.434242006874337
 20
0.1660037712359412
 11
1.432376326211786
 21
0.1657239191365588
 72
     1
 10
1.432376326211785
 20
0.1657239191365585
 11
1.430417361516107
 21
0.1655373510703035
 72
     1
 10
1.430417361516108
 20
0.1655373510703037
 11
1.428458396820429
 21
0.1653507830040482
 72
     1
 10
1.428458396820428
 20
0.1653507830040482
 11
1.424353899362817
 21
0.1651642149377932
 72
     1
 10
1.424353899362817
 20
0.1651642149377932
 11
1.420156117872077
 21
0.1650709309046658
 72
     1
 10
1.420156117872076
 20
0.1650709309046659
 11
1.41773073301076
 21
0.1650709309046659
 72
     1
 10
1.417730733010761
 20
0.1650709309046659
 11
1.411107566658704
 21
0.1650709309046659
 72
     1
 10
1.411107566658702
 20
0.1650709309046659
 11
1.401779163345947
 21
0.1650709309046659
 72
     1
 10
1.401779163345949
 20
0.1650709309046659
 11
1.390958215503152
 21
0.1650709309046659
 72
     1
 10
1.390958215503152
 20
0.1650709309046659
 11
1.379950699594101
 21
0.1650709309046659
 72
     1
 10
1.379950699594099
 20
0.1650709309046659
 11
1.369969308049451
 21
0.1650709309046659
 72
     1
 10
1.369969308049451
 20
0.1650709309046659
 11
1.362320017332992
 21
0.1650709309046659
 72
     1
 10
1.362320017332992
 20
0.1650709309046659
 11
1.358402087941635
 21
0.1650709309046659
 97
        0
 92
        1
 93
      107
 72
     1
 10
1.443756978253348
 20
0.1485596570410883
 11
1.446928635379685
 21
0.1492126452729816
 72
     1
 10
1.446928635379685
 20
0.1492126452729817
 11
1.449540588307256
 21
0.1498656335048746
 72
     1
 10
1.449540588307256
 20
0.1498656335048745
 11
1.451872689135445
 21
0.1506119057698948
 72
     1
 10
1.451872689135446
 20
0.1506119057698946
 11
1.45401822189738
 21
0.1514514620680426
 72
     1
 10
1.45401822189738
 20
0.1514514620680425
 11
1.455883902559929
 21
0.1521977343330632
 72
     1
 10
1.455883902559929
 20
0.1521977343330631
 11
1.457563015156225
 21
0.1530372906312111
 72
     1
 10
1.457563015156225
 20
0.1530372906312111
 11
1.459148843719394
 21
0.1539701309624869
 72
     1
 10
1.459148843719394
 20
0.1539701309624866
 11
1.460641388249434
 21
0.1549029712937624
 72
     1
 10
1.460641388249434
 20
0.1549029712937622
 11
1.462133932779476
 21
0.155835811625038
 72
     1
 10
1.462133932779476
 20
0.155835811625038
 11
1.463439909243262
 21
0.1568619359894408
 72
     1
 10
1.463439909243262
 20
0.1568619359894408
 11
1.464745885707048
 21
0.1579813443869714
 72
     1
 10
1.464745885707047
 20
0.1579813443869716
 11
1.465865294104579
 21
0.1591007527845022
 72
     1
 10
1.465865294104579
 20
0.1591007527845025
 11
1.466984702502109
 21
0.1602201611820331
 72
     1
 10
1.466984702502108
 20
0.1602201611820328
 11
1.468010826866511
 21
0.1613395695795634
 72
     1
 10
1.468010826866511
 20
0.1613395695795637
 11
1.468943667197788
 21
0.1625522620102216
 72
     1
 10
1.468943667197788
 20
0.1625522620102216
 11
1.469876507529063
 21
0.1636716704077522
 72
     1
 10
1.469876507529063
 20
0.1636716704077524
 11
1.470622779794084
 21
0.1648843628384107
 72
     1
 10
1.470622779794084
 20
0.1648843628384107
 11
1.471462336092232
 21
0.1661903393021964
 72
     1
 10
1.471462336092232
 20
0.1661903393021967
 11
1.472115324324125
 21
0.1674030317328546
 72
     1
 10
1.472115324324124
 20
0.1674030317328546
 11
1.472768312556016
 21
0.1686157241635125
 72
     1
 10
1.472768312556017
 20
0.1686157241635125
 11
1.473328016754783
 21
0.1699217006272986
 72
     1
 10
1.473328016754782
 20
0.1699217006272989
 11
1.47379443692042
 21
0.1711343930579568
 72
     1
 10
1.47379443692042
 20
0.1711343930579568
 11
1.474260857086057
 21
0.1724403695217425
 72
     1
 10
1.474260857086058
 20
0.1724403695217424
 11
1.474727277251697
 21
0.1736530619524008
 72
     1
 10
1.474727277251697
 20
0.173653061952401
 11
1.475380265483589
 21
0.1760784468137175
 72
     1
 10
1.475380265483588
 20
0.1760784468137173
 11
1.475846685649225
 21
0.1785038316750338
 72
     1
 10
1.475846685649226
 20
0.1785038316750335
 11
1.476219821781737
 21
0.1808359325032223
 72
     1
 10
1.476219821781738
 20
0.1808359325032223
 11
1.47649967388112
 21
0.1830747492982838
 72
     1
 10
1.47649967388112
 20
0.1830747492982838
 11
1.476592957914248
 21
0.1851269980270901
 72
     1
 10
1.476592957914248
 20
0.1851269980270902
 11
1.476686241947374
 21
0.1870859627227688
 72
     1
 10
1.476686241947375
 20
0.1870859627227687
 11
1.476592957914249
 21
0.1888583593521923
 72
     1
 10
1.476592957914248
 20
0.1888583593521922
 11
1.476499673881119
 21
0.1906307559816158
 72
     1
 10
1.47649967388112
 20
0.1906307559816159
 11
1.476406389847991
 21
0.1924031526110394
 72
     1
 10
1.476406389847991
 20
0.1924031526110394
 11
1.476126537748608
 21
0.1940822652073352
 72
     1
 10
1.476126537748608
 20
0.1940822652073352
 11
1.475846685649226
 21
0.195761377803631
 72
     1
 10
1.475846685649226
 20
0.1957613778036309
 11
1.475566833549843
 21
0.1974404903999272
 72
     1
 10
1.475566833549843
 20
0.1974404903999272
 11
1.475100413384206
 21
0.1990263189630953
 72
     1
 10
1.475100413384205
 20
0.1990263189630952
 11
1.474633993218568
 21
0.2006121475262637
 72
     1
 10
1.474633993218568
 20
0.2006121475262639
 11
1.47416757305293
 21
0.2021046920563051
 72
     1
 10
1.474167573052932
 20
0.2021046920563049
 11
1.473514584821038
 21
0.2035972365863457
 72
     1
 10
1.473514584821037
 20
0.2035972365863459
 11
1.472954880622271
 21
0.2050897811163867
 72
     1
 10
1.472954880622272
 20
0.2050897811163866
 11
1.472208608357252
 21
0.2064890416133
 72
     1
 10
1.472208608357252
 20
0.2064890416133001
 11
1.471462336092232
 21
0.2078883021102135
 72
     1
 10
1.471462336092232
 20
0.2078883021102136
 11
1.470622779794083
 21
0.2091942785739993
 72
     1
 10
1.470622779794084
 20
0.2091942785739991
 11
1.469783223495935
 21
0.2105002550377848
 72
     1
 10
1.469783223495934
 20
0.2105002550377851
 11
1.468850383164659
 21
0.2118062315015707
 72
     1
 10
1.468850383164661
 20
0.2118062315015709
 11
1.467917542833386
 21
0.2130189239322288
 72
     1
 10
1.467917542833385
 20
0.2130189239322289
 11
1.466891418468982
 21
0.2141383323297595
 72
     1
 10
1.466891418468982
 20
0.2141383323297595
 11
1.465772010071451
 21
0.2153510247604178
 72
     1
 10
1.46577201007145
 20
0.215351024760418
 11
1.464652601673919
 21
0.2163771491248209
 72
     1
 10
1.46465260167392
 20
0.2163771491248209
 11
1.463533193276389
 21
0.2174032734892238
 72
     1
 10
1.463533193276389
 20
0.2174032734892238
 11
1.462227216812603
 21
0.2184293978536266
 72
     1
 10
1.462227216812602
 20
0.2184293978536266
 11
1.461014524381945
 21
0.2193622381849024
 72
     1
 10
1.461014524381946
 20
0.2193622381849023
 11
1.459615263885032
 21
0.2202950785161781
 72
     1
 10
1.459615263885031
 20
0.2202950785161782
 11
1.458309287421245
 21
0.2211346348143262
 72
     1
 10
1.458309287421246
 20
0.221134634814326
 11
1.456816742891206
 21
0.221974191112474
 72
     1
 10
1.456816742891206
 20
0.2219741911124738
 11
1.455417482394292
 21
0.2227204633774945
 72
     1
 10
1.455417482394291
 20
0.2227204633774944
 11
1.453831653831122
 21
0.2233734516093874
 72
     1
 10
1.453831653831123
 20
0.2233734516093873
 11
1.452339109301082
 21
0.2240264398412803
 72
     1
 10
1.452339109301082
 20
0.2240264398412803
 11
1.450659996704785
 21
0.2245861440400459
 72
     1
 10
1.450659996704787
 20
0.2245861440400457
 11
1.44907416814162
 21
0.2251458482388108
 72
     1
 10
1.449074168141619
 20
0.2251458482388109
 11
1.447301771512194
 21
0.2256122684044489
 72
     1
 10
1.447301771512194
 20
0.2256122684044488
 11
1.445249522783388
 21
0.2261719726032139
 72
     1
 10
1.445249522783388
 20
0.226171972603214
 11
1.44329055808771
 21
0.2265451087357246
 72
     1
 10
1.443290558087712
 20
0.2265451087357244
 11
1.441145025325778
 21
0.2269182448682345
 72
     1
 10
1.441145025325776
 20
0.2269182448682345
 11
1.438906208530714
 21
0.2271980969676173
 72
     1
 10
1.438906208530714
 20
0.2271980969676173
 11
1.436387539636271
 21
0.2273846650338724
 72
     1
 10
1.436387539636271
 20
0.2273846650338724
 11
1.433495734609316
 21
0.2275712331001274
 72
     1
 10
1.433495734609317
 20
0.2275712331001274
 11
1.430044225383597
 21
0.2276645171332552
 72
     1
 10
1.430044225383597
 20
0.2276645171332549
 11
1.42612629599224
 21
0.2277578011663822
 72
     1
 10
1.42612629599224
 20
0.2277578011663825
 11
1.426033011959112
 21
0.2277578011663825
 72
     1
 10
1.426033011959111
 20
0.2277578011663825
 11
1.33489451159349
 21
0.2277578011663825
 72
     1
 10
1.334894511593491
 20
0.2277578011663825
 11
1.334894511593491
 21
0.0926825211976832
 72
     1
 10
1.334894511593491
 20
0.0926825211976832
 11
1.358588656007891
 21
0.0926825211976832
 72
     1
 10
1.358588656007891
 20
0.0926825211976832
 11
1.358588656007891
 21
0.0947347699264896
 72
     1
 10
1.358588656007891
 20
0.0947347699264896
 11
1.358588656007891
 21
0.1001452438478876
 72
     1
 10
1.358588656007891
 20
0.1001452438478875
 11
1.358588656007891
 21
0.1079811026306024
 72
     1
 10
1.358588656007891
 20
0.1079811026306024
 11
1.358588656007891
 21
0.1170296538439752
 72
     1
 10
1.358588656007891
 20
0.1170296538439753
 11
1.358588656007891
 21
0.1262647731236032
 72
     1
 10
1.358588656007891
 20
0.1262647731236031
 11
1.358588656007891
 21
0.1347536201382103
 72
     1
 10
1.358588656007891
 20
0.1347536201382104
 11
1.358588656007891
 21
0.1412835024571394
 72
     1
 10
1.358588656007891
 20
0.1412835024571393
 11
1.358588656007891
 21
0.1448282957159864
 72
     1
 10
1.358588656007891
 20
0.1448282957159865
 11
1.362320017332992
 21
0.1448282957159865
 72
     1
 10
1.362320017332992
 20
0.1448282957159865
 11
1.369409603850688
 21
0.1448282957159865
 72
     1
 10
1.369409603850688
 20
0.1448282957159865
 11
1.378738007163443
 21
0.1448282957159865
 72
     1
 10
1.378738007163443
 20
0.1448282957159865
 11
1.388999250807475
 21
0.1448282957159865
 72
     1
 10
1.388999250807473
 20
0.1448282957159865
 11
1.399260494451505
 21
0.1448282957159865
 72
     1
 10
1.399260494451506
 20
0.1448282957159865
 11
1.408215761631749
 21
0.1448282957159865
 72
     1
 10
1.408215761631748
 20
0.1448282957159865
 11
1.414745643950677
 21
0.1448282957159865
 72
     1
 10
1.414745643950678
 20
0.1448282957159865
 11
1.41773073301076
 21
0.1448282957159865
 72
     1
 10
1.417730733010761
 20
0.1448282957159865
 11
1.420062833838949
 21
0.1420297747221594
 72
     1
 10
1.420062833838949
 20
0.1420297747221597
 11
1.425193455660966
 21
0.1359663125688683
 72
     1
 10
1.425193455660965
 20
0.1359663125688683
 11
1.432283042178659
 21
0.1275707495873888
 72
     1
 10
1.432283042178659
 20
0.1275707495873886
 11
1.440305469027628
 21
0.1180557782083779
 72
     1
 10
1.440305469027629
 20
0.1180557782083781
 11
1.448234611843471
 21
0.1087273748956225
 72
     1
 10
1.448234611843471
 20
0.1087273748956225
 11
1.455044346261782
 21
0.1006116640135252
 72
     1
 10
1.455044346261782
 20
0.1006116640135252
 11
1.459895115984414
 21
0.0948280539596167
 72
     1
 10
1.459895115984414
 20
0.0948280539596169
 11
1.461760796646965
 21
0.0926825211976832
 72
     1
 10
1.461760796646967
 20
0.0926825211976832
 11
1.49254452757906
 21
0.0926825211976832
 72
     1
 10
1.492544527579059
 20
0.0926825211976832
 11
1.490678846916508
 21
0.0948280539596169
 72
     1
 10
1.490678846916508
 20
0.0948280539596169
 11
1.48564150912762
 21
0.100518379980398
 72
     1
 10
1.48564150912762
 20
0.1005183799803981
 11
1.478458638576797
 21
0.1088206589287502
 72
     1
 10
1.478458638576798
 20
0.1088206589287502
 11
1.470063075595318
 21
0.1183356303077609
 72
     1
 10
1.470063075595317
 20
0.118335630307761
 11
1.461480944547582
 21
0.1282237378192818
 72
     1
 10
1.461480944547582
 20
0.1282237378192818
 11
1.453551801731739
 21
0.1372722890326546
 72
     1
 10
1.45355180173174
 20
0.1372722890326546
 11
1.447395055545323
 21
0.1444551595834761
 72
     1
 10
1.447395055545323
 20
0.1444551595834759
 11
1.443756978253349
 21
0.1485596570410882
 97
        0
 75
     0
 76
     1
 98
        1
 10
-0.3743130907707726
 20
-0.2500502867693841
1001
ACAD
1010
0.0
1020
0.0
1030
0.0
  0
HATCH
  5
19C5
330
19C0
100
AcDbEntity
  8
Kawneer Logo-English
100
AcDbHatch
 10
0.0
 20
0.0
 30
0.0
210
0.0
220
0.0
230
1.0
  2
SOLID
 70
     1
 71
     0
 91
        1
 92
        1
 93
       87
 72
     1
 10
1.205602841678699
 20
0.1525708704655737
 11
1.207468522341251
 21
0.1525708704655737
 72
     1
 10
1.207468522341252
 20
0.1525708704655737
 11
1.211199883666355
 21
0.1525708704655737
 72
     1
 10
1.211199883666355
 20
0.1525708704655737
 11
1.216517073554626
 21
0.1525708704655737
 72
     1
 10
1.216517073554626
 20
0.1525708704655737
 11
1.223046955873555
 21
0.1525708704655737
 72
     1
 10
1.223046955873553
 20
0.1525708704655737
 11
1.230602962556885
 21
0.1525708704655737
 72
     1
 10
1.230602962556885
 20
0.1525708704655737
 11
1.238998525538365
 21
0.1525708704655737
 72
     1
 10
1.238998525538365
 20
0.1525708704655737
 11
1.247767224652354
 21
0.1525708704655737
 72
     1
 10
1.247767224652355
 20
0.1525708704655737
 11
1.256815775865728
 21
0.1525708704655737
 72
     1
 10
1.256815775865729
 20
0.1525708704655737
 11
1.265771043045974
 21
0.1525708704655737
 72
     1
 10
1.265771043045973
 20
0.1525708704655737
 11
1.274446458126836
 21
0.1525708704655737
 72
     1
 10
1.274446458126837
 20
0.1525708704655737
 11
1.282562169008935
 21
0.1525708704655737
 72
     1
 10
1.282562169008935
 20
0.1525708704655737
 11
1.289745039559756
 21
0.1525708704655737
 72
     1
 10
1.289745039559755
 20
0.1525708704655737
 11
1.295808501713046
 21
0.1525708704655737
 72
     1
 10
1.295808501713046
 20
0.1525708704655737
 11
1.300472703369423
 21
0.1525708704655737
 72
     1
 10
1.300472703369423
 20
0.1525708704655737
 11
1.303457792429505
 21
0.1525708704655737
 72
     1
 10
1.303457792429505
 20
0.1525708704655737
 11
1.304483916793908
 21
0.1525708704655737
 72
     1
 10
1.304483916793908
 20
0.1525708704655737
 11
1.304483916793908
 21
0.1730000737205081
 72
     1
 10
1.304483916793908
 20
0.1730000737205078
 11
1.303457792429505
 21
0.1730000737205078
 72
     1
 10
1.303457792429505
 20
0.1730000737205078
 11
1.300472703369423
 21
0.1730000737205078
 72
     1
 10
1.300472703369423
 20
0.1730000737205078
 11
1.295808501713045
 21
0.1730000737205078
 72
     1
 10
1.295808501713046
 20
0.1730000737205078
 11
1.289745039559754
 21
0.1730000737205078
 72
     1
 10
1.289745039559755
 20
0.1730000737205078
 11
1.282562169008934
 21
0.1730000737205078
 72
     1
 10
1.282562169008935
 20
0.1730000737205078
 11
1.274446458126837
 21
0.1730000737205078
 72
     1
 10
1.274446458126837
 20
0.1730000737205078
 11
1.265771043045975
 21
0.1730000737205078
 72
     1
 10
1.265771043045973
 20
0.1730000737205078
 11
1.256815775865728
 21
0.1730000737205078
 72
     1
 10
1.256815775865729
 20
0.1730000737205078
 11
1.247767224652355
 21
0.1730000737205078
 72
     1
 10
1.247767224652355
 20
0.1730000737205078
 11
1.238998525538365
 21
0.1730000737205078
 72
     1
 10
1.238998525538365
 20
0.1730000737205078
 11
1.230602962556885
 21
0.1730000737205078
 72
     1
 10
1.230602962556885
 20
0.1730000737205078
 11
1.223046955873553
 21
0.1730000737205078
 72
     1
 10
1.223046955873553
 20
0.1730000737205078
 11
1.216517073554625
 21
0.1730000737205078
 72
     1
 10
1.216517073554626
 20
0.1730000737205078
 11
1.211199883666355
 21
0.1730000737205078
 72
     1
 10
1.211199883666355
 20
0.1730000737205078
 11
1.207468522341252
 21
0.1730000737205078
 72
     1
 10
1.207468522341252
 20
0.1730000737205078
 11
1.205602841678701
 21
0.1730000737205078
 72
     1
 10
1.205602841678699
 20
0.1730000737205078
 11
1.205602841678699
 21
0.1754254585818243
 72
     1
 10
1.205602841678699
 20
0.1754254585818245
 11
1.205602841678699
 21
0.1794366720063095
 72
     1
 10
1.205602841678699
 20
0.1794366720063094
 11
1.205602841678699
 21
0.1843807257620694
 72
     1
 10
1.205602841678699
 20
0.1843807257620694
 11
1.205602841678699
 21
0.1898844837165951
 72
     1
 10
1.205602841678699
 20
0.1898844837165951
 11
1.205602841678699
 21
0.1952949576379935
 72
     1
 10
1.205602841678699
 20
0.1952949576379937
 11
1.205602841678699
 21
0.2003322954268815
 72
     1
 10
1.205602841678699
 20
0.2003322954268814
 11
1.205602841678699
 21
0.2042502248182386
 72
     1
 10
1.205602841678699
 20
0.2042502248182386
 11
1.205602841678699
 21
0.206675609679555
 72
     1
 10
1.205602841678699
 20
0.206675609679555
 11
1.207468522341251
 21
0.206675609679555
 72
     1
 10
1.207468522341252
 20
0.206675609679555
 11
1.211293167699483
 21
0.206675609679555
 72
     1
 10
1.211293167699483
 20
0.206675609679555
 11
1.21670364162088
 21
0.206675609679555
 72
     1
 10
1.216703641620879
 20
0.206675609679555
 11
1.223420092006063
 21
0.206675609679555
 72
     1
 10
1.223420092006064
 20
0.206675609679555
 11
1.231255950788778
 21
0.206675609679555
 72
     1
 10
1.231255950788778
 20
0.206675609679555
 11
1.239744797803386
 21
0.206675609679555
 72
     1
 10
1.239744797803385
 20
0.206675609679555
 11
1.248886633049885
 21
0.206675609679555
 72
     1
 10
1.248886633049885
 20
0.206675609679555
 11
1.258121752329513
 21
0.206675609679555
 72
     1
 10
1.258121752329514
 20
0.206675609679555
 11
1.267356871609143
 21
0.206675609679555
 72
     1
 10
1.267356871609142
 20
0.206675609679555
 11
1.276218854756259
 21
0.206675609679555
 72
     1
 10
1.276218854756259
 20
0.206675609679555
 11
1.284521133704611
 21
0.206675609679555
 72
     1
 10
1.284521133704611
 20
0.206675609679555
 11
1.291890572321688
 21
0.206675609679555
 72
     1
 10
1.291890572321688
 20
0.206675609679555
 11
1.298140602541234
 21
0.206675609679555
 72
     1
 10
1.298140602541234
 20
0.206675609679555
 11
1.30289808823074
 21
0.206675609679555
 72
     1
 10
1.30289808823074
 20
0.206675609679555
 11
1.305976461323949
 21
0.206675609679555
 72
     1
 10
1.305976461323949
 20
0.206675609679555
 11
1.30709586972148
 21
0.206675609679555
 72
     1
 10
1.307095869721479
 20
0.206675609679555
 11
1.307095869721479
 21
0.2277578011663822
 72
     1
 10
1.307095869721479
 20
0.2277578011663825
 11
1.304577200827036
 21
0.2277578011663825
 72
     1
 10
1.304577200827037
 20
0.2277578011663825
 11
1.182188549363684
 21
0.2277578011663825
 72
     1
 10
1.182188549363684
 20
0.2277578011663825
 11
1.182188549363684
 21
0.0926825211976832
 72
     1
 10
1.182188549363684
 20
0.0926825211976832
 11
1.311853355410986
 21
0.0926825211976832
 72
     1
 10
1.311853355410985
 20
0.0926825211976832
 11
1.311853355410985
 21
0.113671428651383
 72
     1
 10
1.311853355410985
 20
0.1136714286513832
 11
1.310733947013454
 21
0.1136714286513832
 72
     1
 10
1.310733947013455
 20
0.1136714286513832
 11
1.307469005853991
 21
0.1136714286513832
 72
     1
 10
1.307469005853991
 20
0.1136714286513832
 11
1.302431668065102
 21
0.1136714286513832
 72
     1
 10
1.302431668065103
 20
0.1136714286513832
 11
1.295901785746174
 21
0.1136714286513832
 72
     1
 10
1.295901785746174
 20
0.1136714286513832
 11
1.288159210996586
 21
0.1136714286513832
 72
     1
 10
1.288159210996587
 20
0.1136714286513832
 11
1.279483795915724
 21
0.1136714286513832
 72
     1
 10
1.279483795915723
 20
0.1136714286513832
 11
1.270155392602968
 21
0.1136714286513832
 72
     1
 10
1.270155392602969
 20
0.1136714286513832
 11
1.260547137190832
 21
0.1136714286513832
 72
     1
 10
1.260547137190831
 20
0.1136714286513832
 11
1.250752313712437
 21
0.1136714286513832
 72
     1
 10
1.250752313712437
 20
0.1136714286513832
 11
1.241330626366554
 21
0.1136714286513832
 72
     1
 10
1.241330626366555
 20
0.1136714286513832
 11
1.23237535918631
 21
0.1136714286513832
 72
     1
 10
1.232375359186308
 20
0.1136714286513832
 11
1.224166364271082
 21
0.1136714286513832
 72
     1
 10
1.224166364271083
 20
0.1136714286513832
 11
1.217170061786517
 21
0.1136714286513832
 72
     1
 10
1.217170061786517
 20
0.1136714286513832
 11
1.211479735765737
 21
0.1136714286513832
 72
     1
 10
1.211479735765737
 20
0.1136714286513832
 11
1.20756180637438
 21
0.1136714286513832
 72
     1
 10
1.207561806374379
 20
0.1136714286513832
 11
1.2056028416787
 21
0.1136714286513832
 72
     1
 10
1.205602841678699
 20
0.1136714286513832
 11
1.205602841678699
 21
0.1163766656120825
 72
     1
 10
1.205602841678699
 20
0.1163766656120823
 11
1.205602841678699
 21
0.1209475832353323
 72
     1
 10
1.205602841678699
 20
0.1209475832353325
 11
1.205602841678699
 21
0.1267311932892411
 72
     1
 10
1.205602841678699
 20
0.1267311932892408
 11
1.205602841678699
 21
0.1330745075419143
 72
     1
 10
1.205602841678699
 20
0.1330745075419144
 11
1.205602841678699
 21
0.1395111058277156
 72
     1
 10
1.205602841678699
 20
0.1395111058277158
 11
1.205602841678699
 21
0.1452947158816239
 72
     1
 10
1.205602841678699
 20
0.145294715881624
 11
1.205602841678699
 21
0.1498656335048746
 72
     1
 10
1.205602841678699
 20
0.1498656335048745
 11
1.205602841678699
 21
0.1525708704655738
 97
        0
 75
     0
 76
     1
 98
        1
 10
-0.3743130907707726
 20
-0.2500502867693841
1001
ACAD
1010
0.0
1020
0.0
1030
0.0
  0
HATCH
  5
19C6
330
19C0
100
AcDbEntity
  8
Kawneer Logo-English
100
AcDbHatch
 10
0.0
 20
0.0
 30
0.0
210
0.0
220
0.0
230
1.0
  2
SOLID
 70
     1
 71
     0
 91
        1
 92
        1
 93
       87
 72
     1
 10
1.049352086190046
 20
0.1525708704655737
 11
1.051217766852597
 21
0.1525708704655737
 72
     1
 10
1.051217766852596
 20
0.1525708704655737
 11
1.054949128177699
 21
0.1525708704655737
 72
     1
 10
1.0549491281777
 20
0.1525708704655737
 11
1.060173034032843
 21
0.1525708704655737
 72
     1
 10
1.060173034032843
 20
0.1525708704655737
 11
1.0667962003849
 21
0.1525708704655737
 72
     1
 10
1.0667962003849
 20
0.1525708704655737
 11
1.074352207068231
 21
0.1525708704655737
 72
     1
 10
1.074352207068232
 20
0.1525708704655737
 11
1.082747770049711
 21
0.1525708704655737
 72
     1
 10
1.082747770049711
 20
0.1525708704655737
 11
1.0915164691637
 21
0.1525708704655737
 72
     1
 10
1.091516469163701
 20
0.1525708704655737
 11
1.100565020377075
 21
0.1525708704655737
 72
     1
 10
1.100565020377073
 20
0.1525708704655737
 11
1.109520287557319
 21
0.1525708704655737
 72
     1
 10
1.10952028755732
 20
0.1525708704655737
 11
1.118195702638183
 21
0.1525708704655737
 72
     1
 10
1.118195702638182
 20
0.1525708704655737
 11
1.126218129487151
 21
0.1525708704655737
 72
     1
 10
1.126218129487152
 20
0.1525708704655737
 11
1.133401000037974
 21
0.1525708704655737
 72
     1
 10
1.133401000037974
 20
0.1525708704655737
 11
1.139557746224391
 21
0.1525708704655737
 72
     1
 10
1.139557746224392
 20
0.1525708704655737
 11
1.14422194788077
 21
0.1525708704655737
 72
     1
 10
1.144221947880769
 20
0.1525708704655737
 11
1.147207036940851
 21
0.1525708704655737
 72
     1
 10
1.147207036940852
 20
0.1525708704655737
 11
1.148233161305255
 21
0.1525708704655737
 72
     1
 10
1.148233161305255
 20
0.1525708704655737
 11
1.148233161305255
 21
0.1730000737205081
 72
     1
 10
1.148233161305255
 20
0.1730000737205078
 11
1.147207036940852
 21
0.1730000737205078
 72
     1
 10
1.147207036940852
 20
0.1730000737205078
 11
1.14422194788077
 21
0.1730000737205078
 72
     1
 10
1.144221947880769
 20
0.1730000737205078
 11
1.139557746224391
 21
0.1730000737205078
 72
     1
 10
1.139557746224392
 20
0.1730000737205078
 11
1.133494284071101
 21
0.1730000737205078
 72
     1
 10
1.133494284071101
 20
0.1730000737205078
 11
1.126218129487152
 21
0.1730000737205078
 72
     1
 10
1.126218129487152
 20
0.1730000737205078
 11
1.118195702638183
 21
0.1730000737205078
 72
     1
 10
1.118195702638182
 20
0.1730000737205078
 11
1.10952028755732
 21
0.1730000737205078
 72
     1
 10
1.10952028755732
 20
0.1730000737205078
 11
1.100565020377074
 21
0.1730000737205078
 72
     1
 10
1.100565020377073
 20
0.1730000737205078
 11
1.0915164691637
 21
0.1730000737205078
 72
     1
 10
1.091516469163701
 20
0.1730000737205078
 11
1.082747770049712
 21
0.1730000737205078
 72
     1
 10
1.082747770049711
 20
0.1730000737205078
 11
1.074352207068231
 21
0.1730000737205078
 72
     1
 10
1.074352207068232
 20
0.1730000737205078
 11
1.0667962003849
 21
0.1730000737205078
 72
     1
 10
1.0667962003849
 20
0.1730000737205078
 11
1.060173034032843
 21
0.1730000737205078
 72
     1
 10
1.060173034032843
 20
0.1730000737205078
 11
1.054949128177701
 21
0.1730000737205078
 72
     1
 10
1.0549491281777
 20
0.1730000737205078
 11
1.051217766852597
 21
0.1730000737205078
 72
     1
 10
1.051217766852596
 20
0.1730000737205078
 11
1.049352086190045
 21
0.1730000737205078
 72
     1
 10
1.049352086190046
 20
0.1730000737205078
 11
1.049352086190046
 21
0.1754254585818243
 72
     1
 10
1.049352086190046
 20
0.1754254585818245
 11
1.049352086190046
 21
0.1794366720063095
 72
     1
 10
1.049352086190046
 20
0.1794366720063094
 11
1.049352086190046
 21
0.1843807257620694
 72
     1
 10
1.049352086190046
 20
0.1843807257620694
 11
1.049352086190046
 21
0.1898844837165951
 72
     1
 10
1.049352086190046
 20
0.1898844837165951
 11
1.049352086190046
 21
0.1952949576379935
 72
     1
 10
1.049352086190046
 20
0.1952949576379937
 11
1.049352086190046
 21
0.2003322954268815
 72
     1
 10
1.049352086190046
 20
0.2003322954268814
 11
1.049352086190046
 21
0.2042502248182386
 72
     1
 10
1.049352086190046
 20
0.2042502248182386
 11
1.049352086190046
 21
0.206675609679555
 72
     1
 10
1.049352086190046
 20
0.206675609679555
 11
1.051217766852597
 21
0.206675609679555
 72
     1
 10
1.051217766852596
 20
0.206675609679555
 11
1.055042412210825
 21
0.206675609679555
 72
     1
 10
1.055042412210827
 20
0.206675609679555
 11
1.060452886132226
 21
0.206675609679555
 72
     1
 10
1.060452886132225
 20
0.206675609679555
 11
1.067169336517409
 21
0.206675609679555
 72
     1
 10
1.06716933651741
 20
0.206675609679555
 11
1.075005195300124
 21
0.206675609679555
 72
     1
 10
1.075005195300123
 20
0.206675609679555
 11
1.083494042314731
 21
0.206675609679555
 72
     1
 10
1.083494042314732
 20
0.206675609679555
 11
1.092542593528105
 21
0.206675609679555
 72
     1
 10
1.092542593528106
 20
0.206675609679555
 11
1.10187099684086
 21
0.206675609679555
 72
     1
 10
1.101870996840861
 20
0.206675609679555
 11
1.111106116120489
 21
0.206675609679555
 72
     1
 10
1.111106116120488
 20
0.206675609679555
 11
1.119968099267605
 21
0.206675609679555
 72
     1
 10
1.119968099267605
 20
0.206675609679555
 11
1.128270378215957
 21
0.206675609679555
 72
     1
 10
1.128270378215957
 20
0.206675609679555
 11
1.135639816833034
 21
0.206675609679555
 72
     1
 10
1.135639816833034
 20
0.206675609679555
 11
1.14188984705258
 21
0.206675609679555
 72
     1
 10
1.141889847052581
 20
0.206675609679555
 11
1.146647332742086
 21
0.206675609679555
 72
     1
 10
1.146647332742086
 20
0.206675609679555
 11
1.149725705835295
 21
0.206675609679555
 72
     1
 10
1.149725705835296
 20
0.206675609679555
 11
1.150845114232827
 21
0.206675609679555
 72
     1
 10
1.150845114232826
 20
0.206675609679555
 11
1.150845114232826
 21
0.2277578011663822
 72
     1
 10
1.150845114232826
 20
0.2277578011663825
 11
1.148326445338383
 21
0.2277578011663825
 72
     1
 10
1.148326445338383
 20
0.2277578011663825
 11
1.025937793875031
 21
0.2277578011663825
 72
     1
 10
1.025937793875032
 20
0.2277578011663825
 11
1.025937793875032
 21
0.0926825211976832
 72
     1
 10
1.025937793875032
 20
0.0926825211976832
 11
1.155602599922332
 21
0.0926825211976832
 72
     1
 10
1.155602599922332
 20
0.0926825211976832
 11
1.155602599922332
 21
0.113671428651383
 72
     1
 10
1.155602599922332
 20
0.1136714286513832
 11
1.154483191524801
 21
0.1136714286513832
 72
     1
 10
1.154483191524799
 20
0.1136714286513832
 11
1.151218250365336
 21
0.1136714286513832
 72
     1
 10
1.151218250365338
 20
0.1136714286513832
 11
1.146180912576449
 21
0.1136714286513832
 72
     1
 10
1.146180912576449
 20
0.1136714286513832
 11
1.13965103025752
 21
0.1136714286513832
 72
     1
 10
1.13965103025752
 20
0.1136714286513832
 11
1.131908455507932
 21
0.1136714286513832
 72
     1
 10
1.131908455507931
 20
0.1136714286513832
 11
1.12323304042707
 21
0.1136714286513832
 72
     1
 10
1.123233040427071
 20
0.1136714286513832
 11
1.113904637114314
 21
0.1136714286513832
 72
     1
 10
1.113904637114314
 20
0.1136714286513832
 11
1.104296381702177
 21
0.1136714286513832
 72
     1
 10
1.104296381702177
 20
0.1136714286513832
 11
1.094501558223783
 21
0.1136714286513832
 72
     1
 10
1.094501558223784
 20
0.1136714286513832
 11
1.085079870877901
 21
0.1136714286513832
 72
     1
 10
1.085079870877899
 20
0.1136714286513832
 11
1.076124603697654
 21
0.1136714286513832
 72
     1
 10
1.076124603697655
 20
0.1136714286513832
 11
1.067915608782429
 21
0.1136714286513832
 72
     1
 10
1.067915608782429
 20
0.1136714286513832
 11
1.060919306297863
 21
0.1136714286513832
 72
     1
 10
1.060919306297863
 20
0.1136714286513832
 11
1.055228980277083
 21
0.1136714286513832
 72
     1
 10
1.055228980277082
 20
0.1136714286513832
 11
1.051311050885725
 21
0.1136714286513832
 72
     1
 10
1.051311050885726
 20
0.1136714286513832
 11
1.049352086190046
 21
0.1136714286513832
 72
     1
 10
1.049352086190046
 20
0.1136714286513832
 11
1.049352086190046
 21
0.1163766656120825
 72
     1
 10
1.049352086190046
 20
0.1163766656120823
 11
1.049352086190046
 21
0.1209475832353323
 72
     1
 10
1.049352086190046
 20
0.1209475832353325
 11
1.049352086190046
 21
0.1267311932892411
 72
     1
 10
1.049352086190046
 20
0.1267311932892408
 11
1.049352086190046
 21
0.1330745075419143
 72
     1
 10
1.049352086190046
 20
0.1330745075419144
 11
1.049352086190046
 21
0.1395111058277156
 72
     1
 10
1.049352086190046
 20
0.1395111058277158
 11
1.049352086190046
 21
0.1452947158816239
 72
     1
 10
1.049352086190046
 20
0.145294715881624
 11
1.049352086190046
 21
0.1498656335048746
 72
     1
 10
1.049352086190046
 20
0.1498656335048745
 11
1.049352086190046
 21
0.1525708704655738
 97
        0
 75
     0
 76
     1
 98
        1
 10
-0.3743130907707726
 20
-0.2500502867693841
1001
ACAD
1010
0.0
1020
0.0
1030
0.0
  0
HATCH
  5
19C7
330
19C0
100
AcDbEntity
  8
Kawneer Logo-English
100
AcDbHatch
 10
0.0
 20
0.0
 30
0.0
210
0.0
220
0.0
230
1.0
  2
SOLID
 70
     1
 71
     0
 91
        1
 92
        1
 93
       42
 72
     1
 10
0.9725793269260698
 20
0.2277578011663825
 11
0.9725793269260698
 21
0.1354998924032311
 72
     1
 10
0.9725793269260698
 20
0.1354998924032311
 11
0.9729524630585808
 21
0.1264513411898582
 72
     1
 10
0.9729524630585796
 20
0.1264513411898583
 11
0.9729524630585796
 21
0.1255185008585825
 72
     1
 10
0.9729524630585796
 20
0.1255185008585824
 11
0.9731390311248343
 21
0.1238393882622866
 72
     1
 10
0.9731390311248349
 20
0.1238393882622866
 11
0.9717397706279211
 21
0.1254252168254551
 72
     1
 10
0.97173977062792
 20
0.1254252168254551
 11
0.9710867823960281
 21
0.1262647731236031
 72
     1
 10
0.9710867823960294
 20
0.1262647731236031
 11
0.9641837639445897
 21
0.1339140638400625
 72
     1
 10
0.9641837639445899
 20
0.1339140638400624
 11
0.8755639324734129
 21
0.2277578011663823
 72
     1
 10
0.8755639324734115
 20
0.2277578011663825
 11
0.8529891964565429
 21
0.2277578011663825
 72
     1
 10
0.8529891964565434
 20
0.2277578011663825
 11
0.8529891964565434
 21
0.0926825211976832
 72
     1
 10
0.8529891964565434
 20
0.0926825211976832
 11
0.8756572165065401
 21
0.0926825211976832
 72
     1
 10
0.875657216506541
 20
0.0926825211976832
 11
0.875657216506541
 21
0.1927762887435495
 72
     1
 10
0.875657216506541
 20
0.1927762887435495
 11
0.875657216506541
 21
0.1931494248760597
 72
     1
 10
0.875657216506541
 20
0.1931494248760596
 11
0.8755639324734129
 21
0.193988981174208
 72
     1
 10
0.8755639324734115
 20
0.1939889811742079
 11
0.8754706484402849
 21
0.1952949576379935
 72
     1
 10
0.8754706484402859
 20
0.1952949576379937
 11
0.8753773644071577
 21
0.1967875021680344
 72
     1
 10
0.875377364407158
 20
0.1967875021680343
 11
0.8755639324734126
 21
0.1965076500686515
 72
     1
 10
0.8755639324734115
 20
0.1965076500686517
 11
0.8756572165065396
 21
0.1963210820023967
 72
     1
 10
0.875657216506541
 20
0.1963210820023967
 11
0.8764967728046894
 21
0.1954815257042487
 72
     1
 10
0.8764967728046887
 20
0.1954815257042488
 11
0.8781758854009835
 21
0.1936158450416976
 72
     1
 10
0.8781758854009842
 20
0.1936158450416973
 11
0.8797617139641527
 21
0.1917501643791464
 72
     1
 10
0.879761713964152
 20
0.1917501643791466
 11
0.8805079862291723
 21
0.1909106080809982
 72
     1
 10
0.8805079862291727
 20
0.190910608080998
 11
0.8816273946267036
 21
0.1897911996834678
 72
     1
 10
0.8816273946267028
 20
0.1897911996834681
 11
0.884519199653657
 21
0.1867128265902584
 72
     1
 10
0.8845191996536581
 20
0.1867128265902582
 11
0.8891834013100353
 21
0.1818620568676254
 72
     1
 10
0.889183401310035
 20
0.1818620568676252
 11
0.8951535794301982
 21
0.1756120266480794
 72
     1
 10
0.8951535794301985
 20
0.1756120266480794
 11
0.9021498819147662
 21
0.1681493039978751
 72
     1
 10
0.9021498819147669
 20
0.1681493039978752
 11
0.9099857406974814
 21
0.1598470250495227
 72
     1
 10
0.9099857406974813
 20
0.1598470250495225
 11
0.9183813036789613
 21
0.1509850419024051
 72
     1
 10
0.9183813036789612
 20
0.1509850419024052
 11
0.9271500027929521
 21
0.1418432066559046
 72
     1
 10
0.9271500027929509
 20
0.1418432066559046
 11
0.9358254178738118
 21
0.1326080873762767
 72
     1
 10
0.9358254178738132
 20
0.1326080873762767
 11
0.9442209808552931
 21
0.1237461042291589
 72
     1
 10
0.9442209808552931
 20
0.1237461042291589
 11
0.9520568396380092
 21
0.1154438252808068
 72
     1
 10
0.9520568396380092
 20
0.1154438252808068
 11
0.9590531421225751
 21
0.1079811026306025
 72
     1
 10
0.959053142122574
 20
0.1079811026306024
 11
0.9650233202427372
 21
0.101731072411056
 72
     1
 10
0.9650233202427376
 20
0.101731072411056
 11
0.9695942378659868
 21
0.0968803026884232
 72
     1
 10
0.9695942378659871
 20
0.096880302688423
 11
0.9725793269260696
 21
0.0938019295952138
 72
     1
 10
0.9725793269260698
 20
0.093801929595214
 11
0.9736054512904727
 21
0.0926825211976834
 72
     1
 10
0.9736054512904726
 20
0.0926825211976832
 11
0.9952473469760661
 21
0.0926825211976832
 72
     1
 10
0.9952473469760651
 20
0.0926825211976832
 11
0.9952473469760651
 21
0.2277578011663825
 72
     1
 10
0.9952473469760651
 20
0.2277578011663825
 11
0.9927286780816201
 21
0.2277578011663825
 72
     1
 10
0.9927286780816203
 20
0.2277578011663825
 11
0.9725793269260686
 21
0.2277578011663825
 97
        0
 75
     0
 76
     1
 98
        1
 10
-0.3743130907707726
 20
-0.2500502867693841
1001
ACAD
1010
0.0
1020
0.0
1030
0.0
  0
HATCH
  5
19C8
330
19C0
100
AcDbEntity
  8
Kawneer Logo-English
100
AcDbHatch
 10
0.0
 20
0.0
 30
0.0
210
0.0
220
0.0
230
1.0
  2
SOLID
 70
     1
 71
     0
 91
        2
 92
       16
 93
       32
 72
     1
 10
0.5269615006757409
 20
0.144641727649731
 11
0.5290137494045469
 21
0.148652941074216
 72
     1
 10
0.5290137494045464
 20
0.1486529410742159
 11
0.5322786905640116
 21
0.1551828233931449
 72
     1
 10
0.532278690564012
 20
0.1551828233931452
 11
0.5364764720547521
 21
0.1633918183083696
 72
     1
 10
0.5364764720547526
 20
0.1633918183083696
 11
0.5409541056448736
 21
0.1722538014554874
 72
     1
 10
0.5409541056448726
 20
0.1722538014554873
 11
0.545338455201869
 21
0.1808359325032223
 72
     1
 10
0.5453384552018701
 20
0.1808359325032223
 11
0.5490698165269726
 21
0.1882053711202994
 72
     1
 10
0.549069816526973
 20
0.1882053711202996
 11
0.5515884854214162
 21
0.1932427089091875
 72
     1
 10
0.5515884854214148
 20
0.1932427089091872
 11
0.5526146097858177
 21
0.1952016736048658
 72
     1
 10
0.5526146097858194
 20
0.1952016736048658
 11
0.552801177852074
 21
0.195761377803631
 72
     1
 10
0.5528011778520723
 20
0.1957613778036309
 11
0.5533608820508379
 21
0.1970673542674166
 72
     1
 10
0.5533608820508378
 20
0.1970673542674169
 11
0.5542004383489863
 21
0.1990263189630955
 72
     1
 10
0.5542004383489872
 20
0.1990263189630952
 11
0.5550399946471356
 21
0.2012651357581567
 72
     1
 10
0.5550399946471352
 20
0.2012651357581567
 11
0.5555064148127727
 21
0.2001457273606265
 72
     1
 10
0.5555064148127729
 20
0.2001457273606264
 11
0.5560661190115385
 21
0.198933034929968
 72
     1
 10
0.5560661190115379
 20
0.198933034929968
 11
0.5567191072434298
 21
0.197533774433055
 72
     1
 10
0.5567191072434304
 20
0.197533774433055
 11
0.5574653795084506
 21
0.1959479458698865
 72
     1
 10
0.557465379508451
 20
0.1959479458698865
 11
0.5583049358065995
 21
0.1942688332735902
 72
     1
 10
0.5583049358065986
 20
0.1942688332735903
 11
0.5606370366347874
 21
0.1896046316172126
 72
     1
 10
0.5606370366347871
 20
0.1896046316172126
 11
0.5639952618273804
 21
0.1828881812320289
 72
     1
 10
0.5639952618273814
 20
0.1828881812320287
 11
0.5680064752518651
 21
0.1748657543830587
 72
     1
 10
0.5680064752518637
 20
0.1748657543830589
 11
0.57239082480886
 21
0.1661903393021966
 72
     1
 10
0.5723908248088612
 20
0.1661903393021967
 11
0.5765886062996012
 21
0.1577947763207168
 72
     1
 10
0.5765886062996
 20
0.1577947763207165
 11
0.5803199676247008
 21
0.1503320536705122
 72
     1
 10
0.5803199676247015
 20
0.1503320536705122
 11
0.5831184886185295
 21
0.144641727649731
 72
     1
 10
0.5831184886185295
 20
0.144641727649731
 11
0.5791072751940441
 21
0.144641727649731
 72
     1
 10
0.5791072751940436
 20
0.144641727649731
 11
0.5724841088419869
 21
0.144641727649731
 72
     1
 10
0.5724841088419872
 20
0.144641727649731
 11
0.5641818298936356
 21
0.144641727649731
 72
     1
 10
0.5641818298936352
 20
0.144641727649731
 11
0.5550399946471351
 21
0.144641727649731
 72
     1
 10
0.5550399946471352
 20
0.144641727649731
 11
0.5458981594006351
 21
0.144641727649731
 72
     1
 10
0.5458981594006352
 20
0.144641727649731
 11
0.5375958804522815
 21
0.144641727649731
 72
     1
 10
0.5375958804522814
 20
0.144641727649731
 11
0.5310659981333528
 21
0.144641727649731
 72
     1
 10
0.5310659981333524
 20
0.144641727649731
 11
0.5269615006757405
 21
0.144641727649731
 97
        0
 92
        1
 93
      141
 72
     1
 10
0.5656743744236757
 20
0.2277578011663825
 11
0.544405614870593
 21
0.2277578011663825
 72
     1
 10
0.544405614870593
 20
0.2277578011663825
 11
0.4748157261574382
 21
0.0934287934627039
 72
     1
 10
0.4748157261574378
 20
0.0934287934627039
 11
0.4729500454948865
 21
0.0955743262246376
 72
     1
 10
0.4729500454948874
 20
0.0955743262246376
 11
0.4699649564348049
 21
0.0991191194834847
 72
     1
 10
0.4699649564348043
 20
0.0991191194834847
 11
0.4661403110765752
 21
0.1036900371067346
 72
     1
 10
0.4661403110765754
 20
0.1036900371067347
 11
0.4615693934533244
 21
0.1091005110281331
 72
     1
 10
0.461569393453325
 20
0.109100511028133
 11
0.456345487598182
 21
0.1152572572145517
 72
     1
 10
0.4563454875981812
 20
0.1152572572145516
 11
0.4506551615774008
 21
0.1219737075997353
 72
     1
 10
0.4506551615774015
 20
0.1219737075997354
 11
0.4447782674903648
 21
0.1290632941174296
 72
     1
 10
0.4447782674903636
 20
0.1290632941174296
 11
0.4387148053370722
 21
0.1362461646682511
 72
     1
 10
0.4387148053370727
 20
0.1362461646682512
 11
0.4326513431837832
 21
0.1433357511859454
 72
     1
 10
0.4326513431837844
 20
0.1433357511859453
 11
0.4268677331298759
 21
0.1502387696373844
 72
     1
 10
0.4268677331298756
 20
0.1502387696373844
 11
0.4214572592084763
 21
0.1566753679231857
 72
     1
 10
0.4214572592084754
 20
0.1566753679231858
 11
0.4165132054527153
 21
0.1625522620102216
 72
     1
 10
0.4165132054527163
 20
0.1625522620102216
 11
0.4123154239619763
 21
0.1674963157659821
 72
     1
 10
0.4123154239619753
 20
0.1674963157659822
 11
0.4088639147362555
 21
0.1715075291904667
 72
     1
 10
0.4088639147362568
 20
0.1715075291904669
 11
0.4065318139080681
 21
0.1743993342174211
 72
     1
 10
0.4065318139080665
 20
0.1743993342174211
 11
0.405319121477409
 21
0.1757985947143345
 72
     1
 10
0.4053191214774104
 20
0.1757985947143345
 11
0.4067183819743243
 21
0.1769180031118651
 72
     1
 10
0.4067183819743235
 20
0.1769180031118651
 11
0.4094236189350213
 21
0.1788769678075437
 72
     1
 10
0.4094236189350218
 20
0.1788769678075437
 11
0.4132482642932526
 21
0.1816754888013702
 72
     1
 10
0.4132482642932525
 20
0.1816754888013703
 11
0.4179124659496298
 21
0.1852202820602174
 72
     1
 10
0.417912465949629
 20
0.1852202820602174
 11
0.4232296558379
 21
0.189138211451575
 72
     1
 10
0.4232296558379001
 20
0.1891382114515751
 11
0.4291065499249351
 21
0.1935225610085696
 72
     1
 10
0.4291065499249367
 20
0.1935225610085698
 11
0.4352632961113562
 21
0.1981867626649482
 72
     1
 10
0.4352632961113554
 20
0.1981867626649479
 11
0.4416066103640296
 21
0.2028509643213252
 72
     1
 10
0.4416066103640293
 20
0.2028509643213252
 11
0.4479499246167016
 21
0.2076084500108307
 72
     1
 10
0.4479499246167018
 20
0.2076084500108307
 11
0.4540133867699932
 21
0.2120860836009535
 72
     1
 10
0.4540133867699927
 20
0.2120860836009535
 11
0.4596104287576467
 21
0.2162838650916932
 72
     1
 10
0.4596104287576468
 20
0.216283865091693
 11
0.4646477665465351
 21
0.2200152264167952
 72
     1
 10
0.464647766546535
 20
0.2200152264167951
 11
0.4689388320704013
 21
0.223186883543132
 72
     1
 10
0.4689388320704016
 20
0.2231868835431323
 11
0.4721104891967386
 21
0.2256122684044488
 72
     1
 10
0.4721104891967376
 20
0.2256122684044488
 11
0.4742560219586717
 21
0.2271980969676172
 72
     1
 10
0.4742560219586727
 20
0.2271980969676173
 11
0.475002294223693
 21
0.2277578011663825
 72
     1
 10
0.4750022942236929
 20
0.2277578011663825
 11
0.4674462875403612
 21
0.2277578011663825
 72
     1
 10
0.4674462875403611
 20
0.2277578011663825
 11
0.4395543616352215
 21
0.2277578011663825
 72
     1
 10
0.439554361635222
 20
0.2277578011663825
 11
0.4386215213039473
 21
0.2270115289013622
 72
     1
 10
0.4386215213039466
 20
0.2270115289013622
 11
0.4359162843432469
 21
0.2250525642056836
 72
     1
 10
0.4359162843432465
 20
0.2250525642056836
 11
0.4318117868856346
 21
0.2220674751456017
 72
     1
 10
0.4318117868856351
 20
0.2220674751456017
 11
0.4264013129642376
 21
0.2180562617211167
 72
     1
 10
0.4264013129642379
 20
0.2180562617211168
 11
0.4200579987115638
 21
0.2132987760316117
 72
     1
 10
0.4200579987115641
 20
0.2132987760316114
 11
0.4128751281607416
 21
0.2079815861433408
 72
     1
 10
0.4128751281607408
 20
0.2079815861433408
 11
0.4051325534111546
 21
0.20229126012256
 72
     1
 10
0.4051325534111552
 20
0.20229126012256
 11
0.397016842529058
 21
0.1963210820023964
 72
     1
 10
0.3970168425290583
 20
0.1963210820023967
 11
0.3889011316469611
 21
0.1903509038822331
 72
     1
 10
0.3889011316469611
 20
0.190350903882233
 11
0.3808787047979902
 21
0.1844740097951972
 72
     1
 10
0.3808787047979898
 20
0.1844740097951974
 11
0.3733226981146581
 21
0.1787836837744166
 72
     1
 10
0.373322698114658
 20
0.1787836837744166
 11
0.3663263956300919
 21
0.173653061952401
 72
     1
 10
0.3663263956300931
 20
0.173653061952401
 11
0.3601696494436735
 21
0.169082144329151
 72
     1
 10
0.3601696494436726
 20
0.1690821443291508
 11
0.3550390276216579
 21
0.1653507830040483
 72
     1
 10
0.3550390276216584
 20
0.1653507830040482
 11
0.3513076662965558
 21
0.1625522620102218
 72
     1
 10
0.3513076662965551
 20
0.1625522620102216
 11
0.3490688495014928
 21
0.1609664334470531
 72
     1
 10
0.3490688495014926
 20
0.1609664334470531
 11
0.3490688495014926
 21
0.1631119662089868
 72
     1
 10
0.3490688495014926
 20
0.1631119662089868
 11
0.3490688495014926
 21
0.1662836233353237
 72
     1
 10
0.3490688495014926
 20
0.1662836233353238
 11
0.3490688495014926
 21
0.1702948367598088
 72
     1
 10
0.3490688495014926
 20
0.1702948367598088
 11
0.3490688495014926
 21
0.1749590384161865
 72
     1
 10
0.3490688495014926
 20
0.1749590384161865
 11
0.3490688495014926
 21
0.1801829442713294
 72
     1
 10
0.3490688495014926
 20
0.1801829442713296
 11
0.3490688495014926
 21
0.185779986258983
 72
     1
 10
0.3490688495014926
 20
0.1857799862589829
 11
0.3490688495014926
 21
0.1916568803460187
 72
     1
 10
0.3490688495014926
 20
0.1916568803460186
 11
0.3490688495014926
 21
0.1975337744330549
 72
     1
 10
0.3490688495014926
 20
0.197533774433055
 11
0.3490688495014926
 21
0.2033173844869632
 72
     1
 10
0.3490688495014926
 20
0.2033173844869631
 11
0.3490688495014926
 21
0.2088211424414888
 72
     1
 10
0.3490688495014926
 20
0.2088211424414888
 11
0.3490688495014926
 21
0.2139517642635044
 72
     1
 10
0.3490688495014926
 20
0.2139517642635044
 11
0.3490688495014926
 21
0.2185226818867544
 72
     1
 10
0.3490688495014926
 20
0.2185226818867545
 11
0.3490688495014926
 21
0.2222540432118567
 72
     1
 10
0.3490688495014926
 20
0.2222540432118567
 11
0.3490688495014926
 21
0.2252391322719387
 72
     1
 10
0.3490688495014926
 20
0.2252391322719387
 11
0.3490688495014926
 21
0.2271048129344895
 72
     1
 10
0.3490688495014926
 20
0.2271048129344895
 11
0.3490688495014926
 21
0.2277578011663825
 72
     1
 10
0.3490688495014926
 20
0.2277578011663825
 11
0.3258411252527322
 21
0.2277578011663825
 72
     1
 10
0.3258411252527336
 20
0.2277578011663825
 11
0.3258411252527336
 21
0.0926825211976832
 72
     1
 10
0.3258411252527336
 20
0.0926825211976832
 11
0.3486957133689848
 21
0.0926825211976832
 72
     1
 10
0.3486957133689845
 20
0.0926825211976832
 11
0.3486957133689845
 21
0.0943616337939795
 72
     1
 10
0.3486957133689845
 20
0.0943616337939795
 11
0.3486957133689845
 21
0.0988392673841017
 72
     1
 10
0.3486957133689845
 20
0.0988392673841017
 11
0.3486957133689845
 21
0.1051825816367752
 72
     1
 10
0.3486957133689845
 20
0.1051825816367753
 11
0.3486957133689845
 21
0.1125520202538523
 72
     1
 10
0.3486957133689845
 20
0.1125520202538524
 11
0.3486957133689845
 21
0.1200147429040567
 72
     1
 10
0.3486957133689845
 20
0.1200147429040567
 11
0.3486957133689845
 21
0.1267311932892408
 72
     1
 10
0.3486957133689845
 20
0.1267311932892408
 11
0.3486957133689845
 21
0.1317685310781287
 72
     1
 10
0.3486957133689845
 20
0.1317685310781289
 11
0.3486957133689845
 21
0.1342871999725727
 72
     1
 10
0.3486957133689845
 20
0.1342871999725725
 11
0.3507479620977905
 21
0.1356864604694859
 72
     1
 10
0.35074796209779
 20
0.1356864604694859
 11
0.3548524595554018
 21
0.1387648335626952
 72
     1
 10
0.3548524595554015
 20
0.1387648335626952
 11
0.3605427855761835
 21
0.1428693310203079
 72
     1
 10
0.3605427855761842
 20
0.1428693310203079
 11
0.3668860998288565
 21
0.1476268167098129
 72
     1
 10
0.3668860998288568
 20
0.1476268167098129
 11
0.373322698114659
 21
0.1522910183661906
 72
     1
 10
0.373322698114658
 20
0.1522910183661908
 11
0.3791995922016947
 21
0.1565820838900582
 72
     1
 10
0.3791995922016946
 20
0.1565820838900582
 11
0.3836772257918156
 21
0.1599403090826502
 72
     1
 10
0.3836772257918159
 20
0.1599403090826503
 11
0.386195894686261
 21
0.1618059897452011
 72
     1
 10
0.3861958946862609
 20
0.1618059897452011
 11
0.3873153030837921
 21
0.1604067292482882
 72
     1
 10
0.3873153030837915
 20
0.1604067292482878
 11
0.3894608358457238
 21
0.1577947763207163
 72
     1
 10
0.3894608358457248
 20
0.1577947763207165
 11
0.3925392089389353
 21
0.1541566990287417
 72
     1
 10
0.3925392089389348
 20
0.1541566990287417
 11
0.396457138330292
 21
0.149492497372364
 72
     1
 10
0.3964571383302933
 20
0.149492497372364
 11
0.4009347719204161
 21
0.1442685915172211
 72
     1
 10
0.4009347719204146
 20
0.1442685915172209
 11
0.4057855416430466
 21
0.138391697430185
 72
     1
 10
0.4057855416430463
 20
0.1383916974301853
 11
0.4109161634650628
 21
0.1322349512437666
 72
     1
 10
0.410916163465064
 20
0.1322349512437666
 11
0.4162333533533335
 21
0.1259849210242201
 72
     1
 10
0.4162333533533334
 20
0.1259849210242201
 11
0.4215505432416044
 21
0.1196416067715466
 72
     1
 10
0.4215505432416045
 20
0.1196416067715466
 11
0.4265878810304927
 21
0.113671428651383
 72
     1
 10
0.4265878810304931
 20
0.1136714286513832
 11
0.4312520826868704
 21
0.1079811026306024
 72
     1
 10
0.4312520826868696
 20
0.1079811026306024
 11
0.4355431482107378
 21
0.1029437648417141
 72
     1
 10
0.435543148210738
 20
0.1029437648417139
 11
0.4390879414695842
 21
0.0987459833509739
 72
     1
 10
0.4390879414695843
 20
0.0987459833509741
 11
0.4417931784302841
 21
0.0954810421915098
 72
     1
 10
0.4417931784302845
 20
0.0954810421915096
 11
0.4435655750597076
 21
0.0934287934627037
 72
     1
 10
0.4435655750597074
 20
0.0934287934627039
 11
0.4442185632915993
 21
0.0926825211976832
 72
     1
 10
0.4442185632915985
 20
0.0926825211976832
 11
0.4743493059918004
 21
0.0926825211976832
 72
     1
 10
0.4743493059918001
 20
0.0926825211976832
 11
0.4753754303562029
 21
0.0926825211976832
 72
     1
 10
0.4753754303562033
 20
0.0926825211976832
 11
0.5008419714000258
 21
0.0926825211976832
 72
     1
 10
0.5008419714000265
 20
0.0926825211976832
 11
0.5014949596319184
 21
0.0939884976614689
 72
     1
 10
0.501494959631919
 20
0.0939884976614688
 11
0.5031740722282155
 21
0.0973467228540609
 72
     1
 10
0.503174072228215
 20
0.0973467228540612
 11
0.5055061730564038
 21
0.1021042085435666
 72
     1
 10
0.505506173056403
 20
0.1021042085435665
 11
0.5083046940502291
 21
0.1077012505312196
 72
     1
 10
0.5083046940502292
 20
0.1077012505312194
 11
0.5111032150440553
 21
0.1134848605851279
 72
     1
 10
0.5111032150440549
 20
0.1134848605851281
 11
0.5137151679716264
 21
0.1186154824071433
 72
     1
 10
0.5137151679716277
 20
0.1186154824071433
 11
0.5156741326673071
 21
0.1226266958316283
 72
     1
 10
0.5156741326673076
 20
0.122626695831628
 11
0.5167002570317104
 21
0.1247722285935621
 72
     1
 10
0.5167002570317103
 20
0.1247722285935622
 11
0.5180062334954961
 21
0.1247722285935622
 72
     1
 10
0.5180062334954961
 20
0.1247722285935622
 11
0.5207114704561957
 21
0.1247722285935622
 72
     1
 10
0.5207114704561944
 20
0.1247722285935622
 11
0.5246293998475517
 21
0.1247722285935622
 72
     1
 10
0.5246293998475525
 20
0.1247722285935622
 11
0.5295734536033125
 21
0.1247722285935622
 72
     1
 10
0.5295734536033115
 20
0.1247722285935622
 11
0.5352637796240919
 21
0.1247722285935622
 72
     1
 10
0.5352637796240929
 20
0.1247722285935622
 11
0.5415138098436386
 21
0.1247722285935622
 72
     1
 10
0.5415138098436394
 20
0.1247722285935622
 11
0.5482302602288245
 21
0.1247722285935622
 72
     1
 10
0.5482302602288236
 20
0.1247722285935622
 11
0.5551332786802616
 21
0.1247722285935622
 72
     1
 10
0.5551332786802608
 20
0.1247722285935622
 11
0.5620362971317004
 21
0.1247722285935622
 72
     1
 10
0.5620362971317015
 20
0.1247722285935622
 11
0.5687527475168847
 21
0.1247722285935622
 72
     1
 10
0.5687527475168839
 20
0.1247722285935622
 11
0.5750027777364317
 21
0.1247722285935622
 72
     1
 10
0.5750027777364322
 20
0.1247722285935622
 11
0.5806931037572126
 21
0.1247722285935622
 72
     1
 10
0.5806931037572119
 20
0.1247722285935622
 11
0.585637157512972
 21
0.1247722285935622
 72
     1
 10
0.5856371575129727
 20
0.1247722285935622
 11
0.5895550869043299
 21
0.1247722285935622
 72
     1
 10
0.5895550869043289
 20
0.1247722285935622
 11
0.5922603238650286
 21
0.1247722285935622
 72
     1
 10
0.5922603238650291
 20
0.1247722285935622
 11
0.5935663003288148
 21
0.1247722285935622
 72
     1
 10
0.5935663003288148
 20
0.1247722285935622
 11
0.5945924246932176
 21
0.1226266958316281
 72
     1
 10
0.5945924246932175
 20
0.122626695831628
 11
0.5965513893888953
 21
0.1186154824071431
 72
     1
 10
0.5965513893888957
 20
0.1186154824071433
 11
0.5991633423164672
 21
0.1134848605851281
 72
     1
 10
0.5991633423164667
 20
0.1134848605851281
 11
0.6019618633102946
 21
0.1077012505312196
 72
     1
 10
0.6019618633102959
 20
0.1077012505312194
 11
0.604760384304122
 21
0.1021042085435664
 72
     1
 10
0.6047603843041221
 20
0.1021042085435665
 11
0.6070924851323109
 21
0.0973467228540611
 72
     1
 10
0.6070924851323101
 20
0.0973467228540612
 11
0.6087715977286067
 21
0.0939884976614691
 72
     1
 10
0.6087715977286062
 20
0.0939884976614688
 11
0.609424585960498
 21
0.0926825211976832
 72
     1
 10
0.6094245859604986
 20
0.0926825211976832
 11
0.6363836715343633
 21
0.0926825211976832
 72
     1
 10
0.6363836715343641
 20
0.0926825211976832
 11
0.5671669189537184
 21
0.2277578011663825
 72
     1
 10
0.5671669189537179
 20
0.2277578011663825
 11
0.5656743744236758
 21
0.2277578011663825
 97
        0
 75
     0
 76
     1
 98
        1
 10
-0.3743130907707726
 20
-0.2500502867693841
1001
ACAD
1010
0.0
1020
0.0
1030
0.0
  0
HATCH
  5
19C9
330
19C0
100
AcDbEntity
  8
Kawneer Logo-English
100
AcDbHatch
 10
0.0
 20
0.0
 30
0.0
210
0.0
220
0.0
230
1.0
  2
SOLID
 70
     1
 71
     0
 91
        1
 92
        1
 93
       69
 72
     1
 10
0.8092389849197205
 20
0.2277578011663825
 11
0.778921674153266
 21
0.1309289747799811
 72
     1
 10
0.778921674153267
 20
0.1309289747799809
 11
0.7781754018882468
 21
0.1287834420180468
 72
     1
 10
0.7781754018882468
 20
0.1287834420180467
 11
0.7776156976894812
 21
0.1270110453886236
 72
     1
 10
0.7776156976894813
 20
0.1270110453886237
 11
0.7771492775238438
 21
0.1253319327923275
 72
     1
 10
0.7771492775238436
 20
0.1253319327923274
 11
0.7766828573582045
 21
0.1238393882622867
 72
     1
 10
0.7766828573582046
 20
0.1238393882622866
 11
0.7764030052588217
 21
0.1248655126266895
 72
     1
 10
0.776403005258822
 20
0.1248655126266896
 11
0.7761231531594392
 21
0.1259849210242202
 72
     1
 10
0.7761231531594391
 20
0.1259849210242201
 11
0.7759365850931844
 21
0.1268244773223681
 72
     1
 10
0.7759365850931843
 20
0.1268244773223682
 11
0.7758433010600562
 21
0.1271976134548783
 72
     1
 10
0.7758433010600552
 20
0.1271976134548783
 11
0.7755634489606744
 21
0.1280371697530267
 72
     1
 10
0.775563448960674
 20
0.1280371697530267
 11
0.7750970287950349
 21
0.1291565781505569
 72
     1
 10
0.7750970287950363
 20
0.1291565781505568
 11
0.773977620397507
 21
0.1323282352768938
 72
     1
 10
0.7739776203975062
 20
0.1323282352768939
 11
0.7721119397349549
 21
0.1372722890326544
 72
     1
 10
0.7721119397349554
 20
0.1372722890326546
 11
0.7697798389067666
 21
0.1436156032853281
 72
     1
 10
0.769779838906767
 20
0.1436156032853281
 11
0.7670746019460673
 21
0.1511716099686602
 72
     1
 10
0.7670746019460668
 20
0.15117160996866
 11
0.7639962288528581
 21
0.1595671729501399
 72
     1
 10
0.7639962288528582
 20
0.15956717295014
 11
0.7606380036602665
 21
0.1686157241635125
 72
     1
 10
0.7606380036602652
 20
0.1686157241635125
 11
0.7572797784676718
 21
0.1778508434431408
 72
     1
 10
0.7572797784676726
 20
0.1778508434431408
 11
0.753921553275081
 21
0.187179246755896
 72
     1
 10
0.7539215532750814
 20
0.1871792467558961
 11
0.7505633280824898
 21
0.1962277979692689
 72
     1
 10
0.7505633280824902
 20
0.1962277979692689
 11
0.7474849549892814
 21
0.2046233609507488
 72
     1
 10
0.7474849549892797
 20
0.2046233609507488
 11
0.74477971802858
 21
0.2121793676340809
 72
     1
 10
0.7447797180285814
 20
0.2121793676340809
 11
0.7424476172003926
 21
0.2185226818867544
 72
     1
 10
0.7424476172003929
 20
0.2185226818867545
 11
0.7405819365378416
 21
0.2234667356425151
 72
     1
 10
0.7405819365378408
 20
0.2234667356425151
 11
0.7394625281403098
 21
0.2266383927688516
 72
     1
 10
0.7394625281403103
 20
0.2266383927688516
 11
0.7390893920078009
 21
0.2277578011663822
 72
     1
 10
0.7390893920078004
 20
0.2277578011663825
 11
0.7191266089185034
 21
0.2277578011663825
 72
     1
 10
0.7191266089185029
 20
0.2277578011663825
 11
0.6843316645619254
 21
0.1336342117406798
 72
     1
 10
0.6843316645619267
 20
0.1336342117406795
 11
0.6832122561643957
 21
0.130649122680598
 72
     1
 10
0.6832122561643961
 20
0.1306491226805981
 11
0.6823726998662476
 21
0.1282237378192816
 72
     1
 10
0.6823726998662468
 20
0.1282237378192818
 11
0.6817197116343549
 21
0.1260782050573481
 72
     1
 10
0.6817197116343552
 20
0.1260782050573481
 11
0.6811600074355896
 21
0.1241192403616695
 72
     1
 10
0.6811600074355884
 20
0.1241192403616695
 11
0.6808801553362055
 21
0.1250520806929446
 72
     1
 10
0.6808801553362059
 20
0.1250520806929445
 11
0.6805070192036949
 21
0.1261714890904751
 72
     1
 10
0.680507019203696
 20
0.1261714890904752
 11
0.6802271671043131
 21
0.1272908974880058
 72
     1
 10
0.680227167104313
 20
0.1272908974880061
 11
0.6798540309718037
 21
0.1286901579849195
 72
     1
 10
0.6798540309718031
 20
0.1286901579849194
 11
0.6794808948392922
 21
0.12980956638245
 72
     1
 10
0.6794808948392932
 20
0.1298095663824503
 11
0.6784547704748904
 21
0.1328879394756595
 72
     1
 10
0.67845477047489
 20
0.1328879394756595
 11
0.6769622259448497
 21
0.1378319932314196
 72
     1
 10
0.6769622259448496
 20
0.1378319932314196
 11
0.6750032612491701
 21
0.1441753074840938
 72
     1
 10
0.6750032612491697
 20
0.1441753074840937
 11
0.6725778763878547
 21
0.1516380301342981
 72
     1
 10
0.6725778763878556
 20
0.1516380301342981
 11
0.6699659234602841
 21
0.160033593115778
 72
     1
 10
0.6699659234602829
 20
0.160033593115778
 11
0.6671674024664549
 21
0.168988860296023
 72
     1
 10
0.6671674024664554
 20
0.168988860296023
 11
0.6642755974395012
 21
0.1782239795756509
 72
     1
 10
0.6642755974395019
 20
0.178223979575651
 11
0.6613837924125477
 21
0.1874590988552789
 72
     1
 10
0.6613837924125466
 20
0.1874590988552789
 11
0.6585852714187205
 21
0.1964143660355239
 72
     1
 10
0.6585852714187204
 20
0.1964143660355237
 11
0.6559733184911489
 21
0.2047166449838762
 72
     1
 10
0.6559733184911494
 20
0.2047166449838765
 11
0.6536412176629606
 21
0.2122726516672082
 72
     1
 10
0.6536412176629614
 20
0.2122726516672082
 11
0.6515889689341538
 21
0.2186159659198823
 72
     1
 10
0.6515889689341537
 20
0.2186159659198821
 11
0.6500964244041133
 21
0.2234667356425149
 72
     1
 10
0.6500964244041132
 20
0.2234667356425151
 11
0.6490703000397104
 21
0.2266383927688516
 72
     1
 10
0.6490703000397105
 20
0.2266383927688516
 11
0.6487904479403276
 21
0.2277578011663822
 72
     1
 10
0.648790447940328
 20
0.2277578011663825
 11
0.6237903270621445
 21
0.2277578011663825
 72
     1
 10
0.6237903270621437
 20
0.2277578011663825
 11
0.6676338226320932
 21
0.0926825211976832
 72
     1
 10
0.6676338226320926
 20
0.0926825211976832
 11
0.6922608073777669
 21
0.0926825211976832
 72
     1
 10
0.6922608073777666
 20
0.0926825211976832
 11
0.726029627369941
 21
0.1855001341596003
 72
     1
 10
0.7260296273699423
 20
0.1855001341596003
 11
0.7269624677012189
 21
0.1882986551534267
 72
     1
 10
0.7269624677012177
 20
0.1882986551534266
 11
0.7278020239993661
 21
0.1906307559816158
 72
     1
 10
0.727802023999367
 20
0.1906307559816159
 11
0.7284550122312589
 21
0.1927762887435496
 72
     1
 10
0.7284550122312581
 20
0.1927762887435495
 11
0.7290147164300237
 21
0.1947352534392281
 72
     1
 10
0.7290147164300232
 20
0.1947352534392282
 11
0.7298542727281716
 21
0.192216584544784
 72
     1
 10
0.729854272728173
 20
0.1922165845447839
 11
0.7306938290263214
 21
0.1894180635509575
 72
     1
 10
0.7306938290263206
 20
0.1894180635509575
 11
0.7318132374238499
 21
0.1863396904577483
 72
     1
 10
0.7318132374238511
 20
0.1863396904577481
 11
0.7331192138876387
 21
0.1827016131657736
 72
     1
 10
0.7331192138876382
 20
0.1827016131657737
 11
0.7654887733828987
 21
0.0926825211976834
 72
     1
 10
0.7654887733828986
 20
0.0926825211976832
 11
0.7895560539298075
 21
0.0926825211976832
 72
     1
 10
0.7895560539298075
 20
0.0926825211976832
 11
0.8341458217647785
 21
0.2277578011663825
 72
     1
 10
0.8341458217647783
 20
0.2277578011663825
 11
0.830601028505932
 21
0.2277578011663825
 72
     1
 10
0.8306010285059324
 20
0.2277578011663825
 11
0.8092389849197216
 21
0.2277578011663825
 97
        0
 75
     0
 76
     1
 98
        1
 10
-0.3743130907707726
 20
-0.2500502867693841
1001
ACAD
1010
0.0
1020
0.0
1030
0.0
  0
ENDBLK
  5
19CD
330
19C0
100
AcDbEntity
  8
0
100
AcDbBlockEnd
  0
ENDSEC
  0
SECTION
  2
ENTITIES
  0
DIMENSION
  5
541
330
1F
100
AcDbEntity
  8
R-ANNO-DIMS
100
AcDbDimension
  2
*D15
 10
8.867699887121382
 20
15.48120985142088
 30
0.0
 11
10.86769988712138
 21
15.67420985142088
 31
0.0
 70
    32
 71
     5
 42
4.0
  3
EXT_ON-ON
100
AcDbAlignedDimension
 13
12.86769988712138
 23
14.57680955915607
 33
0.0
 14
8.867699887121382
 24
14.57680955915607
 34
0.0
100
AcDbRotatedDimension
  0
DIMENSION
  5
542
330
1F
100
AcDbEntity
  8
R-ANNO-DIMS
100
AcDbDimension
  2
*D16
 10
23.38909217648922
 20
15.48120985142088
 30
0.0
 11
21.38909217648921
 21
15.67420985142088
 31
0.0
 70
    32
 71
     5
 42
4.0
  3
EXT_ON-ON
100
AcDbAlignedDimension
 13
19.38909217648921
 23
14.57680955915607
 33
0.0
 14
23.38909217648922
 24
14.57680955915607
 34
0.0
100
AcDbRotatedDimension
  0
LINE
  5
544
330
1F
100
AcDbEntity
  8
R-SWTS-DET2
100
AcDbLine
 10
17.12572939600157
 20
13.63368797347443
 30
0.0
 11
17.04772939600158
 21
13.71118797347443
 31
0.0
  0
LINE
  5
545
330
1F
100
AcDbEntity
  8
R-SWTS-DET2
100
AcDbLine
 10
17.12572939600157
 20
13.96568797347444
 30
0.0
 11
17.04772939600158
 21
13.88818797347443
 31
0.0
  0
LINE
  5
546
330
1F
100
AcDbEntity
  8
R-SWTS-DET2
100
AcDbLine
 10
17.04772939600158
 20
13.88818797347443
 30
0.0
 11
17.04772939600158
 21
13.71118797347443
 31
0.0
  0
LINE
  5
547
330
1F
100
AcDbEntity
  8
R-SWTS-DET2
100
AcDbLine
 10
17.12572939600157
 20
13.96568797347444
 30
0.0
 11
17.12572939600157
 21
13.63368797347443
 31
0.0
  0
LINE
  5
548
330
1F
100
AcDbEntity
  8
R-SWTS-DET2
100
AcDbLine
 10
17.04772939600158
 20
13.88818797347443
 30
0.0
 11
16.74346911645963
 21
13.88818797347443
 31
0.0
  0
LINE
  5
549
330
1F
100
AcDbEntity
  8
R-SWTS-DET2
100
AcDbLine
 10
17.04772939600158
 20
13.71118797347443
 30
0.0
 11
16.74346911645963
 21
13.71118797347443
 31
0.0
  0
LINE
  5
54A
330
1F
100
AcDbEntity
  8
R-SWTS-DET2
100
AcDbLine
 10
16.67272939600158
 20
13.85618797347443
 30
0.0
 11
16.67272939600158
 21
13.74318797347443
 31
0.0
  0
LINE
  5
54B
330
1F
100
AcDbEntity
  8
R-SWTS-DET2
100
AcDbLine
 10
16.74346911645963
 20
13.88818797347443
 30
0.0
 11
16.67272939600158
 21
13.85618797347443
 31
0.0
  0
LINE
  5
54C
330
1F
100
AcDbEntity
  8
R-SWTS-DET2
100
AcDbLine
 10
16.67272939600158
 20
13.74318797347443
 30
0.0
 11
16.74346911645963
 21
13.71118797347443
 31
0.0
  0
LINE
  5
54D
330
1F
100
AcDbEntity
  8
0
  6
CENTER
 62
     1
100
AcDbLine
 10
16.04059421132658
 20
13.79968797347443
 30
0.0
 11
17.21359421132658
 21
13.79968797347443
 31
0.0
  0
LWPOLYLINE
  5
554
330
1F
100
AcDbEntity
  8
R-SWTS-DET2
100
AcDbPolyline
 90
       51
 70
     1
 43
0.0
 10
16.41596914382659
 20
13.33500762061896
 42
0.4142135623731123
 10
16.38596914382658
 20
13.36500762061896
 10
16.36096914382659
 20
13.36500762061896
 42
-0.4142135623730951
 10
16.29096914382659
 20
13.43500762061896
 10
16.29096914382659
 20
13.59108246993451
 42
0.4142135623730777
 10
16.26096914382659
 20
13.62108246993452
 10
16.17597914382659
 20
13.62108246993451
 42
0.4142135623731209
 10
16.14597914382659
 20
13.59108246993451
 10
16.14597914382659
 20
13.23555762046468
 10
16.18597914382659
 20
13.23555762046468
 10
16.15195829435914
 20
13.17664639721832
 42
-0.7672843184135082
 10
16.09597914382659
 20
13.19164918821222
 10
16.09597914382659
 20
13.63750426399123
 10
16.15678619157047
 20
13.69036298673303
 10
16.15678619157046
 20
13.78542025076996
 10
16.16678619157046
 20
13.79542025076996
 10
16.15678619157047
 20
13.80542025076995
 10
16.15678619157047
 20
13.90047751480689
 10
16.0959791438266
 20
13.95333623754869
 10
16.0959791438266
 20
13.99233623754869
 10
16.0409791438266
 20
13.99233623754869
 42
-0.4142135623730951
 10
15.9709791438266
 20
14.06233623754869
 10
15.9709791438266
 20
14.57680955915607
 10
16.0109791438266
 20
14.57680955915607
 10
16.0109791438266
 20
14.51680955915606
 10
16.0409791438266
 20
14.51680955915607
 10
16.0409791438266
 20
14.09233623754869
 42
0.4142135623730951
 10
16.0709791438266
 20
14.06233623754869
 10
16.0959791438266
 20
14.06233623754869
 42
-0.3926192582011599
 10
16.16578608701103
 20
13.99753149338838
 42
0.3926192582011172
 10
16.19570334837579
 20
13.9697580316054
 10
16.28096914382659
 20
13.9697580316054
 42
0.4142135623730779
 10
16.31096914382659
 20
13.9997580316054
 10
16.31096914382659
 20
14.43880955915606
 10
16.2709691438266
 20
14.43880955915606
 10
16.30498999329404
 20
14.49772078240242
 42
-0.7672843184135097
 10
16.3609691438266
 20
14.48271799140853
 10
16.3609691438266
 20
13.95333623754869
 10
16.30016209608272
 20
13.90047751480689
 10
16.30016209608273
 20
13.80542025076995
 10
16.29016209608272
 20
13.79542025076996
 10
16.30016209608273
 20
13.78542025076996
 10
16.30016209608273
 20
13.69036298673303
 10
16.3609691438266
 20
13.63750426399123
 10
16.3609691438266
 20
13.43500762061897
 10
16.41596914382659
 20
13.43500762061896
 42
-0.4142135623730877
 10
16.48596914382659
 20
13.36500762061896
 10
16.48596914382659
 20
13.09755762046467
 10
16.44596914382659
 20
13.09755762046467
 10
16.44596914382659
 20
13.15755762046468
 10
16.41596914382659
 20
13.15755762046468
  0
LINE
  5
555
330
1F
100
AcDbEntity
  8
R-SWTS-DET2
100
AcDbLine
 10
23.38909217648922
 20
14.57680955915607
 30
0.0
 11
19.38909217648921
 21
14.57680955915607
 31
0.0
  0
LINE
  5
556
330
1F
100
AcDbEntity
  8
R-SWTS-DET2
100
AcDbLine
 10
23.38909217648922
 20
13.09755762046467
 30
0.0
 11
19.38909217648921
 21
13.09755762046467
 31
0.0
  0
LINE
  5
557
330
1F
100
AcDbEntity
  8
R-SWTS-DET2
100
AcDbLine
 10
23.38909217648922
 20
14.57680955915607
 30
0.0
 11
23.38909217648922
 21
13.09755762046467
 31
0.0
  0
LINE
  5
558
330
1F
100
AcDbEntity
  8
R-SWTS-DET2
100
AcDbLine
 10
19.38909217648921
 20
14.57680955915607
 30
0.0
 11
19.38909217648921
 21
13.09755762046467
 31
0.0
  0
LINE
  5
559
330
1F
100
AcDbEntity
  8
R-SWTS-DET2
100
AcDbLine
 10
23.38909217648922
 20
13.99233623754869
 30
0.0
 11
19.38909217648921
 21
13.99233623754869
 31
0.0
  0
LINE
  5
55A
330
1F
100
AcDbEntity
  8
R-SWTS-DET2
100
AcDbLine
 10
23.38909217648922
 20
13.95333623754869
 30
0.0
 11
19.38909217648921
 21
13.95333623754869
 31
0.0
  0
LINE
  5
55B
330
1F
100
AcDbEntity
  8
R-SWTS-DET2
100
AcDbLine
 10
23.38909217648922
 20
13.90047751480689
 30
0.0
 11
19.38909217648921
 21
13.90047751480689
 31
0.0
  0
LINE
  5
55C
330
1F
100
AcDbEntity
  8
R-SWTS-DET2
100
AcDbLine
 10
23.38909217648922
 20
13.69036298673303
 30
0.0
 11
19.38909217648921
 21
13.69036298673303
 31
0.0
  0
LINE
  5
55D
330
1F
100
AcDbEntity
  8
R-SWTS-DET2
100
AcDbLine
 10
23.38909217648922
 20
13.63750426399122
 30
0.0
 11
19.38909217648921
 21
13.63750426399122
 31
0.0
  0
LINE
  5
55E
330
1F
100
AcDbEntity
  8
R-SWTS-DET2
100
AcDbLine
 10
23.38909217648922
 20
13.80542025076995
 30
0.0
 11
22.99311260717473
 21
13.80542025076995
 31
0.0
  0
LINE
  5
55F
330
1F
100
AcDbEntity
  8
R-SWTS-DET2
100
AcDbLine
 10
23.38909217648922
 20
13.78542025076996
 30
0.0
 11
22.99311260717473
 21
13.78542025076996
 31
0.0
  0
LINE
  5
560
330
1F
100
AcDbEntity
  8
R-SWTS-DET2
100
AcDbLine
 10
23.38909217648922
 20
13.79542025076996
 30
0.0
 11
22.99359217648921
 21
13.79542025076996
 31
0.0
  0
LINE
  5
561
330
1F
100
AcDbEntity
  8
R-SWTS-DET2
100
AcDbLine
 10
23.38909217648922
 20
13.16164918821222
 30
0.0
 11
19.38909217648921
 21
13.16164918821222
 31
0.0
  0
CIRCLE
  5
562
330
1F
100
AcDbEntity
  8
R-SWTS-DET2
100
AcDbCircle
 10
19.88909217648921
 20
13.79542025076996
 30
0.0
 40
0.1045
  0
CIRCLE
  5
563
330
1F
100
AcDbEntity
  8
R-SWTS-DET2
100
AcDbCircle
 10
22.88909217648921
 20
13.79542025076996
 30
0.0
 40
0.1045
  0
LINE
  5
564
330
1F
100
AcDbEntity
  8
R-SWTS-DET2
100
AcDbLine
 10
22.7850717458037
 20
13.80542025076995
 30
0.0
 11
19.99311260717473
 21
13.80542025076995
 31
0.0
  0
LINE
  5
565
330
1F
100
AcDbEntity
  8
R-SWTS-DET2
100
AcDbLine
 10
22.78459217648921
 20
13.79542025076996
 30
0.0
 11
19.99359217648921
 21
13.79542025076996
 31
0.0
  0
LINE
  5
566
330
1F
100
AcDbEntity
  8
R-SWTS-DET2
100
AcDbLine
 10
22.7850717458037
 20
13.78542025076996
 30
0.0
 11
19.99311260717473
 21
13.78542025076996
 31
0.0
  0
LINE
  5
567
330
1F
100
AcDbEntity
  8
R-SWTS-DET2
100
AcDbLine
 10
19.7850717458037
 20
13.78542025076996
 30
0.0
 11
19.38909217648921
 21
13.78542025076996
 31
0.0
  0
LINE
  5
568
330
1F
100
AcDbEntity
  8
R-SWTS-DET2
100
AcDbLine
 10
19.78459217648921
 20
13.79542025076996
 30
0.0
 11
19.38909217648921
 21
13.79542025076996
 31
0.0
  0
LINE
  5
569
330
1F
100
AcDbEntity
  8
R-SWTS-DET2
100
AcDbLine
 10
19.7850717458037
 20
13.80542025076995
 30
0.0
 11
19.38909217648921
 21
13.80542025076995
 31
0.0
  0
LINE
  5
56B
330
1F
100
AcDbEntity
  8
R-SWTS-DET2
100
AcDbLine
 10
12.86769988712138
 20
14.51680955915606
 30
0.0
 11
8.867699887121382
 21
14.51680955915606
 31
0.0
  0
LINE
  5
56C
330
1F
100
AcDbEntity
  8
R-SWTS-DET2
100
AcDbLine
 10
12.86769988712138
 20
13.09755762046469
 30
0.0
 11
12.86769988712138
 21
13.18555762062991
 31
0.0
  0
LINE
  5
56D
330
1F
100
AcDbEntity
  8
R-SWTS-DET2
100
AcDbLine
 10
12.86769988712138
 20
13.09755762046469
 30
0.0
 11
8.867699887121382
 21
13.09755762046469
 31
0.0
  0
LINE
  5
56E
330
1F
100
AcDbEntity
  8
R-SWTS-DET2
100
AcDbLine
 10
8.867699887121382
 20
13.18555762062991
 30
0.0
 11
8.867699887121382
 21
13.09755762046469
 31
0.0
  0
LINE
  5
56F
330
1F
100
AcDbEntity
  8
R-SWTS-DET2
100
AcDbLine
 10
12.86769988712138
 20
13.18555762062991
 30
0.0
 11
8.867699887121382
 21
13.18555762062991
 31
0.0
  0
LINE
  5
570
330
1F
100
AcDbEntity
  8
R-SWTS-DET2
100
AcDbLine
 10
12.86769988712138
 20
13.18555762062991
 30
0.0
 11
12.86769988712138
 21
13.67900426399122
 31
0.0
  0
LINE
  5
571
330
1F
100
AcDbEntity
  8
R-SWTS-DET2
100
AcDbLine
 10
8.867699887121382
 20
13.67900426399122
 30
0.0
 11
8.867699887121382
 21
13.18555762062991
 31
0.0
  0
LINE
  5
572
330
1F
100
AcDbEntity
  8
R-SWTS-DET2
100
AcDbLine
 10
12.86769988712138
 20
13.67900426399122
 30
0.0
 11
12.86769988712138
 21
13.73186298673302
 31
0.0
  0
LINE
  5
573
330
1F
100
AcDbEntity
  8
R-SWTS-DET2
100
AcDbLine
 10
12.86769988712138
 20
13.67900426399122
 30
0.0
 11
8.867699887121382
 21
13.67900426399122
 31
0.0
  0
LINE
  5
574
330
1F
100
AcDbEntity
  8
R-SWTS-DET2
100
AcDbLine
 10
8.867699887121382
 20
13.73186298673302
 30
0.0
 11
8.867699887121382
 21
13.67900426399122
 31
0.0
  0
LINE
  5
575
330
1F
100
AcDbEntity
  8
R-SWTS-DET2
100
AcDbLine
 10
12.86769988712138
 20
13.82692025076996
 30
0.0
 11
12.86769988712138
 21
13.83692025076995
 31
0.0
  0
LINE
  5
576
330
1F
100
AcDbEntity
  8
R-SWTS-DET2
100
AcDbLine
 10
12.86769988712138
 20
13.83692025076995
 30
0.0
 11
12.86769988712138
 21
13.84692025076995
 31
0.0
  0
LINE
  5
577
330
1F
100
AcDbEntity
  8
R-SWTS-DET2
100
AcDbLine
 10
12.86769988712138
 20
13.83692025076995
 30
0.0
 11
12.47219987143157
 21
13.83692025076995
 31
0.0
  0
LINE
  5
578
330
1F
100
AcDbEntity
  8
R-SWTS-DET2
100
AcDbLine
 10
8.867699887121382
 20
13.94197751480688
 30
0.0
 11
8.867699887121382
 21
13.84692025076995
 31
0.0
  0
LINE
  5
579
330
1F
100
AcDbEntity
  8
R-SWTS-DET2
100
AcDbLine
 10
12.86769988712138
 20
13.84692025076995
 30
0.0
 11
12.86769988712138
 21
13.94197751480688
 31
0.0
  0
LINE
  5
57A
330
1F
100
AcDbEntity
  8
R-SWTS-DET2
100
AcDbLine
 10
12.86769988712138
 20
13.84692025076995
 30
0.0
 11
12.47171479682231
 21
13.84692025076995
 31
0.0
  0
LINE
  5
57B
330
1F
100
AcDbEntity
  8
R-SWTS-DET2
100
AcDbLine
 10
12.86769988712138
 20
13.94197751480688
 30
0.0
 11
12.86769988712138
 21
13.99483623754868
 31
0.0
  0
LINE
  5
57C
330
1F
100
AcDbEntity
  8
R-SWTS-DET2
100
AcDbLine
 10
12.86769988712138
 20
13.94197751480688
 30
0.0
 11
8.867699887121382
 21
13.94197751480688
 31
0.0
  0
LINE
  5
57D
330
1F
100
AcDbEntity
  8
R-SWTS-DET2
100
AcDbLine
 10
8.867699887121382
 20
13.99483623754868
 30
0.0
 11
8.867699887121382
 21
13.94197751480688
 31
0.0
  0
LINE
  5
57E
330
1F
100
AcDbEntity
  8
R-SWTS-DET2
100
AcDbLine
 10
12.86769988712138
 20
13.99483623754868
 30
0.0
 11
12.86769988712138
 21
14.48830761648582
 31
0.0
  0
LINE
  5
57F
330
1F
100
AcDbEntity
  8
R-SWTS-DET2
100
AcDbLine
 10
12.86769988712138
 20
13.99483623754868
 30
0.0
 11
8.867699887121382
 21
13.99483623754868
 31
0.0
  0
LINE
  5
580
330
1F
100
AcDbEntity
  8
R-SWTS-DET2
100
AcDbLine
 10
8.867699887121382
 20
14.48830761648582
 30
0.0
 11
8.867699887121382
 21
13.99483623754868
 31
0.0
  0
LINE
  5
581
330
1F
100
AcDbEntity
  8
R-SWTS-DET2
100
AcDbLine
 10
12.86769988712138
 20
14.51680955915606
 30
0.0
 11
12.86769988712138
 21
14.48830761648582
 31
0.0
  0
LINE
  5
582
330
1F
100
AcDbEntity
  8
R-SWTS-DET2
100
AcDbLine
 10
8.867699887121382
 20
14.48830761648582
 30
0.0
 11
8.867699887121382
 21
14.51680955915606
 31
0.0
  0
LINE
  5
583
330
1F
100
AcDbEntity
  8
R-SWTS-DET2
100
AcDbLine
 10
12.86769988712138
 20
14.51680955915606
 30
0.0
 11
12.86769988712138
 21
14.57680955915607
 31
0.0
  0
LINE
  5
584
330
1F
100
AcDbEntity
  8
R-SWTS-DET2
100
AcDbLine
 10
8.867699887121382
 20
14.57680955915607
 30
0.0
 11
8.867699887121382
 21
14.51680955915606
 31
0.0
  0
LINE
  5
585
330
1F
100
AcDbEntity
  8
R-SWTS-DET2
100
AcDbLine
 10
12.86769988712138
 20
14.57680955915607
 30
0.0
 11
8.867699887121382
 21
14.57680955915607
 31
0.0
  0
LINE
  5
586
330
1F
100
AcDbEntity
  8
R-SWTS-DET2
100
AcDbLine
 10
8.867699887121382
 20
13.84692025076995
 30
0.0
 11
8.867699887121382
 21
13.83692025076995
 31
0.0
  0
LINE
  5
587
330
1F
100
AcDbEntity
  8
R-SWTS-DET2
100
AcDbLine
 10
9.263684977420453
 20
13.84692025076995
 30
0.0
 11
8.867699887121382
 21
13.84692025076995
 31
0.0
  0
LINE
  5
588
330
1F
100
AcDbEntity
  8
R-SWTS-DET2
100
AcDbLine
 10
8.867699887121382
 20
13.83692025076995
 30
0.0
 11
8.867699887121382
 21
13.82692025076996
 31
0.0
  0
LINE
  5
589
330
1F
100
AcDbEntity
  8
R-SWTS-DET2
100
AcDbLine
 10
9.263199902811194
 20
13.83692025076995
 30
0.0
 11
8.867699887121382
 21
13.83692025076995
 31
0.0
  0
ARC
  5
58A
330
1F
100
AcDbEntity
  8
R-SWTS-DET2
100
AcDbCircle
 10
9.367699887121382
 20
13.83686298673302
 30
0.0
 40
0.1045
100
AcDbArc
 50
179.9686029875776
 51
185.4597114736015
  0
ARC
  5
58B
330
1F
100
AcDbEntity
  8
R-SWTS-DET2
100
AcDbCircle
 10
9.367699887121382
 20
13.83686298673302
 30
0.0
 40
0.1045
100
AcDbArc
 50
174.4772049997761
 51
179.9686029875772
  0
ARC
  5
58C
330
1F
100
AcDbEntity
  8
R-SWTS-DET2
100
AcDbCircle
 10
9.367699887121382
 20
13.83686298673302
 30
0.0
 40
0.1045
100
AcDbArc
 50
5.522795000223907
 51
174.4772049997761
  0
ARC
  5
58D
330
1F
100
AcDbEntity
  8
R-SWTS-DET2
100
AcDbCircle
 10
9.367699887121382
 20
13.83686298673302
 30
0.0
 40
0.1045
100
AcDbArc
 50
0.031397012422827
 51
5.522795000223907
  0
LINE
  5
58E
330
1F
100
AcDbEntity
  8
R-SWTS-DET2
100
AcDbLine
 10
12.26368497742045
 20
13.84692025076995
 30
0.0
 11
9.471714796822311
 21
13.84692025076995
 31
0.0
  0
ARC
  5
58F
330
1F
100
AcDbEntity
  8
R-SWTS-DET2
100
AcDbCircle
 10
9.367699887121382
 20
13.83686298673302
 30
0.0
 40
0.1045
100
AcDbArc
 50
354.5402885263985
 51
0.0313970124224199
  0
LINE
  5
590
330
1F
100
AcDbEntity
  8
R-SWTS-DET2
100
AcDbLine
 10
12.26319990281119
 20
13.83692025076995
 30
0.0
 11
9.47219987143157
 21
13.83692025076995
 31
0.0
  0
LINE
  5
591
330
1F
100
AcDbEntity
  8
R-SWTS-DET2
100
AcDbLine
 10
12.86769988712138
 20
13.82692025076996
 30
0.0
 11
12.47172580697585
 21
13.82692025076996
 31
0.0
  0
LINE
  5
592
330
1F
100
AcDbEntity
  8
R-SWTS-DET2
100
AcDbLine
 10
12.86769988712138
 20
13.73186298673302
 30
0.0
 11
12.86769988712138
 21
13.82692025076996
 31
0.0
  0
LINE
  5
593
330
1F
100
AcDbEntity
  8
R-SWTS-DET2
100
AcDbLine
 10
12.86769988712138
 20
13.73186298673302
 30
0.0
 11
8.867699887121382
 21
13.73186298673302
 31
0.0
  0
LINE
  5
594
330
1F
100
AcDbEntity
  8
R-SWTS-DET2
100
AcDbLine
 10
8.867699887121382
 20
13.82692025076996
 30
0.0
 11
8.867699887121382
 21
13.73186298673302
 31
0.0
  0
LINE
  5
595
330
1F
100
AcDbEntity
  8
R-SWTS-DET2
100
AcDbLine
 10
9.26367396726691
 20
13.82692025076996
 30
0.0
 11
8.867699887121382
 21
13.82692025076996
 31
0.0
  0
ARC
  5
596
330
1F
100
AcDbEntity
  8
R-SWTS-DET2
100
AcDbCircle
 10
9.367699887121382
 20
13.83686298673302
 30
0.0
 40
0.1045
100
AcDbArc
 50
185.4597114736014
 51
354.5402885263985
  0
LINE
  5
597
330
1F
100
AcDbEntity
  8
R-SWTS-DET2
100
AcDbLine
 10
12.26367396726691
 20
13.82692025076996
 30
0.0
 11
9.471725806975854
 21
13.82692025076996
 31
0.0
  0
ARC
  5
598
330
1F
100
AcDbEntity
  8
R-SWTS-DET2
100
AcDbCircle
 10
12.36769988712138
 20
13.83686298673303
 30
0.0
 40
0.1045
100
AcDbArc
 50
185.4597114736005
 51
354.5402885263994
  0
ARC
  5
599
330
1F
100
AcDbEntity
  8
R-SWTS-DET2
100
AcDbCircle
 10
12.36769988712138
 20
13.83686298673303
 30
0.0
 40
0.1045
100
AcDbArc
 50
179.9686029875776
 51
185.4597114736011
  0
ARC
  5
59A
330
1F
100
AcDbEntity
  8
R-SWTS-DET2
100
AcDbCircle
 10
12.36769988712138
 20
13.83686298673303
 30
0.0
 40
0.1045
100
AcDbArc
 50
174.4772049997761
 51
179.9686029875772
  0
ARC
  5
59B
330
1F
100
AcDbEntity
  8
R-SWTS-DET2
100
AcDbCircle
 10
12.36769988712138
 20
13.83686298673303
 30
0.0
 40
0.1045
100
AcDbArc
 50
5.522795000223907
 51
174.4772049997761
  0
ARC
  5
59C
330
1F
100
AcDbEntity
  8
R-SWTS-DET2
100
AcDbCircle
 10
12.36769988712138
 20
13.83686298673303
 30
0.0
 40
0.1045
100
AcDbArc
 50
0.031397012422827
 51
5.522795000223907
  0
ARC
  5
59D
330
1F
100
AcDbEntity
  8
R-SWTS-DET2
100
AcDbCircle
 10
12.36769988712138
 20
13.83686298673303
 30
0.0
 40
0.1045
100
AcDbArc
 50
354.5402885263989
 51
0.0313970124224199
  0
LWPOLYLINE
  5
59E
330
1F
100
AcDbEntity
  8
R-SWTS-DET2
100
AcDbPolyline
 90
       46
 70
     1
 43
0.0
 10
5.707019468524748
 20
13.66258246993451
 42
0.4142135623731644
 10
5.677019468524754
 20
13.63258246993451
 10
5.677019468524754
 20
13.23555762046468
 10
5.717019468524753
 20
13.23555762046468
 10
5.680203286498347
 20
13.17180594017488
 42
-0.7672843184134913
 10
5.62701946852475
 20
13.18605956313494
 10
5.62701946852475
 20
13.67900426399122
 10
5.687826516268621
 20
13.73186298673302
 10
5.687826516268614
 20
13.82692025076996
 10
5.697826516268612
 20
13.83692025076995
 10
5.687826516268614
 20
13.84692025076995
 10
5.687826516268621
 20
13.94197751480688
 10
5.62701946852475
 20
13.99483623754869
 10
5.62701946852475
 20
14.23939172821566
 10
5.57201946852475
 20
14.23939172821566
 42
-0.4142135623730951
 10
5.50201946852475
 20
14.30939172821566
 10
5.50201946852475
 20
14.57680955915607
 10
5.542019468524749
 20
14.57680955915607
 10
5.542019468524749
 20
14.51680955915606
 10
5.57201946852475
 20
14.51680955915606
 10
5.57201946852475
 20
14.33939172821566
 42
0.4142135623730951
 10
5.602019468524751
 20
14.30939172821566
 10
5.62701946852475
 20
14.30939172821566
 42
-0.4142135623730951
 10
5.69701946852475
 20
14.23939172821566
 10
5.69701946852475
 20
14.04125803160539
 42
0.4142135623730829
 10
5.727019468524751
 20
14.01125803160539
 10
5.812009468524749
 20
14.0112580316054
 42
0.4142135623731297
 10
5.842009468524743
 20
14.0412580316054
 10
5.84200946852475
 20
14.43880955915606
 10
5.802009468524751
 20
14.43880955915606
 10
5.83882565055115
 20
14.50256123944588
 42
-0.7672843184135343
 10
5.892009468524747
 20
14.48830761648582
 10
5.892009468524747
 20
13.99483623754869
 10
5.831202420780869
 20
13.94197751480688
 10
5.831202420780876
 20
13.84692025076995
 10
5.821202420780878
 20
13.83692025076995
 10
5.831202420780876
 20
13.82692025076996
 10
5.831202420780869
 20
13.73186298673302
 10
5.892009468524747
 20
13.67900426399122
 10
5.892009468524747
 20
13.18555762062991
 10
5.91200946852475
 20
13.18555762062991
 10
5.91200946852475
 20
13.09755762046469
 10
5.89200946852474
 20
13.09755762046468
 42
-0.4142135623730951
 10
5.82200946852474
 20
13.16755762046468
 10
5.822009468524747
 20
13.63258246993451
 42
0.4142135623730951
 10
5.792009468524746
 20
13.66258246993451
  0
DIMENSION
  5
59F
330
1F
100
AcDbEntity
  8
R-ANNO-DIMS
100
AcDbDimension
  2
*D1
 10
34.48494144555508
 20
15.48120985142088
 30
0.0
 11
31.48489144555508
 21
15.67420985142088
 31
0.0
 70
    32
 71
     5
 42
6.000099999999989
  3
EXT_ON-ON
100
AcDbAlignedDimension
 13
28.48484144555509
 23
14.57680955915607
 33
0.0
 14
34.48494144555508
 24
14.57680955915607
 34
0.0
100
AcDbRotatedDimension
  0
LINE
  5
5A4
330
1F
100
AcDbEntity
  8
0
  6
CENTER
 62
     1
100
AcDbLine
 10
5.410302282000664
 20
13.8456650740226
 30
0.0
 11
6.583302282000659
 21
13.8456650740226
 31
0.0
  0
LINE
  5
5A5
330
1F
100
AcDbEntity
  8
R-SWTS-DET2
100
AcDbLine
 10
6.042437466675664
 20
13.7891650740226
 30
0.0
 11
6.113177187133715
 21
13.7571650740226
 31
0.0
  0
LINE
  5
5A6
330
1F
100
AcDbEntity
  8
R-SWTS-DET2
100
AcDbLine
 10
6.113177187133715
 20
13.93416507402261
 30
0.0
 11
6.042437466675664
 21
13.9021650740226
 31
0.0
  0
LINE
  5
5A7
330
1F
100
AcDbEntity
  8
R-SWTS-DET2
100
AcDbLine
 10
6.042437466675664
 20
13.9021650740226
 30
0.0
 11
6.042437466675664
 21
13.7891650740226
 31
0.0
  0
LINE
  5
5A8
330
1F
100
AcDbEntity
  8
R-SWTS-DET2
100
AcDbLine
 10
6.417437466675664
 20
13.7571650740226
 30
0.0
 11
6.113177187133715
 21
13.7571650740226
 31
0.0
  0
LINE
  5
5A9
330
1F
100
AcDbEntity
  8
R-SWTS-DET2
100
AcDbLine
 10
6.417437466675664
 20
13.93416507402261
 30
0.0
 11
6.113177187133715
 21
13.93416507402261
 31
0.0
  0
LINE
  5
5AA
330
1F
100
AcDbEntity
  8
R-SWTS-DET2
100
AcDbLine
 10
6.495437466675653
 20
14.01166507402261
 30
0.0
 11
6.495437466675653
 21
13.67966507402261
 31
0.0
  0
LINE
  5
5AB
330
1F
100
AcDbEntity
  8
R-SWTS-DET2
100
AcDbLine
 10
6.417437466675664
 20
13.93416507402261
 30
0.0
 11
6.417437466675664
 21
13.7571650740226
 31
0.0
  0
LINE
  5
5AC
330
1F
100
AcDbEntity
  8
R-SWTS-DET2
100
AcDbLine
 10
6.495437466675653
 20
14.01166507402261
 30
0.0
 11
6.417437466675664
 21
13.93416507402261
 31
0.0
  0
LINE
  5
5AD
330
1F
100
AcDbEntity
  8
R-SWTS-DET2
100
AcDbLine
 10
6.495437466675653
 20
13.67966507402261
 30
0.0
 11
6.417437466675664
 21
13.7571650740226
 31
0.0
  0
DIMENSION
  5
5AE
330
1F
100
AcDbEntity
  8
R-ANNO-DIMS
100
AcDbDimension
  2
*D2
 10
30.47539613722505
 20
21.70442158058303
 30
0.0
 11
30.28239613722504
 21
21.08103349197825
 31
0.0
 70
    32
 71
     5
 42
1.246776177209575
  3
EXT_ON-ON
100
AcDbAlignedDimension
 13
29.17274783091253
 23
20.45764540337346
 33
0.0
 14
29.17274783091253
 24
21.70442158058303
 34
0.0
 50
90.0
100
AcDbRotatedDimension
  0
DIMENSION
  5
5AF
330
1F
100
AcDbEntity
  8
R-ANNO-DIMS
100
AcDbDimension
  2
*D3
 10
29.17274783091253
 20
22.68134997364705
 30
0.0
 11
25.79774783091253
 21
22.87434997364705
 31
0.0
 70
    32
 71
     5
 42
6.749999999999992
  3
EXT_ON-ON
100
AcDbAlignedDimension
 13
22.42274783091254
 23
21.70764540337346
 33
0.0
 14
29.17274783091253
 24
21.70764540337346
 34
0.0
100
AcDbRotatedDimension
  0
DIMENSION
  5
5B0
330
1F
100
AcDbEntity
  8
R-ANNO-DIMS
100
AcDbDimension
  2
*D4
 10
29.98957173788298
 20
26.61126935551701
 30
0.0
 11
29.79657173788297
 21
27.29876935551701
 31
0.0
 70
    32
 71
     5
 42
1.375
  3
EXT_ON-ON
100
AcDbAlignedDimension
 13
28.86556354072371
 23
27.98626935551701
 33
0.0
 14
28.86556354072371
 24
26.61126935551701
 34
0.0
 50
90.0
100
AcDbRotatedDimension
  0
DIMENSION
  5
5B1
330
1F
100
AcDbEntity
  8
R-ANNO-DIMS
100
AcDbDimension
  2
*D5
 10
22.74056354072371
 20
28.95982015704998
 30
0.0
 11
25.80306354072371
 21
29.15282015704999
 31
0.0
 70
    32
 71
     5
 42
6.125
  3
EXT_ON-ON
100
AcDbAlignedDimension
 13
28.86556354072371
 23
27.98626935551701
 33
0.0
 14
22.74056354072371
 24
27.98626935551701
 34
0.0
100
AcDbRotatedDimension
  0
DIMENSION
  5
5B2
330
1F
100
AcDbEntity
  8
R-ANNO-DIMS
100
AcDbDimension
  2
*D6
 10
29.08699645701427
 20
34.24746782168494
 30
0.0
 11
28.89399645701426
 21
33.62246782168494
 31
0.0
 70
    32
 71
     5
 42
1.25
  3
EXT_ON-ON
100
AcDbAlignedDimension
 13
27.90590969682522
 23
32.99746782168494
 33
0.0
 14
27.90590969682522
 24
34.24746782168494
 34
0.0
 50
90.0
100
AcDbRotatedDimension
  0
DIMENSION
  5
5B3
330
1F
100
AcDbEntity
  8
R-ANNO-DIMS
100
AcDbDimension
  2
*D7
 10
27.90590969682522
 20
35.27467885467548
 30
0.0
 11
25.40593469682522
 21
35.46767885467548
 31
0.0
 70
    32
 71
     5
 42
4.999949999999998
  3
EXT_ON-ON
100
AcDbAlignedDimension
 13
22.90595969682522
 23
34.24746782168494
 33
0.0
 14
27.90590969682522
 24
34.24746782168494
 34
0.0
100
AcDbRotatedDimension
  0
DIMENSION
  5
5B4
330
1F
100
AcDbEntity
  8
R-ANNO-DIMS
100
AcDbDimension
  2
*D8
 10
17.9662491959704
 20
21.70764540337346
 30
0.0
 11
17.7732491959704
 21
21.20764540337346
 31
0.0
 70
    32
 71
     5
 42
0.9999999999999964
  3
EXT_ON-ON
100
AcDbAlignedDimension
 13
16.97366479185262
 23
20.70764540337346
 33
0.0
 14
16.97366479185262
 24
21.70764540337346
 34
0.0
 50
90.0
100
AcDbRotatedDimension
  0
DIMENSION
  5
5B5
330
1F
100
AcDbEntity
  8
R-ANNO-DIMS
100
AcDbDimension
  2
*D9
 10
16.97366479185262
 20
22.71109460360565
 30
0.0
 11
14.84868979185262
 21
22.90409460360566
 31
0.0
 70
    32
 71
     5
 42
4.249949999999998
  3
EXT_ON-ON
100
AcDbAlignedDimension
 13
12.72371479185262
 23
21.70764540337346
 33
0.0
 14
16.97366479185262
 24
21.70764540337346
 34
0.0
100
AcDbRotatedDimension
  0
DIMENSION
  5
5B6
330
1F
100
AcDbEntity
  8
R-ANNO-DIMS
100
AcDbDimension
  2
*D10
 10
17.36837997351196
 20
27.98626935551701
 30
0.0
 11
17.17537997351195
 21
27.36126935551701
 31
0.0
 70
    32
 71
     5
 42
1.25
  3
EXT_ON-ON
100
AcDbAlignedDimension
 13
16.29610800853713
 23
26.73626935551701
 33
0.0
 14
16.31210800853713
 24
27.98626935551701
 34
0.0
 50
90.0
100
AcDbRotatedDimension
  0
DIMENSION
  5
5B7
330
1F
100
AcDbEntity
  8
R-ANNO-DIMS
100
AcDbDimension
  2
*D11
 10
16.31210800853713
 20
28.97659199514738
 30
0.0
 11
14.93710800853713
 21
29.16959199514737
 31
0.0
 70
    32
 71
     5
 42
2.75
  3
EXT_ON-ON
100
AcDbAlignedDimension
 13
13.56210800853713
 23
27.98626935551701
 33
0.0
 14
16.31210800853713
 24
27.98626935551701
 34
0.0
100
AcDbRotatedDimension
  0
DIMENSION
  5
5B9
330
1F
100
AcDbEntity
  8
R-ANNO-DIMS
100
AcDbDimension
  2
*D12
 10
16.73703195378127
 20
34.24746782168493
 30
0.0
 11
16.54403195378126
 21
35.15746782168494
 31
0.0
 70
    32
 71
     5
 42
0.7500049999999945
  3
EXT_ON-ON
100
AcDbAlignedDimension
 13
15.26748720567341
 23
33.49746282168494
 33
0.0
 14
15.32948720567341
 24
34.24746782168494
 34
0.0
 50
90.0
100
AcDbRotatedDimension
  0
DIMENSION
  5
5BA
330
1F
100
AcDbEntity
  8
R-ANNO-DIMS
100
AcDbDimension
  2
*D13
 10
13.48383528008578
 20
32.74746282168396
 30
0.0
 11
13.29083528008578
 21
33.49746532168444
 31
0.0
 70
    32
 71
     5
 42
1.500005000000975
  3
EXT_ON-ON
100
AcDbAlignedDimension
 13
14.54948720567341
 23
34.24746782168494
 33
0.0
 14
14.54948720567341
 24
32.74746282168396
 34
0.0
 50
90.0
100
AcDbRotatedDimension
  0
DIMENSION
  5
5BB
330
1F
100
AcDbEntity
  8
R-ANNO-DIMS
100
AcDbDimension
  2
*D14
 10
14.54948720567341
 20
35.2710328463821
 30
0.0
 11
13.63948720567341
 21
35.4640328463821
 31
0.0
 70
    32
 71
     5
 42
0.7799999999999941
  3
EXT_ON-ON
100
AcDbAlignedDimension
 13
15.32948720567341
 23
34.24746782168494
 33
0.0
 14
14.54948720567341
 24
34.24746782168494
 34
0.0
100
AcDbRotatedDimension
  0
LWPOLYLINE
  5
5BC
330
1F
100
AcDbEntity
  8
R-SWTS-DET1
100
AcDbPolyline
 90
       20
 70
     1
 43
0.0
 10
22.66874783091989
 20
21.32164540338671
 42
-0.7801435361820932
 10
22.64074783091253
 20
21.32914540338994
 10
22.64074783091253
 20
21.61764540337346
 10
22.51274783091253
 20
21.61764540337346
 10
22.51274783091253
 20
21.54764540337346
 10
22.46274783091253
 20
21.54764540337346
 10
22.46274783091253
 20
21.61764540337346
 10
22.42274783091254
 20
21.61764540337346
 10
22.42274783091254
 20
21.70764540337346
 10
29.17274783091253
 20
21.70764540337346
 10
29.17274783091253
 20
20.45764540337346
 10
29.08274783091253
 20
20.45764540337346
 10
29.08274783091253
 20
21.61764540337346
 10
28.41074783091253
 20
21.61764540337346
 10
28.41074783091253
 20
19.70764540337346
 10
28.32074783091253
 20
19.70764540337346
 10
28.32074783091253
 20
21.61764540337346
 10
22.70274783091253
 20
21.61764540337346
 10
22.70274783091253
 20
21.44964540337346
 10
22.74274783091254
 20
21.44964540337346
  0
LWPOLYLINE
  5
5BD
330
1F
100
AcDbEntity
  8
R-SWTS-DET1
100
AcDbPolyline
 90
       20
 70
     1
 43
0.0
 10
28.77556354072371
 20
26.61126935551701
 10
28.77556354072371
 20
27.89626935551702
 10
28.0885635407237
 20
27.89626935551702
 10
28.0885635407237
 20
25.98626935551701
 10
27.99856354072371
 20
25.98626935551701
 10
27.99856354072371
 20
27.89626935551702
 10
23.0205635407237
 20
27.89626935551702
 10
23.0205635407237
 20
27.72826935551702
 10
23.06056354072371
 20
27.72826935551702
 10
22.98656354073488
 20
27.60026935553672
 42
-0.7737080336744869
 10
22.9585635407237
 20
27.60776935554159
 10
22.9585635407237
 20
27.89626935551702
 10
22.8305635407237
 20
27.89626935551702
 10
22.8305635407237
 20
27.82626935551701
 10
22.7805635407237
 20
27.82626935551701
 10
22.7805635407237
 20
27.89626935551702
 10
22.74056354072371
 20
27.89626935551702
 10
22.74056354072371
 20
27.98626935551701
 10
28.86556354072371
 20
27.98626935551701
 10
28.86556354072371
 20
26.61126935551701
  0
LWPOLYLINE
  5
5BE
330
1F
100
AcDbEntity
  8
R-SWTS-DET1
100
AcDbPolyline
 90
       21
 70
     1
 43
0.0
 10
12.96970517290938
 20
21.32164540337346
 42
-0.767326987978961
 10
12.94171479185262
 20
21.32914540337346
 10
12.94171479185262
 20
21.61764540337346
 10
12.81371479185262
 20
21.61764540337346
 10
12.81371479185262
 20
21.54764540337346
 10
12.76371479185262
 20
21.54764540337346
 10
12.76371479185262
 20
21.61764540337346
 10
12.72371479185262
 20
21.61764540337346
 10
12.72371479185262
 20
21.70764540337346
 10
16.97366479185262
 20
21.70764540337346
 10
16.97366479185262
 20
20.70764540337346
 10
16.88366479185262
 20
20.70764540337346
 10
16.88366479185262
 20
21.61764540337346
 10
16.19671479185262
 20
21.61764540337346
 10
16.19671479185262
 20
19.95764540337346
 10
16.10671479185262
 20
19.95764540337346
 10
16.10671479185262
 20
21.61764540337346
 10
13.00371479185262
 20
21.61764540337346
 10
13.00371479185262
 20
21.44964540337346
 10
13.04371479185262
 20
21.44964540337346
 10
12.96971479185262
 20
21.32164540337346
  0
LWPOLYLINE
  5
5BF
330
1F
100
AcDbEntity
  8
R-SWTS-DET1
100
AcDbPolyline
 90
       34
 70
     1
 43
0.0
 10
16.20610800853713
 20
27.89626935551701
 10
15.53110800853712
 20
27.89626935551701
 42
0.4142135623730951
 10
15.51510800853712
 20
27.88026935551701
 10
15.51510800853713
 20
26.33676935551701
 10
15.45710800853713
 20
26.23626935551701
 10
15.42510800853713
 20
26.23626935551701
 10
15.42510800853713
 20
27.88026935551702
 42
0.4142135623730951
 10
15.40910800853713
 20
27.89626935551702
 10
13.84210800853713
 20
27.89626935551701
 10
13.84210800853713
 20
27.72826935551701
 10
13.88210800853713
 20
27.72826935551701
 10
13.84808636902578
 20
27.66910128679642
 42
-0.7732975784161483
 10
13.78010800853713
 20
27.68677109439425
 10
13.78010800853713
 20
27.89626935551701
 10
13.65210800853713
 20
27.89626935551701
 10
13.65210800853713
 20
27.82626935551701
 10
13.60210800853713
 20
27.82626935551701
 10
13.60210800853713
 20
27.89626935551701
 10
13.56210800853713
 20
27.89626935551701
 10
13.56210800853713
 20
27.98626935551701
 10
16.31210800853713
 20
27.98626935551701
 10
16.31210800853713
 20
26.75226935551701
 42
-0.4142135623730951
 10
16.29610800853713
 20
26.73626935551701
 10
16.18710800853713
 20
26.73626935551701
 10
16.18710800853713
 20
26.79826935551701
 10
16.20610800853713
 20
26.798269355517
 42
0.4142135623730951
 10
16.22210800853713
 20
26.814269355517
 10
16.22210800853713
 20
27.34526935551701
 42
0.4142135623730951
 10
16.20610800853713
 20
27.36126935551701
 10
16.18710800853713
 20
27.36126935551701
 10
16.18710800853713
 20
27.42326935551701
 10
16.20610800853713
 20
27.42326935551701
 42
0.4142135623730951
 10
16.22210800853713
 20
27.43926935551701
 10
16.22210800853713
 20
27.88026935551701
 42
0.4142135623730951
  0
LWPOLYLINE
  5
5C2
330
1F
100
AcDbEntity
  8
R-SWTS-DET1
100
AcDbPolyline
 90
        8
 70
     1
 43
0.0
 10
15.26748720567341
 20
33.49746282168494
 10
15.26748720567341
 20
34.18546782168494
 10
14.61148720567341
 20
34.18546782168494
 10
14.61148720567244
 20
32.81025523842333
 42
-0.417938095940217
 10
14.54948720567341
 20
32.74746282168397
 10
14.54948720567341
 20
34.24746782168494
 10
15.32948720567341
 20
34.24746782168494
 10
15.32948720567341
 20
33.56025523842372
 42
-0.4179380959419711
  0
MTEXT
  5
5C3
330
1F
100
AcDbEntity
  8
0
 62
     2
100
AcDbMText
 10
33.40999937788875
 20
1.813685252921288
 30
0.0
 40
0.375
 41
11.6667179685679
 71
     2
 72
     5
  1
DETAIL SCALE: 1" = 1"
 73
     1
 44
1.0
1001
ACAD
1000
MTEXTBEGIN
1070
    73
1070
     1
1070
    44
1040
1.0
1070
    74
1070
     0
1000
MTEXTEND
  0
MTEXT
  5
5C4
330
1F
100
AcDbEntity
  8
0
 62
     2
100
AcDbMText
 10
33.40999937788875
 20
3.977827085901836
 30
0.0
 40
0.5
 41
18.47983644480166
 71
     2
 72
     5
  1
MISCELLANEOUS FRAMING\PSTOOL TRIMS AND APPLIED DOOR STOPS
 73
     1
 44
1.0
1001
ACAD
1000
MTEXTBEGIN
1070
    73
1070
     1
1070
    44
1040
1.0
1070
    74
1070
     0
1000
MTEXTEND
  0
LINE
  5
5C7
330
1F
100
AcDbEntity
  8
R-SWTS-DET2
100
AcDbLine
 10
33.73494144555508
 20
14.00480955915607
 30
0.0
 11
34.48494144555508
 21
14.00480955915607
 31
0.0
  0
LINE
  5
5C8
330
1F
100
AcDbEntity
  8
R-SWTS-DET2
100
AcDbLine
 10
33.73494144555508
 20
14.43880955915607
 30
0.0
 11
34.48494144555508
 21
14.43880955915607
 31
0.0
  0
LINE
  5
5C9
330
1F
100
AcDbEntity
  8
R-SWTS-DET2
100
AcDbLine
 10
28.48484144555509
 20
14.43880955915607
 30
0.0
 11
29.23484144555509
 21
14.43880955915607
 31
0.0
  0
LINE
  5
5CA
330
1F
100
AcDbEntity
  8
R-SWTS-DET2
100
AcDbLine
 10
28.48484144555509
 20
14.00480955915607
 30
0.0
 11
29.23484144555509
 21
14.00480955915607
 31
0.0
  0
LINE
  5
5CB
330
1F
100
AcDbEntity
  8
R-SWTS-DET2
100
AcDbLine
 10
33.73494144555508
 20
14.51680955915607
 30
0.0
 11
33.73494144555508
 21
13.92680955915607
 31
0.0
  0
LINE
  5
5CC
330
1F
100
AcDbEntity
  8
R-SWTS-DET2
100
AcDbLine
 10
29.23484144555509
 20
14.51680955915607
 30
0.0
 11
29.23484144555509
 21
13.92680955915607
 31
0.0
  0
LINE
  5
5CD
330
1F
100
AcDbEntity
  8
R-SWTS-DET2
100
AcDbLine
 10
34.48494144555508
 20
14.57680955915607
 30
0.0
 11
34.48494144555508
 21
13.92680955915607
 31
0.0
  0
LINE
  5
5CE
330
1F
100
AcDbEntity
  8
R-SWTS-DET2
100
AcDbLine
 10
28.48484144555509
 20
14.57680955915607
 30
0.0
 11
28.48484144555509
 21
13.92680955915607
 31
0.0
  0
LINE
  5
5CF
330
1F
100
AcDbEntity
  8
R-SWTS-DET2
100
AcDbLine
 10
28.48484144555509
 20
13.92680955915607
 30
0.0
 11
34.48494144555508
 21
13.92680955915607
 31
0.0
  0
LINE
  5
5D0
330
1F
100
AcDbEntity
  8
R-SWTS-DET2
100
AcDbLine
 10
28.48484144555509
 20
14.51680955915607
 30
0.0
 11
34.48494144555508
 21
14.51680955915607
 31
0.0
  0
LINE
  5
5D1
330
1F
100
AcDbEntity
  8
R-SWTS-DET2
100
AcDbLine
 10
28.48484144555509
 20
14.57680955915607
 30
0.0
 11
34.48494144555508
 21
14.57680955915607
 31
0.0
  0
CIRCLE
  5
5D2
330
1F
100
AcDbEntity
  8
R-SWTS-DET2
100
AcDbCircle
 10
34.14119144555508
 20
14.23180955915607
 30
0.0
 40
0.0885
  0
CIRCLE
  5
5D3
330
1F
100
AcDbEntity
  8
R-SWTS-DET2
100
AcDbCircle
 10
28.82884144555509
 20
14.23180955915607
 30
0.0
 40
0.166
  0
CIRCLE
  5
5D4
330
1F
100
AcDbEntity
  8
R-SWTS-DET2
100
AcDbCircle
 10
34.14119144555508
 20
14.23180955915607
 30
0.0
 40
0.166
  0
CIRCLE
  5
5D5
330
1F
100
AcDbEntity
  8
R-SWTS-DET2
100
AcDbCircle
 10
28.82884144555509
 20
14.23180955915607
 30
0.0
 40
0.0885
  0
LWPOLYLINE
  5
5D7
330
1F
100
AcDbEntity
  8
R-SWTS-DET2
100
AcDbPolyline
 90
       21
 70
     1
 43
0.0
 10
26.89232925455596
 20
14.43880955915607
 10
26.89232925455596
 20
14.36430955915607
 10
26.84014918334269
 20
14.06926413313094
 42
-0.3671791502144593
 10
26.76244606431261
 20
14.00480955915607
 10
26.63032925455596
 20
14.00480955915607
 10
26.63032925455596
 20
14.43880955915607
 10
26.64232925455596
 20
14.43880955915607
 10
26.64232925455596
 20
14.51680955915607
 10
26.59232925455596
 20
14.51680955915607
 10
26.59232925455596
 20
14.57680955915607
 10
26.55232925455596
 20
14.57680955915607
 10
26.55232925455596
 20
14.24180955915607
 10
26.56232925455596
 20
14.23180955915607
 10
26.55232925455596
 20
14.22180955915607
 10
26.55232925455596
 20
13.92681455915607
 10
26.78908025495387
 20
13.92681455915607
 42
0.3684959631257572
 10
26.86714849920311
 20
13.99126025375535
 10
26.93232925455596
 20
14.36080955915607
 10
26.93232925455596
 20
14.49156932194044
 42
0.8251607571781388
 10
26.89023913967287
 20
14.50478260598286
 10
26.85232925455596
 20
14.43880955915607
  0
LINE
  5
5D8
330
1F
100
AcDbEntity
  8
R-SWTS-DET2
100
AcDbLine
 10
27.57304313262439
 20
14.06580955915607
 30
0.0
 11
27.4950431326244
 21
14.14330955915606
 31
0.0
  0
LINE
  5
5D9
330
1F
100
AcDbEntity
  8
R-SWTS-DET2
100
AcDbLine
 10
27.57304313262439
 20
14.39780955915607
 30
0.0
 11
27.4950431326244
 21
14.32030955915607
 31
0.0
  0
LINE
  5
5DA
330
1F
100
AcDbEntity
  8
R-SWTS-DET2
100
AcDbLine
 10
27.4950431326244
 20
14.32030955915607
 30
0.0
 11
27.4950431326244
 21
14.14330955915606
 31
0.0
  0
LINE
  5
5DB
330
1F
100
AcDbEntity
  8
R-SWTS-DET2
100
AcDbLine
 10
27.57304313262439
 20
14.39780955915607
 30
0.0
 11
27.57304313262439
 21
14.06580955915607
 31
0.0
  0
LINE
  5
5DC
330
1F
100
AcDbEntity
  8
R-SWTS-DET2
100
AcDbLine
 10
27.4950431326244
 20
14.32030955915607
 30
0.0
 11
27.19078285308246
 21
14.32030955915607
 31
0.0
  0
LINE
  5
5DD
330
1F
100
AcDbEntity
  8
R-SWTS-DET2
100
AcDbLine
 10
27.4950431326244
 20
14.14330955915606
 30
0.0
 11
27.19078285308246
 21
14.14330955915606
 31
0.0
  0
LINE
  5
5DE
330
1F
100
AcDbEntity
  8
R-SWTS-DET2
100
AcDbLine
 10
27.1200431326244
 20
14.28830955915607
 30
0.0
 11
27.1200431326244
 21
14.17530955915607
 31
0.0
  0
LINE
  5
5DF
330
1F
100
AcDbEntity
  8
R-SWTS-DET2
100
AcDbLine
 10
27.19078285308246
 20
14.32030955915607
 30
0.0
 11
27.1200431326244
 21
14.28830955915607
 31
0.0
  0
LINE
  5
5E0
330
1F
100
AcDbEntity
  8
R-SWTS-DET2
100
AcDbLine
 10
27.1200431326244
 20
14.17530955915607
 30
0.0
 11
27.19078285308246
 21
14.14330955915606
 31
0.0
  0
LINE
  5
5E1
330
1F
100
AcDbEntity
  8
0
  6
CENTER
 62
     1
100
AcDbLine
 10
26.4879079479494
 20
14.23180955915607
 30
0.0
 11
27.6609079479494
 21
14.23180955915607
 31
0.0
  0
LWPOLYLINE
  5
5E8
330
1F
100
AcDbEntity
  8
R-SWTS-DET1
100
AcDbPolyline
 90
       21
 70
     1
 43
0.0
 10
23.15195007788199
 20
33.86146782168494
 42
-0.7673269879789602
 10
23.12395969682522
 20
33.86896782168494
 10
23.12395969682522
 20
34.15746782168493
 10
22.99595969682522
 20
34.15746782168493
 10
22.99595969682522
 20
34.08746782168494
 10
22.94595969682521
 20
34.08746782168494
 10
22.94595969682521
 20
34.15746782168493
 10
22.90595969682522
 20
34.15746782168493
 10
22.90595969682522
 20
34.24746782168494
 10
27.90590969682522
 20
34.24746782168494
 10
27.90590969682522
 20
32.99746782168494
 10
27.81590969682522
 20
32.99746782168494
 10
27.81590969682522
 20
34.15746782168493
 10
27.14390969682522
 20
34.15746782168493
 10
27.14390969682522
 20
32.24746782168494
 10
27.05390969682522
 20
32.24746782168494
 10
27.05390969682522
 20
34.15746782168493
 10
23.18595969682522
 20
34.15746782168493
 10
23.18595969682522
 20
33.98946782168494
 10
23.22595969682522
 20
33.98946782168494
 10
23.15195969682521
 20
33.86146782168494
  0
LWPOLYLINE
  5
5EC
330
1F
100
AcDbEntity
  8
R-SWTS-DET1
100
AcDbPolyline
 90
       28
 70
     1
 43
0.0
 10
23.3474171749215
 20
6.855816108181457
 10
23.3474171749215
 20
6.705816108181455
 10
23.38141717492151
 20
6.705816108181455
 10
23.3814171749215
 20
6.763816108181456
 10
23.4274171749215
 20
6.763816108181456
 10
23.4274171749215
 20
6.467816108181457
 10
23.38141717492151
 20
6.467816108181457
 10
23.38141717492151
 20
6.525816108181459
 10
23.3474171749215
 20
6.525816108181459
 10
23.3474171749215
 20
6.387816108181457
 42
0.4142135623730894
 10
23.3794171749215
 20
6.355816108181457
 10
23.5034171749215
 20
6.355816108181455
 42
0.4142135623730992
 10
23.5354171749215
 20
6.387816108181455
 10
23.5354171749215
 20
6.475816108181456
 10
23.48541717492151
 20
6.48463245721688
 10
23.48541717492151
 20
6.540816108181457
 10
23.5854171749215
 20
6.549564974534048
 10
23.5854171749215
 20
6.590816108181455
 10
23.48541717492151
 20
6.590816108181456
 10
23.48541717492151
 20
6.790816108181456
 10
24.12541717492151
 20
6.790816108181456
 10
24.1254171749215
 20
6.715093160050905
 42
-0.0591640269222578
 10
24.19868166299211
 20
6.613535888401235
 10
24.22652264606529
 20
6.623669177532651
 10
24.18141717492151
 20
6.747595440994059
 10
24.18141717492151
 20
6.855816108181457
 10
23.93336239798103
 20
6.842816108181455
 10
23.59547195186197
 20
6.842816108181455
  0
LWPOLYLINE
  5
5ED
330
1F
100
AcDbEntity
  8
R-SWTS-DET1
100
AcDbPolyline
 90
       13
 70
     1
 43
0.0
 10
24.3474171749215
 20
6.480816108181457
 10
24.3474171749215
 20
6.855816108181457
 10
24.29741717492151
 20
6.853195719217303
 10
24.29741717492151
 20
6.530816108181458
 10
24.17199424895652
 20
6.530816108181454
 10
24.10331898428538
 20
6.719499847140511
 10
24.1254171749215
 20
6.735816108181992
 10
24.1254171749215
 20
6.765816108181285
 10
24.10541717492151
 20
6.775816108181455
 10
24.05257548682673
 20
6.756583306586579
 10
24.13474802691986
 20
6.530816108181454
 10
23.5104171749215
 20
6.530816108181454
 42
1.0
 10
23.5104171749215
 20
6.480816108181457
  0
LWPOLYLINE
  5
5EE
330
1F
100
AcDbEntity
  8
R-SWTS-DET2
100
AcDbPolyline
 90
        3
 70
     0
 43
0.0
 10
23.34563081416512
 20
6.677816108181458
 10
23.40463081416512
 20
6.677816108181458
 10
23.40463081416512
 20
6.750816108181455
  0
LWPOLYLINE
  5
5EF
330
1F
100
AcDbEntity
  8
R-SWTS-DET2
100
AcDbPolyline
 90
        3
 70
     0
 43
0.0
 10
23.40463081416512
 20
6.480816108181455
 10
23.40463081416512
 20
6.553816108181456
 10
23.34563081416512
 20
6.553816108181454
  0
LWPOLYLINE
  5
5F0
330
1F
100
AcDbEntity
  8
R-SWTS-DET2
100
AcDbPolyline
 90
        4
 70
     1
 43
0.0
 10
23.34563081416512
 20
6.771837154630876
 10
23.34563081416512
 20
6.459835060743094
 42
-1.0
 10
23.25163081416511
 20
6.459835060743094
 10
23.25163081416511
 20
6.771837154630876
 42
-1.0
  0
LWPOLYLINE
  5
5F3
330
1F
100
AcDbEntity
  8
R-SWTS-DET1
100
AcDbPolyline
 90
       21
 70
     1
 43
0.0
 10
17.65597476159918
 20
6.6671239695139
 10
18.21997476159918
 20
6.667123969513902
 10
18.21997476159918
 20
6.699123969513902
 10
18.28197476159919
 20
6.699123969513902
 10
18.28197476159918
 20
6.636123969513901
 42
-0.4142135623730992
 10
18.21997476159918
 20
6.574123969513902
 10
17.78197476159918
 20
6.574123969513902
 10
17.78197476159918
 20
6.231123969513902
 42
-0.4142135623730894
 10
17.74997476159918
 20
6.199123969513902
 10
17.62597476159918
 20
6.199123969513902
 42
-0.4142135623730999
 10
17.59397476159918
 20
6.231123969513902
 10
17.59397476159918
 20
6.3691239695139
 10
17.62797476159917
 20
6.3691239695139
 10
17.62797476159917
 20
6.3111239695139
 10
17.67397476159918
 20
6.311123969513902
 10
17.67397476159918
 20
6.607123969513899
 10
17.62797476159917
 20
6.607123969513899
 10
17.62797476159918
 20
6.549123969513901
 10
17.59397476159918
 20
6.549123969513901
 10
17.59397476159918
 20
6.699123969513902
 10
17.65597476159918
 20
6.699123969513902
  0
LWPOLYLINE
  5
5F4
330
1F
100
AcDbEntity
  8
R-SWTS-DET2
100
AcDbPolyline
 90
        3
 70
     0
 43
0.0
 10
17.59422476159918
 20
6.521123969513901
 10
17.65322476159917
 20
6.521123969513901
 10
17.65322476159917
 20
6.594123969513898
  0
LWPOLYLINE
  5
5F5
330
1F
100
AcDbEntity
  8
R-SWTS-DET2
100
AcDbPolyline
 90
        3
 70
     0
 43
0.0
 10
17.65322476159917
 20
6.324123969513898
 10
17.65322476159917
 20
6.397123969513899
 10
17.59422476159918
 20
6.397123969513899
  0
LWPOLYLINE
  5
5F6
330
1F
100
AcDbEntity
  8
R-SWTS-DET2
100
AcDbPolyline
 90
        4
 70
     1
 43
0.0
 10
17.59422476159918
 20
6.615145015963321
 10
17.59422476159918
 20
6.303142922075537
 42
-1.0
 10
17.50022476159918
 20
6.303142922075537
 10
17.50022476159918
 20
6.615145015963321
 42
-1.0
  0
LINE
  5
7C3
330
1F
100
AcDbEntity
  8
0
100
AcDbLine
 10
-0.0000000274912111
 20
0.0000000469858321
 30
0.0
 11
-0.0000000274912111
 21
38.62667528630168
 31
0.0
  0
LINE
  5
82A
330
1F
100
AcDbEntity
  8
0
100
AcDbLine
 10
-0.0000000274912111
 20
0.0000000469858321
 30
0.0
 11
67.99999997250878
 21
0.0000000469858321
 31
0.0
  0
TEXT
  5
100D
330
1F
100
AcDbEntity
  8
0
  6
Continuous
100
AcDbText
 10
17.97340131375194
 20
36.61233982560313
 30
0.0
 40
0.375
  1
STOOL TRIMS
 72
     1
 11
19.74889585672602
 21
36.61233982560313
 31
0.0
100
AcDbText
  0
TEXT
  5
10A0
330
1F
100
AcDbEntity
  8
0
  6
Continuous
100
AcDbText
 10
18.93999448323624
 20
8.173100071647084
 30
0.0
 40
0.375
  1
APPLIED DOOR STOPS
100
AcDbText
  0
MTEXT
  5
13A9
102
{ACAD_XDICTIONARY
360
13AA
102
}
330
1F
100
AcDbEntity
  8
TEXT
100
AcDbMText
 10
1.000000056907226
 20
2.000000046985832
 30
0.0
 40
0.375
 41
15.4571868900598
 71
     1
 72
     5
  1
ENGINEERING CHANGE:  97910-094 (MARCH 2017)\PFILE NAME:  KCDM010 SHEET 04 OF 04.DWG
 73
     1
 44
1.0
1001
ACAD
1000
ACAD_MTEXT_COLUMN_INFO_BEGIN
1070
    75
1070
     2
1070
    79
1070
     0
1070
    76
1070
     1
1070
    78
1070
     0
1070
    48
1040
15.4571868900598
1070
    49
1040
1.25
1070
    50
1070
     1
1040
0.0
1000
ACAD_MTEXT_COLUMN_INFO_END
1000
MTEXTBEGIN
1070
    73
1070
     1
1070
    44
1040
1.0
1070
    74
1070
     0
1000
MTEXTEND
  0
MTEXT
  5
14F9
330
1F
100
AcDbEntity
  8
R-ANNO-TEXT
100
AcDbMText
 10
23.9289171749215
 20
5.958929227050317
 30
0.0
 40
0.25
 41
4.856290523731942
 71
     2
 72
     5
  1
069177 \PAPPLIED STOP ASSEMBLY
 73
     1
 44
1.0
1001
ACAD
1000
MTEXTBEGIN
1070
    73
1070
     1
1070
    44
1040
1.0
1070
    74
1070
     0
1000
MTEXTEND
  0
MTEXT
  5
14FA
330
1F
100
AcDbEntity
  8
R-ANNO-TEXT
100
AcDbMText
 10
17.68797476159918
 20
5.958929227050318
 30
0.0
 40
0.25
 41
6.747483431745294
 71
     2
 72
     5
  1
069154 \PAPPLIED STOP W/WEATHERING
 73
     1
 44
1.0
1001
ACAD
1000
MTEXTBEGIN
1070
    73
1070
     1
1070
    44
1040
1.0
1070
    74
1070
     0
1000
MTEXTEND
  0
MTEXT
  5
14FC
330
1F
100
AcDbEntity
  8
PART_NUMBERS
100
AcDbMText
 10
31.48489144555508
 20
12.82747403423403
 30
0.0
 40
0.25
 41
9.627676428538478
 71
     2
 72
     5
  1
069271 \PSTOOL TRIM CLIP PKG. \P(NOT COMPATIBLE WITH ALL SILL CONFIGURATIONS)
 73
     1
 44
1.0
1001
ACAD
1000
MTEXTBEGIN
1070
    73
1070
     1
1070
    44
1040
1.0
1070
    74
1070
     0
1000
MTEXTEND
  0
MTEXT
  5
14FD
330
1F
100
AcDbEntity
  8
PART_NUMBERS
100
AcDbMText
 10
5.749514468524781
 20
12.82747403423403
 30
0.0
 40
0.25
 41
3.762289264565799
 71
     2
 72
     5
  1
450VG140 \P(STOCK LENGTH)
 73
     1
 44
1.0
1001
ACAD
1000
MTEXTBEGIN
1070
    73
1070
     1
1070
    44
1040
1.0
1070
    74
1070
     0
1000
MTEXTEND
  0
MTEXT
  5
14FF
330
1F
100
AcDbEntity
  8
PART_NUMBERS
100
AcDbMText
 10
10.86769988712138
 20
12.82747403423403
 30
0.0
 40
0.25
 41
6.236394157460914
 71
     2
 72
     5
  1
450VG640 (FABRICATED) \PSTOOL TRIM CLIP PKG. (USED WITH TRIFAB 400 & TRIFAB VG 450)
 73
     1
 44
1.0
1001
ACAD
1000
MTEXTBEGIN
1070
    73
1070
     1
1070
    44
1040
1.0
1070
    74
1070
     0
1000
MTEXTEND
  0
MTEXT
  5
1566
330
1F
100
AcDbEntity
  8
PART_NUMBERS
100
AcDbMText
 10
21.4051213574316
 20
12.82747403423403
 30
0.0
 40
0.25
 41
6.236394157460914
 71
     2
 72
     5
  1
451VG640 (FABRICATED) \PSTOOL TRIM CLIP PKG. \P(USED WITH TRIFAB VG 450/451T)
 73
     1
 44
1.0
1001
ACAD
1000
MTEXTBEGIN
1070
    73
1070
     1
1070
    44
1040
1.0
1070
    74
1070
     0
1000
MTEXTEND
  0
MTEXT
  5
1567
330
1F
100
AcDbEntity
  8
PART_NUMBERS
100
AcDbMText
 10
16.21847414382662
 20
12.82747403423403
 30
0.0
 40
0.25
 41
6.236394157460914
 71
     2
 72
     5
  1
451VG140 \P(STOCK LENGTH)
 73
     1
 44
1.0
1001
ACAD
1000
MTEXTBEGIN
1070
    73
1070
     1
1070
    44
1040
1.0
1070
    74
1070
     0
1000
MTEXTEND
  0
MTEXT
  5
15A8
330
1F
100
AcDbEntity
  8
PART_NUMBERS
100
AcDbMText
 10
25.33456329259985
 20
19.6875618171428
 30
0.0
 40
0.25
 41
6.236394157460914
 71
     2
 72
     5
  1
069268 \P6 3/4" SNAP ON STOOL
 73
     1
 44
1.0
1001
ACAD
1000
MTEXTBEGIN
1070
    73
1070
     1
1070
    44
1040
1.0
1070
    74
1070
     0
1000
MTEXTEND
  0
MTEXT
  5
15A9
330
1F
100
AcDbEntity
  8
PART_NUMBERS
100
AcDbMText
 10
14.31191297467185
 20
19.6875618171428
 30
0.0
 40
0.25
 41
6.236394157460914
 71
     2
 72
     5
  1
069265 \P4 1/4" SNAP ON STOOL
 73
     1
 44
1.0
1001
ACAD
1000
MTEXTBEGIN
1070
    73
1070
     1
1070
    44
1040
1.0
1070
    74
1070
     0
1000
MTEXTEND
  0
MTEXT
  5
15AA
330
1F
100
AcDbEntity
  8
PART_NUMBERS
100
AcDbMText
 10
14.31191297467185
 20
25.93028110140746
 30
0.0
 40
0.25
 41
6.236394157460914
 71
     2
 72
     5
  1
069264 \P2 3/4" SNAP ON STOOL
 73
     1
 44
1.0
1001
ACAD
1000
MTEXTBEGIN
1070
    73
1070
     1
1070
    44
1040
1.0
1070
    74
1070
     0
1000
MTEXTEND
  0
MTEXT
  5
15AB
330
1F
100
AcDbEntity
  8
PART_NUMBERS
100
AcDbMText
 10
25.33456329259985
 20
25.93028110140746
 30
0.0
 40
0.25
 41
6.236394157460914
 71
     2
 72
     5
  1
069267 \P6 1/8" SNAP ON STOOL
 73
     1
 44
1.0
1001
ACAD
1000
MTEXTBEGIN
1070
    73
1070
     1
1070
    44
1040
1.0
1070
    74
1070
     0
1000
MTEXTEND
  0
MTEXT
  5
15AC
330
1F
100
AcDbEntity
  8
PART_NUMBERS
100
AcDbMText
 10
25.33456329259985
 20
32.2345676585101
 30
0.0
 40
0.25
 41
6.236394157460914
 71
     2
 72
     5
  1
069266 \P5" SNAP ON STOOL
 73
     1
 44
1.0
1001
ACAD
1000
MTEXTBEGIN
1070
    73
1070
     1
1070
    44
1040
1.0
1070
    74
1070
     0
1000
MTEXTEND
  0
MTEXT
  5
15AD
330
1F
100
AcDbEntity
  8
PART_NUMBERS
100
AcDbMText
 10
14.31191297467185
 20
32.2345676585101
 30
0.0
 40
0.25
 41
6.236394157460914
 71
     2
 72
     5
  1
069263 \PGYPSUM BOARD TRIM
 73
     1
 44
1.0
1001
ACAD
1000
MTEXTBEGIN
1070
    73
1070
     1
1070
    44
1040
1.0
1070
    74
1070
     0
1000
MTEXTEND
  0
INSERT
  5
19CE
330
1F
100
AcDbEntity
  8
0
100
AcDbBlockReference
  2
Kawneer Logo English
 10
1.000000056907226
 20
2.500000046985832
 30
0.0
 41
5.337
 42
5.337
 43
5.337
  0
ENDSEC
  0
SECTION
  2
OBJECTS
  0
DICTIONARY
  5
C
330
0
100
AcDbDictionary
281
     1
  3
ACAD_CIP_PREVIOUS_PRODUCT_INFO
350
1383
  3
ACAD_COLOR
350
73
  3
ACAD_FIELDLIST
350
13A7
  3
ACAD_GROUP
350
D
  3
ACAD_LAYOUT
350
1A
  3
ACAD_MATERIAL
350
72
  3
ACAD_MLEADERSTYLE
350
12FC
  3
ACAD_MLINESTYLE
350
17
  3
ACAD_PLOTSETTINGS
350
19
  3
ACAD_PLOTSTYLENAME
350
E
  3
ACAD_SCALELIST
350
12EA
  3
ACAD_TABLESTYLE
350
12E8
  3
ACAD_VISUALSTYLE
350
12CF
  3
ACDB_RECOMPOSE_DATA
350
1A65
  3
AcDbVariableDictionary
350
66
  3
DWGPROPS
350
1A66
  0
DICTIONARY
  5
133D
330
8
100
AcDbDictionary
280
     1
281
     1
  0
DICTIONARY
  5
131C
330
2
100
AcDbDictionary
280
     1
281
     1
  3
ACAD_LAYERSTATES
360
131D
  0
DICTIONARY
  5
132C
330
10
100
AcDbDictionary
280
     1
281
     1
  3
ADSK_XREC_LAYER_RECONCILED
360
132D
  0
DICTIONARY
  5
132E
330
23F
100
AcDbDictionary
280
     1
281
     1
  3
ADSK_XREC_LAYER_RECONCILED
360
132F
  0
DICTIONARY
  5
1330
330
240
100
AcDbDictionary
280
     1
281
     1
  3
ADSK_XREC_LAYER_RECONCILED
360
1331
  0
DICTIONARY
  5
1332
330
241
100
AcDbDictionary
280
     1
281
     1
  3
ADSK_XREC_LAYER_RECONCILED
360
1333
  0
DICTIONARY
  5
1334
330
242
100
AcDbDictionary
280
     1
281
     1
  3
ADSK_XREC_LAYER_RECONCILED
360
1335
  0
DICTIONARY
  5
1336
330
244
100
AcDbDictionary
280
     1
281
     1
  3
ADSK_XREC_LAYER_RECONCILED
360
1337
  0
DICTIONARY
  5
1398
330
1397
100
AcDbDictionary
280
     1
281
     1
  0
DICTIONARY
  5
19CA
330
19C0
100
AcDbDictionary
280
     1
281
     1
  3
ACAD_SORTENTS
360
19CB
  0
DICTIONARY
  5
1A63
330
19C1
100
AcDbDictionary
280
     1
281
     1
  3
ACAD_MTEXT_2008_RT
360
1A64
  0
DICTIONARY
  5
13AA
330
13A9
100
AcDbDictionary
280
     1
281
     1
  0
XRECORD
  5
1383
102
{ACAD_REACTORS
330
C
102
}
330
C
100
AcDbXrecord
280
     1
300
ACD
300
2012
300
85730ACD_2012_0F
  0
DICTIONARY
  5
73
102
{ACAD_REACTORS
330
C
102
}
330
C
100
AcDbDictionary
281
     1
  0
FIELDLIST
  5
13A7
102
{ACAD_REACTORS
330
C
102
}
330
C
100
AcDbIdSet
 90
        0
100
AcDbFieldList
  0
DICTIONARY
  5
D
102
{ACAD_REACTORS
330
C
102
}
330
C
100
AcDbDictionary
281
     1
  0
DICTIONARY
  5
1A
102
{ACAD_REACTORS
330
C
102
}
330
C
100
AcDbDictionary
281
     1
  3
Layout1
350
59
  3
Layout2
350
5E
  3
Model
350
22
  0
DICTIONARY
  5
72
102
{ACAD_REACTORS
330
C
102
}
330
C
100
AcDbDictionary
281
     1
  3
ByBlock
350
12BF
  3
ByLayer
350
12B7
  3
Global
350
12C7
  0
DICTIONARY
  5
12FC
102
{ACAD_REACTORS
330
C
102
}
330
C
100
AcDbDictionary
281
     1
  3
Standard
350
12FD
  0
DICTIONARY
  5
17
102
{ACAD_REACTORS
330
C
102
}
330
C
100
AcDbDictionary
281
     1
  3
Standard
350
18
  0
DICTIONARY
  5
19
102
{ACAD_REACTORS
330
C
102
}
330
C
100
AcDbDictionary
281
     1
  0
ACDBDICTIONARYWDFLT
  5
E
102
{ACAD_REACTORS
330
C
102
}
330
C
100
AcDbDictionary
281
     1
  3
Normal
350
F
100
AcDbDictionaryWithDefault
340
F
  0
DICTIONARY
  5
12EA
102
{ACAD_REACTORS
330
C
102
}
330
C
100
AcDbDictionary
281
     1
  3
A0
350
12EB
  3
A1
350
199D
  3
A2
350
199E
  3
A3
350
199F
  3
A4
350
19A0
  3
A5
350
19A1
  3
A6
350
19A2
  3
A7
350
19A3
  3
A8
350
19A4
  3
A9
350
19A5
  3
B0
350
19A6
  3
B1
350
19A7
  3
B2
350
19A8
  3
B3
350
19A9
  3
B4
350
19AA
  3
B5
350
19AB
  3
B6
350
19AC
  0
DICTIONARY
  5
12E8
102
{ACAD_REACTORS
330
C
102
}
330
C
100
AcDbDictionary
281
     1
  3
Standard
350
12E9
  0
DICTIONARY
  5
12CF
102
{ACAD_REACTORS
330
C
102
}
330
C
100
AcDbDictionary
281
     1
  3
2dWireframe
350
12D5
  3
3D Hidden
350
19BE
  3
3dWireframe
350
19BF
  3
Basic
350
12D4
  3
Brighten
350
12DB
  3
ColorChange
350
12DF
  3
Conceptual
350
12D8
  3
Dim
350
12DA
  3
EdgeColorOff
350
12E7
  3
Facepattern
350
12DE
  3
Flat
350
12D0
  3
FlatWithEdges
350
12D1
  3
Gouraud
350
12D2
  3
GouraudWithEdges
350
12D3
  3
Hidden
350
12D7
  3
JitterOff
350
12E5
  3
Linepattern
350
12DD
  3
OverhangOff
350
12E6
  3
Realistic
350
12D9
  3
Shaded
350
12E4
  3
Shaded with edges
350
12E3
  3
Shades of Gray
350
12E0
  3
Sketchy
350
12E1
  3
Thicken
350
12DC
  3
Wireframe
350
12D6
  3
X-Ray
350
12E2
  0
XRECORD
  5
1A65
102
{ACAD_REACTORS
330
C
102
}
330
C
100
AcDbXrecord
280
     1
 90
        1
330
12E9
330
13A9
330
19C1
  0
DICTIONARY
  5
66
102
{ACAD_REACTORS
330
C
102
}
330
C
100
AcDbDictionary
281
     1
  3
CANNOSCALE
350
137C
  3
CMLEADERSTYLE
350
137B
  3
CTABLESTYLE
350
137A
  3
DIMASSOC
350
67
  3
HIDETEXT
350
6B
  3
INDEXCTL
350
137E
  3
LAYEREVAL
350
1992
  3
LAYERNOTIFY
350
1993
  3
LIGHTINGUNITS
350
1991
  3
MSLTSCALE
350
1990
  3
PROJECTNAME
350
D3C
  3
SORTENTS
350
137D
  3
XCLIPFRAME
350
1A61
  0
XRECORD
  5
1A66
102
{ACAD_REACTORS
330
C
102
}
330
C
100
AcDbXrecord
280
     1
  1
DWGPROPS COOKIE
  2

  3

  4

  6

  7

  8
quadiss
  9

300
=
301
=
302
=
303
=
304
=
305
=
306
=
307
=
308
=
309
=
 40
0.223209849537037
 41
2453567.419181204
 42
2457807.53309412
  1

 90
        0
  0
DICTIONARY
  5
131D
102
{ACAD_REACTORS
330
131C
102
}
330
131C
100
AcDbDictionary
281
     1
  0
XRECORD
  5
132D
102
{ACAD_REACTORS
330
132C
102
}
330
132C
100
AcDbXrecord
280
     1
290
     1
  0
XRECORD
  5
132F
102
{ACAD_REACTORS
330
132E
102
}
330
132E
100
AcDbXrecord
280
     1
290
     1
  0
XRECORD
  5
1331
102
{ACAD_REACTORS
330
1330
102
}
330
1330
100
AcDbXrecord
280
     1
290
     1
  0
XRECORD
  5
1333
102
{ACAD_REACTORS
330
1332
102
}
330
1332
100
AcDbXrecord
280
     1
290
     1
  0
XRECORD
  5
1335
102
{ACAD_REACTORS
330
1334
102
}
330
1334
100
AcDbXrecord
280
     1
290
     1
  0
XRECORD
  5
1337
102
{ACAD_REACTORS
330
1336
102
}
330
1336
100
AcDbXrecord
280
     1
290
     1
  0
SORTENTSTABLE
  5
19CB
102
{ACAD_REACTORS
330
19CA
102
}
330
19CA
100
AcDbSortentsTable
330
19C0
  0
XRECORD
  5
1A64
102
{ACAD_REACTORS
330
1A63
102
}
330
1A63
100
AcDbXrecord
280
     1
 40
102645.0
  1
\pxqr;{\fArial TUR|b0|i0|c0|p34;\T1.05;AN ARCONIC COMPANY}
  0
LAYOUT
  5
59
102
{ACAD_XDICTIONARY
360
1A69
102
}
102
{ACAD_REACTORS
330
1A
102
}
330
1A
100
AcDbPlotSettings
  1

  2
None
  4

  6

 40
0.0
 41
0.0
 42
0.0
 43
0.0
 44
0.0
 45
0.0
 46
0.0
 47
0.0
 48
0.0
 49
0.0
140
0.0
141
0.0
142
1.0
143
1.0
 70
   688
 72
     0
 73
     0
 74
     5
  7

 75
    16
147
1.0
148
0.0
149
0.0
100
AcDbLayout
  1
Layout1
 70
     1
 71
     1
 10
0.0
 20
0.0
 11
12.0
 21
9.0
 12
0.0
 22
0.0
 32
0.0
 14
0.0
 24
0.0
 34
0.0
 15
0.0
 25
0.0
 35
0.0
146
0.0
 13
0.0
 23
0.0
 33
0.0
 16
1.0
 26
0.0
 36
0.0
 17
0.0
 27
1.0
 37
0.0
 76
     0
330
58
  0
LAYOUT
  5
5E
102
{ACAD_XDICTIONARY
360
1A6B
102
}
102
{ACAD_REACTORS
330
1A
102
}
330
1A
100
AcDbPlotSettings
  1

  2
None
  4

  6

 40
0.0
 41
0.0
 42
0.0
 43
0.0
 44
0.0
 45
0.0
 46
0.0
 47
0.0
 48
0.0
 49
0.0
140
0.0
141
0.0
142
1.0
143
1.0
 70
   688
 72
     0
 73
     0
 74
     5
  7

 75
    16
147
1.0
148
0.0
149
0.0
100
AcDbLayout
  1
Layout2
 70
     1
 71
     2
 10
0.0
 20
0.0
 11
12.0
 21
9.0
 12
0.0
 22
0.0
 32
0.0
 14
0.0
 24
0.0
 34
0.0
 15
0.0
 25
0.0
 35
0.0
146
0.0
 13
0.0
 23
0.0
 33
0.0
 16
1.0
 26
0.0
 36
0.0
 17
0.0
 27
1.0
 37
0.0
 76
     0
330
5D
  0
LAYOUT
  5
22
102
{ACAD_XDICTIONARY
360
1A67
102
}
102
{ACAD_REACTORS
330
1A
102
}
330
1A
100
AcDbPlotSettings
  1

  2
none_device
  4
ANSI_A_(8.50_x_11.00_Inches)
  6

 40
6.349999904632568
 41
19.04999923706055
 42
6.350006103515625
 43
19.04998779296875
 44
215.8999938964844
 45
279.3999938964844
 46
0.0
 47
0.0
 48
0.0
 49
0.0
140
0.0
141
0.0
142
1.0
143
2.584895464708373
 70
 11952
 72
     0
 73
     1
 74
     0
  7

 75
     0
147
0.3868628397755418
148
0.0
149
0.0
100
AcDbLayout
  1
Model
 70
     1
 71
     0
 10
0.0
 20
0.0
 11
12.0
 21
9.0
 12
0.0
 22
0.0
 32
0.0
 14
0.0
 24
0.0
 34
0.0
 15
0.0
 25
0.0
 35
0.0
146
0.0
 13
0.0
 23
0.0
 33
0.0
 16
1.0
 26
0.0
 36
0.0
 17
0.0
 27
1.0
 37
0.0
 76
     0
330
1F
331
12AC
  0
MATERIAL
  5
12BF
102
{ACAD_XDICTIONARY
360
12C0
102
}
102
{ACAD_REACTORS
330
72
102
}
330
72
100
AcDbMaterial
  1
ByBlock
 72
     0
 43
0.0208333333333333
 43
0.0
 43
0.0
 43
0.0
 43
0.0
 43
0.0208333333333333
 43
0.0
 43
0.0
 43
0.0
 43
0.0
 43
1.0
 43
0.0
 43
0.0
 43
0.0
 43
0.0
 43
1.0
 77
     0
 47
0.0208333333333333
 47
0.0
 47
0.0
 47
0.0
 47
0.0
 47
0.0208333333333333
 47
0.0
 47
0.0
 47
0.0
 47
0.0
 47
1.0
 47
0.0
 47
0.0
 47
0.0
 47
0.0
 47
1.0
171
     0
 49
0.0208333333333333
 49
0.0
 49
0.0
 49
0.0
 49
0.0
 49
0.0208333333333333
 49
0.0
 49
0.0
 49
0.0
 49
0.0
 49
1.0
 49
0.0
 49
0.0
 49
0.0
 49
0.0
 49
1.0
175
     0
142
0.0208333333333333
142
0.0
142
0.0
142
0.0
142
0.0
142
0.0208333333333333
142
0.0
142
0.0
142
0.0
142
0.0
142
1.0
142
0.0
142
0.0
142
0.0
142
0.0
142
1.0
179
     0
144
0.0208333333333333
144
0.0
144
0.0
144
0.0
144
0.0
144
0.0208333333333333
144
0.0
144
0.0
144
0.0
144
0.0
144
1.0
144
0.0
144
0.0
144
0.0
144
0.0
144
1.0
147
0.0208333333333333
147
0.0
147
0.0
147
0.0
147
0.0
147
0.0208333333333333
147
0.0
147
0.0
147
0.0
147
0.0
147
1.0
147
0.0
147
0.0
147
0.0
147
0.0
147
1.0
  0
MATERIAL
  5
12B7
102
{ACAD_XDICTIONARY
360
12B8
102
}
102
{ACAD_REACTORS
330
72
102
}
330
72
100
AcDbMaterial
  1
ByLayer
 72
     0
 43
0.0208333333333333
 43
0.0
 43
0.0
 43
0.0
 43
0.0
 43
0.0208333333333333
 43
0.0
 43
0.0
 43
0.0
 43
0.0
 43
1.0
 43
0.0
 43
0.0
 43
0.0
 43
0.0
 43
1.0
 77
     0
 47
0.0208333333333333
 47
0.0
 47
0.0
 47
0.0
 47
0.0
 47
0.0208333333333333
 47
0.0
 47
0.0
 47
0.0
 47
0.0
 47
1.0
 47
0.0
 47
0.0
 47
0.0
 47
0.0
 47
1.0
171
     0
 49
0.0208333333333333
 49
0.0
 49
0.0
 49
0.0
 49
0.0
 49
0.0208333333333333
 49
0.0
 49
0.0
 49
0.0
 49
0.0
 49
1.0
 49
0.0
 49
0.0
 49
0.0
 49
0.0
 49
1.0
175
     0
142
0.0208333333333333
142
0.0
142
0.0
142
0.0
142
0.0
142
0.0208333333333333
142
0.0
142
0.0
142
0.0
142
0.0
142
1.0
142
0.0
142
0.0
142
0.0
142
0.0
142
1.0
179
     0
144
0.0208333333333333
144
0.0
144
0.0
144
0.0
144
0.0
144
0.0208333333333333
144
0.0
144
0.0
144
0.0
144
0.0
144
1.0
144
0.0
144
0.0
144
0.0
144
0.0
144
1.0
147
0.0208333333333333
147
0.0
147
0.0
147
0.0
147
0.0
147
0.0208333333333333
147
0.0
147
0.0
147
0.0
147
0.0
147
1.0
147
0.0
147
0.0
147
0.0
147
0.0
147
1.0
  0
MATERIAL
  5
12C7
102
{ACAD_XDICTIONARY
360
12C8
102
}
102
{ACAD_REACTORS
330
72
102
}
330
72
100
AcDbMaterial
  1
Global
 72
     0
 43
0.0208333333333333
 43
0.0
 43
0.0
 43
0.0
 43
0.0
 43
0.0208333333333333
 43
0.0
 43
0.0
 43
0.0
 43
0.0
 43
1.0
 43
0.0
 43
0.0
 43
0.0
 43
0.0
 43
1.0
 77
     0
 47
0.0208333333333333
 47
0.0
 47
0.0
 47
0.0
 47
0.0
 47
0.0208333333333333
 47
0.0
 47
0.0
 47
0.0
 47
0.0
 47
1.0
 47
0.0
 47
0.0
 47
0.0
 47
0.0
 47
1.0
171
     0
 49
0.0208333333333333
 49
0.0
 49
0.0
 49
0.0
 49
0.0
 49
0.0208333333333333
 49
0.0
 49
0.0
 49
0.0
 49
0.0
 49
1.0
 49
0.0
 49
0.0
 49
0.0
 49
0.0
 49
1.0
175
     0
142
0.0208333333333333
142
0.0
142
0.0
142
0.0
142
0.0
142
0.0208333333333333
142
0.0
142
0.0
142
0.0
142
0.0
142
1.0
142
0.0
142
0.0
142
0.0
142
0.0
142
1.0
179
     0
144
0.0208333333333333
144
0.0
144
0.0
144
0.0
144
0.0
144
0.0208333333333333
144
0.0
144
0.0
144
0.0
144
0.0
144
1.0
144
0.0
144
0.0
144
0.0
144
0.0
144
1.0
147
0.0208333333333333
147
0.0
147
0.0
147
0.0
147
0.0
147
0.0208333333333333
147
0.0
147
0.0
147
0.0
147
0.0
147
1.0
147
0.0
147
0.0
147
0.0
147
0.0
147
1.0
  0
MLEADERSTYLE
  5
12FD
102
{ACAD_REACTORS
330
12FC
102
}
330
12FC
100
AcDbMLeaderStyle
170
     2
171
     1
172
     0
 90
        2
 40
0.0
 41
0.0
173
     1
 91
-1056964608
340
14
 92
       -2
290
     1
 42
0.09
291
     1
 43
0.36
  3
Standard
 44
0.18
300

342
11
174
     1
178
     6
175
     1
176
     0
 93
-1056964608
 45
0.18
292
     0
297
     0
 46
0.18
 94
-1056964608
 47
1.0
 49
1.0
140
1.0
293
     1
141
0.0
294
     1
177
     0
142
1.0
295
     0
296
     0
143
0.125
1001
ACAD_MLEADERVER
1070
     2
  0
MLINESTYLE
  5
18
102
{ACAD_REACTORS
330
17
102
}
330
17
100
AcDbMlineStyle
  2
STANDARD
 70
     0
  3

 62
   256
 51
90.0
 52
90.0
 71
     2
 49
0.5
 62
   256
  6
BYLAYER
 49
-0.5
 62
   256
  6
BYLAYER
  0
ACDBPLACEHOLDER
  5
F
102
{ACAD_REACTORS
330
E
102
}
330
E
  0
SCALE
  5
12EB
102
{ACAD_REACTORS
330
12EA
102
}
330
12EA
100
AcDbScale
 70
     0
300
1:1
140
1.0
141
1.0
290
     1
  0
SCALE
  5
199D
102
{ACAD_REACTORS
330
12EA
102
}
330
12EA
100
AcDbScale
 70
     0
300
1/128" = 1'-0"
140
0.0078125
141
12.0
290
     0
  0
SCALE
  5
199E
102
{ACAD_REACTORS
330
12EA
102
}
330
12EA
100
AcDbScale
 70
     0
300
1/64" = 1'-0"
140
0.015625
141
12.0
290
     0
  0
SCALE
  5
199F
102
{ACAD_REACTORS
330
12EA
102
}
330
12EA
100
AcDbScale
 70
     0
300
1/32" = 1'-0"
140
0.03125
141
12.0
290
     0
  0
SCALE
  5
19A0
102
{ACAD_REACTORS
330
12EA
102
}
330
12EA
100
AcDbScale
 70
     0
300
1/16" = 1'-0"
140
0.0625
141
12.0
290
     0
  0
SCALE
  5
19A1
102
{ACAD_REACTORS
330
12EA
102
}
330
12EA
100
AcDbScale
 70
     0
300
3/32" = 1'-0"
140
0.09375
141
12.0
290
     0
  0
SCALE
  5
19A2
102
{ACAD_REACTORS
330
12EA
102
}
330
12EA
100
AcDbScale
 70
     0
300
1/8" = 1'-0"
140
0.125
141
12.0
290
     0
  0
SCALE
  5
19A3
102
{ACAD_REACTORS
330
12EA
102
}
330
12EA
100
AcDbScale
 70
     0
300
3/16" = 1'-0"
140
0.1875
141
12.0
290
     0
  0
SCALE
  5
19A4
102
{ACAD_REACTORS
330
12EA
102
}
330
12EA
100
AcDbScale
 70
     0
300
1/4" = 1'-0"
140
0.25
141
12.0
290
     0
  0
SCALE
  5
19A5
102
{ACAD_REACTORS
330
12EA
102
}
330
12EA
100
AcDbScale
 70
     0
300
3/8" = 1'-0"
140
0.375
141
12.0
290
     0
  0
SCALE
  5
19A6
102
{ACAD_REACTORS
330
12EA
102
}
330
12EA
100
AcDbScale
 70
     0
300
1/2" = 1'-0"
140
0.5
141
12.0
290
     0
  0
SCALE
  5
19A7
102
{ACAD_REACTORS
330
12EA
102
}
330
12EA
100
AcDbScale
 70
     0
300
3/4" = 1'-0"
140
0.75
141
12.0
290
     0
  0
SCALE
  5
19A8
102
{ACAD_REACTORS
330
12EA
102
}
330
12EA
100
AcDbScale
 70
     0
300
1" = 1'-0"
140
1.0
141
12.0
290
     0
  0
SCALE
  5
19A9
102
{ACAD_REACTORS
330
12EA
102
}
330
12EA
100
AcDbScale
 70
     0
300
1-1/2" = 1'-0"
140
1.5
141
12.0
290
     0
  0
SCALE
  5
19AA
102
{ACAD_REACTORS
330
12EA
102
}
330
12EA
100
AcDbScale
 70
     0
300
3" = 1'-0"
140
3.0
141
12.0
290
     0
  0
SCALE
  5
19AB
102
{ACAD_REACTORS
330
12EA
102
}
330
12EA
100
AcDbScale
 70
     0
300
6" = 1'-0"
140
6.0
141
12.0
290
     0
  0
SCALE
  5
19AC
102
{ACAD_REACTORS
330
12EA
102
}
330
12EA
100
AcDbScale
 70
     0
300
1'-0" = 1'-0"
140
12.0
141
12.0
290
     0
  0
TABLESTYLE
  5
12E9
102
{ACAD_XDICTIONARY
360
1339
102
}
102
{ACAD_REACTORS
330
12E8
102
}
330
12E8
100
AcDbTableStyle
  3
Standard
 70
     0
 71
     0
 40
0.06
 41
0.06
280
     0
281
     0
  7
Standard
140
0.18
170
     2
 62
     0
 63
     7
283
     0
274
    -2
284
     1
 64
     0
275
    -2
285
     1
 65
     0
276
    -2
286
     1
 66
     0
277
    -2
287
     1
 67
     0
278
    -2
288
     1
 68
     0
279
    -2
289
     1
 69
     0
  7
Standard
140
0.25
170
     5
 62
     0
 63
     7
283
     0
274
    -2
284
     1
 64
     0
275
    -2
285
     1
 65
     0
276
    -2
286
     1
 66
     0
277
    -2
287
     1
 67
     0
278
    -2
288
     1
 68
     0
279
    -2
289
     1
 69
     0
  7
Standard
140
0.18
170
     5
 62
     0
 63
     7
283
     0
274
    -2
284
     1
 64
     0
275
    -2
285
     1
 65
     0
276
    -2
286
     1
 66
     0
277
    -2
287
     1
 67
     0
278
    -2
288
     1
 68
     0
279
    -2
289
     1
 69
     0
  0
VISUALSTYLE
  5
12D5
102
{ACAD_XDICTIONARY
360
1A7A
102
}
102
{ACAD_REACTORS
330
12CF
102
}
330
12CF
100
AcDbVisualStyle
  2
2dWireframe
 70
     4
 71
     0
 72
     2
 73
     0
 90
        0
 40
-0.6
 41
-30.0
 62
     5
 63
     7
 74
     1
 91
        4
 64
     7
 65
   257
 75
     1
175
     1
 42
1.0
 92
        0
 66
   257
 43
1.0
 76
     1
 77
     6
 78
     2
 67
     7
 79
     5
170
     0
171
     0
290
     0
174
     0
 93
        1
 44
0.0
173
     0
291
     0
 45
0.0
1001
ACAD
1000
AcDbSavedByObjectVersion
1070
     0
  0
VISUALSTYLE
  5
19BE
102
{ACAD_XDICTIONARY
360
1AA1
102
}
102
{ACAD_REACTORS
330
12CF
102
}
330
12CF
100
AcDbVisualStyle
  2
3D Hidden
 70
     6
 71
     1
 72
     2
 73
     2
 90
        0
 40
-0.6
 41
-30.0
 62
     5
 63
     7
 74
     2
 91
        2
 64
     7
 65
   257
 75
     2
175
     1
 42
40.0
 92
        0
 66
   257
 43
1.0
 76
     1
 77
     6
 78
     2
 67
     7
 79
     3
170
     0
171
     0
290
     0
174
     0
 93
        1
 44
0.0
173
     0
291
     0
 45
0.0
1001
ACAD
1000
AcDbSavedByObjectVersion
1070
     0
  0
VISUALSTYLE
  5
19BF
102
{ACAD_XDICTIONARY
360
1AA3
102
}
102
{ACAD_REACTORS
330
12CF
102
}
330
12CF
100
AcDbVisualStyle
  2
3dWireframe
 70
     5
 71
     0
 72
     2
 73
     0
 90
        0
 40
-0.6
 41
-30.0
 62
     5
 63
     7
 74
     1
 91
        4
 64
     7
 65
   257
 75
     1
175
     1
 42
1.0
 92
        0
 66
   257
 43
1.0
 76
     1
 77
     6
 78
     2
 67
     7
 79
     5
170
     0
171
     0
290
     0
174
     0
 93
        1
 44
0.0
173
     0
291
     0
 45
0.0
1001
ACAD
1000
AcDbSavedByObjectVersion
1070
     0
  0
VISUALSTYLE
  5
12D4
102
{ACAD_XDICTIONARY
360
1A78
102
}
102
{ACAD_REACTORS
330
12CF
102
}
330
12CF
100
AcDbVisualStyle
  2
Basic
 70
     7
 71
     1
 72
     0
 73
     1
 90
        0
 40
-0.6
 41
-30.0
 62
     5
 63
     7
 74
     0
 91
        4
 64
     7
 65
   257
 75
     1
175
     1
 42
1.0
 92
        8
 66
     7
 43
1.0
 76
     1
 77
     6
 78
     2
 67
     7
 79
     5
170
     0
171
     0
290
     0
174
     0
 93
        1
 44
0.0
173
     0
291
     1
 45
0.0
1001
ACAD
1000
AcDbSavedByObjectVersion
1070
     0
  0
VISUALSTYLE
  5
12DB
102
{ACAD_XDICTIONARY
360
1A86
102
}
102
{ACAD_REACTORS
330
12CF
102
}
330
12CF
100
AcDbVisualStyle
  2
Brighten
 70
    12
 71
     2
 72
     2
 73
     0
 90
        0
 40
-0.6
 41
-30.0
 62
     5
 63
     7
 74
     1
 91
        4
 64
     7
 65
   257
 75
     1
175
     1
 42
1.0
 92
        8
 66
     7
 43
1.0
 76
     1
 77
     6
 78
     2
 67
     7
 79
     5
170
     0
171
     0
290
     0
174
     0
 93
        1
 44
50.0
173
     0
291
     1
 45
0.0
1001
ACAD
1000
AcDbSavedByObjectVersion
1070
     0
  0
VISUALSTYLE
  5
12DF
102
{ACAD_XDICTIONARY
360
1A8E
102
}
102
{ACAD_REACTORS
330
12CF
102
}
330
12CF
100
AcDbVisualStyle
  2
ColorChange
 70
    16
 71
     2
 72
     2
 73
     3
 90
        0
 40
-0.6
 41
-30.0
 62
     5
 63
     8
 74
     1
 91
        4
 64
     7
 65
   257
 75
     1
175
     1
 42
1.0
 92
        8
 66
     8
 43
1.0
 76
     1
 77
     6
 78
     2
 67
     7
 79
     5
170
     0
171
     0
290
     0
174
     0
 93
        1
 44
0.0
173
     0
291
     1
 45
0.0
1001
ACAD
1000
AcDbSavedByObjectVersion
1070
     0
  0
VISUALSTYLE
  5
12D8
102
{ACAD_XDICTIONARY
360
1A80
102
}
102
{ACAD_REACTORS
330
12CF
102
}
330
12CF
100
AcDbVisualStyle
  2
Conceptual
 70
     9
 71
     3
 72
     2
 73
     0
 90
        0
 40
-0.6
 41
-30.0
 62
     5
 63
     7
 74
     2
 91
        2
 64
     7
 65
   257
 75
     1
175
     1
 42
179.0
 92
        8
 66
     7
 43
1.0
 76
     1
 77
     6
 78
     2
 67
     7
 79
     3
170
     0
171
     0
290
     0
174
     0
 93
        1
 44
0.0
173
     0
291
     0
 45
0.0
1001
ACAD
1000
AcDbSavedByObjectVersion
1070
     0
  0
VISUALSTYLE
  5
12DA
102
{ACAD_XDICTIONARY
360
1A84
102
}
102
{ACAD_REACTORS
330
12CF
102
}
330
12CF
100
AcDbVisualStyle
  2
Dim
 70
    11
 71
     2
 72
     2
 73
     0
 90
        0
 40
-0.6
 41
-30.0
 62
     5
 63
     7
 74
     1
 91
        4
 64
     7
 65
   257
 75
     1
175
     1
 42
1.0
 92
        8
 66
     7
 43
1.0
 76
     1
 77
     6
 78
     2
 67
     7
 79
     5
170
     0
171
     0
290
     0
174
     0
 93
        1
 44
-50.0
173
     0
291
     1
 45
0.0
1001
ACAD
1000
AcDbSavedByObjectVersion
1070
     0
  0
VISUALSTYLE
  5
12E7
102
{ACAD_XDICTIONARY
360
1A9E
102
}
102
{ACAD_REACTORS
330
12CF
102
}
330
12CF
100
AcDbVisualStyle
  2
EdgeColorOff
 70
    22
 71
     2
 72
     2
 73
     0
 90
        0
 40
-0.6
 41
-30.0
 62
     5
 63
     7
 74
     1
 91
        4
 64
     7
 65
   257
 75
     1
175
     1
 42
1.0
 92
        8
 66
     7
 43
1.0
 76
     1
 77
     6
 78
     2
 67
     7
 79
     5
170
     0
171
     0
290
     0
174
     0
 93
        1
 44
0.0
173
     0
291
     1
 45
0.0
1001
ACAD
1000
AcDbSavedByObjectVersion
1070
     0
  0
VISUALSTYLE
  5
12DE
102
{ACAD_XDICTIONARY
360
1A8C
102
}
102
{ACAD_REACTORS
330
12CF
102
}
330
12CF
100
AcDbVisualStyle
  2
Facepattern
 70
    15
 71
     2
 72
     2
 73
     0
 90
        0
 40
-0.6
 41
-30.0
 62
     5
 63
     7
 74
     1
 91
        4
 64
     7
 65
   257
 75
     1
175
     1
 42
1.0
 92
        8
 66
     7
 43
1.0
 76
     1
 77
     6
 78
     2
 67
     7
 79
     5
170
     0
171
     0
290
     0
174
     0
 93
        1
 44
0.0
173
     0
291
     1
 45
0.0
1001
ACAD
1000
AcDbSavedByObjectVersion
1070
     0
  0
VISUALSTYLE
  5
12D0
102
{ACAD_XDICTIONARY
360
1A70
102
}
102
{ACAD_REACTORS
330
12CF
102
}
330
12CF
100
AcDbVisualStyle
  2
Flat
 70
     0
 71
     2
 72
     1
 73
     1
 90
        2
 40
-0.6
 41
30.0
 62
     5
 63
     7
 74
     0
 91
        0
 64
     7
 65
   257
 75
     1
175
     1
 42
1.0
 92
        8
 66
     7
 43
1.0
 76
     1
 77
     6
 78
     2
 67
     7
 79
     5
170
     0
171
     0
290
     0
174
     0
 93
       13
 44
0.0
173
     0
291
     1
 45
0.0
1001
ACAD
1000
AcDbSavedByObjectVersion
1070
     0
  0
VISUALSTYLE
  5
12D1
102
{ACAD_XDICTIONARY
360
1A72
102
}
102
{ACAD_REACTORS
330
12CF
102
}
330
12CF
100
AcDbVisualStyle
  2
FlatWithEdges
 70
     1
 71
     2
 72
     1
 73
     1
 90
        2
 40
-0.6
 41
30.0
 62
     5
 63
     7
 74
     1
 91
        0
 64
     7
 65
   257
 75
     1
175
     1
 42
1.0
 92
        0
 66
   257
 43
1.0
 76
     1
 77
     6
 78
     2
 67
     7
 79
     5
170
     0
171
     0
290
     0
174
     0
 93
       13
 44
0.0
173
     0
291
     1
 45
0.0
1001
ACAD
1000
AcDbSavedByObjectVersion
1070
     0
  0
VISUALSTYLE
  5
12D2
102
{ACAD_XDICTIONARY
360
1A74
102
}
102
{ACAD_REACTORS
330
12CF
102
}
330
12CF
100
AcDbVisualStyle
  2
Gouraud
 70
     2
 71
     2
 72
     2
 73
     1
 90
        2
 40
-0.6
 41
30.0
 62
     5
 63
     7
 74
     0
 91
        0
 64
     7
 65
   257
 75
     1
175
     1
 42
1.0
 92
        0
 66
     7
 43
1.0
 76
     1
 77
     6
 78
     2
 67
     7
 79
     5
170
     0
171
     0
290
     0
174
     0
 93
       13
 44
0.0
173
     0
291
     1
 45
0.0
1001
ACAD
1000
AcDbSavedByObjectVersion
1070
     0
  0
VISUALSTYLE
  5
12D3
102
{ACAD_XDICTIONARY
360
1A76
102
}
102
{ACAD_REACTORS
330
12CF
102
}
330
12CF
100
AcDbVisualStyle
  2
GouraudWithEdges
 70
     3
 71
     2
 72
     2
 73
     1
 90
        2
 40
-0.6
 41
30.0
 62
     5
 63
     7
 74
     1
 91
        0
 64
     7
 65
   257
 75
     1
175
     1
 42
1.0
 92
        0
 66
   257
 43
1.0
 76
     1
 77
     6
 78
     2
 67
     7
 79
     5
170
     0
171
     0
290
     0
174
     0
 93
       13
 44
0.0
173
     0
291
     1
 45
0.0
1001
ACAD
1000
AcDbSavedByObjectVersion
1070
     0
  0
VISUALSTYLE
  5
12D7
102
{ACAD_XDICTIONARY
360
1A7E
102
}
102
{ACAD_REACTORS
330
12CF
102
}
330
12CF
100
AcDbVisualStyle
  2
Hidden
 70
     6
 71
     1
 72
     2
 73
     2
 90
        0
 40
-0.6
 41
-30.0
 62
     5
 63
     7
 74
     2
 91
        2
 64
     7
 65
   257
 75
     2
175
     1
 42
40.0
 92
        0
 66
   257
 43
1.0
 76
     1
 77
     6
 78
     2
 67
     7
 79
     3
170
     0
171
     0
290
     0
174
     0
 93
        1
 44
0.0
173
     0
291
     0
 45
0.0
1001
ACAD
1000
AcDbSavedByObjectVersion
1070
     0
  0
VISUALSTYLE
  5
12E5
102
{ACAD_XDICTIONARY
360
1A9A
102
}
102
{ACAD_REACTORS
330
12CF
102
}
330
12CF
100
AcDbVisualStyle
  2
JitterOff
 70
    20
 71
     2
 72
     2
 73
     0
 90
        0
 40
-0.6
 41
-30.0
 62
     5
 63
     7
 74
     1
 91
        4
 64
     7
 65
   257
 75
     1
175
     1
 42
1.0
 92
       10
 66
     7
 43
1.0
 76
     1
 77
     6
 78
     2
 67
     7
 79
     5
170
     0
171
     0
290
     0
174
     0
 93
        1
 44
0.0
173
     0
291
     1
 45
0.0
1001
ACAD
1000
AcDbSavedByObjectVersion
1070
     0
  0
VISUALSTYLE
  5
12DD
102
{ACAD_XDICTIONARY
360
1A8A
102
}
102
{ACAD_REACTORS
330
12CF
102
}
330
12CF
100
AcDbVisualStyle
  2
Linepattern
 70
    14
 71
     2
 72
     2
 73
     0
 90
        0
 40
-0.6
 41
-30.0
 62
     5
 63
     7
 74
     1
 91
        4
 64
     7
 65
   257
 75
     7
175
     7
 42
1.0
 92
        8
 66
     7
 43
1.0
 76
     1
 77
     6
 78
     2
 67
     7
 79
     5
170
     0
171
     0
290
     0
174
     0
 93
        1
 44
0.0
173
     0
291
     1
 45
0.0
1001
ACAD
1000
AcDbSavedByObjectVersion
1070
     0
  0
VISUALSTYLE
  5
12E6
102
{ACAD_XDICTIONARY
360
1A9C
102
}
102
{ACAD_REACTORS
330
12CF
102
}
330
12CF
100
AcDbVisualStyle
  2
OverhangOff
 70
    21
 71
     2
 72
     2
 73
     0
 90
        0
 40
-0.6
 41
-30.0
 62
     5
 63
     7
 74
     1
 91
        4
 64
     7
 65
   257
 75
     1
175
     1
 42
1.0
 92
        9
 66
     7
 43
1.0
 76
     1
 77
     6
 78
     2
 67
     7
 79
     5
170
     0
171
     0
290
     0
174
     0
 93
        1
 44
0.0
173
     0
291
     1
 45
0.0
1001
ACAD
1000
AcDbSavedByObjectVersion
1070
     0
  0
VISUALSTYLE
  5
12D9
102
{ACAD_XDICTIONARY
360
1A82
102
}
102
{ACAD_REACTORS
330
12CF
102
}
330
12CF
100
AcDbVisualStyle
  2
Realistic
 70
     8
 71
     2
 72
     2
 73
     0
 90
        2
 40
-0.6
 41
30.0
 62
     5
 63
     7
 74
     0
 91
        0
 64
     7
 65
   257
 75
     1
175
     1
 42
1.0
 92
        8
 66
   257
 43
1.0
 76
     1
 77
     6
 78
     2
 67
     7
 79
     3
170
     0
171
     0
290
     0
174
     0
 93
       13
 44
0.0
173
     0
291
     0
 45
0.0
1001
ACAD
1000
AcDbSavedByObjectVersion
1070
     0
  0
VISUALSTYLE
  5
12E4
102
{ACAD_XDICTIONARY
360
1A98
102
}
102
{ACAD_REACTORS
330
12CF
102
}
330
12CF
100
AcDbVisualStyle
  2
Shaded
 70
    27
 71
     2
 72
     2
 73
     1
 90
        2
 40
-0.6
 41
30.0
 62
     5
 63
     7
 74
     0
 91
        4
 64
     7
 65
   257
 75
     1
175
     1
 42
1.0
 92
        8
 66
   257
 43
1.0
 76
     1
 77
     6
 78
     2
 67
     8
 79
     3
170
     0
171
     0
290
     0
174
     0
 93
        5
 44
0.0
173
     0
291
     0
 45
0.0
1001
ACAD
1000
AcDbSavedByObjectVersion
1070
     0
  0
VISUALSTYLE
  5
12E3
102
{ACAD_XDICTIONARY
360
1A96
102
}
102
{ACAD_REACTORS
330
12CF
102
}
330
12CF
100
AcDbVisualStyle
  2
Shaded with edges
 70
    26
 71
     2
 72
     2
 73
     1
 90
        2
 40
-0.6
 41
30.0
 62
     5
 63
     7
 74
     1
 91
       10
 64
     7
 65
   257
 75
     2
175
     1
 42
1.0
 92
        8
 66
   257
 43
1.0
 76
     1
 77
     6
 78
     2
 67
     7
 79
     3
170
     0
171
     0
290
     0
174
     0
 93
        5
 44
0.0
173
     0
291
     0
 45
0.0
1001
ACAD
1000
AcDbSavedByObjectVersion
1070
     0
  0
VISUALSTYLE
  5
12E0
102
{ACAD_XDICTIONARY
360
1A90
102
}
102
{ACAD_REACTORS
330
12CF
102
}
330
12CF
100
AcDbVisualStyle
  2
Shades of Gray
 70
    23
 71
     2
 72
     2
 73
     3
 90
        0
 40
-0.6
 41
-30.0
 62
     5
 63
     7
 74
     2
 91
        2
 64
     7
 65
     7
 75
     1
175
     1
 42
40.0
 92
        8
 66
     7
 43
1.0
 76
     1
 77
     6
 78
     2
 67
     7
 79
     3
170
     0
171
     0
290
     0
174
     0
 93
        1
 44
0.0
173
     0
291
     0
 45
0.0
1001
ACAD
1000
AcDbSavedByObjectVersion
1070
     0
  0
VISUALSTYLE
  5
12E1
102
{ACAD_XDICTIONARY
360
1A92
102
}
102
{ACAD_REACTORS
330
12CF
102
}
330
12CF
100
AcDbVisualStyle
  2
Sketchy
 70
    24
 71
     1
 72
     2
 73
     2
 90
        0
 40
-0.6
 41
-30.0
 62
     5
 63
     7
 74
     2
 91
        2
 64
     7
 65
     7
 75
     1
175
     1
 42
40.0
 92
       11
 66
     7
 43
1.0
 76
     1
 77
     6
 78
     2
 67
     7
 79
     6
170
     0
171
     0
290
     0
174
     0
 93
        1
 44
0.0
173
     0
291
     0
 45
0.0
1001
ACAD
1000
AcDbSavedByObjectVersion
1070
     0
  0
VISUALSTYLE
  5
12DC
102
{ACAD_XDICTIONARY
360
1A88
102
}
102
{ACAD_REACTORS
330
12CF
102
}
330
12CF
100
AcDbVisualStyle
  2
Thicken
 70
    13
 71
     2
 72
     2
 73
     0
 90
        0
 40
-0.6
 41
-30.0
 62
     5
 63
     7
 74
     1
 91
        4
 64
     7
 65
   257
 75
     1
175
     1
 42
1.0
 92
       12
 66
     7
 43
1.0
 76
     1
 77
     6
 78
     2
 67
     7
 79
     5
170
     0
171
     0
290
     0
174
     0
 93
        1
 44
0.0
173
     0
291
     1
 45
0.0
1001
ACAD
1000
AcDbSavedByObjectVersion
1070
     0
  0
VISUALSTYLE
  5
12D6
102
{ACAD_XDICTIONARY
360
1A7C
102
}
102
{ACAD_REACTORS
330
12CF
102
}
330
12CF
100
AcDbVisualStyle
  2
Wireframe
 70
     5
 71
     0
 72
     2
 73
     0
 90
        0
 40
-0.6
 41
-30.0
 62
     5
 63
     7
 74
     1
 91
        4
 64
     7
 65
   257
 75
     1
175
     1
 42
1.0
 92
        0
 66
   257
 43
1.0
 76
     1
 77
     6
 78
     2
 67
     7
 79
     3
170
     0
171
     0
290
     0
174
     0
 93
        1
 44
0.0
173
     0
291
     0
 45
0.0
1001
ACAD
1000
AcDbSavedByObjectVersion
1070
     0
  0
VISUALSTYLE
  5
12E2
102
{ACAD_XDICTIONARY
360
1A94
102
}
102
{ACAD_REACTORS
330
12CF
102
}
330
12CF
100
AcDbVisualStyle
  2
X-Ray
 70
    25
 71
     2
 72
     2
 73
     1
 90
        1
 40
0.5
 41
-30.0
 62
     5
 63
     7
 74
     1
 91
        0
 64
     7
 65
   257
 75
     1
175
     1
 42
1.0
 92
        8
 66
     7
 43
1.0
 76
     1
 77
     6
 78
     2
 67
     7
 79
     3
170
     0
171
     0
290
     0
174
     0
 93
       13
 44
0.0
173
     0
291
     0
 45
0.0
1001
ACAD
1000
AcDbSavedByObjectVersion
1070
     0
  0
DICTIONARYVAR
  5
137C
102
{ACAD_REACTORS
330
66
102
}
330
66
100
DictionaryVariables
280
     0
  1
1:1
  0
DICTIONARYVAR
  5
137B
102
{ACAD_REACTORS
330
66
102
}
330
66
100
DictionaryVariables
280
     0
  1
STANDARD
  0
DICTIONARYVAR
  5
137A
102
{ACAD_REACTORS
330
66
102
}
330
66
100
DictionaryVariables
280
     0
  1
STANDARD
  0
DICTIONARYVAR
  5
67
102
{ACAD_REACTORS
330
66
102
}
330
66
100
DictionaryVariables
280
     0
  1
2
  0
DICTIONARYVAR
  5
6B
102
{ACAD_REACTORS
330
66
102
}
330
66
100
DictionaryVariables
280
     0
  1
1
  0
DICTIONARYVAR
  5
137E
102
{ACAD_REACTORS
330
66
102
}
330
66
100
DictionaryVariables
280
     0
  1
0
  0
DICTIONARYVAR
  5
1992
102
{ACAD_REACTORS
330
66
102
}
330
66
100
DictionaryVariables
280
     0
  1
1
  0
DICTIONARYVAR
  5
1993
102
{ACAD_REACTORS
330
66
102
}
330
66
100
DictionaryVariables
280
     0
  1
15
  0
DICTIONARYVAR
  5
1991
102
{ACAD_REACTORS
330
66
102
}
330
66
100
DictionaryVariables
280
     0
  1
0
  0
DICTIONARYVAR
  5
1990
102
{ACAD_REACTORS
330
66
102
}
330
66
100
DictionaryVariables
280
     0
  1
0
  0
DICTIONARYVAR
  5
D3C
102
{ACAD_REACTORS
330
66
102
}
330
66
100
DictionaryVariables
280
     0
  1

  0
DICTIONARYVAR
  5
137D
102
{ACAD_REACTORS
330
66
102
}
330
66
100
DictionaryVariables
280
     0
  1
127
  0
DICTIONARYVAR
  5
1A61
102
{ACAD_REACTORS
330
66
102
}
330
66
100
DictionaryVariables
280
     0
  1
2
  0
DICTIONARY
  5
1A69
330
59
100
AcDbDictionary
280
     1
281
     1
  3
ACAD_XREC_ROUNDTRIP
360
1A6A
  0
DICTIONARY
  5
1A6B
330
5E
100
AcDbDictionary
280
     1
281
     1
  3
ACAD_XREC_ROUNDTRIP
360
1A6C
  0
DICTIONARY
  5
1A67
330
22
100
AcDbDictionary
280
     1
281
     1
  3
ACAD_XREC_ROUNDTRIP
360
1A68
  0
DICTIONARY
  5
12C0
330
12BF
100
AcDbDictionary
280
     1
281
     1
  3
ACAD_XREC_ROUNDTRIP
360
1A6E
  3
BUMPTILE
360
12C2
  3
DIFFUSETILE
360
12C1
  3
OPACITYTILE
360
12C5
  3
REFLECTIONTILE
360
12C4
  3
REFRACTIONTILE
360
12C6
  3
SPECULARTILE
360
12C3
  0
DICTIONARY
  5
12B8
330
12B7
100
AcDbDictionary
280
     1
281
     1
  3
ACAD_XREC_ROUNDTRIP
360
1A6D
  3
BUMPTILE
360
12BA
  3
DIFFUSETILE
360
12B9
  3
OPACITYTILE
360
12BD
  3
REFLECTIONTILE
360
12BC
  3
REFRACTIONTILE
360
12BE
  3
SPECULARTILE
360
12BB
  0
DICTIONARY
  5
12C8
330
12C7
100
AcDbDictionary
280
     1
281
     1
  3
ACAD_XREC_ROUNDTRIP
360
1A6F
  3
BUMPTILE
360
12CA
  3
DIFFUSETILE
360
12C9
  3
OPACITYTILE
360
12CD
  3
REFLECTIONTILE
360
12CC
  3
REFRACTIONTILE
360
12CE
  3
SPECULARTILE
360
12CB
  0
DICTIONARY
  5
1339
330
12E9
100
AcDbDictionary
280
     1
281
     1
  3
ACAD_ROUNDTRIP_2008_TABLESTYLE_CELLSTYLEMAP
360
1A62
  3
ACAD_XREC_ROUNDTRIP
360
1AA0
  0
DICTIONARY
  5
1A7A
330
12D5
100
AcDbDictionary
280
     1
281
     1
  3
ACAD_XREC_ROUNDTRIP
360
1A7B
  0
DICTIONARY
  5
1AA1
330
19BE
100
AcDbDictionary
280
     1
281
     1
  3
ACAD_XREC_ROUNDTRIP
360
1AA2
  0
DICTIONARY
  5
1AA3
330
19BF
100
AcDbDictionary
280
     1
281
     1
  3
ACAD_XREC_ROUNDTRIP
360
1AA4
  0
DICTIONARY
  5
1A78
330
12D4
100
AcDbDictionary
280
     1
281
     1
  3
ACAD_XREC_ROUNDTRIP
360
1A79
  0
DICTIONARY
  5
1A86
330
12DB
100
AcDbDictionary
280
     1
281
     1
  3
ACAD_XREC_ROUNDTRIP
360
1A87
  0
DICTIONARY
  5
1A8E
330
12DF
100
AcDbDictionary
280
     1
281
     1
  3
ACAD_XREC_ROUNDTRIP
360
1A8F
  0
DICTIONARY
  5
1A80
330
12D8
100
AcDbDictionary
280
     1
281
     1
  3
ACAD_XREC_ROUNDTRIP
360
1A81
  0
DICTIONARY
  5
1A84
330
12DA
100
AcDbDictionary
280
     1
281
     1
  3
ACAD_XREC_ROUNDTRIP
360
1A85
  0
DICTIONARY
  5
1A9E
330
12E7
100
AcDbDictionary
280
     1
281
     1
  3
ACAD_XREC_ROUNDTRIP
360
1A9F
  0
DICTIONARY
  5
1A8C
330
12DE
100
AcDbDictionary
280
     1
281
     1
  3
ACAD_XREC_ROUNDTRIP
360
1A8D
  0
DICTIONARY
  5
1A70
330
12D0
100
AcDbDictionary
280
     1
281
     1
  3
ACAD_XREC_ROUNDTRIP
360
1A71
  0
DICTIONARY
  5
1A72
330
12D1
100
AcDbDictionary
280
     1
281
     1
  3
ACAD_XREC_ROUNDTRIP
360
1A73
  0
DICTIONARY
  5
1A74
330
12D2
100
AcDbDictionary
280
     1
281
     1
  3
ACAD_XREC_ROUNDTRIP
360
1A75
  0
DICTIONARY
  5
1A76
330
12D3
100
AcDbDictionary
280
     1
281
     1
  3
ACAD_XREC_ROUNDTRIP
360
1A77
  0
DICTIONARY
  5
1A7E
330
12D7
100
AcDbDictionary
280
     1
281
     1
  3
ACAD_XREC_ROUNDTRIP
360
1A7F
  0
DICTIONARY
  5
1A9A
330
12E5
100
AcDbDictionary
280
     1
281
     1
  3
ACAD_XREC_ROUNDTRIP
360
1A9B
  0
DICTIONARY
  5
1A8A
330
12DD
100
AcDbDictionary
280
     1
281
     1
  3
ACAD_XREC_ROUNDTRIP
360
1A8B
  0
DICTIONARY
  5
1A9C
330
12E6
100
AcDbDictionary
280
     1
281
     1
  3
ACAD_XREC_ROUNDTRIP
360
1A9D
  0
DICTIONARY
  5
1A82
330
12D9
100
AcDbDictionary
280
     1
281
     1
  3
ACAD_XREC_ROUNDTRIP
360
1A83
  0
DICTIONARY
  5
1A98
330
12E4
100
AcDbDictionary
280
     1
281
     1
  3
ACAD_XREC_ROUNDTRIP
360
1A99
  0
DICTIONARY
  5
1A96
330
12E3
100
AcDbDictionary
280
     1
281
     1
  3
ACAD_XREC_ROUNDTRIP
360
1A97
  0
DICTIONARY
  5
1A90
330
12E0
100
AcDbDictionary
280
     1
281
     1
  3
ACAD_XREC_ROUNDTRIP
360
1A91
  0
DICTIONARY
  5
1A92
330
12E1
100
AcDbDictionary
280
     1
281
     1
  3
ACAD_XREC_ROUNDTRIP
360
1A93
  0
DICTIONARY
  5
1A88
330
12DC
100
AcDbDictionary
280
     1
281
     1
  3
ACAD_XREC_ROUNDTRIP
360
1A89
  0
DICTIONARY
  5
1A7C
330
12D6
100
AcDbDictionary
280
     1
281
     1
  3
ACAD_XREC_ROUNDTRIP
360
1A7D
  0
DICTIONARY
  5
1A94
330
12E2
100
AcDbDictionary
280
     1
281
     1
  3
ACAD_XREC_ROUNDTRIP
360
1A95
  0
XRECORD
  5
1A6A
102
{ACAD_REACTORS
330
1A69
102
}
330
1A69
100
AcDbXrecord
280
     1
102
SHADEPLOT
 70
     0
102
SHADEPLOTRESLEVEL
 70
     2
102
SHADEPLOTCUSTOMDPI
 70
   300
  0
XRECORD
  5
1A6C
102
{ACAD_REACTORS
330
1A6B
102
}
330
1A6B
100
AcDbXrecord
280
     1
102
SHADEPLOT
 70
     0
102
SHADEPLOTRESLEVEL
 70
     2
102
SHADEPLOTCUSTOMDPI
 70
   300
  0
XRECORD
  5
1A68
102
{ACAD_REACTORS
330
1A67
102
}
330
1A67
100
AcDbXrecord
280
     1
102
SHADEPLOT
 70
     0
102
SHADEPLOTRESLEVEL
 70
     2
102
SHADEPLOTCUSTOMDPI
 70
   300
  0
XRECORD
  5
1A6E
102
{ACAD_REACTORS
330
12C0
102
}
330
12C0
100
AcDbXrecord
280
     1
102
MATERIAL
148
0.0
149
0.0
149
0.0
 93
        0
 94
      127
282
     0
 72
     0
 77
     0
171
     0
175
     0
179
     0
273
     0
  0
XRECORD
  5
12C2
102
{ACAD_REACTORS
330
12C0
102
}
330
12C0
100
AcDbXrecord
280
     1
270
     1
271
     1
  0
XRECORD
  5
12C1
102
{ACAD_REACTORS
330
12C0
102
}
330
12C0
100
AcDbXrecord
280
     1
270
     1
271
     1
  0
XRECORD
  5
12C5
102
{ACAD_REACTORS
330
12C0
102
}
330
12C0
100
AcDbXrecord
280
     1
270
     1
271
     1
  0
XRECORD
  5
12C4
102
{ACAD_REACTORS
330
12C0
102
}
330
12C0
100
AcDbXrecord
280
     1
270
     1
271
     1
  0
XRECORD
  5
12C6
102
{ACAD_REACTORS
330
12C0
102
}
330
12C0
100
AcDbXrecord
280
     1
270
     1
271
     1
  0
XRECORD
  5
12C3
102
{ACAD_REACTORS
330
12C0
102
}
330
12C0
100
AcDbXrecord
280
     1
270
     1
271
     1
  0
XRECORD
  5
1A6D
102
{ACAD_REACTORS
330
12B8
102
}
330
12B8
100
AcDbXrecord
280
     1
102
MATERIAL
148
0.0
149
0.0
149
0.0
 93
        0
 94
      127
282
     0
 72
     0
 77
     0
171
     0
175
     0
179
     0
273
     0
  0
XRECORD
  5
12BA
102
{ACAD_REACTORS
330
12B8
102
}
330
12B8
100
AcDbXrecord
280
     1
270
     1
271
     1
  0
XRECORD
  5
12B9
102
{ACAD_REACTORS
330
12B8
102
}
330
12B8
100
AcDbXrecord
280
     1
270
     1
271
     1
  0
XRECORD
  5
12BD
102
{ACAD_REACTORS
330
12B8
102
}
330
12B8
100
AcDbXrecord
280
     1
270
     1
271
     1
  0
XRECORD
  5
12BC
102
{ACAD_REACTORS
330
12B8
102
}
330
12B8
100
AcDbXrecord
280
     1
270
     1
271
     1
  0
XRECORD
  5
12BE
102
{ACAD_REACTORS
330
12B8
102
}
330
12B8
100
AcDbXrecord
280
     1
270
     1
271
     1
  0
XRECORD
  5
12BB
102
{ACAD_REACTORS
330
12B8
102
}
330
12B8
100
AcDbXrecord
280
     1
270
     1
271
     1
  0
XRECORD
  5
1A6F
102
{ACAD_REACTORS
330
12C8
102
}
330
12C8
100
AcDbXrecord
280
     1
102
MATERIAL
148
0.0
149
0.0
149
0.0
 93
        0
 94
      127
282
     0
 72
     0
 77
     0
171
     0
175
     0
179
     0
273
     0
  0
XRECORD
  5
12CA
102
{ACAD_REACTORS
330
12C8
102
}
330
12C8
100
AcDbXrecord
280
     1
270
     1
271
     1
  0
XRECORD
  5
12C9
102
{ACAD_REACTORS
330
12C8
102
}
330
12C8
100
AcDbXrecord
280
     1
270
     1
271
     1
  0
XRECORD
  5
12CD
102
{ACAD_REACTORS
330
12C8
102
}
330
12C8
100
AcDbXrecord
280
     1
270
     1
271
     1
  0
XRECORD
  5
12CC
102
{ACAD_REACTORS
330
12C8
102
}
330
12C8
100
AcDbXrecord
280
     1
270
     1
271
     1
  0
XRECORD
  5
12CE
102
{ACAD_REACTORS
330
12C8
102
}
330
12C8
100
AcDbXrecord
280
     1
270
     1
271
     1
  0
XRECORD
  5
12CB
102
{ACAD_REACTORS
330
12C8
102
}
330
12C8
100
AcDbXrecord
280
     1
270
     1
271
     1
  0
CELLSTYLEMAP
  5
1A62
102
{ACAD_REACTORS
330
1339
102
}
330
1339
100
AcDbCellStyleMap
 90
        3
300
CELLSTYLE
  1
TABLEFORMAT_BEGIN
 90
        5
170
     1
 91
        0
 92
    32768
 62
   257
 93
        1
300
CONTENTFORMAT
  1
CONTENTFORMAT_BEGIN
 90
        0
 91
        0
 92
      512
 93
        0
300

 40
0.0
140
1.0
 94
        5
 62
     0
340
11
144
0.25
309
CONTENTFORMAT_END
171
     0
 94
        0
309
TABLEFORMAT_END
  1
CELLSTYLE_BEGIN
 90
        1
 91
        1
300
_TITLE
309
CELLSTYLE_END
300
CELLSTYLE
  1
TABLEFORMAT_BEGIN
 90
        5
170
     1
 91
        0
 92
        0
 62
   257
 93
        1
300
CONTENTFORMAT
  1
CONTENTFORMAT_BEGIN
 90
        0
 91
        0
 92
      512
 93
        0
300

 40
0.0
140
1.0
 94
        5
 62
     0
340
11
144
0.18
309
CONTENTFORMAT_END
171
     0
 94
        0
309
TABLEFORMAT_END
  1
CELLSTYLE_BEGIN
 90
        2
 91
        1
300
_HEADER
309
CELLSTYLE_END
300
CELLSTYLE
  1
TABLEFORMAT_BEGIN
 90
        5
170
     1
 91
        0
 92
        0
 62
   257
 93
        1
300
CONTENTFORMAT
  1
CONTENTFORMAT_BEGIN
 90
        0
 91
        0
 92
      512
 93
        0
300

 40
0.0
140
1.0
 94
        2
 62
     0
340
11
144
0.18
309
CONTENTFORMAT_END
171
     0
 94
        0
309
TABLEFORMAT_END
  1
CELLSTYLE_BEGIN
 90
        3
 91
        2
300
_DATA
309
CELLSTYLE_END
  0
XRECORD
  5
1AA0
102
{ACAD_REACTORS
330
1339
102
}
330
1339
100
AcDbXrecord
280
     1
102
ACAD_ROUNDTRIP_PRE2007_TABLESTYLE
 90
      512
 91
        0
  1

 92
      512
 93
        0
  2

 94
      512
 95
        0
  3

  0
XRECORD
  5
1A7B
102
{ACAD_REACTORS
330
1A7A
102
}
330
1A7A
100
AcDbXrecord
280
     1
102
RTVSPropertyOp0
 70
     1
102
RTVSPropertyOp1
 70
     1
102
RTVSPropertyOp2
 70
     1
102
RTVSPropertyOp3
 70
     1
102
RTVSPropertyOp4
 70
     1
102
RTVSPropertyOp5
 70
     1
102
RTVSPropertyOp6
 70
     1
102
RTVSPropertyOp7
 70
     1
102
RTVSPropertyOp8
 70
     1
102
RTVSPropertyOp9
 70
     1
102
RTVSPropertyOp10
 70
     1
102
RTVSPropertyOp11
 70
     1
102
RTVSPropertyOp12
 70
     1
102
RTVSPropertyOp13
 70
     1
102
RTVSPropertyOp14
 70
     1
102
RTVSPropertyOp15
 70
     1
102
RTVSPropertyOp16
 70
     1
102
RTVSPropertyOp17
 70
     1
102
RTVSPropertyOp18
 70
     1
102
RTVSPropertyOp19
 70
     1
102
RTVSPropertyOp20
 70
     1
102
RTVSPropertyOp21
 70
     1
102
RTVSPropertyOp22
 70
     1
102
RTVSPropertyOp23
 70
     1
102
RTVSPropertyOp24
 70
     1
102
RTVSPropertyOp25
 70
     1
102
RTVSPropertyOp26
 70
     1
102
RTVSPropertyOp27
 70
     1
102
RTVSPropertyOp28
 70
     1
102
RTVSPropertyOp29
 70
     1
102
RTVSPropertyOp30
 70
     1
102
RTVSPropertyOp31
 70
     1
102
RTVSPropertyOp32
 70
     1
  0
XRECORD
  5
1AA2
102
{ACAD_REACTORS
330
1AA1
102
}
330
1AA1
100
AcDbXrecord
280
     1
102
RTVSPropertyOp0
 70
     1
102
RTVSPropertyOp1
 70
     1
102
RTVSPropertyOp2
 70
     1
102
RTVSPropertyOp3
 70
     1
102
RTVSPropertyOp4
 70
     1
102
RTVSPropertyOp5
 70
     1
102
RTVSPropertyOp6
 70
     1
102
RTVSPropertyOp7
 70
     1
102
RTVSPropertyOp8
 70
     1
102
RTVSPropertyOp9
 70
     1
102
RTVSPropertyOp10
 70
     1
102
RTVSPropertyOp11
 70
     1
102
RTVSPropertyOp12
 70
     1
102
RTVSPropertyOp13
 70
     1
102
RTVSPropertyOp14
 70
     1
102
RTVSPropertyOp15
 70
     1
102
RTVSPropertyOp16
 70
     1
102
RTVSPropertyOp17
 70
     1
102
RTVSPropertyOp18
 70
     1
102
RTVSPropertyOp19
 70
     1
102
RTVSPropertyOp20
 70
     1
102
RTVSPropertyOp21
 70
     1
102
RTVSPropertyOp22
 70
     1
102
RTVSPropertyOp23
 70
     1
102
RTVSPropertyOp24
 70
     1
102
RTVSPropertyOp25
 70
     1
102
RTVSPropertyOp26
 70
     1
102
RTVSPropertyOp27
 70
     1
102
RTVSPropertyOp28
 70
     1
102
RTVSPropertyOp29
 70
     1
102
RTVSPropertyOp30
 70
     1
102
RTVSPropertyOp31
 70
     1
102
RTVSPropertyOp32
 70
     1
  0
XRECORD
  5
1AA4
102
{ACAD_REACTORS
330
1AA3
102
}
330
1AA3
100
AcDbXrecord
280
     1
102
RTVSPropertyOp0
 70
     1
102
RTVSPropertyOp1
 70
     1
102
RTVSPropertyOp2
 70
     1
102
RTVSPropertyOp3
 70
     1
102
RTVSPropertyOp4
 70
     1
102
RTVSPropertyOp5
 70
     1
102
RTVSPropertyOp6
 70
     1
102
RTVSPropertyOp7
 70
     1
102
RTVSPropertyOp8
 70
     1
102
RTVSPropertyOp9
 70
     1
102
RTVSPropertyOp10
 70
     1
102
RTVSPropertyOp11
 70
     1
102
RTVSPropertyOp12
 70
     1
102
RTVSPropertyOp13
 70
     1
102
RTVSPropertyOp14
 70
     1
102
RTVSPropertyOp15
 70
     1
102
RTVSPropertyOp16
 70
     1
102
RTVSPropertyOp17
 70
     1
102
RTVSPropertyOp18
 70
     1
102
RTVSPropertyOp19
 70
     1
102
RTVSPropertyOp20
 70
     1
102
RTVSPropertyOp21
 70
     1
102
RTVSPropertyOp22
 70
     1
102
RTVSPropertyOp23
 70
     1
102
RTVSPropertyOp24
 70
     1
102
RTVSPropertyOp25
 70
     1
102
RTVSPropertyOp26
 70
     1
102
RTVSPropertyOp27
 70
     1
102
RTVSPropertyOp28
 70
     1
102
RTVSPropertyOp29
 70
     1
102
RTVSPropertyOp30
 70
     1
102
RTVSPropertyOp31
 70
     1
102
RTVSPropertyOp32
 70
     1
  0
XRECORD
  5
1A79
102
{ACAD_REACTORS
330
1A78
102
}
330
1A78
100
AcDbXrecord
280
     1
102
RTVSPropertyOp0
 70
     1
102
RTVSPropertyOp1
 70
     1
102
RTVSPropertyOp2
 70
     1
102
RTVSPropertyOp3
 70
     1
102
RTVSPropertyOp4
 70
     1
102
RTVSPropertyOp5
 70
     1
102
RTVSPropertyOp6
 70
     1
102
RTVSPropertyOp7
 70
     1
102
RTVSPropertyOp8
 70
     1
102
RTVSPropertyOp9
 70
     1
102
RTVSPropertyOp10
 70
     1
102
RTVSPropertyOp11
 70
     1
102
RTVSPropertyOp12
 70
     1
102
RTVSPropertyOp13
 70
     1
102
RTVSPropertyOp14
 70
     1
102
RTVSPropertyOp15
 70
     1
102
RTVSPropertyOp16
 70
     1
102
RTVSPropertyOp17
 70
     1
102
RTVSPropertyOp18
 70
     1
102
RTVSPropertyOp19
 70
     1
102
RTVSPropertyOp20
 70
     1
102
RTVSPropertyOp21
 70
     1
102
RTVSPropertyOp22
 70
     1
102
RTVSPropertyOp23
 70
     1
102
RTVSPropertyOp24
 70
     1
102
RTVSPropertyOp25
 70
     1
102
RTVSPropertyOp26
 70
     1
102
RTVSPropertyOp27
 70
     1
102
RTVSPropertyOp28
 70
     1
102
RTVSPropertyOp29
 70
     1
102
RTVSPropertyOp30
 70
     1
102
RTVSPropertyOp31
 70
     1
102
RTVSPropertyOp32
 70
     1
  0
XRECORD
  5
1A87
102
{ACAD_REACTORS
330
1A86
102
}
330
1A86
100
AcDbXrecord
280
     1
102
RTVSPropertyOp0
 70
     1
102
RTVSPropertyOp1
 70
     1
102
RTVSPropertyOp2
 70
     1
102
RTVSPropertyOp3
 70
     1
102
RTVSPropertyOp4
 70
     1
102
RTVSPropertyOp5
 70
     1
102
RTVSPropertyOp6
 70
     1
102
RTVSPropertyOp7
 70
     1
102
RTVSPropertyOp8
 70
     1
102
RTVSPropertyOp9
 70
     1
102
RTVSPropertyOp10
 70
     1
102
RTVSPropertyOp11
 70
     1
102
RTVSPropertyOp12
 70
     1
102
RTVSPropertyOp13
 70
     1
102
RTVSPropertyOp14
 70
     1
102
RTVSPropertyOp15
 70
     1
102
RTVSPropertyOp16
 70
     1
102
RTVSPropertyOp17
 70
     1
102
RTVSPropertyOp18
 70
     1
102
RTVSPropertyOp19
 70
     1
102
RTVSPropertyOp20
 70
     1
102
RTVSPropertyOp21
 70
     1
102
RTVSPropertyOp22
 70
     1
102
RTVSPropertyOp23
 70
     1
102
RTVSPropertyOp24
 70
     1
102
RTVSPropertyOp25
 70
     1
102
RTVSPropertyOp26
 70
     1
102
RTVSPropertyOp27
 70
     1
102
RTVSPropertyOp28
 70
     1
102
RTVSPropertyOp29
 70
     1
102
RTVSPropertyOp30
 70
     1
102
RTVSPropertyOp31
 70
     1
102
RTVSPropertyOp32
 70
     1
  0
XRECORD
  5
1A8F
102
{ACAD_REACTORS
330
1A8E
102
}
330
1A8E
100
AcDbXrecord
280
     1
102
RTVSPropertyOp0
 70
     1
102
RTVSPropertyOp1
 70
     1
102
RTVSPropertyOp2
 70
     1
102
RTVSPropertyOp3
 70
     1
102
RTVSPropertyOp4
 70
     1
102
RTVSPropertyOp5
 70
     1
102
RTVSPropertyOp6
 70
     1
102
RTVSPropertyOp7
 70
     1
102
RTVSPropertyOp8
 70
     1
102
RTVSPropertyOp9
 70
     1
102
RTVSPropertyOp10
 70
     1
102
RTVSPropertyOp11
 70
     1
102
RTVSPropertyOp12
 70
     1
102
RTVSPropertyOp13
 70
     1
102
RTVSPropertyOp14
 70
     1
102
RTVSPropertyOp15
 70
     1
102
RTVSPropertyOp16
 70
     1
102
RTVSPropertyOp17
 70
     1
102
RTVSPropertyOp18
 70
     1
102
RTVSPropertyOp19
 70
     1
102
RTVSPropertyOp20
 70
     1
102
RTVSPropertyOp21
 70
     1
102
RTVSPropertyOp22
 70
     1
102
RTVSPropertyOp23
 70
     1
102
RTVSPropertyOp24
 70
     1
102
RTVSPropertyOp25
 70
     1
102
RTVSPropertyOp26
 70
     1
102
RTVSPropertyOp27
 70
     1
102
RTVSPropertyOp28
 70
     1
102
RTVSPropertyOp29
 70
     1
102
RTVSPropertyOp30
 70
     1
102
RTVSPropertyOp31
 70
     1
102
RTVSPropertyOp32
 70
     1
  0
XRECORD
  5
1A81
102
{ACAD_REACTORS
330
1A80
102
}
330
1A80
100
AcDbXrecord
280
     1
102
RTVSPropertyOp0
 70
     1
102
RTVSPropertyOp1
 70
     1
102
RTVSPropertyOp2
 70
     1
102
RTVSPropertyOp3
 70
     1
102
RTVSPropertyOp4
 70
     1
102
RTVSPropertyOp5
 70
     1
102
RTVSPropertyOp6
 70
     1
102
RTVSPropertyOp7
 70
     1
102
RTVSPropertyOp8
 70
     1
102
RTVSPropertyOp9
 70
     1
102
RTVSPropertyOp10
 70
     1
102
RTVSPropertyOp11
 70
     1
102
RTVSPropertyOp12
 70
     1
102
RTVSPropertyOp13
 70
     1
102
RTVSPropertyOp14
 70
     1
102
RTVSPropertyOp15
 70
     1
102
RTVSPropertyOp16
 70
     1
102
RTVSPropertyOp17
 70
     1
102
RTVSPropertyOp18
 70
     1
102
RTVSPropertyOp19
 70
     1
102
RTVSPropertyOp20
 70
     1
102
RTVSPropertyOp21
 70
     1
102
RTVSPropertyOp22
 70
     1
102
RTVSPropertyOp23
 70
     1
102
RTVSPropertyOp24
 70
     1
102
RTVSPropertyOp25
 70
     1
102
RTVSPropertyOp26
 70
     1
102
RTVSPropertyOp27
 70
     1
102
RTVSPropertyOp28
 70
     1
102
RTVSPropertyOp29
 70
     1
102
RTVSPropertyOp30
 70
     1
102
RTVSPropertyOp31
 70
     1
102
RTVSPropertyOp32
 70
     1
  0
XRECORD
  5
1A85
102
{ACAD_REACTORS
330
1A84
102
}
330
1A84
100
AcDbXrecord
280
     1
102
RTVSPropertyOp0
 70
     1
102
RTVSPropertyOp1
 70
     1
102
RTVSPropertyOp2
 70
     1
102
RTVSPropertyOp3
 70
     1
102
RTVSPropertyOp4
 70
     1
102
RTVSPropertyOp5
 70
     1
102
RTVSPropertyOp6
 70
     1
102
RTVSPropertyOp7
 70
     1
102
RTVSPropertyOp8
 70
     1
102
RTVSPropertyOp9
 70
     1
102
RTVSPropertyOp10
 70
     1
102
RTVSPropertyOp11
 70
     1
102
RTVSPropertyOp12
 70
     1
102
RTVSPropertyOp13
 70
     1
102
RTVSPropertyOp14
 70
     1
102
RTVSPropertyOp15
 70
     1
102
RTVSPropertyOp16
 70
     1
102
RTVSPropertyOp17
 70
     1
102
RTVSPropertyOp18
 70
     1
102
RTVSPropertyOp19
 70
     1
102
RTVSPropertyOp20
 70
     1
102
RTVSPropertyOp21
 70
     1
102
RTVSPropertyOp22
 70
     1
102
RTVSPropertyOp23
 70
     1
102
RTVSPropertyOp24
 70
     1
102
RTVSPropertyOp25
 70
     1
102
RTVSPropertyOp26
 70
     1
102
RTVSPropertyOp27
 70
     1
102
RTVSPropertyOp28
 70
     1
102
RTVSPropertyOp29
 70
     1
102
RTVSPropertyOp30
 70
     1
102
RTVSPropertyOp31
 70
     1
102
RTVSPropertyOp32
 70
     1
  0
XRECORD
  5
1A9F
102
{ACAD_REACTORS
330
1A9E
102
}
330
1A9E
100
AcDbXrecord
280
     1
102
RTVSPropertyOp0
 70
     0
102
RTVSPropertyOp1
 70
     0
102
RTVSPropertyOp2
 70
     0
102
RTVSPropertyOp3
 70
     0
102
RTVSPropertyOp4
 70
     0
102
RTVSPropertyOp5
 70
     0
102
RTVSPropertyOp6
 70
     0
102
RTVSPropertyOp7
 70
     0
102
RTVSPropertyOp8
 70
     0
102
RTVSPropertyOp9
 70
     0
102
RTVSPropertyOp10
 70
     0
102
RTVSPropertyOp11
 70
     0
102
RTVSPropertyOp12
 70
     0
102
RTVSPropertyOp13
 70
     0
102
RTVSPropertyOp14
 70
     2
102
RTVSPropertyOp15
 70
     0
102
RTVSPropertyOp16
 70
     0
102
RTVSPropertyOp17
 70
     0
102
RTVSPropertyOp18
 70
     0
102
RTVSPropertyOp19
 70
     0
102
RTVSPropertyOp20
 70
     0
102
RTVSPropertyOp21
 70
     0
102
RTVSPropertyOp22
 70
     0
102
RTVSPropertyOp23
 70
     0
102
RTVSPropertyOp24
 70
     0
102
RTVSPropertyOp25
 70
     0
102
RTVSPropertyOp26
 70
     0
102
RTVSPropertyOp27
 70
     0
102
RTVSPropertyOp28
 70
     1
102
RTVSPropertyOp29
 70
     1
102
RTVSPropertyOp30
 70
     1
102
RTVSPropertyOp31
 70
     1
102
RTVSPropertyOp32
 70
     1
  0
XRECORD
  5
1A8D
102
{ACAD_REACTORS
330
1A8C
102
}
330
1A8C
100
AcDbXrecord
280
     1
102
RTVSPropertyOp0
 70
     1
102
RTVSPropertyOp1
 70
     1
102
RTVSPropertyOp2
 70
     1
102
RTVSPropertyOp3
 70
     1
102
RTVSPropertyOp4
 70
     1
102
RTVSPropertyOp5
 70
     1
102
RTVSPropertyOp6
 70
     1
102
RTVSPropertyOp7
 70
     1
102
RTVSPropertyOp8
 70
     1
102
RTVSPropertyOp9
 70
     1
102
RTVSPropertyOp10
 70
     1
102
RTVSPropertyOp11
 70
     1
102
RTVSPropertyOp12
 70
     1
102
RTVSPropertyOp13
 70
     1
102
RTVSPropertyOp14
 70
     1
102
RTVSPropertyOp15
 70
     1
102
RTVSPropertyOp16
 70
     1
102
RTVSPropertyOp17
 70
     1
102
RTVSPropertyOp18
 70
     1
102
RTVSPropertyOp19
 70
     1
102
RTVSPropertyOp20
 70
     1
102
RTVSPropertyOp21
 70
     1
102
RTVSPropertyOp22
 70
     1
102
RTVSPropertyOp23
 70
     1
102
RTVSPropertyOp24
 70
     1
102
RTVSPropertyOp25
 70
     1
102
RTVSPropertyOp26
 70
     1
102
RTVSPropertyOp27
 70
     1
102
RTVSPropertyOp28
 70
     1
102
RTVSPropertyOp29
 70
     1
102
RTVSPropertyOp30
 70
     1
102
RTVSPropertyOp31
 70
     1
102
RTVSPropertyOp32
 70
     1
  0
XRECORD
  5
1A71
102
{ACAD_REACTORS
330
1A70
102
}
330
1A70
100
AcDbXrecord
280
     1
102
RTVSPropertyOp0
 70
     1
102
RTVSPropertyOp1
 70
     1
102
RTVSPropertyOp2
 70
     1
102
RTVSPropertyOp3
 70
     1
102
RTVSPropertyOp4
 70
     1
102
RTVSPropertyOp5
 70
     1
102
RTVSPropertyOp6
 70
     1
102
RTVSPropertyOp7
 70
     1
102
RTVSPropertyOp8
 70
     1
102
RTVSPropertyOp9
 70
     1
102
RTVSPropertyOp10
 70
     1
102
RTVSPropertyOp11
 70
     1
102
RTVSPropertyOp12
 70
     1
102
RTVSPropertyOp13
 70
     1
102
RTVSPropertyOp14
 70
     1
102
RTVSPropertyOp15
 70
     1
102
RTVSPropertyOp16
 70
     1
102
RTVSPropertyOp17
 70
     1
102
RTVSPropertyOp18
 70
     1
102
RTVSPropertyOp19
 70
     1
102
RTVSPropertyOp20
 70
     1
102
RTVSPropertyOp21
 70
     1
102
RTVSPropertyOp22
 70
     1
102
RTVSPropertyOp23
 70
     1
102
RTVSPropertyOp24
 70
     1
102
RTVSPropertyOp25
 70
     1
102
RTVSPropertyOp26
 70
     1
102
RTVSPropertyOp27
 70
     1
102
RTVSPropertyOp28
 70
     1
102
RTVSPropertyOp29
 70
     1
102
RTVSPropertyOp30
 70
     1
102
RTVSPropertyOp31
 70
     1
102
RTVSPropertyOp32
 70
     1
  0
XRECORD
  5
1A73
102
{ACAD_REACTORS
330
1A72
102
}
330
1A72
100
AcDbXrecord
280
     1
102
RTVSPropertyOp0
 70
     1
102
RTVSPropertyOp1
 70
     1
102
RTVSPropertyOp2
 70
     1
102
RTVSPropertyOp3
 70
     1
102
RTVSPropertyOp4
 70
     1
102
RTVSPropertyOp5
 70
     1
102
RTVSPropertyOp6
 70
     1
102
RTVSPropertyOp7
 70
     1
102
RTVSPropertyOp8
 70
     1
102
RTVSPropertyOp9
 70
     1
102
RTVSPropertyOp10
 70
     1
102
RTVSPropertyOp11
 70
     1
102
RTVSPropertyOp12
 70
     1
102
RTVSPropertyOp13
 70
     1
102
RTVSPropertyOp14
 70
     1
102
RTVSPropertyOp15
 70
     1
102
RTVSPropertyOp16
 70
     1
102
RTVSPropertyOp17
 70
     1
102
RTVSPropertyOp18
 70
     1
102
RTVSPropertyOp19
 70
     1
102
RTVSPropertyOp20
 70
     1
102
RTVSPropertyOp21
 70
     1
102
RTVSPropertyOp22
 70
     1
102
RTVSPropertyOp23
 70
     1
102
RTVSPropertyOp24
 70
     1
102
RTVSPropertyOp25
 70
     1
102
RTVSPropertyOp26
 70
     1
102
RTVSPropertyOp27
 70
     1
102
RTVSPropertyOp28
 70
     1
102
RTVSPropertyOp29
 70
     1
102
RTVSPropertyOp30
 70
     1
102
RTVSPropertyOp31
 70
     1
102
RTVSPropertyOp32
 70
     1
  0
XRECORD
  5
1A75
102
{ACAD_REACTORS
330
1A74
102
}
330
1A74
100
AcDbXrecord
280
     1
102
RTVSPropertyOp0
 70
     1
102
RTVSPropertyOp1
 70
     1
102
RTVSPropertyOp2
 70
     1
102
RTVSPropertyOp3
 70
     1
102
RTVSPropertyOp4
 70
     1
102
RTVSPropertyOp5
 70
     1
102
RTVSPropertyOp6
 70
     1
102
RTVSPropertyOp7
 70
     1
102
RTVSPropertyOp8
 70
     1
102
RTVSPropertyOp9
 70
     1
102
RTVSPropertyOp10
 70
     1
102
RTVSPropertyOp11
 70
     1
102
RTVSPropertyOp12
 70
     1
102
RTVSPropertyOp13
 70
     1
102
RTVSPropertyOp14
 70
     1
102
RTVSPropertyOp15
 70
     1
102
RTVSPropertyOp16
 70
     1
102
RTVSPropertyOp17
 70
     1
102
RTVSPropertyOp18
 70
     1
102
RTVSPropertyOp19
 70
     1
102
RTVSPropertyOp20
 70
     1
102
RTVSPropertyOp21
 70
     1
102
RTVSPropertyOp22
 70
     1
102
RTVSPropertyOp23
 70
     1
102
RTVSPropertyOp24
 70
     1
102
RTVSPropertyOp25
 70
     1
102
RTVSPropertyOp26
 70
     1
102
RTVSPropertyOp27
 70
     1
102
RTVSPropertyOp28
 70
     1
102
RTVSPropertyOp29
 70
     1
102
RTVSPropertyOp30
 70
     1
102
RTVSPropertyOp31
 70
     1
102
RTVSPropertyOp32
 70
     1
  0
XRECORD
  5
1A77
102
{ACAD_REACTORS
330
1A76
102
}
330
1A76
100
AcDbXrecord
280
     1
102
RTVSPropertyOp0
 70
     1
102
RTVSPropertyOp1
 70
     1
102
RTVSPropertyOp2
 70
     1
102
RTVSPropertyOp3
 70
     1
102
RTVSPropertyOp4
 70
     1
102
RTVSPropertyOp5
 70
     1
102
RTVSPropertyOp6
 70
     1
102
RTVSPropertyOp7
 70
     1
102
RTVSPropertyOp8
 70
     1
102
RTVSPropertyOp9
 70
     1
102
RTVSPropertyOp10
 70
     1
102
RTVSPropertyOp11
 70
     1
102
RTVSPropertyOp12
 70
     1
102
RTVSPropertyOp13
 70
     1
102
RTVSPropertyOp14
 70
     1
102
RTVSPropertyOp15
 70
     1
102
RTVSPropertyOp16
 70
     1
102
RTVSPropertyOp17
 70
     1
102
RTVSPropertyOp18
 70
     1
102
RTVSPropertyOp19
 70
     1
102
RTVSPropertyOp20
 70
     1
102
RTVSPropertyOp21
 70
     1
102
RTVSPropertyOp22
 70
     1
102
RTVSPropertyOp23
 70
     1
102
RTVSPropertyOp24
 70
     1
102
RTVSPropertyOp25
 70
     1
102
RTVSPropertyOp26
 70
     1
102
RTVSPropertyOp27
 70
     1
102
RTVSPropertyOp28
 70
     1
102
RTVSPropertyOp29
 70
     1
102
RTVSPropertyOp30
 70
     1
102
RTVSPropertyOp31
 70
     1
102
RTVSPropertyOp32
 70
     1
  0
XRECORD
  5
1A7F
102
{ACAD_REACTORS
330
1A7E
102
}
330
1A7E
100
AcDbXrecord
280
     1
102
RTVSPropertyOp0
 70
     1
102
RTVSPropertyOp1
 70
     1
102
RTVSPropertyOp2
 70
     1
102
RTVSPropertyOp3
 70
     1
102
RTVSPropertyOp4
 70
     1
102
RTVSPropertyOp5
 70
     1
102
RTVSPropertyOp6
 70
     1
102
RTVSPropertyOp7
 70
     1
102
RTVSPropertyOp8
 70
     1
102
RTVSPropertyOp9
 70
     1
102
RTVSPropertyOp10
 70
     1
102
RTVSPropertyOp11
 70
     1
102
RTVSPropertyOp12
 70
     1
102
RTVSPropertyOp13
 70
     1
102
RTVSPropertyOp14
 70
     1
102
RTVSPropertyOp15
 70
     1
102
RTVSPropertyOp16
 70
     1
102
RTVSPropertyOp17
 70
     1
102
RTVSPropertyOp18
 70
     1
102
RTVSPropertyOp19
 70
     1
102
RTVSPropertyOp20
 70
     1
102
RTVSPropertyOp21
 70
     1
102
RTVSPropertyOp22
 70
     1
102
RTVSPropertyOp23
 70
     1
102
RTVSPropertyOp24
 70
     1
102
RTVSPropertyOp25
 70
     1
102
RTVSPropertyOp26
 70
     1
102
RTVSPropertyOp27
 70
     1
102
RTVSPropertyOp28
 70
     1
102
RTVSPropertyOp29
 70
     1
102
RTVSPropertyOp30
 70
     1
102
RTVSPropertyOp31
 70
     1
102
RTVSPropertyOp32
 70
     1
  0
XRECORD
  5
1A9B
102
{ACAD_REACTORS
330
1A9A
102
}
330
1A9A
100
AcDbXrecord
280
     1
102
RTVSPropertyOp0
 70
     0
102
RTVSPropertyOp1
 70
     0
102
RTVSPropertyOp2
 70
     0
102
RTVSPropertyOp3
 70
     0
102
RTVSPropertyOp4
 70
     0
102
RTVSPropertyOp5
 70
     0
102
RTVSPropertyOp6
 70
     0
102
RTVSPropertyOp7
 70
     0
102
RTVSPropertyOp8
 70
     0
102
RTVSPropertyOp9
 70
     0
102
RTVSPropertyOp10
 70
     0
102
RTVSPropertyOp11
 70
     0
102
RTVSPropertyOp12
 70
     0
102
RTVSPropertyOp13
 70
     0
102
RTVSPropertyOp14
 70
     2
102
RTVSPropertyOp15
 70
     0
102
RTVSPropertyOp16
 70
     0
102
RTVSPropertyOp17
 70
     0
102
RTVSPropertyOp18
 70
     0
102
RTVSPropertyOp19
 70
     0
102
RTVSPropertyOp20
 70
     0
102
RTVSPropertyOp21
 70
     0
102
RTVSPropertyOp22
 70
     0
102
RTVSPropertyOp23
 70
     0
102
RTVSPropertyOp24
 70
     0
102
RTVSPropertyOp25
 70
     0
102
RTVSPropertyOp26
 70
     0
102
RTVSPropertyOp27
 70
     0
102
RTVSPropertyOp28
 70
     1
102
RTVSPropertyOp29
 70
     1
102
RTVSPropertyOp30
 70
     1
102
RTVSPropertyOp31
 70
     1
102
RTVSPropertyOp32
 70
     1
  0
XRECORD
  5
1A8B
102
{ACAD_REACTORS
330
1A8A
102
}
330
1A8A
100
AcDbXrecord
280
     1
102
RTVSPropertyOp0
 70
     1
102
RTVSPropertyOp1
 70
     1
102
RTVSPropertyOp2
 70
     1
102
RTVSPropertyOp3
 70
     1
102
RTVSPropertyOp4
 70
     1
102
RTVSPropertyOp5
 70
     1
102
RTVSPropertyOp6
 70
     1
102
RTVSPropertyOp7
 70
     1
102
RTVSPropertyOp8
 70
     1
102
RTVSPropertyOp9
 70
     1
102
RTVSPropertyOp10
 70
     1
102
RTVSPropertyOp11
 70
     1
102
RTVSPropertyOp12
 70
     1
102
RTVSPropertyOp13
 70
     1
102
RTVSPropertyOp14
 70
     1
102
RTVSPropertyOp15
 70
     1
102
RTVSPropertyOp16
 70
     1
102
RTVSPropertyOp17
 70
     1
102
RTVSPropertyOp18
 70
     1
102
RTVSPropertyOp19
 70
     1
102
RTVSPropertyOp20
 70
     1
102
RTVSPropertyOp21
 70
     1
102
RTVSPropertyOp22
 70
     1
102
RTVSPropertyOp23
 70
     1
102
RTVSPropertyOp24
 70
     1
102
RTVSPropertyOp25
 70
     1
102
RTVSPropertyOp26
 70
     1
102
RTVSPropertyOp27
 70
     1
102
RTVSPropertyOp28
 70
     1
102
RTVSPropertyOp29
 70
     1
102
RTVSPropertyOp30
 70
     1
102
RTVSPropertyOp31
 70
     1
102
RTVSPropertyOp32
 70
     1
  0
XRECORD
  5
1A9D
102
{ACAD_REACTORS
330
1A9C
102
}
330
1A9C
100
AcDbXrecord
280
     1
102
RTVSPropertyOp0
 70
     0
102
RTVSPropertyOp1
 70
     0
102
RTVSPropertyOp2
 70
     0
102
RTVSPropertyOp3
 70
     0
102
RTVSPropertyOp4
 70
     0
102
RTVSPropertyOp5
 70
     0
102
RTVSPropertyOp6
 70
     0
102
RTVSPropertyOp7
 70
     0
102
RTVSPropertyOp8
 70
     0
102
RTVSPropertyOp9
 70
     0
102
RTVSPropertyOp10
 70
     0
102
RTVSPropertyOp11
 70
     0
102
RTVSPropertyOp12
 70
     0
102
RTVSPropertyOp13
 70
     0
102
RTVSPropertyOp14
 70
     2
102
RTVSPropertyOp15
 70
     0
102
RTVSPropertyOp16
 70
     0
102
RTVSPropertyOp17
 70
     0
102
RTVSPropertyOp18
 70
     0
102
RTVSPropertyOp19
 70
     0
102
RTVSPropertyOp20
 70
     0
102
RTVSPropertyOp21
 70
     0
102
RTVSPropertyOp22
 70
     0
102
RTVSPropertyOp23
 70
     0
102
RTVSPropertyOp24
 70
     0
102
RTVSPropertyOp25
 70
     0
102
RTVSPropertyOp26
 70
     0
102
RTVSPropertyOp27
 70
     0
102
RTVSPropertyOp28
 70
     1
102
RTVSPropertyOp29
 70
     1
102
RTVSPropertyOp30
 70
     1
102
RTVSPropertyOp31
 70
     1
102
RTVSPropertyOp32
 70
     1
  0
XRECORD
  5
1A83
102
{ACAD_REACTORS
330
1A82
102
}
330
1A82
100
AcDbXrecord
280
     1
102
RTVSPropertyOp0
 70
     1
102
RTVSPropertyOp1
 70
     1
102
RTVSPropertyOp2
 70
     1
102
RTVSPropertyOp3
 70
     1
102
RTVSPropertyOp4
 70
     1
102
RTVSPropertyOp5
 70
     1
102
RTVSPropertyOp6
 70
     1
102
RTVSPropertyOp7
 70
     1
102
RTVSPropertyOp8
 70
     1
102
RTVSPropertyOp9
 70
     1
102
RTVSPropertyOp10
 70
     1
102
RTVSPropertyOp11
 70
     1
102
RTVSPropertyOp12
 70
     1
102
RTVSPropertyOp13
 70
     1
102
RTVSPropertyOp14
 70
     1
102
RTVSPropertyOp15
 70
     1
102
RTVSPropertyOp16
 70
     1
102
RTVSPropertyOp17
 70
     1
102
RTVSPropertyOp18
 70
     1
102
RTVSPropertyOp19
 70
     1
102
RTVSPropertyOp20
 70
     1
102
RTVSPropertyOp21
 70
     1
102
RTVSPropertyOp22
 70
     1
102
RTVSPropertyOp23
 70
     1
102
RTVSPropertyOp24
 70
     1
102
RTVSPropertyOp25
 70
     1
102
RTVSPropertyOp26
 70
     1
102
RTVSPropertyOp27
 70
     1
102
RTVSPropertyOp28
 70
     1
102
RTVSPropertyOp29
 70
     1
102
RTVSPropertyOp30
 70
     1
102
RTVSPropertyOp31
 70
     1
102
RTVSPropertyOp32
 70
     1
  0
XRECORD
  5
1A99
102
{ACAD_REACTORS
330
1A98
102
}
330
1A98
100
AcDbXrecord
280
     1
102
RTVSPropertyOp0
 70
     1
102
RTVSPropertyOp1
 70
     1
102
RTVSPropertyOp2
 70
     1
102
RTVSPropertyOp3
 70
     1
102
RTVSPropertyOp4
 70
     1
102
RTVSPropertyOp5
 70
     1
102
RTVSPropertyOp6
 70
     1
102
RTVSPropertyOp7
 70
     1
102
RTVSPropertyOp8
 70
     1
102
RTVSPropertyOp9
 70
     1
102
RTVSPropertyOp10
 70
     1
102
RTVSPropertyOp11
 70
     1
102
RTVSPropertyOp12
 70
     1
102
RTVSPropertyOp13
 70
     1
102
RTVSPropertyOp14
 70
     1
102
RTVSPropertyOp15
 70
     1
102
RTVSPropertyOp16
 70
     1
102
RTVSPropertyOp17
 70
     1
102
RTVSPropertyOp18
 70
     1
102
RTVSPropertyOp19
 70
     1
102
RTVSPropertyOp20
 70
     1
102
RTVSPropertyOp21
 70
     1
102
RTVSPropertyOp22
 70
     1
102
RTVSPropertyOp23
 70
     1
102
RTVSPropertyOp24
 70
     1
102
RTVSPropertyOp25
 70
     1
102
RTVSPropertyOp26
 70
     1
102
RTVSPropertyOp27
 70
     1
102
RTVSPropertyOp28
 70
     1
102
RTVSPropertyOp29
 70
     1
102
RTVSPropertyOp30
 70
     1
102
RTVSPropertyOp31
 70
     1
102
RTVSPropertyOp32
 70
     1
  0
XRECORD
  5
1A97
102
{ACAD_REACTORS
330
1A96
102
}
330
1A96
100
AcDbXrecord
280
     1
102
RTVSPropertyOp0
 70
     1
102
RTVSPropertyOp1
 70
     1
102
RTVSPropertyOp2
 70
     1
102
RTVSPropertyOp3
 70
     1
102
RTVSPropertyOp4
 70
     1
102
RTVSPropertyOp5
 70
     1
102
RTVSPropertyOp6
 70
     1
102
RTVSPropertyOp7
 70
     1
102
RTVSPropertyOp8
 70
     1
102
RTVSPropertyOp9
 70
     1
102
RTVSPropertyOp10
 70
     1
102
RTVSPropertyOp11
 70
     1
102
RTVSPropertyOp12
 70
     1
102
RTVSPropertyOp13
 70
     1
102
RTVSPropertyOp14
 70
     1
102
RTVSPropertyOp15
 70
     1
102
RTVSPropertyOp16
 70
     1
102
RTVSPropertyOp17
 70
     1
102
RTVSPropertyOp18
 70
     1
102
RTVSPropertyOp19
 70
     1
102
RTVSPropertyOp20
 70
     1
102
RTVSPropertyOp21
 70
     1
102
RTVSPropertyOp22
 70
     1
102
RTVSPropertyOp23
 70
     1
102
RTVSPropertyOp24
 70
     1
102
RTVSPropertyOp25
 70
     1
102
RTVSPropertyOp26
 70
     1
102
RTVSPropertyOp27
 70
     1
102
RTVSPropertyOp28
 70
     1
102
RTVSPropertyOp29
 70
     1
102
RTVSPropertyOp30
 70
     1
102
RTVSPropertyOp31
 70
     1
102
RTVSPropertyOp32
 70
     1
  0
XRECORD
  5
1A91
102
{ACAD_REACTORS
330
1A90
102
}
330
1A90
100
AcDbXrecord
280
     1
102
RTVSPropertyOp0
 70
     1
102
RTVSPropertyOp1
 70
     1
102
RTVSPropertyOp2
 70
     1
102
RTVSPropertyOp3
 70
     1
102
RTVSPropertyOp4
 70
     1
102
RTVSPropertyOp5
 70
     1
102
RTVSPropertyOp6
 70
     1
102
RTVSPropertyOp7
 70
     1
102
RTVSPropertyOp8
 70
     1
102
RTVSPropertyOp9
 70
     1
102
RTVSPropertyOp10
 70
     1
102
RTVSPropertyOp11
 70
     1
102
RTVSPropertyOp12
 70
     1
102
RTVSPropertyOp13
 70
     1
102
RTVSPropertyOp14
 70
     1
102
RTVSPropertyOp15
 70
     1
102
RTVSPropertyOp16
 70
     1
102
RTVSPropertyOp17
 70
     1
102
RTVSPropertyOp18
 70
     1
102
RTVSPropertyOp19
 70
     1
102
RTVSPropertyOp20
 70
     1
102
RTVSPropertyOp21
 70
     1
102
RTVSPropertyOp22
 70
     1
102
RTVSPropertyOp23
 70
     1
102
RTVSPropertyOp24
 70
     1
102
RTVSPropertyOp25
 70
     1
102
RTVSPropertyOp26
 70
     1
102
RTVSPropertyOp27
 70
     1
102
RTVSPropertyOp28
 70
     1
102
RTVSPropertyOp29
 70
     1
102
RTVSPropertyOp30
 70
     1
102
RTVSPropertyOp31
 70
     1
102
RTVSPropertyOp32
 70
     1
  0
XRECORD
  5
1A93
102
{ACAD_REACTORS
330
1A92
102
}
330
1A92
100
AcDbXrecord
280
     1
102
RTVSPropertyOp0
 70
     1
102
RTVSPropertyOp1
 70
     1
102
RTVSPropertyOp2
 70
     1
102
RTVSPropertyOp3
 70
     1
102
RTVSPropertyOp4
 70
     1
102
RTVSPropertyOp5
 70
     1
102
RTVSPropertyOp6
 70
     1
102
RTVSPropertyOp7
 70
     1
102
RTVSPropertyOp8
 70
     1
102
RTVSPropertyOp9
 70
     1
102
RTVSPropertyOp10
 70
     1
102
RTVSPropertyOp11
 70
     1
102
RTVSPropertyOp12
 70
     1
102
RTVSPropertyOp13
 70
     1
102
RTVSPropertyOp14
 70
     1
102
RTVSPropertyOp15
 70
     1
102
RTVSPropertyOp16
 70
     1
102
RTVSPropertyOp17
 70
     1
102
RTVSPropertyOp18
 70
     1
102
RTVSPropertyOp19
 70
     1
102
RTVSPropertyOp20
 70
     1
102
RTVSPropertyOp21
 70
     1
102
RTVSPropertyOp22
 70
     1
102
RTVSPropertyOp23
 70
     1
102
RTVSPropertyOp24
 70
     1
102
RTVSPropertyOp25
 70
     1
102
RTVSPropertyOp26
 70
     1
102
RTVSPropertyOp27
 70
     1
102
RTVSPropertyOp28
 70
     1
102
RTVSPropertyOp29
 70
     1
102
RTVSPropertyOp30
 70
     1
102
RTVSPropertyOp31
 70
     1
102
RTVSPropertyOp32
 70
     1
  0
XRECORD
  5
1A89
102
{ACAD_REACTORS
330
1A88
102
}
330
1A88
100
AcDbXrecord
280
     1
102
RTVSPropertyOp0
 70
     1
102
RTVSPropertyOp1
 70
     1
102
RTVSPropertyOp2
 70
     1
102
RTVSPropertyOp3
 70
     1
102
RTVSPropertyOp4
 70
     1
102
RTVSPropertyOp5
 70
     1
102
RTVSPropertyOp6
 70
     1
102
RTVSPropertyOp7
 70
     1
102
RTVSPropertyOp8
 70
     1
102
RTVSPropertyOp9
 70
     1
102
RTVSPropertyOp10
 70
     1
102
RTVSPropertyOp11
 70
     1
102
RTVSPropertyOp12
 70
     1
102
RTVSPropertyOp13
 70
     1
102
RTVSPropertyOp14
 70
     1
102
RTVSPropertyOp15
 70
     1
102
RTVSPropertyOp16
 70
     1
102
RTVSPropertyOp17
 70
     1
102
RTVSPropertyOp18
 70
     1
102
RTVSPropertyOp19
 70
     1
102
RTVSPropertyOp20
 70
     1
102
RTVSPropertyOp21
 70
     1
102
RTVSPropertyOp22
 70
     1
102
RTVSPropertyOp23
 70
     1
102
RTVSPropertyOp24
 70
     1
102
RTVSPropertyOp25
 70
     1
102
RTVSPropertyOp26
 70
     1
102
RTVSPropertyOp27
 70
     1
102
RTVSPropertyOp28
 70
     1
102
RTVSPropertyOp29
 70
     1
102
RTVSPropertyOp30
 70
     1
102
RTVSPropertyOp31
 70
     1
102
RTVSPropertyOp32
 70
     1
  0
XRECORD
  5
1A7D
102
{ACAD_REACTORS
330
1A7C
102
}
330
1A7C
100
AcDbXrecord
280
     1
102
RTVSPropertyOp0
 70
     1
102
RTVSPropertyOp1
 70
     1
102
RTVSPropertyOp2
 70
     1
102
RTVSPropertyOp3
 70
     1
102
RTVSPropertyOp4
 70
     1
102
RTVSPropertyOp5
 70
     1
102
RTVSPropertyOp6
 70
     1
102
RTVSPropertyOp7
 70
     1
102
RTVSPropertyOp8
 70
     1
102
RTVSPropertyOp9
 70
     1
102
RTVSPropertyOp10
 70
     1
102
RTVSPropertyOp11
 70
     1
102
RTVSPropertyOp12
 70
     1
102
RTVSPropertyOp13
 70
     1
102
RTVSPropertyOp14
 70
     1
102
RTVSPropertyOp15
 70
     1
102
RTVSPropertyOp16
 70
     1
102
RTVSPropertyOp17
 70
     1
102
RTVSPropertyOp18
 70
     1
102
RTVSPropertyOp19
 70
     1
102
RTVSPropertyOp20
 70
     1
102
RTVSPropertyOp21
 70
     1
102
RTVSPropertyOp22
 70
     1
102
RTVSPropertyOp23
 70
     1
102
RTVSPropertyOp24
 70
     1
102
RTVSPropertyOp25
 70
     1
102
RTVSPropertyOp26
 70
     1
102
RTVSPropertyOp27
 70
     1
102
RTVSPropertyOp28
 70
     1
102
RTVSPropertyOp29
 70
     1
102
RTVSPropertyOp30
 70
     1
102
RTVSPropertyOp31
 70
     1
102
RTVSPropertyOp32
 70
     1
  0
XRECORD
  5
1A95
102
{ACAD_REACTORS
330
1A94
102
}
330
1A94
100
AcDbXrecord
280
     1
102
RTVSPropertyOp0
 70
     1
102
RTVSPropertyOp1
 70
     1
102
RTVSPropertyOp2
 70
     1
102
RTVSPropertyOp3
 70
     1
102
RTVSPropertyOp4
 70
     1
102
RTVSPropertyOp5
 70
     1
102
RTVSPropertyOp6
 70
     1
102
RTVSPropertyOp7
 70
     1
102
RTVSPropertyOp8
 70
     1
102
RTVSPropertyOp9
 70
     1
102
RTVSPropertyOp10
 70
     1
102
RTVSPropertyOp11
 70
     1
102
RTVSPropertyOp12
 70
     1
102
RTVSPropertyOp13
 70
     1
102
RTVSPropertyOp14
 70
     1
102
RTVSPropertyOp15
 70
     1
102
RTVSPropertyOp16
 70
     1
102
RTVSPropertyOp17
 70
     1
102
RTVSPropertyOp18
 70
     1
102
RTVSPropertyOp19
 70
     1
102
RTVSPropertyOp20
 70
     1
102
RTVSPropertyOp21
 70
     1
102
RTVSPropertyOp22
 70
     1
102
RTVSPropertyOp23
 70
     1
102
RTVSPropertyOp24
 70
     1
102
RTVSPropertyOp25
 70
     1
102
RTVSPropertyOp26
 70
     1
102
RTVSPropertyOp27
 70
     1
102
RTVSPropertyOp28
 70
     1
102
RTVSPropertyOp29
 70
     1
102
RTVSPropertyOp30
 70
     1
102
RTVSPropertyOp31
 70
     1
102
RTVSPropertyOp32
 70
     1
  0
ENDSEC
  0
EOF
