  0
SECTION
  2
HEADER
  9
$ACADVER
  1
AC1015
  9
$ACADMAINTVER
 70
    20
  9
$DWGCODEPAGE
  3
ANSI_1252
  9
$INSBASE
 10
0.0
 20
0.0
 30
0.0
  9
$EXTMIN
 10
0.0
 20
0.0
 30
0.0
  9
$EXTMAX
 10
98.88781733323208
 20
65.72500641906796
 30
0.02
  9
$LIMMIN
 10
0.0
 20
0.0
  9
$LIMMAX
 10
67.97125816908774
 20
44.72934247164369
  9
$ORTHOMODE
 70
     1
  9
$REGENMODE
 70
     1
  9
$FILLMODE
 70
     1
  9
$QTEXTMODE
 70
     0
  9
$MIRRTEXT
 70
     0
  9
$LTSCALE
 40
1.0
  9
$ATTMODE
 70
     1
  9
$TEXTSIZE
 40
0.25
  9
$TRACEWID
 40
0.05
  9
$TEXTSTYLE
  7
Standard
  9
$CLAYER
  8
0
  9
$CELTYPE
  6
ByLayer
  9
$CECOLOR
 62
   256
  9
$CELTSCALE
 40
1.0
  9
$DISPSILH
 70
     0
  9
$DIMSCALE
 40
1.0
  9
$DIMASZ
 40
0.18
  9
$DIMEXO
 40
0.0625
  9
$DIMDLI
 40
0.38
  9
$DIMRND
 40
0.0
  9
$DIMDLE
 40
0.0
  9
$DIMEXE
 40
0.18
  9
$DIMTP
 40
0.0
  9
$DIMTM
 40
0.0
  9
$DIMTXT
 40
0.18
  9
$DIMCEN
 40
0.09
  9
$DIMTSZ
 40
0.0
  9
$DIMTOL
 70
     0
  9
$DIMLIM
 70
     0
  9
$DIMTIH
 70
     1
  9
$DIMTOH
 70
     1
  9
$DIMSE1
 70
     0
  9
$DIMSE2
 70
     0
  9
$DIMTAD
 70
     0
  9
$DIMZIN
 70
     0
  9
$DIMBLK
  1

  9
$DIMASO
 70
     1
  9
$DIMSHO
 70
     1
  9
$DIMPOST
  1

  9
$DIMAPOST
  1

  9
$DIMALT
 70
     0
  9
$DIMALTD
 70
     2
  9
$DIMALTF
 40
25.4
  9
$DIMLFAC
 40
1.0
  9
$DIMTOFL
 70
     0
  9
$DIMTVP
 40
0.0
  9
$DIMTIX
 70
     0
  9
$DIMSOXD
 70
     0
  9
$DIMSAH
 70
     0
  9
$DIMBLK1
  1

  9
$DIMBLK2
  1

  9
$DIMSTYLE
  2
Standard
  9
$DIMCLRD
 70
     0
  9
$DIMCLRE
 70
     0
  9
$DIMCLRT
 70
     0
  9
$DIMTFAC
 40
1.0
  9
$DIMGAP
 40
0.09
  9
$DIMJUST
 70
     0
  9
$DIMSD1
 70
     0
  9
$DIMSD2
 70
     0
  9
$DIMTOLJ
 70
     1
  9
$DIMTZIN
 70
     0
  9
$DIMALTZ
 70
     0
  9
$DIMALTTZ
 70
     0
  9
$DIMUPT
 70
     0
  9
$DIMDEC
 70
     4
  9
$DIMTDEC
 70
     4
  9
$DIMALTU
 70
     2
  9
$DIMALTTD
 70
     2
  9
$DIMTXSTY
  7
Standard
  9
$DIMAUNIT
 70
     0
  9
$DIMADEC
 70
     0
  9
$DIMALTRND
 40
0.0
  9
$DIMAZIN
 70
     0
  9
$DIMDSEP
 70
    46
  9
$DIMATFIT
 70
     3
  9
$DIMFRAC
 70
     0
  9
$DIMLDRBLK
  1

  9
$DIMLUNIT
 70
     2
  9
$DIMLWD
 70
    -2
  9
$DIMLWE
 70
    -2
  9
$DIMTMOVE
 70
     0
  9
$LUNITS
 70
     2
  9
$LUPREC
 70
     5
  9
$SKETCHINC
 40
0.1
  9
$FILLETRAD
 40
0.0
  9
$AUNITS
 70
     0
  9
$AUPREC
 70
     0
  9
$MENU
  1
.
  9
$ELEVATION
 40
0.0
  9
$PELEVATION
 40
0.0
  9
$THICKNESS
 40
0.0
  9
$LIMCHECK
 70
     1
  9
$CHAMFERA
 40
0.0
  9
$CHAMFERB
 40
0.0
  9
$CHAMFERC
 40
0.0
  9
$CHAMFERD
 40
0.0
  9
$SKPOLY
 70
     0
  9
$TDCREATE
 40
2454830.611812187
  9
$TDUCREATE
 40
2454830.820145521
  9
$TDUPDATE
 40
2457799.479772929
  9
$TDUUPDATE
 40
2457799.688106262
  9
$TDINDWG
 40
1.3162633102
  9
$TDUSRTIMER
 40
1.3162633102
  9
$USRTIMER
 70
     1
  9
$ANGBASE
 50
0.0
  9
$ANGDIR
 70
     0
  9
$PDMODE
 70
     0
  9
$PDSIZE
 40
0.0
  9
$PLINEWID
 40
0.0
  9
$SPLFRAME
 70
     0
  9
$SPLINETYPE
 70
     6
  9
$SPLINESEGS
 70
     8
  9
$HANDSEED
  5
2139D
  9
$SURFTAB1
 70
     6
  9
$SURFTAB2
 70
     6
  9
$SURFTYPE
 70
     6
  9
$SURFU
 70
     6
  9
$SURFV
 70
     6
  9
$UCSBASE
  2

  9
$UCSNAME
  2

  9
$UCSORG
 10
0.0
 20
0.0
 30
0.0
  9
$UCSXDIR
 10
1.0
 20
0.0
 30
0.0
  9
$UCSYDIR
 10
0.0
 20
1.0
 30
0.0
  9
$UCSORTHOREF
  2

  9
$UCSORTHOVIEW
 70
     0
  9
$UCSORGTOP
 10
0.0
 20
0.0
 30
0.0
  9
$UCSORGBOTTOM
 10
0.0
 20
0.0
 30
0.0
  9
$UCSORGLEFT
 10
0.0
 20
0.0
 30
0.0
  9
$UCSORGRIGHT
 10
0.0
 20
0.0
 30
0.0
  9
$UCSORGFRONT
 10
0.0
 20
0.0
 30
0.0
  9
$UCSORGBACK
 10
0.0
 20
0.0
 30
0.0
  9
$PUCSBASE
  2

  9
$PUCSNAME
  2

  9
$PUCSORG
 10
0.0
 20
0.0
 30
0.0
  9
$PUCSXDIR
 10
1.0
 20
0.0
 30
0.0
  9
$PUCSYDIR
 10
0.0
 20
1.0
 30
0.0
  9
$PUCSORTHOREF
  2

  9
$PUCSORTHOVIEW
 70
     0
  9
$PUCSORGTOP
 10
0.0
 20
0.0
 30
0.0
  9
$PUCSORGBOTTOM
 10
0.0
 20
0.0
 30
0.0
  9
$PUCSORGLEFT
 10
0.0
 20
0.0
 30
0.0
  9
$PUCSORGRIGHT
 10
0.0
 20
0.0
 30
0.0
  9
$PUCSORGFRONT
 10
0.0
 20
0.0
 30
0.0
  9
$PUCSORGBACK
 10
0.0
 20
0.0
 30
0.0
  9
$USERI1
 70
     0
  9
$USERI2
 70
     0
  9
$USERI3
 70
     0
  9
$USERI4
 70
     0
  9
$USERI5
 70
     0
  9
$USERR1
 40
0.0
  9
$USERR2
 40
0.0
  9
$USERR3
 40
0.0
  9
$USERR4
 40
0.0
  9
$USERR5
 40
0.0
  9
$WORLDVIEW
 70
     1
  9
$SHADEDGE
 70
     3
  9
$SHADEDIF
 70
    70
  9
$TILEMODE
 70
     1
  9
$MAXACTVP
 70
    64
  9
$PINSBASE
 10
0.0
 20
0.0
 30
0.0
  9
$PLIMCHECK
 70
     0
  9
$PEXTMIN
 10
0.0
 20
0.0
 30
0.0
  9
$PEXTMAX
 10
0.0
 20
0.0
 30
0.0
  9
$PLIMMIN
 10
0.0
 20
0.0
  9
$PLIMMAX
 10
12.0
 20
9.0
  9
$UNITMODE
 70
     0
  9
$VISRETAIN
 70
     1
  9
$PLINEGEN
 70
     0
  9
$PSLTSCALE
 70
     1
  9
$TREEDEPTH
 70
  3020
  9
$CMLSTYLE
  2
Standard
  9
$CMLJUST
 70
     0
  9
$CMLSCALE
 40
1.0
  9
$PROXYGRAPHICS
 70
     1
  9
$MEASUREMENT
 70
     0
  9
$CELWEIGHT
370
    -1
  9
$ENDCAPS
280
     0
  9
$JOINSTYLE
280
     0
  9
$LWDISPLAY
290
     0
  9
$INSUNITS
 70
     1
  9
$HYPERLINKBASE
  1

  9
$STYLESHEET
  1
monochrome2.ctb
  9
$XEDIT
290
     1
  9
$CEPSNTYPE
380
     0
  9
$PSTYLEMODE
290
     1
  9
$FINGERPRINTGUID
  2
{3BBC5F6F-66BD-465B-9059-EC81B584FB68}
  9
$VERSIONGUID
  2
{51C15F08-C7D8-47E5-A365-7EBB6458AFC7}
  9
$EXTNAMES
290
     1
  9
$PSVPSCALE
 40
0.0
  9
$OLESTARTUP
290
     0
  0
ENDSEC
  0
SECTION
  2
CLASSES
  0
CLASS
  1
ACDBDICTIONARYWDFLT
  2
AcDbDictionaryWithDefault
  3
ObjectDBX Classes
 90
        0
280
     0
281
     0
  0
CLASS
  1
ACDBPLACEHOLDER
  2
AcDbPlaceHolder
  3
ObjectDBX Classes
 90
        0
280
     0
281
     0
  0
CLASS
  1
LAYOUT
  2
AcDbLayout
  3
ObjectDBX Classes
 90
        0
280
     0
281
     0
  0
CLASS
  1
DICTIONARYVAR
  2
AcDbDictionaryVar
  3
ObjectDBX Classes
 90
        0
280
     0
281
     0
  0
CLASS
  1
TABLESTYLE
  2
AcDbTableStyle
  3
ObjectDBX Classes
 90
     4095
280
     0
281
     0
  0
CLASS
  1
MATERIAL
  2
AcDbMaterial
  3
ObjectDBX Classes
 90
     1153
280
     0
281
     0
  0
CLASS
  1
VISUALSTYLE
  2
AcDbVisualStyle
  3
ObjectDBX Classes
 90
     4095
280
     0
281
     0
  0
CLASS
  1
SCALE
  2
AcDbScale
  3
ObjectDBX Classes
 90
     1153
280
     0
281
     0
  0
CLASS
  1
MLEADERSTYLE
  2
AcDbMLeaderStyle
  3
ACDB_MLEADERSTYLE_CLASS
 90
     4095
280
     0
281
     0
  0
CLASS
  1
CELLSTYLEMAP
  2
AcDbCellStyleMap
  3
ObjectDBX Classes
 90
     1152
280
     0
281
     0
  0
CLASS
  1
SORTENTSTABLE
  2
AcDbSortentsTable
  3
ObjectDBX Classes
 90
        0
280
     0
281
     0
  0
CLASS
  1
DIMASSOC
  2
AcDbDimAssoc
  3
"AcDbDimAssoc|Product Desc:     AcDim ARX App For Dimension|Company:          Autodesk, Inc.|WEB Address:      www.autodesk.com"
 90
    32768
280
     0
281
     0
  0
CLASS
  1
ACAD_EVALUATION_GRAPH
  2
AcDbEvalGraph
  3
ObjectDBX Classes
 90
    33921
280
     0
281
     0
  0
CLASS
  1
ACAECUSTOBJ
  2
AcAeEditorObj
  3
AcAeEditorObj
 90
    33792
280
     0
281
     0
  0
CLASS
  1
EXACXREFPANELOBJECT
  2
ExAcXREFPanelObject
  3
EXAC_ESW
 90
     1025
280
     0
281
     0
  0
CLASS
  1
NPOCOLLECTION
  2
AcDbImpNonPersistentObjectsCollection
  3
ObjectDBX Classes
 90
     1153
280
     0
281
     0
  0
CLASS
  1
ACDB_DYNAMICBLOCKPURGEPREVENTER_VERSION
  2
AcDbDynamicBlockPurgePreventer
  3
ObjectDBX Classes
 90
    33921
280
     0
281
     0
  0
ENDSEC
  0
SECTION
  2
TABLES
  0
TABLE
  2
VPORT
  5
8
102
{ACAD_XDICTIONARY
360
68F
102
}
330
0
100
AcDbSymbolTable
 70
     1
  0
VPORT
  5
94
330
8
100
AcDbSymbolTableRecord
100
AcDbViewportTableRecord
  2
*Active
 70
     0
 10
0.0
 20
0.0
 11
1.0
 21
1.0
 12
49.44448550790294
 22
47.20021936541805
 13
0.0
 23
0.0
 14
0.5
 24
0.5
 15
0.5
 25
0.5
 16
0.0
 26
0.0
 36
1.0
 17
0.0
 27
0.0
 37
0.0
 40
94.85234625040856
 41
1.481327800829875
 42
50.0
 43
0.0
 44
0.0
 50
0.0
 51
0.0
 71
     0
 72
  1000
 73
     1
 74
     2
 75
     0
 76
     0
 77
     0
 78
     0
281
     0
 65
     1
110
0.0
120
0.0
130
0.0
111
1.0
121
0.0
131
0.0
112
0.0
122
1.0
132
0.0
 79
     0
146
0.0
1001
ACAD_NAV_VCDISPLAY
1070
     3
  0
ENDTAB
  0
TABLE
  2
LTYPE
  5
5
330
0
100
AcDbSymbolTable
 70
     5
  0
LTYPE
  5
14
330
5
100
AcDbSymbolTableRecord
100
AcDbLinetypeTableRecord
  2
ByBlock
 70
     0
  3

 72
    65
 73
     0
 40
0.0
  0
LTYPE
  5
15
330
5
100
AcDbSymbolTableRecord
100
AcDbLinetypeTableRecord
  2
ByLayer
 70
     0
  3

 72
    65
 73
     0
 40
0.0
  0
LTYPE
  5
16
330
5
100
AcDbSymbolTableRecord
100
AcDbLinetypeTableRecord
  2
Continuous
 70
     0
  3
Solid line
 72
    65
 73
     0
 40
0.0
  0
LTYPE
  5
2D3
330
5
100
AcDbSymbolTableRecord
100
AcDbLinetypeTableRecord
  2
CENTER
 70
     0
  3
CENTER LINE
 72
    65
 73
     4
 40
2.0
 49
1.25
 74
     0
 49
-0.25
 74
     0
 49
0.25
 74
     0
 49
-0.25
 74
     0
  0
LTYPE
  5
2D4
330
5
100
AcDbSymbolTableRecord
100
AcDbLinetypeTableRecord
  2
HIDDEN
 70
     0
  3
DASHED LINE
 72
    65
 73
     2
 40
0.375
 49
0.25
 74
     0
 49
-0.125
 74
     0
  0
LTYPE
  5
21286
330
5
100
AcDbSymbolTableRecord
100
AcDbLinetypeTableRecord
  2
DASHED
 70
     0
  3
Dashed __ __ __ __ __ __ __ __ __ __ __ __ __ _
 72
    65
 73
     2
 40
0.75
 49
0.5
 74
     0
 49
-0.25
 74
     0
  0
LTYPE
  5
21287
330
5
100
AcDbSymbolTableRecord
100
AcDbLinetypeTableRecord
  2
DOT
 70
     0
  3
Dot . . . . . . . . . . . . . . . . . . . . . .
 72
    65
 73
     2
 40
0.25
 49
0.0
 74
     0
 49
-0.25
 74
     0
  0
ENDTAB
  0
TABLE
  2
LAYER
  5
2
102
{ACAD_XDICTIONARY
360
165
102
}
330
0
100
AcDbSymbolTable
 70
     9
  0
LAYER
  5
10
102
{ACAD_XDICTIONARY
360
E6
102
}
330
2
100
AcDbSymbolTableRecord
100
AcDbLayerTableRecord
  2
0
 70
     0
 62
     4
  6
Continuous
370
    -3
390
F
  0
LAYER
  5
2D7
330
2
100
AcDbSymbolTableRecord
100
AcDbLayerTableRecord
  2
DEFPOINTS
 70
     1
 62
     7
  6
Continuous
290
     0
370
    -3
390
F
  0
LAYER
  5
2D9
102
{ACAD_XDICTIONARY
360
680
102
}
330
2
100
AcDbSymbolTableRecord
100
AcDbLayerTableRecord
  2
CENTER
 70
     0
 62
     1
  6
CENTER
370
    -3
390
F
  0
LAYER
  5
204C4
330
2
100
AcDbSymbolTableRecord
100
AcDbLayerTableRecord
  2
FORMAT
 70
     0
 62
     7
  6
Continuous
370
    -3
390
F
  0
LAYER
  5
204D4
102
{ACAD_XDICTIONARY
360
204D5
102
}
330
2
100
AcDbSymbolTableRecord
100
AcDbLayerTableRecord
  2
TEXT
 70
     0
 62
     3
  6
Continuous
370
    -3
390
F
  0
LAYER
  5
2056E
102
{ACAD_XDICTIONARY
360
2056F
102
}
330
2
100
AcDbSymbolTableRecord
100
AcDbLayerTableRecord
  2
DIME
 70
     0
 62
     2
  6
Continuous
370
    -3
390
F
  0
LAYER
  5
20570
102
{ACAD_XDICTIONARY
360
20571
102
}
330
2
100
AcDbSymbolTableRecord
100
AcDbLayerTableRecord
  2
P_ATTR
 70
     0
 62
     3
  6
Continuous
370
    -3
390
F
  0
LAYER
  5
20BAF
330
2
100
AcDbSymbolTableRecord
100
AcDbLayerTableRecord
  2
HIDDEN
 70
     0
 62
     3
  6
HIDDEN
370
    -3
390
F
  0
LAYER
  5
21288
330
2
100
AcDbSymbolTableRecord
100
AcDbLayerTableRecord
  2
Kawneer Logo-English
 70
     0
 62
     7
  6
Continuous
370
    -3
390
F
1001
AcAecLayerStandard
1000

1000

1001
AcCmTransparency
1071
        0
  0
ENDTAB
  0
TABLE
  2
STYLE
  5
3
330
0
100
AcDbSymbolTable
 70
     1
  0
STYLE
  5
11
330
3
100
AcDbSymbolTableRecord
100
AcDbTextStyleTableRecord
  2
Standard
 70
     0
 40
0.0
 41
1.0
 50
0.0
 71
     0
 42
0.25
  3
arial.ttf
  4

1001
ACAD
1000
Arial
1071
       34
  0
ENDTAB
  0
TABLE
  2
VIEW
  5
6
330
0
100
AcDbSymbolTable
 70
     0
  0
ENDTAB
  0
TABLE
  2
UCS
  5
7
330
0
100
AcDbSymbolTable
 70
     0
  0
ENDTAB
  0
TABLE
  2
APPID
  5
9
330
0
100
AcDbSymbolTable
 70
    15
  0
APPID
  5
12
330
9
100
AcDbSymbolTableRecord
100
AcDbRegAppTableRecord
  2
ACAD
 70
     0
  0
APPID
  5
205DD
330
9
100
AcDbSymbolTableRecord
100
AcDbRegAppTableRecord
  2
AcDbDynamicBlockGUID
 70
     0
  0
APPID
  5
20951
330
9
100
AcDbSymbolTableRecord
100
AcDbRegAppTableRecord
  2
ACAD_NAV_VCDISPLAY
 70
     0
  0
APPID
  5
21289
330
9
100
AcDbSymbolTableRecord
100
AcDbRegAppTableRecord
  2
ACAD_EXEMPT_FROM_CAD_STANDARDS
 70
     0
  0
APPID
  5
2128A
330
9
100
AcDbSymbolTableRecord
100
AcDbRegAppTableRecord
  2
GradientColor1ACI
 70
     0
  0
APPID
  5
2128B
330
9
100
AcDbSymbolTableRecord
100
AcDbRegAppTableRecord
  2
GradientColor2ACI
 70
     0
  0
APPID
  5
2128C
330
9
100
AcDbSymbolTableRecord
100
AcDbRegAppTableRecord
  2
ACAD_MLEADERVER
 70
     0
  0
APPID
  5
2128D
330
9
100
AcDbSymbolTableRecord
100
AcDbRegAppTableRecord
  2
ACAD_PSEXT
 70
     0
  0
APPID
  5
2128E
330
9
100
AcDbSymbolTableRecord
100
AcDbRegAppTableRecord
  2
ACAD_DSTYLE_DIMJAG
 70
     0
  0
APPID
  5
2128F
330
9
100
AcDbSymbolTableRecord
100
AcDbRegAppTableRecord
  2
ACAD_DSTYLE_DIMTALN
 70
     0
  0
APPID
  5
21290
330
9
100
AcDbSymbolTableRecord
100
AcDbRegAppTableRecord
  2
ACAD_DSTYLE_DIMBREAK
 70
     0
  0
APPID
  5
21291
330
9
100
AcDbSymbolTableRecord
100
AcDbRegAppTableRecord
  2
ACAUTHENVIRON
 70
     0
  0
APPID
  5
21292
330
9
100
AcDbSymbolTableRecord
100
AcDbRegAppTableRecord
  2
AcDbDynamicBlockTrueName
 70
     0
  0
APPID
  5
21293
330
9
100
AcDbSymbolTableRecord
100
AcDbRegAppTableRecord
  2
AcAecLayerStandard
 70
     0
  0
APPID
  5
21294
330
9
100
AcDbSymbolTableRecord
100
AcDbRegAppTableRecord
  2
AcCmTransparency
 70
     0
  0
ENDTAB
  0
TABLE
  2
DIMSTYLE
  5
A
330
0
100
AcDbSymbolTable
 70
     3
100
AcDbDimStyleTable
 71
     3
340
27
340
2DE
340
2DF
  0
DIMSTYLE
105
27
330
A
100
AcDbSymbolTableRecord
100
AcDbDimStyleTableRecord
  2
Standard
 70
     0
340
11
  0
DIMSTYLE
105
2DE
102
{ACAD_REACTORS
330
205EC
330
205ED
330
205EE
330
206F7
330
206F8
330
206F9
330
207E1
330
207E3
330
208A1
330
208A3
330
20A97
330
20A98
330
20A9A
330
20A9B
330
20A9D
102
}
330
A
100
AcDbSymbolTableRecord
100
AcDbDimStyleTableRecord
  2
EXT_ON-OFF
 70
     0
  3
"
  4
mm
 40
2.0
 41
0.125
 42
0.1875
 43
0.1875
 44
0.09
 73
     0
 74
     0
 76
     1
 77
     3
 78
     3
140
0.125
141
0.0
147
0.05
171
     3
179
     2
271
     5
273
     5
274
     3
276
     2
277
     5
284
     3
285
     3
286
     3
289
     0
340
11
  0
DIMSTYLE
105
2DF
102
{ACAD_REACTORS
330
205EB
330
205EF
330
206F6
330
206FA
330
207E2
330
208A2
330
20A9C
330
20A9E
102
}
330
A
100
AcDbSymbolTableRecord
100
AcDbDimStyleTableRecord
  2
EXT_ON-ON
 70
     0
  3
"
  4
mm
 40
2.0
 41
0.125
 42
0.1875
 43
0.1875
 44
0.09
 73
     0
 74
     0
 77
     3
 78
     3
140
0.125
141
0.0
147
0.05
171
     3
179
     2
271
     5
273
     5
274
     3
276
     2
277
     5
284
     3
285
     3
286
     3
289
     0
340
11
  0
ENDTAB
  0
TABLE
  2
BLOCK_RECORD
  5
1
330
0
100
AcDbSymbolTable
 70
    65
  0
BLOCK_RECORD
  5
1F
102
{ACAD_XDICTIONARY
360
1D98
102
}
330
1
100
AcDbSymbolTableRecord
100
AcDbBlockTableRecord
  2
*Model_Space
340
22
  0
BLOCK_RECORD
  5
58
330
1
100
AcDbSymbolTableRecord
100
AcDbBlockTableRecord
  2
*Paper_Space
340
59
  0
BLOCK_RECORD
  5
5D
330
1
100
AcDbSymbolTableRecord
100
AcDbBlockTableRecord
  2
*Paper_Space0
340
5E
  0
BLOCK_RECORD
  5
2052B
102
{ACAD_XDICTIONARY
360
2052C
102
}
330
1
100
AcDbSymbolTableRecord
100
AcDbBlockTableRecord
  2
B522028
340
0
102
{BLKREFS
331
20546
102
}
  0
BLOCK_RECORD
  5
20531
102
{ACAD_XDICTIONARY
360
20532
102
}
330
1
100
AcDbSymbolTableRecord
100
AcDbBlockTableRecord
  2
B522029
340
0
102
{BLKREFS
331
20547
102
}
  0
BLOCK_RECORD
  5
20538
102
{ACAD_XDICTIONARY
360
20539
102
}
330
1
100
AcDbSymbolTableRecord
100
AcDbBlockTableRecord
  2
B259351_M
340
0
102
{BLKREFS
331
20849
331
2084A
331
2094D
331
2094E
331
20686
331
20687
331
2078A
331
2078B
331
20548
331
20549
102
}
1001
ACAD
1000
DesignCenter Data
1002
{
1070
     1
1070
     1
1002
}
  0
BLOCK_RECORD
  5
20542
102
{ACAD_XDICTIONARY
360
20543
102
}
330
1
100
AcDbSymbolTableRecord
100
AcDbBlockTableRecord
  2
B522107
340
0
102
{BLKREFS
331
205F3
102
}
1001
ACAD
1000
DesignCenter Data
1002
{
1070
     1
1070
     1
1002
}
  0
BLOCK_RECORD
  5
2054B
330
1
100
AcDbSymbolTableRecord
100
AcDbBlockTableRecord
  2
B200045
340
0
102
{BLKREFS
331
20749
331
20561
102
}
  0
BLOCK_RECORD
  5
2054F
102
{ACAD_XDICTIONARY
360
20550
102
}
330
1
100
AcDbSymbolTableRecord
100
AcDbBlockTableRecord
  2
B522019
340
0
102
{BLKREFS
331
2074C
331
20564
102
}
1001
ACAD
1000
DesignCenter Data
1002
{
1070
     1
1070
     1
1002
}
  0
BLOCK_RECORD
  5
20555
102
{ACAD_XDICTIONARY
360
20556
102
}
330
1
100
AcDbSymbolTableRecord
100
AcDbBlockTableRecord
  2
B027557-M
340
0
102
{BLKREFS
331
2074D
331
2074E
331
20565
331
20566
102
}
1001
ACAD
1000
DesignCenter Data
1002
{
1070
     1
1070
     1
1002
}
  0
BLOCK_RECORD
  5
2055D
102
{ACAD_XDICTIONARY
360
2055E
102
}
330
1
100
AcDbSymbolTableRecord
100
AcDbBlockTableRecord
  2
S522GT01
340
0
102
{BLKREFS
331
208A9
331
206FE
331
207E7
331
205F4
102
}
  0
BLOCK_RECORD
  5
20573
102
{ACAD_XDICTIONARY
360
205F8
102
}
330
1
100
AcDbSymbolTableRecord
100
AcDbBlockTableRecord
  2
S522TR02
340
0
102
{BLKREFS
331
20585
102
}
1001
AcDbDynamicBlockGUID
1000
{FC1BB04F-B2F4-4640-8E09-E42F119C895D}
  0
BLOCK_RECORD
  5
205F9
330
1
100
AcDbSymbolTableRecord
100
AcDbBlockTableRecord
  2
*D10
340
0
  0
BLOCK_RECORD
  5
20606
330
1
100
AcDbSymbolTableRecord
100
AcDbBlockTableRecord
  2
*D11
340
0
  0
BLOCK_RECORD
  5
20611
330
1
100
AcDbSymbolTableRecord
100
AcDbBlockTableRecord
  2
*D12
340
0
  0
BLOCK_RECORD
  5
2061C
330
1
100
AcDbSymbolTableRecord
100
AcDbBlockTableRecord
  2
*D13
340
0
  0
BLOCK_RECORD
  5
20627
330
1
100
AcDbSymbolTableRecord
100
AcDbBlockTableRecord
  2
*D14
340
0
  0
BLOCK_RECORD
  5
20673
102
{ACAD_XDICTIONARY
360
20674
102
}
330
1
100
AcDbSymbolTableRecord
100
AcDbBlockTableRecord
  2
B524028_M
340
0
102
{BLKREFS
331
20684
102
}
  0
BLOCK_RECORD
  5
20679
102
{ACAD_XDICTIONARY
360
2067A
102
}
330
1
100
AcDbSymbolTableRecord
100
AcDbBlockTableRecord
  2
B524029_M
340
0
102
{BLKREFS
331
20685
102
}
  0
BLOCK_RECORD
  5
20680
102
{ACAD_XDICTIONARY
360
20681
102
}
330
1
100
AcDbSymbolTableRecord
100
AcDbBlockTableRecord
  2
B522207
340
0
102
{BLKREFS
331
206FD
102
}
1001
ACAD
1000
DesignCenter Data
1002
{
1070
     1
1070
     1
1002
}
  0
BLOCK_RECORD
  5
20689
102
{ACAD_XDICTIONARY
360
20702
102
}
330
1
100
AcDbSymbolTableRecord
100
AcDbBlockTableRecord
  2
S522TR04
340
0
102
{BLKREFS
331
2069B
102
}
1001
AcDbDynamicBlockGUID
1000
{768244FC-FC27-4FF1-80FD-287351796422}
  0
BLOCK_RECORD
  5
20703
330
1
100
AcDbSymbolTableRecord
100
AcDbBlockTableRecord
  2
*D19
340
0
  0
BLOCK_RECORD
  5
20710
330
1
100
AcDbSymbolTableRecord
100
AcDbBlockTableRecord
  2
*D20
340
0
  0
BLOCK_RECORD
  5
2071B
330
1
100
AcDbSymbolTableRecord
100
AcDbBlockTableRecord
  2
*D21
340
0
  0
BLOCK_RECORD
  5
20726
330
1
100
AcDbSymbolTableRecord
100
AcDbBlockTableRecord
  2
*D22
340
0
  0
BLOCK_RECORD
  5
20731
330
1
100
AcDbSymbolTableRecord
100
AcDbBlockTableRecord
  2
*D23
340
0
  0
BLOCK_RECORD
  5
20742
330
1
100
AcDbSymbolTableRecord
100
AcDbBlockTableRecord
  2
B027339
340
0
102
{BLKREFS
331
2074F
102
}
1001
ACAD
1000
DesignCenter Data
1002
{
1070
     1
1070
     1
1002
}
  0
BLOCK_RECORD
  5
20746
102
{ACAD_XDICTIONARY
360
20747
102
}
330
1
100
AcDbSymbolTableRecord
100
AcDbBlockTableRecord
  2
S522GT03
340
0
102
{BLKREFS
331
208A8
331
20AA4
331
207E6
102
}
1001
AcDbDynamicBlockGUID
1000
{92156138-8C30-459E-A0A9-6EC7653B59E5}
  0
BLOCK_RECORD
  5
20779
102
{ACAD_XDICTIONARY
360
2077A
102
}
330
1
100
AcDbSymbolTableRecord
100
AcDbBlockTableRecord
  2
B522015
340
0
102
{BLKREFS
331
20788
102
}
  0
BLOCK_RECORD
  5
2077F
102
{ACAD_XDICTIONARY
360
20780
102
}
330
1
100
AcDbSymbolTableRecord
100
AcDbBlockTableRecord
  2
B522016
340
0
102
{BLKREFS
331
20789
102
}
  0
BLOCK_RECORD
  5
20786
330
1
100
AcDbSymbolTableRecord
100
AcDbBlockTableRecord
  2
B522116
340
0
102
{BLKREFS
331
207EA
102
}
1001
ACAD
1000
DesignCenter Data
1002
{
1070
     1
1070
     1
1002
}
  0
BLOCK_RECORD
  5
2078D
102
{ACAD_XDICTIONARY
360
207ED
102
}
330
1
100
AcDbSymbolTableRecord
100
AcDbBlockTableRecord
  2
S522CR01
340
0
102
{BLKREFS
331
2079F
102
}
1001
AcDbDynamicBlockGUID
1000
{4C0D61A6-20A3-45FC-937A-5DDF146ED3BD}
  0
BLOCK_RECORD
  5
207EE
330
1
100
AcDbSymbolTableRecord
100
AcDbBlockTableRecord
  2
*D30
340
0
  0
BLOCK_RECORD
  5
207F9
330
1
100
AcDbSymbolTableRecord
100
AcDbBlockTableRecord
  2
*D31
340
0
  0
BLOCK_RECORD
  5
20805
330
1
100
AcDbSymbolTableRecord
100
AcDbBlockTableRecord
  2
*D32
340
0
  0
BLOCK_RECORD
  5
20838
102
{ACAD_XDICTIONARY
360
20839
102
}
330
1
100
AcDbSymbolTableRecord
100
AcDbBlockTableRecord
  2
B522017
340
0
102
{BLKREFS
331
2084B
102
}
  0
BLOCK_RECORD
  5
2083E
102
{ACAD_XDICTIONARY
360
2083F
102
}
330
1
100
AcDbSymbolTableRecord
100
AcDbBlockTableRecord
  2
B522018
340
0
102
{BLKREFS
331
2084C
102
}
  0
BLOCK_RECORD
  5
20845
102
{ACAD_XDICTIONARY
360
20846
102
}
330
1
100
AcDbSymbolTableRecord
100
AcDbBlockTableRecord
  2
B522118
340
0
102
{BLKREFS
331
208AA
102
}
1001
ACAD
1000
DesignCenter Data
1002
{
1070
     1
1070
     1
1002
}
  0
BLOCK_RECORD
  5
2084E
102
{ACAD_XDICTIONARY
360
208AD
102
}
330
1
100
AcDbSymbolTableRecord
100
AcDbBlockTableRecord
  2
S522CR02
340
0
102
{BLKREFS
331
20860
102
}
1001
AcDbDynamicBlockGUID
1000
{FC55F375-DBFF-4859-9757-86E0E0DECE9F}
  0
BLOCK_RECORD
  5
208AE
330
1
100
AcDbSymbolTableRecord
100
AcDbBlockTableRecord
  2
*D37
340
0
  0
BLOCK_RECORD
  5
208B9
330
1
100
AcDbSymbolTableRecord
100
AcDbBlockTableRecord
  2
*D38
340
0
  0
BLOCK_RECORD
  5
208C5
330
1
100
AcDbSymbolTableRecord
100
AcDbBlockTableRecord
  2
*D39
340
0
  0
BLOCK_RECORD
  5
2093A
102
{ACAD_XDICTIONARY
360
2093B
102
}
330
1
100
AcDbSymbolTableRecord
100
AcDbBlockTableRecord
  2
B522013
340
0
102
{BLKREFS
331
2094B
102
}
  0
BLOCK_RECORD
  5
20940
102
{ACAD_XDICTIONARY
360
20941
102
}
330
1
100
AcDbSymbolTableRecord
100
AcDbBlockTableRecord
  2
B522014
340
0
102
{BLKREFS
331
2094C
102
}
  0
BLOCK_RECORD
  5
20947
102
{ACAD_XDICTIONARY
360
20948
102
}
330
1
100
AcDbSymbolTableRecord
100
AcDbBlockTableRecord
  2
B522114
340
0
102
{BLKREFS
331
20AA5
102
}
1001
ACAD
1000
DesignCenter Data
1002
{
1070
     1
1070
     1
1002
}
  0
BLOCK_RECORD
  5
20953
102
{ACAD_XDICTIONARY
360
20AA9
102
}
330
1
100
AcDbSymbolTableRecord
100
AcDbBlockTableRecord
  2
S522BR03
340
0
102
{BLKREFS
331
2096A
102
}
1001
AcDbDynamicBlockGUID
1000
{EEDAE277-0650-4232-BA78-A33609E75FFF}
  0
BLOCK_RECORD
  5
20AAA
330
1
100
AcDbSymbolTableRecord
100
AcDbBlockTableRecord
  2
*D44
340
0
  0
BLOCK_RECORD
  5
20AB5
330
1
100
AcDbSymbolTableRecord
100
AcDbBlockTableRecord
  2
*D45
340
0
  0
BLOCK_RECORD
  5
20AC0
330
1
100
AcDbSymbolTableRecord
100
AcDbBlockTableRecord
  2
*D46
340
0
  0
BLOCK_RECORD
  5
20ACB
330
1
100
AcDbSymbolTableRecord
100
AcDbBlockTableRecord
  2
*D47
340
0
  0
BLOCK_RECORD
  5
20AD6
330
1
100
AcDbSymbolTableRecord
100
AcDbBlockTableRecord
  2
*D48
340
0
  0
BLOCK_RECORD
  5
20AE2
330
1
100
AcDbSymbolTableRecord
100
AcDbBlockTableRecord
  2
*D49
340
0
  0
BLOCK_RECORD
  5
20AED
330
1
100
AcDbSymbolTableRecord
100
AcDbBlockTableRecord
  2
*D50
340
0
  0
BLOCK_RECORD
  5
20B15
330
1
100
AcDbSymbolTableRecord
100
AcDbBlockTableRecord
  2
B128345
340
0
102
{BLKREFS
331
20B60
331
20B61
102
}
  0
BLOCK_RECORD
  5
20B22
330
1
100
AcDbSymbolTableRecord
100
AcDbBlockTableRecord
  2
B451079
340
0
102
{BLKREFS
331
20BC1
102
}
  0
BLOCK_RECORD
  5
20B27
330
1
100
AcDbSymbolTableRecord
100
AcDbBlockTableRecord
  2
B028400-H
340
0
102
{BLKREFS
331
20B5C
331
20B5D
331
20B5E
331
20B5F
102
}
  0
BLOCK_RECORD
  5
20B3D
102
{ACAD_XDICTIONARY
360
20B3E
102
}
330
1
100
AcDbSymbolTableRecord
100
AcDbBlockTableRecord
  2
B451140
340
0
102
{BLKREFS
331
20B62
102
}
1001
AcDbDynamicBlockGUID
1000
{51230320-9522-4664-97D2-577F6149DC04}
1001
ACAD
1000
DesignCenter Data
1002
{
1070
     1
1070
     1
1002
}
  0
BLOCK_RECORD
  5
20B58
102
{ACAD_XDICTIONARY
360
20B59
102
}
330
1
100
AcDbSymbolTableRecord
100
AcDbBlockTableRecord
  2
B451548
340
0
102
{BLKREFS
331
20BD1
102
}
1001
ACAD
1000
DesignCenter Data
1002
{
1070
     1
1070
     1
1002
}
  0
BLOCK_RECORD
  5
20D05
330
1
100
AcDbSymbolTableRecord
100
AcDbBlockTableRecord
  2
B028520
340
0
102
{BLKREFS
331
20E56
102
}
  0
BLOCK_RECORD
  5
20D11
330
1
100
AcDbSymbolTableRecord
100
AcDbBlockTableRecord
  2
B049064
340
0
102
{BLKREFS
331
20E57
102
}
  0
BLOCK_RECORD
  5
20D16
330
1
100
AcDbSymbolTableRecord
100
AcDbBlockTableRecord
  2
B069214
340
0
102
{BLKREFS
331
20D13
102
}
  0
BLOCK_RECORD
  5
20D2E
330
1
100
AcDbSymbolTableRecord
100
AcDbBlockTableRecord
  2
B027078
340
0
102
{BLKREFS
331
20D14
102
}
  0
BLOCK_RECORD
  5
20D48
102
{ACAD_XDICTIONARY
360
20E5C
102
}
330
1
100
AcDbSymbolTableRecord
100
AcDbBlockTableRecord
  2
S522DS01
340
0
102
{BLKREFS
331
20D6F
102
}
1001
AcDbDynamicBlockGUID
1000
{12347F74-1C68-4AE0-B9EB-E61888B1980D}
  0
BLOCK_RECORD
  5
20E72
330
1
100
AcDbSymbolTableRecord
100
AcDbBlockTableRecord
  2
B028354
340
0
102
{BLKREFS
331
20E93
102
}
  0
BLOCK_RECORD
  5
20E7E
330
1
100
AcDbSymbolTableRecord
100
AcDbBlockTableRecord
  2
B039345
340
0
102
{BLKREFS
331
20E94
102
}
  0
BLOCK_RECORD
  5
20E92
330
1
100
AcDbSymbolTableRecord
100
AcDbBlockTableRecord
  2
S522MD03
340
0
102
{BLKREFS
331
20E97
102
}
  0
BLOCK_RECORD
  5
21295
102
{ACAD_XDICTIONARY
360
2129F
102
}
330
1
100
AcDbSymbolTableRecord
100
AcDbBlockTableRecord
  2
Kawneer Logo English
340
0
102
{BLKREFS
331
212A3
102
}
1001
ACAD
1000
DesignCenter Data
1002
{
1070
     1
1070
     1
1002
}
  0
ENDTAB
  0
ENDSEC
  0
SECTION
  2
BLOCKS
  0
BLOCK
  5
20
330
1F
100
AcDbEntity
  8
0
100
AcDbBlockBegin
  2
*Model_Space
 70
     0
 10
0.0
 20
0.0
 30
0.0
  3
*Model_Space
  1

  0
ENDBLK
  5
21
330
1F
100
AcDbEntity
  8
0
100
AcDbBlockEnd
  0
BLOCK
  5
5A
330
58
100
AcDbEntity
 67
     1
  8
0
100
AcDbBlockBegin
  2
*Paper_Space
 70
     0
 10
0.0
 20
0.0
 30
0.0
  3
*Paper_Space
  1

  0
ENDBLK
  5
5B
330
58
100
AcDbEntity
 67
     1
  8
0
100
AcDbBlockEnd
  0
BLOCK
  5
5F
330
5D
100
AcDbEntity
 67
     1
  8
0
100
AcDbBlockBegin
  2
*Paper_Space0
 70
     0
 10
0.0
 20
0.0
 30
0.0
  3
*Paper_Space0
  1

  0
ENDBLK
  5
60
330
5D
100
AcDbEntity
 67
     1
  8
0
100
AcDbBlockEnd
  0
BLOCK
  5
2052E
330
2052B
100
AcDbEntity
  8
0
100
AcDbBlockBegin
  2
B522028
 70
     0
 10
0.0
 20
0.0
 30
0.0
  3
B522028
  1

  0
LWPOLYLINE
  5
2052F
330
2052B
100
AcDbEntity
  8
0
100
AcDbPolyline
 90
       71
 70
     1
 43
0.0
 10
1.900358552252297
 20
-3.225598998865891
 42
0.123758164439828
 10
1.893020418333135
 20
-3.232020810899065
 10
1.868557119886167
 20
-3.267350300568601
 42
0.2540700439599419
 10
1.866498727721696
 20
-3.286332133393237
 10
1.875066614400457
 20
-3.307199926035931
 42
0.3281932863521666
 10
1.885188808320476
 20
-3.313363751838842
 10
1.91274731367538
 20
-3.310952695036714
 42
0.2048158433769062
 10
1.919680060321288
 20
-3.307243174619152
 10
1.931682442537399
 20
-3.292261752691153
 42
-0.2976378995951363
 10
1.942074937061809
 20
-3.288854920991617
 10
2.029382437071868
 20
-3.312248895112492
 10
2.11000000071491
 20
-3.312248895112492
 42
0.414213562373093
 10
2.172000000714911
 20
-3.250248895112495
 10
2.172000000714911
 20
-3.001000000000018
 10
2.265748000714909
 20
-3.001000000000018
 10
2.28200000071491
 20
-3.324999999999999
 10
2.250000000714907
 20
-3.324999999999999
 10
2.250000000714907
 20
-3.37500000000001
 10
2.362000000714912
 20
-3.375000000000014
 10
2.362000000714914
 20
-0.125
 10
2.250000000714916
 20
-0.1249999999999964
 10
2.250000000714916
 20
-1.499999999999992
 10
2.029382433678076
 20
-1.5
 10
1.942074933667964
 20
-1.523393974120889
 42
-0.2976378995951363
 10
1.931682439143553
 20
-1.519987142421353
 10
1.919680056927443
 20
-1.50500572049335
 42
0.2048158433769061
 10
1.912747310281535
 20
-1.501296200075788
 10
1.885188804926631
 20
-1.498885143273664
 42
0.3281932863521668
 10
1.875066611006612
 20
-1.505048969076572
 10
1.866498724327851
 20
-1.525916761719273
 42
0.2540700439599419
 10
1.868557116492322
 20
-1.544898594543901
 10
1.893020414939289
 20
-1.580228084213441
 42
0.1237581644398281
 10
1.900358548858452
 20
-1.586649896246616
 10
1.958973251307231
 20
-1.616619007712856
 42
0.7818493696233066
 10
1.971717145201271
 20
-1.601979542098316
 10
1.996536053878219
 20
-1.584601155152572
 42
0.3689783014497572
 10
1.999787321894277
 20
-1.572024061884086
 42
-0.5486861486952166
 10
2.008599830209465
 20
-1.557640012106915
 10
2.027150952504733
 20
-1.557316201062768
 42
-0.4193348045467388
 10
2.047500000633469
 20
-1.577313155155614
 10
2.04749999906496
 20
-1.742665481339638
 42
-0.4142135647780507
 10
2.037499999064948
 20
-1.75266548142174
 10
2.017499999080207
 20
-1.752665481421711
 10
1.969495941440683
 20
-1.724950325821378
 42
0.58688573735326
 10
1.95449999908045
 20
-1.716005227383757
 10
1.936299999081377
 20
-1.726513002282484
 10
1.936299999081402
 20
-1.827665481421764
 42
0.4142135623730258
 10
1.951299999081385
 20
-1.842665481421764
 10
2.141000000714917
 20
-1.842665481421722
 42
0.414213562373028
 10
2.172000000714913
 20
-1.811665481421723
 10
2.172000000714913
 20
-1.782499999999991
 42
-0.9999999999999998
 10
2.23700000071491
 20
-1.782499999999991
 10
2.237000000714912
 20
-2.876000000000019
 10
2.109000000714909
 20
-2.876000000000018
 42
0.4142135623731033
 10
2.047000000714911
 20
-2.938000000000023
 10
2.047000000714911
 20
-2.969583413690756
 10
1.951300000714917
 20
-2.969583413690735
 42
0.4142135623730258
 10
1.936300000714934
 20
-2.984583413690735
 10
1.93630000071491
 20
-3.085735892830012
 10
1.954500000713982
 20
-3.096243667728739
 42
0.586885737353278
 10
1.969495943074216
 20
-3.087298569291117
 10
2.017500000713736
 20
-3.059583413690788
 10
2.037500000698477
 20
-3.059583413690759
 42
-0.4142135647779986
 10
2.047500000698489
 20
-3.069583413772861
 10
2.0475000007141
 20
-3.234935740086889
 42
-0.4193348017860202
 10
2.027150952585364
 20
-3.254932693991904
 10
2.008599833603311
 20
-3.254608883005587
 42
-0.5486861486952166
 10
1.999787325288123
 20
-3.24022483322842
 42
0.3689783014497569
 10
1.996536057272065
 20
-3.227647739959934
 10
1.971717148595116
 20
-3.21026935301419
 42
0.7818493696233066
 10
1.958973254701076
 20
-3.195629887399647
  0
ENDBLK
  5
20530
330
2052B
100
AcDbEntity
  8
0
100
AcDbBlockEnd
  0
BLOCK
  5
20534
330
20531
100
AcDbEntity
  8
0
100
AcDbBlockBegin
  2
B522029
 70
     0
 10
0.0
 20
0.0
 30
0.0
  3
B522029
  1

  0
LWPOLYLINE
  5
20535
330
20531
100
AcDbEntity
  8
0
100
AcDbPolyline
 90
       10
 70
     1
 43
0.0
 10
1.363500001431443
 20
-3.187248895112497
 10
1.36350000143145
 20
-1.625000000000004
 10
0.4369999999999977
 20
-1.625000000000002
 10
0.4369999999999977
 20
-1.780665481421793
 42
-0.4142135623730956
 10
0.4059999999999971
 20
-1.811665481421793
 10
0.2630000000000017
 20
-1.811665481421793
 10
0.2630000000000034
 20
-2.876000000000029
 10
0.3749999999999751
 20
-2.876000000000022
 42
-0.4142135623730951
 10
0.4369999999999763
 20
-2.938000000000027
 10
0.4369999999999781
 20
-3.187248895112497
  0
LWPOLYLINE
  5
20536
330
20531
100
AcDbEntity
  8
0
100
AcDbPolyline
 90
       65
 70
     1
 43
0.0
 10
1.565500000002558
 20
-1.716005227383757
 10
1.583700000001645
 20
-1.726513002282484
 10
1.583700000001593
 20
-1.827665481421764
 42
-0.4142135623730257
 10
1.56870000000161
 20
-1.842665481421764
 10
1.488500001431448
 20
-1.842665481421782
 10
1.488500001431443
 20
-2.969583413690768
 10
1.568700000001637
 20
-2.969583413690831
 42
-0.414213562372887
 10
1.583700000001627
 20
-2.984583413690831
 10
1.583700000001636
 20
-3.085735892830012
 10
1.565500000002549
 20
-3.096243667728739
 42
-0.5868857373532621
 10
1.550504057642315
 20
-3.087298569291117
 10
1.502500000002781
 20
-3.059583413690784
 10
1.48250000001804
 20
-3.059583413690756
 42
0.4142135647780507
 10
1.472500000018028
 20
-3.069583413772857
 10
1.472500001375204
 20
-3.234935740180521
 42
0.4193347993695722
 10
1.49284904950394
 20
-3.25493269392113
 10
1.511400164431394
 20
-3.254608883005587
 42
0.5486861486952149
 10
1.520212672746579
 20
-3.24022483322842
 42
-0.3689783014497581
 10
1.52346394076264
 20
-3.22764773995993
 10
1.548282849439585
 20
-3.210269353014187
 42
-0.7818493696233309
 10
1.561026743333629
 20
-3.195629887399647
 10
1.619641445782407
 20
-3.225598998865887
 42
-0.1237581644398266
 10
1.62697957970157
 20
-3.232020810899062
 10
1.651442878148538
 20
-3.267350300568601
 42
-0.2540700439599415
 10
1.653501270313009
 20
-3.286332133393234
 10
1.644933383634247
 20
-3.307199926035931
 42
-0.3281932863521831
 10
1.634811189714229
 20
-3.313363751838839
 10
1.607252684359325
 20
-3.310952695036711
 42
-0.2048158433769048
 10
1.600319937713416
 20
-3.307243174619152
 10
1.588317555497306
 20
-3.29226175269115
 42
0.2976378995951365
 10
1.577925060972896
 20
-3.288854920991614
 10
1.49061756096281
 20
-3.312248895112499
 10
0.3899999999999757
 20
-3.312248895112499
 42
-0.4142135623730948
 10
0.3279999999999781
 20
-3.250248895112495
 10
0.3279999999999781
 20
-3.001000000000031
 10
0.2342519999999837
 20
-3.001000000000022
 10
0.2180002006419563
 20
-3.325000000000006
 10
0.2499999999999858
 20
-3.325000000000006
 10
0.2499999999999858
 20
-3.375000000000017
 10
0.1379999999999999
 20
-3.375000000000017
 10
0.1379999999999981
 20
-0.1250000000000107
 10
0.25
 20
-0.1250000000000107
 10
0.25
 20
-1.500000000000003
 10
1.490617560949281
 20
-1.500000000000003
 10
1.577925060959369
 20
-1.523393974120889
 42
0.2976378995951365
 10
1.588317555483779
 20
-1.519987142421353
 10
1.60031993769989
 20
-1.50500572049335
 42
-0.2048158433769049
 10
1.607252684345798
 20
-1.501296200075792
 10
1.634811189700702
 20
-1.498885143273664
 42
-0.3281932863521831
 10
1.64493338362072
 20
-1.505048969076572
 10
1.653501270299482
 20
-1.525916761719269
 42
-0.2540700439599415
 10
1.651442878135011
 20
-1.544898594543901
 10
1.626979579688043
 20
-1.580228084213441
 42
-0.1237581644398265
 10
1.619641445768881
 20
-1.586649896246616
 10
1.561026743320102
 20
-1.616619007712856
 42
-0.7818493696233309
 10
1.548282849426058
 20
-1.601979542098316
 10
1.523463940749113
 20
-1.584601155152572
 42
-0.3689783014497579
 10
1.520212672733052
 20
-1.572024061884082
 42
0.5486861486952149
 10
1.511400164417867
 20
-1.557640012106915
 10
1.492849049490413
 20
-1.557316201191373
 42
0.4193347993695591
 10
1.472500001361677
 20
-1.577313154931982
 10
1.472500000018037
 20
-1.742665481339646
 42
0.4142135647780507
 10
1.482500000018049
 20
-1.75266548142174
 10
1.50250000000279
 20
-1.752665481421711
 10
1.550504057642324
 20
-1.724950325821378
 42
-0.5868857373532621
  0
ENDBLK
  5
20537
330
20531
100
AcDbEntity
  8
0
100
AcDbBlockEnd
  0
BLOCK
  5
2053B
330
20538
100
AcDbEntity
  8
0
100
AcDbBlockBegin
  2
B259351_M
 70
     0
 10
0.0
 20
0.0
 30
0.0
  3
B259351_M
  1

  0
LWPOLYLINE
  5
2053C
330
20538
100
AcDbEntity
  8
0
100
AcDbPolyline
 90
       46
 70
     1
 43
0.0
 10
-0.0000000000472102
 20
0.0663238368883957
 42
-0.4142135623730951
 10
0.0079999999527853
 20
0.0743238368883913
 10
0.0268564064133425
 20
0.0743238368883913
 42
-0.1316524975873776
 10
0.0308564064133403
 20
0.0732520401186695
 10
0.0859333579592114
 20
0.0414533473175088
 42
0.0453740290048416
 10
0.1020459460920033
 20
0.0340068929361391
 42
0.3148583090879042
 10
0.1296705808526664
 20
0.0415879383023904
 10
0.2132775607376693
 20
0.1422930323262773
 42
-0.2230683942869864
 10
0.2325125496138423
 20
0.1513238368883895
 10
0.342487450291733
 20
0.1513238368883895
 42
-0.2230683942869864
 10
0.3617224391679077
 20
0.1422930323262773
 10
0.4453294190529018
 20
0.0415879383023975
 42
0.3148583090879189
 10
0.4729540538135613
 20
0.0340068929361676
 42
0.0453740290048501
 10
0.4890666419463639
 20
0.0414533473175159
 10
0.5441435934922279
 20
0.0732520401186695
 42
-0.1316524975873776
 10
0.5481435934922257
 20
0.0743238368883913
 10
0.5669999999527829
 20
0.0743238368883913
 42
-0.4142135623730951
 10
0.5749999999527855
 20
0.0663238368883957
 10
0.5749999999527855
 20
0.0193238368883845
 42
-0.414213562373095
 10
0.5669999999527829
 20
0.0113238368883889
 10
0.5584799839286543
 20
0.0113238368883889
 42
1.779511413441527
 10
0.5584799839278088
 20
-0.02967616311121
 10
0.5669999999527829
 20
-0.0296761631116079
 42
-0.4142135623730625
 10
0.5749999999527855
 20
-0.0376761631116177
 10
0.5749999999527855
 20
-0.0846761631116148
 42
-0.414213562373095
 10
0.5669999999527829
 20
-0.0926761631116103
 10
0.5481435934922328
 20
-0.0926761631116103
 42
-0.1316524975873907
 10
0.5441435934922279
 20
-0.0916043663418885
 10
0.4890666419463639
 20
-0.0598056735407421
 42
0.093275063306594
 10
0.4548641706584764
 20
-0.0477997823781581
 42
-0.1836037872869595
 10
0.3930237342477856
 20
-0.012823114401696
 10
0.3398191704075
 20
0.0512620933532003
 42
0.4694988190660091
 10
0.2351808309211183
 20
0.0512620933532003
 10
0.1819762656577914
 20
-0.0128231144016925
 42
-0.1836037872869457
 10
0.120135829247106
 20
-0.0477997823781581
 42
0.0932750633066132
 10
0.0859333579592114
 20
-0.0598056735407421
 10
0.0308564064133403
 20
-0.0916043663418921
 42
-0.1316524975874097
 10
0.0268564064133425
 20
-0.0926761631116139
 10
0.0079999999527853
 20
-0.0926761631116139
 42
-0.4142135623730951
 10
-0.0000000000472102
 20
-0.0846761631116183
 10
-0.0000000000472173
 20
-0.0376761631116213
 42
-0.4142135623730625
 10
0.0079999999527853
 20
-0.0296761631116115
 10
0.0165200159777665
 20
-0.02967616311121
 42
1.779511413441528
 10
0.016520015976921
 20
0.0113238368883889
 10
0.0079999999527853
 20
0.0113238368883889
 42
-0.4142135623730951
 10
-0.0000000000472102
 20
0.0193238368883809
  0
CIRCLE
  5
2053D
330
20538
100
AcDbEntity
  8
0
100
AcDbCircle
 10
0.5459999999532155
 20
-0.0091761631111548
 30
0.0
 40
0.019
  0
CIRCLE
  5
2053E
330
20538
100
AcDbEntity
  8
0
100
AcDbCircle
 10
0.5459999999532155
 20
-0.0091761631111548
 30
0.0
 40
0.024
  0
CIRCLE
  5
2053F
330
20538
100
AcDbEntity
  8
0
100
AcDbCircle
 10
0.0289999999523598
 20
-0.0091761631111548
 30
0.0
 40
0.024
  0
CIRCLE
  5
20540
330
20538
100
AcDbEntity
  8
0
100
AcDbCircle
 10
0.0289999999523598
 20
-0.0091761631111548
 30
0.0
 40
0.019
  0
ENDBLK
  5
20541
330
20538
100
AcDbEntity
  8
0
100
AcDbBlockEnd
  0
BLOCK
  5
20545
330
20542
100
AcDbEntity
  8
0
100
AcDbBlockBegin
  2
B522107
 70
     0
 10
0.0
 20
0.0
 30
0.0
  3
B522107
  1

  0
INSERT
  5
20546
330
20542
100
AcDbEntity
  8
0
100
AcDbBlockReference
  2
B522028
 10
0.0
 20
0.0
 30
0.0
  0
INSERT
  5
20547
330
20542
100
AcDbEntity
  8
0
100
AcDbBlockReference
  2
B522029
 10
0.0
 20
0.0
 30
0.0
  0
INSERT
  5
20548
330
20542
100
AcDbEntity
  8
0
100
AcDbBlockReference
  2
B259351_M
 10
1.472500000689857
 20
-1.659989318135814
 30
0.0
  0
INSERT
  5
20549
330
20542
100
AcDbEntity
  8
0
100
AcDbBlockReference
  2
B259351_M
 10
1.472500000689857
 20
-3.152259576976737
 30
0.0
 41
-1.0
 50
180.0
  0
ENDBLK
  5
2054A
330
20542
100
AcDbEntity
  8
0
100
AcDbBlockEnd
  0
BLOCK
  5
2054C
330
2054B
100
AcDbEntity
  8
0
100
AcDbBlockBegin
  2
B200045
 70
     0
 10
0.0
 20
0.0
 30
0.0
  3
B200045
  1

  0
LWPOLYLINE
  5
2054D
330
2054B
100
AcDbEntity
  8
0
100
AcDbPolyline
 90
       33
 70
     1
 43
0.0
 10
-0.0913709802883958
 20
-0.0000000000000018
 42
-0.4142135623730951
 10
-0.09375
 20
0.0023790197116031
 10
-0.09375
 20
0.5625000000000007
 10
0.0574999999999975
 20
0.5625000000000025
 42
-0.4142135623731021
 10
0.0624999999999973
 20
0.5575000000000016
 10
0.0624999999999965
 20
0.4820000000000002
 42
-0.4142135623730948
 10
0.0304999999999964
 20
0.4500000000000001
 10
0.0225000000000009
 20
0.4500000000000001
 10
0.0225000000000009
 20
0.5125
 10
-0.0312500000000036
 20
0.5125
 10
-0.03125
 20
0.217500000000001
 10
0.0225000000000009
 20
0.217500000000001
 10
0.0225000000000009
 20
0.2789999999999998
 10
0.0304999999999964
 20
0.2789999999999998
 42
-0.4142135623730956
 10
0.0624999999999965
 20
0.2469999999999998
 10
0.0624999999999965
 20
0.1675000000000012
 10
-0.0357500000000002
 20
0.1675000000000012
 10
-0.0357500000000002
 20
0.0579999999999988
 10
-0.0000000000000036
 20
0.0579999999999997
 42
-0.4142135623730956
 10
0.0579999999999963
 20
0.0
 10
0.0579999999999998
 20
-0.05958788964411
 42
-0.2472032979083964
 10
0.0328170780266577
 20
-0.1074108902797066
 10
0.0677974933533143
 20
-0.3015878896441118
 10
0.0730000000000004
 20
-0.3015878896441118
 42
-0.414213562373072
 10
0.0780000000000003
 20
-0.3065878896441112
 10
0.0780000000000003
 20
-0.3465878896441097
 42
-0.4142135623731057
 10
0.0730000000000004
 20
-0.3515878896441098
 10
0.0260000000000034
 20
-0.3515878896441107
 10
-0.0229999999999997
 20
-0.0795878896441114
 10
-0.0229999999999997
 20
-0.0595878896441118
 10
0.0
 20
-0.0628203288422666
 10
0.0
 20
0.0
 10
-0.09375
 20
0.0
  0
ENDBLK
  5
2054E
330
2054B
100
AcDbEntity
  8
0
100
AcDbBlockEnd
  0
BLOCK
  5
20552
330
2054F
100
AcDbEntity
  8
0
100
AcDbBlockBegin
  2
B522019
 70
     0
 10
0.0
 20
0.0
 30
0.0
  3
B522019
  1

  0
LWPOLYLINE
  5
20553
330
2054F
100
AcDbEntity
  8
0
100
AcDbPolyline
 90
       34
 70
     1
 43
0.0
 39
0.02
 10
0.0
 20
0.0
 10
0.0
 20
0.0672929184549336
 10
-0.023299999999999
 20
0.0639929184549342
 10
-0.023299999999999
 20
0.0837246963562439
 10
0.0261499999999977
 20
0.3559999999999981
 10
0.0730000000000004
 20
0.3559999999999981
 42
-0.4082236476308206
 10
0.0779999999999923
 20
0.3510999999999989
 10
0.0779999999999994
 20
0.3109999999999999
 42
-0.4142135623730949
 10
0.0730000000000004
 20
0.3059999999999992
 10
0.0678499999999964
 20
0.3059999999999992
 10
0.0331488442970454
 20
0.1148936353073626
 42
-0.2453593425286925
 10
0.0580000000000034
 20
0.0672999999999995
 10
0.0579999999999998
 20
0.0
 42
-0.4142135623730951
 10
0.0
 20
-0.0579999999999998
 10
-0.0360000000000014
 20
-0.0580000000000016
 10
-0.0360000000000014
 20
-0.5039999999999978
 10
0.4059999999999953
 20
-0.5039999999999943
 10
0.4060000000000024
 20
-0.1669999999999927
 10
0.5620000000000048
 20
-0.1669999999999945
 10
0.5620000000000012
 20
-0.2469999999999946
 42
-0.4100304971928916
 10
0.5304500000000019
 20
-0.2789999999999928
 10
0.5220500000000002
 20
-0.2789999999999928
 10
0.5220500000000002
 20
-0.2169999999999916
 10
0.4680000000000036
 20
-0.2169999999999916
 10
0.4679999999999965
 20
-0.5119999999999934
 10
0.5220500000000002
 20
-0.5119999999999934
 10
0.5220500000000002
 20
-0.449999999999994
 10
0.5304500000000019
 20
-0.449999999999994
 42
-0.4100307594580595
 10
0.5619999999999977
 20
-0.481999999999994
 10
0.5620000000000012
 20
-0.5569999999999933
 42
-0.4142135623731471
 10
0.5570000000000022
 20
-0.5619999999999941
 10
-0.0940000000000012
 20
-0.5619999999999977
 10
-0.0940000000000012
 20
-0.0050000000000008
 42
-0.4142135623731015
 10
-0.0890000000000022
 20
-0.0000000000000018
  0
ENDBLK
  5
20554
330
2054F
100
AcDbEntity
  8
0
100
AcDbBlockEnd
  0
BLOCK
  5
20558
330
20555
100
AcDbEntity
  8
0
100
AcDbBlockBegin
  2
B027557-M
 70
     0
 10
0.0
 20
0.0
 30
0.0
  3
B027557-M
  1

  0
LWPOLYLINE
  5
20559
330
20555
100
AcDbEntity
  8
0
100
AcDbPolyline
 90
       25
 70
     1
 43
0.0
 10
0.1389999171470215
 20
0.036475500648665
 42
-0.3659773818630291
 10
0.1233749200409129
 20
0.0179877488806941
 42
0.8451541205597354
 10
0.1233749200409129
 20
-0.0189877487853636
 42
-0.3659773818630296
 10
0.1389999171470215
 20
-0.0374755005533345
 10
0.1389999000000035
 20
-0.1470199652083437
 10
0.1026527115565532
 20
-0.1859064539007527
 42
-0.6774245117737906
 10
0.0939999798778875
 20
-0.1825331816800872
 10
0.0939999900000022
 20
-0.0684994652083439
 42
0.4142145847636688
 10
0.083999915093278
 20
-0.0584994252084048
 10
0.0499999150932791
 20
-0.0584994252084048
 42
0.4142125399832613
 10
0.0399999100000024
 20
-0.0684994652083439
 10
0.0399999767362243
 20
-0.1101862517867715
 42
-1.414214331160624
 10
0.0080000150000021
 20
-0.1214999652083435
 10
0.0080000150000021
 20
-0.037999990208343
 42
-0.4142135623730948
 10
0.0267500150000029
 20
-0.0192499902083441
 42
1.0
 10
0.0267500150000029
 20
0.0182500097916556
 42
-0.4142135623730948
 10
0.0080000150000021
 20
0.0370000097916563
 10
0.0080000150000021
 20
0.1204999847916568
 42
-1.414216949159623
 10
0.0399999372438291
 20
0.1091862225010161
 10
0.0399999100000024
 20
0.0675000847916572
 42
0.414211977669191
 10
0.0499998958945796
 20
0.0575000447918033
 10
0.0839998958945803
 20
0.0575000447918033
 42
0.4142151470787752
 10
0.0939999900000022
 20
0.0675000847916572
 10
0.094000000000003
 20
0.1724071847916573
 10
0.1389999520635534
 20
0.1724071847916573
  0
LWPOLYLINE
  5
2055A
330
20555
100
AcDbEntity
  8
0
100
AcDbPolyline
 90
        8
 70
     1
 43
0.0
 10
0.1552790449679904
 20
0.0791840422733008
 42
-0.3853710633384622
 10
0.2173305665021816
 20
0.0298046935823939
 10
0.2605613019194712
 20
-0.1091455450232648
 42
0.8401483705972133
 10
0.2817500003574631
 20
-0.1074528818162966
 10
0.2817500003574627
 20
0.0519042053037712
 42
0.429333626747371
 10
0.168036796352109
 20
0.1715293075980344
 10
0.1389999429971083
 20
0.1724071939390674
 10
0.1389999429971083
 20
0.0793014802371326
  0
LWPOLYLINE
  5
2055B
330
20555
100
AcDbEntity
  8
0
100
AcDbPolyline
 90
        9
 70
     1
 43
0.0
 10
0.0926304649398685
 20
-0.213216753295065
 10
0.223129942552226
 20
-0.309400970398076
 42
-0.2296220038125673
 10
0.2601501732737044
 20
-0.3883865484877873
 42
0.7447917779038549
 10
0.2788235260522203
 20
-0.3961702017726709
 42
0.1066836500929226
 10
0.2817500003574631
 20
-0.3706885203927912
 10
0.2817500003574616
 20
-0.3230257343303464
 42
0.2150792482913201
 10
0.2339301745693936
 20
-0.2365876750986489
 10
0.1389996929971071
 20
-0.147019456060933
 10
0.0911233187580225
 20
-0.1982409383247388
 42
0.4537622021367043
  0
ENDBLK
  5
2055C
330
20555
100
AcDbEntity
  8
0
100
AcDbBlockEnd
  0
BLOCK
  5
20560
330
2055D
100
AcDbEntity
  8
0
100
AcDbBlockBegin
  2
S522GT01
 70
     0
 10
0.0
 20
0.0
 30
0.0
  3
S522GT01
  1

  0
INSERT
  5
20561
330
2055D
100
AcDbEntity
  8
0
100
AcDbBlockReference
  2
B200045
 10
2.000000000714917
 20
0.0000000000000055
 30
0.0
 50
180.0
  0
LINE
  5
20562
330
2055D
100
AcDbEntity
  8
0
100
AcDbLine
 10
1.943071097717689
 20
-0.5695674035869696
 30
0.0
 11
1.943071097717689
 21
-1.920499466143646
 31
0.0
  0
LINE
  5
20563
330
2055D
100
AcDbEntity
  8
0
100
AcDbLine
 10
0.5564289029972356
 20
-0.5695694560611099
 30
0.0
 11
0.5564289029972356
 21
-1.920499456996243
 31
0.0
  0
INSERT
  5
20564
330
2055D
100
AcDbEntity
  8
0
100
AcDbBlockReference
  2
B522019
 10
0.0
 20
0.0
 30
0.0
  0
INSERT
  5
20565
330
2055D
100
AcDbEntity
  8
0
100
AcDbBlockReference
  2
B027557-M
 10
0.468
 20
-0.3644999999999925
 30
0.0
  0
INSERT
  5
20566
330
2055D
100
AcDbEntity
  8
0
100
AcDbBlockReference
  2
B027557-M
 10
-2.031500000714926
 20
-0.3644999999999927
 30
0.0
 43
-1.0
210
0.0
220
0.0
230
-1.0
  0
LINE
  5
20567
330
2055D
100
AcDbEntity
  8
0
100
AcDbLine
 10
1.749750000357462
 20
-0.1872488951124764
 30
0.0
 11
1.749750000357462
 21
-1.920499456996243
 31
0.0
  0
LINE
  5
20568
330
2055D
100
AcDbEntity
  8
0
100
AcDbLine
 10
1.499750000357462
 20
-0.1872488951124764
 30
0.0
 11
1.499750000357462
 21
-1.920499456996243
 31
0.0
  0
LINE
  5
20569
330
2055D
100
AcDbEntity
  8
0
100
AcDbLine
 10
0.9997500003574621
 20
-0.1872488951124764
 30
0.0
 11
0.999750000357462
 21
-1.920499456996244
 31
0.0
  0
LINE
  5
2056A
330
2055D
100
AcDbEntity
  8
0
100
AcDbLine
 10
0.7497500003574622
 20
-0.1872488951124764
 30
0.0
 11
0.7497500003574622
 21
-1.920499456996243
 31
0.0
  0
LINE
  5
2056B
330
2055D
100
AcDbEntity
  8
0
100
AcDbLine
 10
1.749750000357462
 20
-0.1872488951124764
 30
0.0
 11
0.7497500003574622
 21
-0.1872488951124764
 31
0.0
  0
LINE
  5
2056C
330
2055D
100
AcDbEntity
  8
0
100
AcDbLine
 10
1.499750000357462
 20
-0.4367089451124762
 30
0.0
 11
0.9997500003574621
 21
-0.4367089451124762
 31
0.0
  0
ENDBLK
  5
2056D
330
2055D
100
AcDbEntity
  8
0
100
AcDbBlockEnd
  0
BLOCK
  5
20583
330
20573
100
AcDbEntity
  8
0
100
AcDbBlockBegin
  2
S522TR02
 70
     0
 10
0.0
 20
0.0
 30
0.0
  3
S522TR02
  1

  0
DIMENSION
  5
205EB
330
20573
100
AcDbEntity
  8
DIME
100
AcDbDimension
  2
*D10
 10
-1.124999999885331
 20
0.0000000000000003
 30
0.0
 11
-1.354263301386013
 21
0.8775409276944067
 31
0.0
 70
    32
 71
     5
 42
0.1250000000000106
  3
EXT_ON-ON
100
AcDbAlignedDimension
 13
0.125
 23
-0.1250000000000107
 33
0.0
 14
0.0
 24
0.0
 34
0.0
 50
90.0
100
AcDbRotatedDimension
  0
DIMENSION
  5
205EC
330
20573
100
AcDbEntity
  8
DIME
100
AcDbDimension
  2
*D11
 10
-1.12499999988533
 20
-5.295499466143663
 30
0.0
 11
-1.354263301386011
 21
-2.710249733071837
 31
0.0
 70
    32
  1
D.S.
 71
     5
 42
5.170499466143652
  3
EXT_ON-OFF
100
AcDbAlignedDimension
 13
0.125
 23
-0.1250000000000107
 33
0.0
 14
0.035
 24
-5.295499466143663
 34
0.0
 50
90.0
100
AcDbRotatedDimension
  0
DIMENSION
  5
205ED
330
20573
100
AcDbEntity
  8
DIME
100
AcDbDimension
  2
*D12
 10
-1.74999999988533
 20
-5.295499466143663
 30
0.0
 11
-1.979348567416025
 21
-2.647749733071831
 31
0.0
 70
    32
  1
D.O.
 71
     5
 42
5.295499466143663
  3
EXT_ON-OFF
100
AcDbAlignedDimension
 13
0.0
 23
0.0
 33
0.0
 14
0.035
 24
-5.295499466143663
 34
0.0
 50
90.0
100
AcDbRotatedDimension
  0
DIMENSION
  5
205EE
330
20573
100
AcDbEntity
  8
DIME
100
AcDbDimension
  2
*D13
 10
-0.5624999998853304
 20
-5.295499466143663
 30
0.0
 11
-0.7918485674160252
 21
-4.33524973307184
 31
0.0
 70
    32
  1
DLO
 71
     5
 42
1.920499466143645
  3
EXT_ON-OFF
100
AcDbAlignedDimension
 13
0.138000000000003
 23
-3.375000000000017
 33
0.0
 14
0.035
 24
-5.295499466143663
 34
0.0
 50
90.0
100
AcDbRotatedDimension
  0
DIMENSION
  5
205EF
330
20573
100
AcDbEntity
  8
DIME
100
AcDbDimension
  2
*D14
 10
-0.5624999998853304
 20
-3.375000000000017
 30
0.0
 11
-0.7918485674160256
 21
-1.750000000000014
 31
0.0
 70
    32
 71
     5
 42
3.250000000000007
  3
EXT_ON-ON
100
AcDbAlignedDimension
 13
0.125
 23
-0.1250000000000107
 33
0.0
 14
0.138000000000003
 24
-3.375000000000017
 34
0.0
 50
90.0
100
AcDbRotatedDimension
  0
LINE
  5
205F0
330
20573
100
AcDbEntity
  8
0
100
AcDbLine
 10
2.374999999999999
 20
-0.1250000000000107
 30
0.0
 11
2.374999999999999
 21
-5.295499466143663
 31
0.0
  0
LINE
  5
205F1
330
20573
100
AcDbEntity
  8
0
100
AcDbLine
 10
0.125
 20
-0.1250000000000107
 30
0.0
 11
0.125
 21
-5.295499466143663
 31
0.0
  0
LWPOLYLINE
  5
205F2
330
20573
100
AcDbEntity
  8
0
  6
Continuous
100
AcDbPolyline
 90
        6
 70
     0
 43
0.0
 10
0.035
 20
-5.295499466143663
 10
1.1875
 20
-5.295499466143663
 10
1.21875
 20
-5.38135813550162
 10
1.28125
 20
-5.209640796785706
 10
1.3125
 20
-5.295499466143663
 10
2.464999999999999
 20
-5.295499466143663
  0
INSERT
  5
205F3
330
20573
100
AcDbEntity
  8
0
100
AcDbBlockReference
  2
B522107
 10
0.0
 20
0.0
 30
0.0
  0
INSERT
  5
205F4
330
20573
100
AcDbEntity
  8
0
100
AcDbBlockReference
  2
S522GT01
 10
0.2499999999999858
 20
-3.375000000000017
 30
0.0
  0
ENDBLK
  5
20584
330
20573
100
AcDbEntity
  8
0
100
AcDbBlockEnd
  0
BLOCK
  5
205FA
330
205F9
100
AcDbEntity
  8
0
100
AcDbBlockBegin
  2
*D10
 70
     1
 10
0.0
 20
0.0
 30
0.0
  3
*D10
  1

  0
LINE
  5
205FC
330
205F9
100
AcDbEntity
  8
DIME
 62
     0
370
    -2
100
AcDbLine
 10
-0.25
 20
-0.1250000000000105
 30
0.0
 11
-1.304999999885331
 21
-0.1250000000000103
 31
0.0
  0
LINE
  5
205FD
330
205F9
100
AcDbEntity
  8
DIME
 62
     0
370
    -2
100
AcDbLine
 10
-0.375
 20
0.0000000000000001
 30
0.0
 11
-1.304999999885331
 21
0.0000000000000004
 31
0.0
  0
LINE
  5
205FE
330
205F9
100
AcDbEntity
  8
DIME
 62
     0
370
    -2
100
AcDbLine
 10
-1.124999999885331
 20
-0.3750000000000103
 30
0.0
 11
-1.124999999885331
 21
-0.6250000000000103
 31
0.0
  0
LINE
  5
205FF
330
205F9
100
AcDbEntity
  8
DIME
 62
     0
370
    -2
100
AcDbLine
 10
-1.124999999885331
 20
0.2500000000000003
 30
0.0
 11
-1.124999999885331
 21
1.255081855388813
 31
0.0
  0
SOLID
  5
20600
330
205F9
100
AcDbEntity
  8
DIME
 62
     0
100
AcDbTrace
 10
-1.166666666551998
 20
-0.3750000000000103
 30
0.0
 11
-1.083333333218664
 21
-0.3750000000000103
 31
0.0
 12
-1.124999999885331
 22
-0.1250000000000103
 32
0.0
 13
-1.124999999885331
 23
-0.1250000000000103
 33
0.0
  0
SOLID
  5
20601
330
205F9
100
AcDbEntity
  8
DIME
 62
     0
100
AcDbTrace
 10
-1.166666666551998
 20
0.2500000000000003
 30
0.0
 11
-1.083333333218664
 21
0.2500000000000003
 31
0.0
 12
-1.124999999885331
 22
0.0000000000000003
 32
0.0
 13
-1.124999999885331
 23
0.0000000000000003
 33
0.0
  0
MTEXT
  5
20602
330
205F9
100
AcDbEntity
  8
DIME
 62
     0
100
AcDbMText
 10
-1.354263301386013
 20
0.8775409276944067
 30
0.0
 40
0.25
 41
0.0
 71
     5
 72
     1
  1
\A1;1/8"
 11
0.0000000000000001
 21
1.0
 31
0.0
 73
     1
 44
1.0
1001
ACAD
1000
MTEXTBEGIN
1070
    73
1070
     1
1070
    44
1040
1.0
1070
    74
1070
     0
1000
MTEXTEND
  0
POINT
  5
20603
330
205F9
100
AcDbEntity
  8
DEFPOINTS
 62
     0
100
AcDbPoint
 10
0.125
 20
-0.1250000000000107
 30
0.0
  0
POINT
  5
20604
330
205F9
100
AcDbEntity
  8
DEFPOINTS
 62
     0
100
AcDbPoint
 10
0.0
 20
0.0
 30
0.0
  0
POINT
  5
20605
330
205F9
100
AcDbEntity
  8
DEFPOINTS
 62
     0
100
AcDbPoint
 10
-1.124999999885331
 20
0.0000000000000003
 30
0.0
  0
ENDBLK
  5
205FB
330
205F9
100
AcDbEntity
  8
0
100
AcDbBlockEnd
  0
BLOCK
  5
20607
330
20606
100
AcDbEntity
  8
0
100
AcDbBlockBegin
  2
*D11
 70
     1
 10
0.0
 20
0.0
 30
0.0
  3
*D11
  1

  0
LINE
  5
20609
330
20606
100
AcDbEntity
  8
DIME
 62
     0
370
    -2
100
AcDbLine
 10
-0.25
 20
-0.1250000000000105
 30
0.0
 11
-1.304999999885329
 21
-0.1250000000000103
 31
0.0
  0
LINE
  5
2060A
330
20606
100
AcDbEntity
  8
DIME
 62
     0
370
    -2
100
AcDbLine
 10
-1.124999999885329
 20
-0.3750000000000103
 30
0.0
 11
-1.12499999988533
 21
-5.045499466143663
 31
0.0
  0
SOLID
  5
2060B
330
20606
100
AcDbEntity
  8
DIME
 62
     0
100
AcDbTrace
 10
-1.166666666551996
 20
-0.3750000000000103
 30
0.0
 11
-1.083333333218662
 21
-0.3750000000000103
 31
0.0
 12
-1.124999999885329
 22
-0.1250000000000103
 32
0.0
 13
-1.124999999885329
 23
-0.1250000000000103
 33
0.0
  0
SOLID
  5
2060C
330
20606
100
AcDbEntity
  8
DIME
 62
     0
100
AcDbTrace
 10
-1.166666666551997
 20
-5.045499466143663
 30
0.0
 11
-1.083333333218663
 21
-5.045499466143663
 31
0.0
 12
-1.12499999988533
 22
-5.295499466143663
 32
0.0
 13
-1.12499999988533
 23
-5.295499466143663
 33
0.0
  0
MTEXT
  5
2060D
330
20606
100
AcDbEntity
  8
DIME
 62
     0
100
AcDbMText
 10
-1.354263301386011
 20
-2.710249733071837
 30
0.0
 40
0.25
 41
0.0
 71
     5
 72
     1
  1
\A1;D.S.
 11
0.0000000000000001
 21
1.0
 31
0.0
 73
     1
 44
1.0
1001
ACAD
1000
MTEXTBEGIN
1070
    73
1070
     1
1070
    44
1040
1.0
1070
    74
1070
     0
1000
MTEXTEND
  0
POINT
  5
2060E
330
20606
100
AcDbEntity
  8
DEFPOINTS
 62
     0
100
AcDbPoint
 10
0.125
 20
-0.1250000000000107
 30
0.0
  0
POINT
  5
2060F
330
20606
100
AcDbEntity
  8
DEFPOINTS
 62
     0
100
AcDbPoint
 10
0.035
 20
-5.295499466143663
 30
0.0
  0
POINT
  5
20610
330
20606
100
AcDbEntity
  8
DEFPOINTS
 62
     0
100
AcDbPoint
 10
-1.12499999988533
 20
-5.295499466143663
 30
0.0
  0
ENDBLK
  5
20608
330
20606
100
AcDbEntity
  8
0
100
AcDbBlockEnd
  0
BLOCK
  5
20612
330
20611
100
AcDbEntity
  8
0
100
AcDbBlockBegin
  2
*D12
 70
     1
 10
0.0
 20
0.0
 30
0.0
  3
*D12
  1

  0
LINE
  5
20614
330
20611
100
AcDbEntity
  8
DIME
 62
     0
370
    -2
100
AcDbLine
 10
-0.375
 20
0.0000000000000001
 30
0.0
 11
-1.929999999885329
 21
0.0000000000000005
 31
0.0
  0
LINE
  5
20615
330
20611
100
AcDbEntity
  8
DIME
 62
     0
370
    -2
100
AcDbLine
 10
-1.749999999885329
 20
-0.2499999999999995
 30
0.0
 11
-1.74999999988533
 21
-5.045499466143663
 31
0.0
  0
SOLID
  5
20616
330
20611
100
AcDbEntity
  8
DIME
 62
     0
100
AcDbTrace
 10
-1.791666666551996
 20
-0.2499999999999995
 30
0.0
 11
-1.708333333218662
 21
-0.2499999999999995
 31
0.0
 12
-1.749999999885329
 22
0.0000000000000005
 32
0.0
 13
-1.749999999885329
 23
0.0000000000000005
 33
0.0
  0
SOLID
  5
20617
330
20611
100
AcDbEntity
  8
DIME
 62
     0
100
AcDbTrace
 10
-1.791666666551997
 20
-5.045499466143663
 30
0.0
 11
-1.708333333218663
 21
-5.045499466143663
 31
0.0
 12
-1.74999999988533
 22
-5.295499466143663
 32
0.0
 13
-1.74999999988533
 23
-5.295499466143663
 33
0.0
  0
MTEXT
  5
20618
330
20611
100
AcDbEntity
  8
DIME
 62
     0
100
AcDbMText
 10
-1.979348567416025
 20
-2.647749733071831
 30
0.0
 40
0.25
 41
0.0
 71
     5
 72
     1
  1
\A1;D.O.
 11
0.0000000000000001
 21
1.0
 31
0.0
 73
     1
 44
1.0
1001
ACAD
1000
MTEXTBEGIN
1070
    73
1070
     1
1070
    44
1040
1.0
1070
    74
1070
     0
1000
MTEXTEND
  0
POINT
  5
20619
330
20611
100
AcDbEntity
  8
DEFPOINTS
 62
     0
100
AcDbPoint
 10
0.0
 20
0.0
 30
0.0
  0
POINT
  5
2061A
330
20611
100
AcDbEntity
  8
DEFPOINTS
 62
     0
100
AcDbPoint
 10
0.035
 20
-5.295499466143663
 30
0.0
  0
POINT
  5
2061B
330
20611
100
AcDbEntity
  8
DEFPOINTS
 62
     0
100
AcDbPoint
 10
-1.74999999988533
 20
-5.295499466143663
 30
0.0
  0
ENDBLK
  5
20613
330
20611
100
AcDbEntity
  8
0
100
AcDbBlockEnd
  0
BLOCK
  5
2061D
330
2061C
100
AcDbEntity
  8
0
100
AcDbBlockBegin
  2
*D13
 70
     1
 10
0.0
 20
0.0
 30
0.0
  3
*D13
  1

  0
LINE
  5
2061F
330
2061C
100
AcDbEntity
  8
DIME
 62
     0
370
    -2
100
AcDbLine
 10
-0.236999999999997
 20
-3.375000000000017
 30
0.0
 11
-0.7424999998853299
 21
-3.375000000000017
 31
0.0
  0
LINE
  5
20620
330
2061C
100
AcDbEntity
  8
DIME
 62
     0
370
    -2
100
AcDbLine
 10
-0.56249999988533
 20
-3.625000000000017
 30
0.0
 11
-0.5624999998853303
 21
-5.045499466143663
 31
0.0
  0
SOLID
  5
20621
330
2061C
100
AcDbEntity
  8
DIME
 62
     0
100
AcDbTrace
 10
-0.6041666665519966
 20
-3.625000000000017
 30
0.0
 11
-0.5208333332186634
 21
-3.625000000000017
 31
0.0
 12
-0.56249999988533
 22
-3.375000000000017
 32
0.0
 13
-0.56249999988533
 23
-3.375000000000017
 33
0.0
  0
SOLID
  5
20622
330
2061C
100
AcDbEntity
  8
DIME
 62
     0
100
AcDbTrace
 10
-0.604166666551997
 20
-5.045499466143663
 30
0.0
 11
-0.5208333332186637
 21
-5.045499466143663
 31
0.0
 12
-0.5624999998853304
 22
-5.295499466143663
 32
0.0
 13
-0.5624999998853304
 23
-5.295499466143663
 33
0.0
  0
MTEXT
  5
20623
330
2061C
100
AcDbEntity
  8
DIME
 62
     0
100
AcDbMText
 10
-0.7918485674160252
 20
-4.33524973307184
 30
0.0
 40
0.25
 41
0.0
 71
     5
 72
     1
  1
\A1;DLO
 11
0.0000000000000001
 21
1.0
 31
0.0
 73
     1
 44
1.0
1001
ACAD
1000
MTEXTBEGIN
1070
    73
1070
     1
1070
    44
1040
1.0
1070
    74
1070
     0
1000
MTEXTEND
  0
POINT
  5
20624
330
2061C
100
AcDbEntity
  8
DEFPOINTS
 62
     0
100
AcDbPoint
 10
0.138000000000003
 20
-3.375000000000017
 30
0.0
  0
POINT
  5
20625
330
2061C
100
AcDbEntity
  8
DEFPOINTS
 62
     0
100
AcDbPoint
 10
0.035
 20
-5.295499466143663
 30
0.0
  0
POINT
  5
20626
330
2061C
100
AcDbEntity
  8
DEFPOINTS
 62
     0
100
AcDbPoint
 10
-0.5624999998853304
 20
-5.295499466143663
 30
0.0
  0
ENDBLK
  5
2061E
330
2061C
100
AcDbEntity
  8
0
100
AcDbBlockEnd
  0
BLOCK
  5
20628
330
20627
100
AcDbEntity
  8
0
100
AcDbBlockBegin
  2
*D14
 70
     1
 10
0.0
 20
0.0
 30
0.0
  3
*D14
  1

  0
LINE
  5
2062A
330
20627
100
AcDbEntity
  8
DIME
 62
     0
370
    -2
100
AcDbLine
 10
-0.25
 20
-0.1250000000000105
 30
0.0
 11
-0.7424999998853297
 21
-0.1250000000000104
 31
0.0
  0
LINE
  5
2062B
330
20627
100
AcDbEntity
  8
DIME
 62
     0
370
    -2
100
AcDbLine
 10
-0.236999999999997
 20
-3.375000000000017
 30
0.0
 11
-0.7424999998853304
 21
-3.375000000000017
 31
0.0
  0
LINE
  5
2062C
330
20627
100
AcDbEntity
  8
DIME
 62
     0
370
    -2
100
AcDbLine
 10
-0.5624999998853298
 20
-0.3750000000000104
 30
0.0
 11
-0.5624999998853303
 21
-3.125000000000017
 31
0.0
  0
SOLID
  5
2062D
330
20627
100
AcDbEntity
  8
DIME
 62
     0
100
AcDbTrace
 10
-0.6041666665519964
 20
-0.3750000000000104
 30
0.0
 11
-0.5208333332186631
 21
-0.3750000000000104
 31
0.0
 12
-0.5624999998853296
 22
-0.1250000000000105
 32
0.0
 13
-0.5624999998853296
 23
-0.1250000000000105
 33
0.0
  0
SOLID
  5
2062E
330
20627
100
AcDbEntity
  8
DIME
 62
     0
100
AcDbTrace
 10
-0.604166666551997
 20
-3.125000000000017
 30
0.0
 11
-0.5208333332186637
 21
-3.125000000000017
 31
0.0
 12
-0.5624999998853304
 22
-3.375000000000017
 32
0.0
 13
-0.5624999998853304
 23
-3.375000000000017
 33
0.0
  0
MTEXT
  5
2062F
330
20627
100
AcDbEntity
  8
DIME
 62
     0
100
AcDbMText
 10
-0.7918485674160256
 20
-1.750000000000014
 30
0.0
 40
0.25
 41
0.0
 71
     5
 72
     1
  1
\A1;3 1/4"
 11
0.0000000000000001
 21
1.0
 31
0.0
 73
     1
 44
1.0
1001
ACAD
1000
MTEXTBEGIN
1070
    73
1070
     1
1070
    44
1040
1.0
1070
    74
1070
     0
1000
MTEXTEND
  0
POINT
  5
20630
330
20627
100
AcDbEntity
  8
DEFPOINTS
 62
     0
100
AcDbPoint
 10
0.125
 20
-0.1250000000000107
 30
0.0
  0
POINT
  5
20631
330
20627
100
AcDbEntity
  8
DEFPOINTS
 62
     0
100
AcDbPoint
 10
0.138000000000003
 20
-3.375000000000017
 30
0.0
  0
POINT
  5
20632
330
20627
100
AcDbEntity
  8
DEFPOINTS
 62
     0
100
AcDbPoint
 10
-0.5624999998853304
 20
-3.375000000000017
 30
0.0
  0
ENDBLK
  5
20629
330
20627
100
AcDbEntity
  8
0
100
AcDbBlockEnd
  0
BLOCK
  5
20676
330
20673
100
AcDbEntity
  8
0
100
AcDbBlockBegin
  2
B524028_M
 70
     0
 10
0.0
 20
0.0
 30
0.0
  3
B524028_M
  1

  0
LWPOLYLINE
  5
20677
330
20673
100
AcDbEntity
  8
0
100
AcDbPolyline
 90
       71
 70
     1
 43
0.0
 10
1.893020418333133
 20
-4.982020810899063
 10
1.868557119886165
 20
-5.017350300568603
 42
0.2540700439599419
 10
1.866498727721694
 20
-5.036332133393235
 10
1.875066614400456
 20
-5.057199926035933
 42
0.3281932863521666
 10
1.885188808320474
 20
-5.06336375183884
 10
1.912747313675378
 20
-5.060952695036716
 42
0.2048158433769062
 10
1.919680060321287
 20
-5.057243174619157
 10
1.931682442537397
 20
-5.042261752691151
 42
-0.2976378995951363
 10
1.942074937061807
 20
-5.038854920991616
 10
2.02938243707187
 20
-5.062248895112494
 10
2.110000000714912
 20
-5.062248895112494
 42
0.4142135623730951
 10
2.172000000714909
 20
-5.000248895112497
 10
2.172000000714909
 20
-4.751000000000017
 10
2.265748000714907
 20
-4.751000000000017
 10
2.282000000714909
 20
-5.075000000000001
 10
2.250000000714905
 20
-5.075000000000001
 10
2.250000000714905
 20
-5.125000000000012
 10
2.36200000071491
 20
-5.125000000000012
 10
2.362000000714914
 20
-0.1249999999999982
 10
2.250000000714916
 20
-0.1249999999999982
 10
2.250000000714916
 20
-1.499999999999991
 10
2.029382437308317
 20
-1.499999999999991
 10
1.942074935538336
 20
-1.523393974592439
 42
-0.2976378995951363
 10
1.931682441013926
 20
-1.519987142892903
 10
1.919680058797816
 20
-1.5050057209649
 42
0.2048158433769061
 10
1.912747312151907
 20
-1.501296200547338
 10
1.885188806797003
 20
-1.498885143745214
 42
0.3281932863521668
 10
1.875066612876985
 20
-1.505048969548122
 10
1.866498726198223
 20
-1.525916762190822
 42
0.2540700439599419
 10
1.868557118362694
 20
-1.544898595015451
 10
1.893020416809662
 20
-1.580228084684991
 42
0.1237581644398281
 10
1.900358550728824
 20
-1.586649896718165
 10
1.958973253177603
 20
-1.616619008184406
 42
0.7818493696233066
 10
1.971717147071647
 20
-1.601979542569866
 10
1.996536055748592
 20
-1.584601155624122
 42
0.3689783014497572
 10
1.999787323764653
 20
-1.572024062355636
 42
-0.5486861486952166
 10
2.008599832079838
 20
-1.557640012578465
 10
2.027150952504733
 20
-1.557316201566967
 42
-0.4193348045467388
 10
2.047500000633469
 20
-1.57731315565981
 10
2.04749999906496
 20
-1.742665481339637
 42
-0.4142135647780507
 10
2.037499999064948
 20
-1.752665481421734
 10
2.017500000713749
 20
-1.752665482364831
 10
1.969495943074225
 20
-1.724950326764497
 42
0.58688573735326
 10
1.954500000713991
 20
-1.716005228326876
 10
1.936300000714918
 20
-1.726513003225603
 10
1.936299999081406
 20
-1.827665481421758
 42
0.4142135623730951
 10
1.951299999081388
 20
-1.842665481421759
 10
2.141000000714921
 20
-1.842665481421716
 42
0.414213562373028
 10
2.172000000714913
 20
-1.811665481421718
 10
2.172000000714913
 20
-1.782499999999989
 42
-0.9999999999999998
 10
2.237000000714914
 20
-1.782499999999989
 10
2.23700000071491
 20
-4.626000000000017
 10
2.109000000714907
 20
-4.626000000000017
 42
0.4142135623730783
 10
2.047000000714909
 20
-4.688000000000021
 10
2.047000000714909
 20
-4.719583413690754
 10
1.951300000714919
 20
-4.719583413690733
 42
0.4142135623731646
 10
1.936300000714933
 20
-4.734583413690733
 10
1.936300000714908
 20
-4.835735892830014
 10
1.954500000713981
 20
-4.846243667728741
 42
0.5868857373532491
 10
1.969495943074214
 20
-4.837298569291119
 10
2.017500000713738
 20
-4.809583413690786
 10
2.037500000698479
 20
-4.809583413690758
 42
-0.4142135647780507
 10
2.047500000698491
 20
-4.819583413772855
 10
2.047500000714101
 20
-4.984935740086891
 42
-0.4193348017860202
 10
2.027150952585362
 20
-5.004932693991909
 10
2.008599833603309
 20
-5.004608883005593
 42
-0.5486861486952166
 10
1.999787325288124
 20
-4.990224833228422
 42
0.3689783014497569
 10
1.996536057272063
 20
-4.977647739959932
 10
1.971717148595118
 20
-4.960269353014188
 42
0.7818493696233066
 10
1.958973254701074
 20
-4.945629887399652
 10
1.900358552252296
 20
-4.975598998865889
 42
0.123758164439828
  0
ENDBLK
  5
20678
330
20673
100
AcDbEntity
  8
0
100
AcDbBlockEnd
  0
BLOCK
  5
2067C
330
20679
100
AcDbEntity
  8
0
100
AcDbBlockBegin
  2
B524029_M
 70
     0
 10
0.0
 20
0.0
 30
0.0
  3
B524029_M
  1

  0
LWPOLYLINE
  5
2067D
330
20679
100
AcDbEntity
  8
0
100
AcDbPolyline
 90
       10
 70
     1
 43
0.0
 10
1.363500001415715
 20
-1.625000000471539
 10
0.4369999999842627
 20
-1.625000000471539
 10
0.4369999999842627
 20
-1.780665481893327
 42
-0.4142135623730954
 10
0.4059999999842603
 20
-1.811665481893326
 10
0.2629999999842667
 20
-1.811665481893326
 10
0.2629999999842667
 20
-4.626000000471565
 10
0.3749999999842402
 20
-4.626000000471561
 42
-0.4142135623730363
 10
0.4369999999842414
 20
-4.688000000471561
 10
0.4369999999842449
 20
-4.937248895584035
 10
1.363500001415708
 20
-4.937248895584035
  0
LWPOLYLINE
  5
2067E
330
20679
100
AcDbEntity
  8
0
100
AcDbPolyline
 90
       65
 70
     1
 43
0.0
 10
1.472500001359467
 20
-4.984935740688456
 42
0.4193347993695591
 10
1.492849049488203
 20
-5.004932694429065
 10
1.511400166502113
 20
-5.004608883477104
 42
0.5486861486951595
 10
1.520212674817297
 20
-4.990224833699933
 42
-0.3689783014497787
 10
1.523463942833359
 20
-4.977647740431446
 10
1.548282851510304
 20
-4.960269353485703
 42
-0.7818493696232782
 10
1.561026745404348
 20
-4.945629887871163
 10
1.619641447853126
 20
-4.975598999337403
 42
-0.1237581644398302
 10
1.626979581772289
 20
-4.982020811370578
 10
1.651442880219256
 20
-5.017350301040117
 42
-0.2540700439599415
 10
1.653501272383728
 20
-5.03633213386475
 10
1.644933385704966
 20
-5.057199926507447
 42
-0.3281932863521681
 10
1.634811191784947
 20
-5.063363752310355
 10
1.607252686430044
 20
-5.06095269550823
 42
-0.2048158433769106
 10
1.600319939784135
 20
-5.057243175090668
 10
1.588317557568025
 20
-5.042261753162666
 42
0.2976378995951365
 10
1.577925063043615
 20
-5.03885492146313
 10
1.490617563033463
 20
-5.062248895584033
 10
0.3899999999842407
 20
-5.062248895584033
 42
-0.4142135623730951
 10
0.3279999999842431
 20
-5.000248895584032
 10
0.3279999999842431
 20
-4.751000000471565
 10
0.2342519999842487
 20
-4.75100000047156
 10
0.2180002006262214
 20
-5.075000000471543
 10
0.2499999999842508
 20
-5.075000000471543
 10
0.2499999999842508
 20
-5.125000000471555
 10
0.1379999999842631
 20
-5.125000000471555
 10
0.1379999999842631
 20
-0.1250000004715446
 10
0.249999999984265
 20
-0.1250000004715446
 10
0.249999999984265
 20
-1.500000000471537
 10
1.490617563019938
 20
-1.500000000471537
 10
1.57792506303009
 20
-1.52339397459244
 42
0.2976378995951365
 10
1.5883175575545
 20
-1.519987142892905
 10
1.60031993977061
 20
-1.505005720964902
 42
-0.2048158433769184
 10
1.607252686416519
 20
-1.50129620054734
 10
1.634811191771422
 20
-1.498885143745216
 42
-0.3281932863521431
 10
1.644933385691441
 20
-1.505048969548123
 10
1.653501272370203
 20
-1.525916762190821
 42
-0.2540700439599415
 10
1.651442880205731
 20
-1.544898595015453
 10
1.626979581758764
 20
-1.580228084684993
 42
-0.1237581644398301
 10
1.619641447839601
 20
-1.586649896718167
 10
1.561026745390822
 20
-1.616619008184407
 42
-0.7818493696232782
 10
1.548282851496779
 20
-1.601979542569868
 10
1.523463942819834
 20
-1.584601155624124
 42
-0.3689783014497789
 10
1.520212674803772
 20
-1.572024062355637
 42
0.5486861486951593
 10
1.511400166488588
 20
-1.557640012578467
 10
1.492849049474678
 20
-1.557316201626505
 42
0.4193347993695722
 10
1.472500001345942
 20
-1.577313155367113
 10
1.472500000002302
 20
-1.742665481811179
 42
0.4142135647780507
 10
1.482500000002314
 20
-1.752665481893277
 10
1.502499999987055
 20
-1.752665481893293
 10
1.550504057626589
 20
-1.72495032629296
 42
-0.5868857373532621
 10
1.565499999986823
 20
-1.716005227855339
 10
1.58369999998591
 20
-1.726513002754066
 10
1.583699999985856
 20
-1.827665481893301
 42
-0.4142135623731644
 10
1.568699999985874
 20
-1.842665481893302
 10
1.488500001415712
 20
-1.84266548189332
 10
1.488500001415708
 20
-4.719583414162306
 10
1.568699999985902
 20
-4.719583414162368
 42
-0.414213562372887
 10
1.583699999985892
 20
-4.734583414162365
 10
1.583699999985885
 20
-4.835735893301547
 10
1.565499999986798
 20
-4.846243668200274
 42
-0.5868857373532621
 10
1.550504057626564
 20
-4.837298569762653
 10
1.50249999998703
 20
-4.80958341416232
 10
1.482500000002303
 20
-4.809583414162293
 42
0.4142135647780507
 10
1.472500000002291
 20
-4.819583414244391
  0
ENDBLK
  5
2067F
330
20679
100
AcDbEntity
  8
0
100
AcDbBlockEnd
  0
BLOCK
  5
20683
330
20680
100
AcDbEntity
  8
0
100
AcDbBlockBegin
  2
B522207
 70
     0
 10
0.0
 20
0.0
 30
0.0
  3
B522207
  1

  0
INSERT
  5
20684
330
20680
100
AcDbEntity
  8
0
100
AcDbBlockReference
  2
B524028_M
 10
0.0
 20
0.0
 30
0.0
  0
INSERT
  5
20685
330
20680
100
AcDbEntity
  8
0
100
AcDbBlockReference
  2
B524029_M
 10
0.0
 20
0.0
 30
0.0
  0
INSERT
  5
20686
330
20680
100
AcDbEntity
  8
0
100
AcDbBlockReference
  2
B259351_M
 10
1.472500000674122
 20
-1.659989318589146
 30
0.0
  0
INSERT
  5
20687
330
20680
100
AcDbEntity
  8
0
100
AcDbBlockReference
  2
B259351_M
 10
1.472500000674122
 20
-4.902259577466479
 30
0.0
 41
-1.0
 50
180.0
  0
ENDBLK
  5
20688
330
20680
100
AcDbEntity
  8
0
100
AcDbBlockEnd
  0
BLOCK
  5
20699
330
20689
100
AcDbEntity
  8
0
100
AcDbBlockBegin
  2
S522TR04
 70
     0
 10
0.0
 20
0.0
 30
0.0
  3
S522TR04
  1

  0
LWPOLYLINE
  5
206F5
330
20689
100
AcDbEntity
  8
0
100
AcDbPolyline
 90
        6
 70
     0
 43
0.0
 10
2.601356792595495
 20
-7.045499466143663
 10
1.576356792595492
 20
-7.045499466143663
 10
1.526356792595495
 20
-7.245499466143662
 10
1.426356792595494
 20
-6.845499466143664
 10
1.376356792595498
 20
-7.045499466143663
 10
-0.0567434286634221
 20
-7.045499466143663
  0
DIMENSION
  5
206F6
330
20689
100
AcDbEntity
  8
DIME
100
AcDbDimension
  2
*D19
 10
-1.125000000648369
 20
0.0000000000000003
 30
0.0
 11
-1.354263302149051
 21
0.8775409276944067
 31
0.0
 70
    32
 71
     5
 42
0.1250000000000106
  3
EXT_ON-ON
100
AcDbAlignedDimension
 13
0.125
 23
-0.1250000000000107
 33
0.0
 14
0.0
 24
0.0
 34
0.0
 50
90.0
100
AcDbRotatedDimension
  0
DIMENSION
  5
206F7
330
20689
100
AcDbEntity
  8
DIME
100
AcDbDimension
  2
*D20
 10
-1.125000000648368
 20
-7.045499466143663
 30
0.0
 11
-1.354263302149049
 21
-3.585249733071837
 31
0.0
 70
    32
  1
D.S.
 71
     5
 42
6.920499466143652
  3
EXT_ON-OFF
100
AcDbAlignedDimension
 13
0.125
 23
-0.1250000000000107
 33
0.0
 14
-0.0567434286634221
 24
-7.045499466143663
 34
0.0
 50
90.0
100
AcDbRotatedDimension
  0
DIMENSION
  5
206F8
330
20689
100
AcDbEntity
  8
DIME
100
AcDbDimension
  2
*D21
 10
-1.750000000648368
 20
-7.045499466143663
 30
0.0
 11
-1.979348568179062
 21
-3.522749733071831
 31
0.0
 70
    32
  1
D.O.
 71
     5
 42
7.045499466143663
  3
EXT_ON-OFF
100
AcDbAlignedDimension
 13
0.0
 23
0.0
 33
0.0
 14
-0.0567434286634221
 24
-7.045499466143663
 34
0.0
 50
90.0
100
AcDbRotatedDimension
  0
DIMENSION
  5
206F9
330
20689
100
AcDbEntity
  8
DIME
100
AcDbDimension
  2
*D22
 10
-0.5625000006483685
 20
-7.045499466143663
 30
0.0
 11
-0.791848568179063
 21
-6.085249733071842
 31
0.0
 70
    32
  1
DLO
 71
     5
 42
1.920499466143642
  3
EXT_ON-OFF
100
AcDbAlignedDimension
 13
0.1380000000000026
 23
-5.125000000000021
 33
0.0
 14
-0.0567434286634221
 24
-7.045499466143663
 34
0.0
 50
90.0
100
AcDbRotatedDimension
  0
DIMENSION
  5
206FA
330
20689
100
AcDbEntity
  8
DIME
100
AcDbDimension
  2
*D23
 10
-0.5625000006483685
 20
-5.125000000000021
 30
0.0
 11
-0.7896316513987085
 21
-2.625000000000015
 31
0.0
 70
    32
 71
     5
 42
5.00000000000001
  3
EXT_ON-ON
100
AcDbAlignedDimension
 13
0.125
 23
-0.1250000000000107
 33
0.0
 14
0.1380000000000026
 24
-5.125000000000021
 34
0.0
 50
90.0
100
AcDbRotatedDimension
  0
LINE
  5
206FB
330
20689
100
AcDbEntity
  8
0
100
AcDbLine
 10
2.374999999999999
 20
-0.1250000000000107
 30
0.0
 11
2.374999999999999
 21
-7.045499466143663
 31
0.0
  0
LINE
  5
206FC
330
20689
100
AcDbEntity
  8
0
100
AcDbLine
 10
0.125
 20
-0.1250000000000107
 30
0.0
 11
0.125
 21
-7.045499466143663
 31
0.0
  0
INSERT
  5
206FD
330
20689
100
AcDbEntity
  8
0
100
AcDbBlockReference
  2
B522207
 10
0.0
 20
0.0
 30
0.0
  0
INSERT
  5
206FE
330
20689
100
AcDbEntity
  8
0
100
AcDbBlockReference
  2
S522GT01
 10
0.2499999999842508
 20
-5.125000000471555
 30
0.0
  0
ENDBLK
  5
2069A
330
20689
100
AcDbEntity
  8
0
100
AcDbBlockEnd
  0
BLOCK
  5
20704
330
20703
100
AcDbEntity
  8
0
100
AcDbBlockBegin
  2
*D19
 70
     1
 10
0.0
 20
0.0
 30
0.0
  3
*D19
  1

  0
LINE
  5
20706
330
20703
100
AcDbEntity
  8
DIME
 62
     0
370
    -2
100
AcDbLine
 10
-0.25
 20
-0.1250000000000105
 30
0.0
 11
-1.305000000648369
 21
-0.1250000000000103
 31
0.0
  0
LINE
  5
20707
330
20703
100
AcDbEntity
  8
DIME
 62
     0
370
    -2
100
AcDbLine
 10
-0.375
 20
0.0000000000000001
 30
0.0
 11
-1.305000000648369
 21
0.0000000000000004
 31
0.0
  0
LINE
  5
20708
330
20703
100
AcDbEntity
  8
DIME
 62
     0
370
    -2
100
AcDbLine
 10
-1.125000000648369
 20
-0.3750000000000103
 30
0.0
 11
-1.125000000648369
 21
-0.6250000000000103
 31
0.0
  0
LINE
  5
20709
330
20703
100
AcDbEntity
  8
DIME
 62
     0
370
    -2
100
AcDbLine
 10
-1.125000000648369
 20
0.2500000000000003
 30
0.0
 11
-1.125000000648369
 21
1.255081855388813
 31
0.0
  0
SOLID
  5
2070A
330
20703
100
AcDbEntity
  8
DIME
 62
     0
100
AcDbTrace
 10
-1.166666667315036
 20
-0.3750000000000103
 30
0.0
 11
-1.083333333981702
 21
-0.3750000000000103
 31
0.0
 12
-1.125000000648369
 22
-0.1250000000000103
 32
0.0
 13
-1.125000000648369
 23
-0.1250000000000103
 33
0.0
  0
SOLID
  5
2070B
330
20703
100
AcDbEntity
  8
DIME
 62
     0
100
AcDbTrace
 10
-1.166666667315036
 20
0.2500000000000003
 30
0.0
 11
-1.083333333981702
 21
0.2500000000000003
 31
0.0
 12
-1.125000000648369
 22
0.0000000000000003
 32
0.0
 13
-1.125000000648369
 23
0.0000000000000003
 33
0.0
  0
MTEXT
  5
2070C
330
20703
100
AcDbEntity
  8
DIME
 62
     0
100
AcDbMText
 10
-1.354263302149051
 20
0.8775409276944067
 30
0.0
 40
0.25
 41
0.0
 71
     5
 72
     1
  1
\A1;1/8"
 11
0.0000000000000001
 21
1.0
 31
0.0
 73
     1
 44
1.0
1001
ACAD
1000
MTEXTBEGIN
1070
    73
1070
     1
1070
    44
1040
1.0
1070
    74
1070
     0
1000
MTEXTEND
  0
POINT
  5
2070D
330
20703
100
AcDbEntity
  8
DEFPOINTS
 62
     0
100
AcDbPoint
 10
0.125
 20
-0.1250000000000107
 30
0.0
  0
POINT
  5
2070E
330
20703
100
AcDbEntity
  8
DEFPOINTS
 62
     0
100
AcDbPoint
 10
0.0
 20
0.0
 30
0.0
  0
POINT
  5
2070F
330
20703
100
AcDbEntity
  8
DEFPOINTS
 62
     0
100
AcDbPoint
 10
-1.125000000648369
 20
0.0000000000000003
 30
0.0
  0
ENDBLK
  5
20705
330
20703
100
AcDbEntity
  8
0
100
AcDbBlockEnd
  0
BLOCK
  5
20711
330
20710
100
AcDbEntity
  8
0
100
AcDbBlockBegin
  2
*D20
 70
     1
 10
0.0
 20
0.0
 30
0.0
  3
*D20
  1

  0
LINE
  5
20713
330
20710
100
AcDbEntity
  8
DIME
 62
     0
370
    -2
100
AcDbLine
 10
-0.25
 20
-0.1250000000000105
 30
0.0
 11
-1.305000000648366
 21
-0.1250000000000103
 31
0.0
  0
LINE
  5
20714
330
20710
100
AcDbEntity
  8
DIME
 62
     0
370
    -2
100
AcDbLine
 10
-1.125000000648366
 20
-0.3750000000000103
 30
0.0
 11
-1.125000000648368
 21
-6.795499466143663
 31
0.0
  0
SOLID
  5
20715
330
20710
100
AcDbEntity
  8
DIME
 62
     0
100
AcDbTrace
 10
-1.166666667315033
 20
-0.3750000000000103
 30
0.0
 11
-1.0833333339817
 21
-0.3750000000000103
 31
0.0
 12
-1.125000000648366
 22
-0.1250000000000103
 32
0.0
 13
-1.125000000648366
 23
-0.1250000000000103
 33
0.0
  0
SOLID
  5
20716
330
20710
100
AcDbEntity
  8
DIME
 62
     0
100
AcDbTrace
 10
-1.166666667315035
 20
-6.795499466143663
 30
0.0
 11
-1.083333333981701
 21
-6.795499466143663
 31
0.0
 12
-1.125000000648368
 22
-7.045499466143663
 32
0.0
 13
-1.125000000648368
 23
-7.045499466143663
 33
0.0
  0
MTEXT
  5
20717
330
20710
100
AcDbEntity
  8
DIME
 62
     0
100
AcDbMText
 10
-1.354263302149049
 20
-3.585249733071837
 30
0.0
 40
0.25
 41
0.0
 71
     5
 72
     1
  1
\A1;D.S.
 11
0.0000000000000001
 21
1.0
 31
0.0
 73
     1
 44
1.0
1001
ACAD
1000
MTEXTBEGIN
1070
    73
1070
     1
1070
    44
1040
1.0
1070
    74
1070
     0
1000
MTEXTEND
  0
POINT
  5
20718
330
20710
100
AcDbEntity
  8
DEFPOINTS
 62
     0
100
AcDbPoint
 10
0.125
 20
-0.1250000000000107
 30
0.0
  0
POINT
  5
20719
330
20710
100
AcDbEntity
  8
DEFPOINTS
 62
     0
100
AcDbPoint
 10
-0.0567434286634221
 20
-7.045499466143663
 30
0.0
  0
POINT
  5
2071A
330
20710
100
AcDbEntity
  8
DEFPOINTS
 62
     0
100
AcDbPoint
 10
-1.125000000648368
 20
-7.045499466143663
 30
0.0
  0
ENDBLK
  5
20712
330
20710
100
AcDbEntity
  8
0
100
AcDbBlockEnd
  0
BLOCK
  5
2071C
330
2071B
100
AcDbEntity
  8
0
100
AcDbBlockBegin
  2
*D21
 70
     1
 10
0.0
 20
0.0
 30
0.0
  3
*D21
  1

  0
LINE
  5
2071E
330
2071B
100
AcDbEntity
  8
DIME
 62
     0
370
    -2
100
AcDbLine
 10
-0.375
 20
0.0000000000000001
 30
0.0
 11
-1.930000000648366
 21
0.0000000000000005
 31
0.0
  0
LINE
  5
2071F
330
2071B
100
AcDbEntity
  8
DIME
 62
     0
370
    -2
100
AcDbLine
 10
-1.750000000648366
 20
-0.2499999999999995
 30
0.0
 11
-1.750000000648368
 21
-6.795499466143663
 31
0.0
  0
SOLID
  5
20720
330
2071B
100
AcDbEntity
  8
DIME
 62
     0
100
AcDbTrace
 10
-1.791666667315033
 20
-0.2499999999999995
 30
0.0
 11
-1.7083333339817
 21
-0.2499999999999995
 31
0.0
 12
-1.750000000648366
 22
0.0000000000000005
 32
0.0
 13
-1.750000000648366
 23
0.0000000000000005
 33
0.0
  0
SOLID
  5
20721
330
2071B
100
AcDbEntity
  8
DIME
 62
     0
100
AcDbTrace
 10
-1.791666667315035
 20
-6.795499466143663
 30
0.0
 11
-1.708333333981701
 21
-6.795499466143663
 31
0.0
 12
-1.750000000648368
 22
-7.045499466143663
 32
0.0
 13
-1.750000000648368
 23
-7.045499466143663
 33
0.0
  0
MTEXT
  5
20722
330
2071B
100
AcDbEntity
  8
DIME
 62
     0
100
AcDbMText
 10
-1.979348568179062
 20
-3.522749733071831
 30
0.0
 40
0.25
 41
0.0
 71
     5
 72
     1
  1
\A1;D.O.
 11
0.0000000000000001
 21
1.0
 31
0.0
 73
     1
 44
1.0
1001
ACAD
1000
MTEXTBEGIN
1070
    73
1070
     1
1070
    44
1040
1.0
1070
    74
1070
     0
1000
MTEXTEND
  0
POINT
  5
20723
330
2071B
100
AcDbEntity
  8
DEFPOINTS
 62
     0
100
AcDbPoint
 10
0.0
 20
0.0
 30
0.0
  0
POINT
  5
20724
330
2071B
100
AcDbEntity
  8
DEFPOINTS
 62
     0
100
AcDbPoint
 10
-0.0567434286634221
 20
-7.045499466143663
 30
0.0
  0
POINT
  5
20725
330
2071B
100
AcDbEntity
  8
DEFPOINTS
 62
     0
100
AcDbPoint
 10
-1.750000000648368
 20
-7.045499466143663
 30
0.0
  0
ENDBLK
  5
2071D
330
2071B
100
AcDbEntity
  8
0
100
AcDbBlockEnd
  0
BLOCK
  5
20727
330
20726
100
AcDbEntity
  8
0
100
AcDbBlockBegin
  2
*D22
 70
     1
 10
0.0
 20
0.0
 30
0.0
  3
*D22
  1

  0
LINE
  5
20729
330
20726
100
AcDbEntity
  8
DIME
 62
     0
370
    -2
100
AcDbLine
 10
-0.2369999999999974
 20
-5.125000000000021
 30
0.0
 11
-0.742500000648368
 21
-5.125000000000021
 31
0.0
  0
LINE
  5
2072A
330
20726
100
AcDbEntity
  8
DIME
 62
     0
370
    -2
100
AcDbLine
 10
-0.5625000006483682
 20
-5.375000000000021
 30
0.0
 11
-0.5625000006483685
 21
-6.795499466143663
 31
0.0
  0
SOLID
  5
2072B
330
20726
100
AcDbEntity
  8
DIME
 62
     0
100
AcDbTrace
 10
-0.6041666673150348
 20
-5.375000000000021
 30
0.0
 11
-0.5208333339817015
 21
-5.375000000000021
 31
0.0
 12
-0.5625000006483681
 22
-5.125000000000021
 32
0.0
 13
-0.5625000006483681
 23
-5.125000000000021
 33
0.0
  0
SOLID
  5
2072C
330
20726
100
AcDbEntity
  8
DIME
 62
     0
100
AcDbTrace
 10
-0.6041666673150351
 20
-6.795499466143663
 30
0.0
 11
-0.5208333339817019
 21
-6.795499466143663
 31
0.0
 12
-0.5625000006483685
 22
-7.045499466143663
 32
0.0
 13
-0.5625000006483685
 23
-7.045499466143663
 33
0.0
  0
MTEXT
  5
2072D
330
20726
100
AcDbEntity
  8
DIME
 62
     0
100
AcDbMText
 10
-0.791848568179063
 20
-6.085249733071842
 30
0.0
 40
0.25
 41
0.0
 71
     5
 72
     1
  1
\A1;DLO
 11
0.0000000000000001
 21
1.0
 31
0.0
 73
     1
 44
1.0
1001
ACAD
1000
MTEXTBEGIN
1070
    73
1070
     1
1070
    44
1040
1.0
1070
    74
1070
     0
1000
MTEXTEND
  0
POINT
  5
2072E
330
20726
100
AcDbEntity
  8
DEFPOINTS
 62
     0
100
AcDbPoint
 10
0.1380000000000026
 20
-5.125000000000021
 30
0.0
  0
POINT
  5
2072F
330
20726
100
AcDbEntity
  8
DEFPOINTS
 62
     0
100
AcDbPoint
 10
-0.0567434286634221
 20
-7.045499466143663
 30
0.0
  0
POINT
  5
20730
330
20726
100
AcDbEntity
  8
DEFPOINTS
 62
     0
100
AcDbPoint
 10
-0.5625000006483685
 20
-7.045499466143663
 30
0.0
  0
ENDBLK
  5
20728
330
20726
100
AcDbEntity
  8
0
100
AcDbBlockEnd
  0
BLOCK
  5
20732
330
20731
100
AcDbEntity
  8
0
100
AcDbBlockBegin
  2
*D23
 70
     1
 10
0.0
 20
0.0
 30
0.0
  3
*D23
  1

  0
LINE
  5
20734
330
20731
100
AcDbEntity
  8
DIME
 62
     0
370
    -2
100
AcDbLine
 10
-0.25
 20
-0.1250000000000105
 30
0.0
 11
-0.7425000006483673
 21
-0.1250000000000104
 31
0.0
  0
LINE
  5
20735
330
20731
100
AcDbEntity
  8
DIME
 62
     0
370
    -2
100
AcDbLine
 10
-0.2369999999999974
 20
-5.125000000000021
 30
0.0
 11
-0.7425000006483684
 21
-5.125000000000021
 31
0.0
  0
LINE
  5
20736
330
20731
100
AcDbEntity
  8
DIME
 62
     0
370
    -2
100
AcDbLine
 10
-0.5625000006483675
 20
-0.3750000000000104
 30
0.0
 11
-0.5625000006483685
 21
-4.875000000000021
 31
0.0
  0
SOLID
  5
20737
330
20731
100
AcDbEntity
  8
DIME
 62
     0
100
AcDbTrace
 10
-0.6041666673150341
 20
-0.3750000000000104
 30
0.0
 11
-0.5208333339817008
 21
-0.3750000000000104
 31
0.0
 12
-0.5625000006483674
 22
-0.1250000000000104
 32
0.0
 13
-0.5625000006483674
 23
-0.1250000000000104
 33
0.0
  0
SOLID
  5
20738
330
20731
100
AcDbEntity
  8
DIME
 62
     0
100
AcDbTrace
 10
-0.6041666673150351
 20
-4.875000000000021
 30
0.0
 11
-0.5208333339817019
 21
-4.875000000000021
 31
0.0
 12
-0.5625000006483685
 22
-5.125000000000021
 32
0.0
 13
-0.5625000006483685
 23
-5.125000000000021
 33
0.0
  0
MTEXT
  5
20739
330
20731
100
AcDbEntity
  8
DIME
 62
     0
100
AcDbMText
 10
-0.7896316513987085
 20
-2.625000000000015
 30
0.0
 40
0.25
 41
0.0
 71
     5
 72
     1
  1
\A1;5"
 11
0.0000000000000001
 21
1.0
 31
0.0
 73
     1
 44
1.0
1001
ACAD
1000
MTEXTBEGIN
1070
    73
1070
     1
1070
    44
1040
1.0
1070
    74
1070
     0
1000
MTEXTEND
  0
POINT
  5
2073A
330
20731
100
AcDbEntity
  8
DEFPOINTS
 62
     0
100
AcDbPoint
 10
0.125
 20
-0.1250000000000107
 30
0.0
  0
POINT
  5
2073B
330
20731
100
AcDbEntity
  8
DEFPOINTS
 62
     0
100
AcDbPoint
 10
0.1380000000000026
 20
-5.125000000000021
 30
0.0
  0
POINT
  5
2073C
330
20731
100
AcDbEntity
  8
DEFPOINTS
 62
     0
100
AcDbPoint
 10
-0.5625000006483685
 20
-5.125000000000021
 30
0.0
  0
ENDBLK
  5
20733
330
20731
100
AcDbEntity
  8
0
100
AcDbBlockEnd
  0
BLOCK
  5
20743
330
20742
100
AcDbEntity
  8
0
100
AcDbBlockBegin
  2
B027339
 70
     0
 10
0.0
 20
0.0
 30
0.0
  3
B027339
  1

  0
LWPOLYLINE
  5
20744
330
20742
100
AcDbEntity
  8
0
100
AcDbPolyline
 90
        8
 70
     1
 43
0.0
 10
0.4060000000000006
 20
0.0
 10
0.4060000000000006
 20
0.1249999999999964
 10
0.6560000000000006
 20
0.1249999999999964
 10
0.6560000000000006
 20
-0.0000000000000036
 10
1.062000000000001
 20
-0.0000000000000036
 10
1.062000000000001
 20
0.25
 10
0.0
 20
0.25
 10
0.0
 20
0.0
  0
ENDBLK
  5
20745
330
20742
100
AcDbEntity
  8
0
100
AcDbBlockEnd
  0
BLOCK
  5
20748
330
20746
100
AcDbEntity
  8
0
100
AcDbBlockBegin
  2
S522GT03
 70
     0
 10
0.0
 20
0.0
 30
0.0
  3
S522GT03
  1

  0
INSERT
  5
20749
330
20746
100
AcDbEntity
  8
0
100
AcDbBlockReference
  2
B200045
 10
2.000000000714917
 20
-0.0000000000000058
 30
0.0
 41
-1.0
  0
LINE
  5
2074A
330
20746
100
AcDbEntity
  8
0
100
AcDbLine
 10
1.943071097717689
 20
0.5695674035869694
 30
0.0
 11
1.943071097717689
 21
1.920499466143645
 31
0.0
  0
LINE
  5
2074B
330
20746
100
AcDbEntity
  8
0
100
AcDbLine
 10
0.5564289029972356
 20
0.5695694560611098
 30
0.0
 11
0.5564289029972356
 21
1.920499456996243
 31
0.0
  0
INSERT
  5
2074C
330
20746
100
AcDbEntity
  8
0
100
AcDbBlockReference
  2
B522019
 10
0.0
 20
0.0
 30
0.0
 41
-1.0
 50
180.0
  0
INSERT
  5
2074D
330
20746
100
AcDbEntity
  8
0
100
AcDbBlockReference
  2
B027557-M
 10
0.468
 20
0.3644999999999925
 30
0.0
 41
-1.0
 50
180.0
  0
INSERT
  5
2074E
330
20746
100
AcDbEntity
  8
0
100
AcDbBlockReference
  2
B027557-M
 10
2.031500000714926
 20
0.3644999999999925
 30
0.0
 50
180.0
  0
INSERT
  5
2074F
330
20746
100
AcDbEntity
  8
0
100
AcDbBlockReference
  2
B027339
 10
0.7187500003574634
 20
-0.0627511048875231
 30
0.0
  0
LINE
  5
20750
330
20746
100
AcDbEntity
  8
0
100
AcDbLine
 10
1.749750000357463
 20
0.1872488951124769
 30
0.0
 11
1.749750000357463
 21
1.920499456996244
 31
0.0
  0
LINE
  5
20751
330
20746
100
AcDbEntity
  8
0
100
AcDbLine
 10
1.499750000357463
 20
0.1872488951124769
 30
0.0
 11
1.499750000357463
 21
1.920499456996244
 31
0.0
  0
LINE
  5
20752
330
20746
100
AcDbEntity
  8
0
100
AcDbLine
 10
0.9997500003574639
 20
0.1872488951124769
 30
0.0
 11
0.9997500003574639
 21
1.920499456996244
 31
0.0
  0
LINE
  5
20753
330
20746
100
AcDbEntity
  8
0
100
AcDbLine
 10
0.749750000357464
 20
0.1872488951124769
 30
0.0
 11
0.749750000357464
 21
1.920499456996244
 31
0.0
  0
LINE
  5
20754
330
20746
100
AcDbEntity
  8
0
100
AcDbLine
 10
1.749750000357463
 20
0.1872488951124769
 30
0.0
 11
0.749750000357464
 21
0.1872488951124769
 31
0.0
  0
LINE
  5
20755
330
20746
100
AcDbEntity
  8
0
100
AcDbLine
 10
1.499750000357463
 20
0.4367089451124766
 30
0.0
 11
0.9997500003574639
 21
0.4367089451124766
 31
0.0
  0
ENDBLK
  5
20756
330
20746
100
AcDbEntity
  8
0
100
AcDbBlockEnd
  0
BLOCK
  5
2077C
330
20779
100
AcDbEntity
  8
0
100
AcDbBlockBegin
  2
B522015
 70
     0
 10
0.0
 20
0.0
 30
0.0
  3
B522015
  1

  0
LWPOLYLINE
  5
2077D
330
20779
100
AcDbEntity
  8
0
100
AcDbPolyline
 90
       76
 70
     1
 43
0.0
 10
1.846717146853087
 20
0.5227693530141515
 42
-0.7818493696233066
 10
1.833973252959044
 20
0.5081298873996119
 10
1.775358550510265
 20
0.538098998865852
 42
-0.123758164439828
 10
1.768020416591102
 20
0.5445208108990265
 10
1.743557118144135
 20
0.5798503005685661
 42
-0.254070043959942
 10
1.741498725979663
 20
0.5988321333931986
 10
1.750066612658425
 20
0.6196999260358958
 42
-0.3281932863521669
 10
1.760188806578444
 20
0.6258637518388035
 10
1.787747311933348
 20
0.6234526950366793
 42
-0.2048158433769061
 10
1.794680058579256
 20
0.6197431746191171
 10
1.806682440795366
 20
0.6047617526911147
 42
0.2976378995951363
 10
1.817074935319777
 20
0.6013549209915788
 10
1.904382435329853
 20
0.6247488951124609
 10
1.985000000732945
 20
0.6247488951124609
 42
-0.4142135623730951
 10
2.047000000732939
 20
0.5627488951124598
 10
2.047000000732943
 20
0.3134999999999906
 10
2.140748000732941
 20
0.313499999999987
 10
2.157000000732942
 20
0.6374999999999709
 10
2.125000000732939
 20
0.6374999999999709
 10
2.125000000732939
 20
0.6874999999999823
 10
2.237000000732944
 20
0.6874999999999858
 10
2.237000000732944
 20
-0.6875000000000142
 10
2.125000000732939
 20
-0.6875000000000142
 10
2.125000000732939
 20
-0.6375000000000029
 10
2.157000000732942
 20
-0.6375000000000029
 10
2.140748000732941
 20
-0.313500000000019
 10
2.047000000732939
 20
-0.313500000000019
 10
2.047000000732943
 20
-0.5627488951124882
 42
-0.4142135623730951
 10
1.985000000732942
 20
-0.6247488951124929
 10
1.904382437089388
 20
-0.6247488951124858
 10
1.817074937079354
 20
-0.6013549209916178
 42
0.2976378995951363
 10
1.806682442554944
 20
-0.6047617526911538
 10
1.794680060338837
 20
-0.6197431746191562
 42
-0.2048158433769061
 10
1.787747313692925
 20
-0.6234526950367183
 10
1.760188808338021
 20
-0.6258637518388426
 42
-0.3281932863521668
 10
1.750066614418003
 20
-0.6196999260359349
 10
1.741498727739241
 20
-0.5988321333932376
 42
-0.2540700439599418
 10
1.743557119903712
 20
-0.5798503005686051
 10
1.768020418350683
 20
-0.5445208108990656
 42
-0.123758164439828
 10
1.775358552269842
 20
-0.5380989988658911
 10
1.833973254718625
 20
-0.508129887399651
 42
-0.7818493696233066
 10
1.846717148612665
 20
-0.5227693530141906
 10
1.871536057289613
 20
-0.5401477399599344
 42
-0.3689783014497569
 10
1.874787325305671
 20
-0.5527248332284245
 42
0.5486861486952166
 10
1.883599833620856
 20
-0.5671088830055915
 10
1.902150952603395
 20
-0.5674326939919148
 42
0.41933480178601
 10
1.922500000732135
 20
-0.5474357400869004
 10
1.922500000716532
 20
-0.382083413772861
 42
0.4142135647781547
 10
1.912500000716519
 20
-0.3720834136907598
 10
1.892500000731772
 20
-0.3720834136907847
 10
1.844495943092248
 20
-0.3997985692911179
 42
-0.5868857373532729
 10
1.829500000732014
 20
-0.4087436677287393
 10
1.811300000732941
 20
-0.3982358928300122
 10
1.811300000732956
 20
-0.2970834136907356
 42
-0.4142135623727829
 10
1.82630000073296
 20
-0.2820834136907351
 10
1.922000000732943
 20
-0.2820834136907528
 10
1.922000000732946
 20
-0.2505000000000237
 42
-0.4142143034154128
 10
1.984000000732933
 20
-0.1885000000000296
 10
2.112000000732944
 20
-0.1885000000000225
 10
2.112000000732944
 20
0.1884999999999941
 10
1.984000000732933
 20
0.1885000000000012
 42
-0.4142143034154128
 10
1.922000000732946
 20
0.2504999999999953
 10
1.922000000732943
 20
0.2820834136907244
 10
1.82630000073296
 20
0.2820834136907066
 42
-0.4142135623727829
 10
1.811300000732956
 20
0.2970834136907072
 10
1.811300000732941
 20
0.3982358928299874
 10
1.829500000732014
 20
0.4087436677287144
 42
-0.5868857373532617
 10
1.844495943092248
 20
0.399798569291093
 10
1.892500000731772
 20
0.3720834136907598
 10
1.912500000716519
 20
0.3720834136907314
 42
0.4142135647781547
 10
1.922500000716532
 20
0.3820834137728326
 10
1.922500000732288
 20
0.5474357401175603
 42
0.4193348017862797
 10
1.902150952603548
 20
0.5674326940225925
 10
1.883599831861278
 20
0.5671088830055524
 42
0.5486861486952166
 10
1.874787323546094
 20
0.5527248332283854
 42
-0.3689783014497569
 10
1.871536055530032
 20
0.5401477399598953
  0
ENDBLK
  5
2077E
330
20779
100
AcDbEntity
  8
0
100
AcDbBlockEnd
  0
BLOCK
  5
20782
330
2077F
100
AcDbEntity
  8
0
100
AcDbBlockBegin
  2
B522016
 70
     0
 10
0.0
 20
0.0
 30
0.0
  3
B522016
  1

  0
LWPOLYLINE
  5
20783
330
2077F
100
AcDbEntity
  8
0
100
AcDbPolyline
 90
       10
 70
     1
 43
0.0
 10
1.238500001431447
 20
0.4997488951124716
 10
0.3119999999999834
 20
0.4997488951124716
 10
0.3119999999999798
 20
0.2505000000000024
 42
-0.4142135623731118
 10
0.2499999999999787
 20
0.1884999999999977
 10
0.1380000000000017
 20
0.1885000000000012
 10
0.1380000000000017
 20
-0.1885000000000048
 10
0.2499999999999787
 20
-0.1885000000000012
 42
-0.4142135623731285
 10
0.3119999999999798
 20
-0.2505000000000059
 10
0.3119999999999834
 20
-0.4997488951124751
 10
1.238500001431447
 20
-0.4997488951124751
  0
LWPOLYLINE
  5
20784
330
2077F
100
AcDbEntity
  8
0
100
AcDbPolyline
 90
       76
 70
     1
 43
0.0
 10
1.356828991671086
 20
-0.6247488951124751
 10
0.2649999999999792
 20
-0.6247488951124787
 42
-0.4142135623730948
 10
0.2029999999999816
 20
-0.562748895112474
 10
0.2029999999999816
 20
-0.3135000000000048
 10
0.1092519999999872
 20
-0.3135000000000048
 10
0.0930002006419599
 20
-0.6374999999999887
 10
0.1249999999999893
 20
-0.6374999999999887
 10
0.1249999999999893
 20
-0.6875
 10
0.0130000000000017
 20
-0.6874999999999965
 10
0.0130000000000017
 20
0.6874999999999965
 10
0.1249999999999893
 20
0.6874999999999965
 10
0.1249999999999893
 20
0.6374999999999851
 10
0.0930002006419599
 20
0.6374999999999851
 10
0.1092519999999872
 20
0.3135000000000012
 10
0.2029999999999816
 20
0.3135000000000048
 10
0.2029999999999816
 20
0.562748895112474
 42
-0.4142135623730951
 10
0.2649999999999792
 20
0.6247488951124751
 10
1.365617563413582
 20
0.6247488951124751
 10
1.452925062811317
 20
0.6013549211556679
 42
0.2976378995951365
 10
1.463317557335727
 20
0.6047617528552039
 10
1.475319939551837
 20
0.6197431747832063
 42
-0.204815843376902
 10
1.482252686197746
 20
0.6234526952007684
 10
1.50981119155265
 20
0.6258637520028927
 42
-0.3281932863521708
 10
1.519933385472668
 20
0.619699926199985
 10
1.52850127215143
 20
0.5988321335572877
 42
-0.2540700439599415
 10
1.526442879986959
 20
0.5798503007326552
 10
1.501979581539991
 20
0.5445208110631157
 42
-0.1237581644398265
 10
1.494641447620828
 20
0.5380989990299412
 10
1.43602674517205
 20
0.5081298875637011
 42
-0.7818493696233079
 10
1.42328285127801
 20
0.5227693531782407
 10
1.398463942601061
 20
0.5401477401239845
 42
-0.3689783014497554
 10
1.395212674585003
 20
0.5527248333924746
 42
0.548686148695222
 10
1.386400166269815
 20
0.5671088831696416
 10
1.36784904950343
 20
0.567432694117283
 42
0.4193347993464661
 10
1.347500001374694
 20
0.5474357403782478
 10
1.347500000018033
 20
0.3820834137728326
 42
0.4142135647781547
 10
1.357500000018045
 20
0.3720834136907314
 10
1.377500000002729
 20
0.3720834136907563
 10
1.425504057642264
 20
0.3997985692910895
 42
-0.5868857373532621
 10
1.440500000002497
 20
0.4087436677287109
 10
1.458700000001584
 20
0.3982358928299838
 10
1.458700000001631
 20
0.2970834136908067
 42
-0.4142135623726441
 10
1.44370000000163
 20
0.2820834136907919
 10
1.363500001431447
 20
0.2820834136907351
 10
1.363500001431447
 20
-0.2820834136907493
 10
1.443700000001641
 20
-0.2820834136908097
 42
-0.4142135623730256
 10
1.458700000001631
 20
-0.2970834136908102
 10
1.458700000001591
 20
-0.3982358928299483
 10
1.440500000002504
 20
-0.4087436677286754
 42
-0.5868857373532621
 10
1.425504057642271
 20
-0.3997985692910539
 10
1.377500000002736
 20
-0.3720834136907207
 10
1.357500000018045
 20
-0.3720834136907349
 42
0.4142135647780507
 10
1.347500000018033
 20
-0.3820834137728362
 10
1.347500001374662
 20
-0.5474357402141479
 42
0.4193347993464655
 10
1.367849049503398
 20
-0.5674326939531867
 10
1.386400166269783
 20
-0.5671088830055453
 42
0.548686148695222
 10
1.395212674584971
 20
-0.5527248332283783
 42
-0.3689783014497553
 10
1.398463942601029
 20
-0.5401477399598882
 10
1.423282851277978
 20
-0.5227693530141444
 42
-0.7818493696233079
 10
1.436026745172018
 20
-0.5081298873996048
 10
1.494641447620796
 20
-0.5380989988658449
 42
-0.1237581644398266
 10
1.501979581539959
 20
-0.5445208108990194
 10
1.526442879986927
 20
-0.5798503005685589
 42
-0.2540700439599415
 10
1.528501272151398
 20
-0.5988321333931915
 10
1.519933385472636
 20
-0.6196999260358887
 42
-0.3281932863521831
 10
1.509811191552618
 20
-0.6258637518387964
 10
1.482252686197714
 20
-0.6234526950366721
 42
-0.204815843376902
 10
1.475319939551805
 20
-0.61974317461911
 10
1.463317557335695
 20
-0.6047617526911076
 42
0.2976378995951365
 10
1.452925062811285
 20
-0.6013549209915717
 10
1.365617562801162
 20
-0.624748895112468
 10
1.356828991671111
 20
-0.624748895112468
 10
1.356828991671086
 20
-0.6247488951124751
 10
1.356828991671111
 20
-0.624748895112468
 10
1.356828991671097
 20
-0.6247488951124751
 10
1.356828991671111
 20
-0.6247488951124751
  0
ENDBLK
  5
20785
330
2077F
100
AcDbEntity
  8
0
100
AcDbBlockEnd
  0
BLOCK
  5
20787
330
20786
100
AcDbEntity
  8
0
100
AcDbBlockBegin
  2
B522116
 70
     0
 10
0.0
 20
0.0
 30
0.0
  3
B522116
  1

  0
INSERT
  5
20788
330
20786
100
AcDbEntity
  8
0
100
AcDbBlockReference
  2
B522015
 10
0.0
 20
0.0
 30
0.0
  0
INSERT
  5
20789
330
20786
100
AcDbEntity
  8
0
100
AcDbBlockReference
  2
B522016
 10
0.0
 20
0.0
 30
0.0
  0
INSERT
  5
2078A
330
20786
100
AcDbEntity
  8
0
100
AcDbBlockReference
  2
B259351_M
 10
1.347500000696363
 20
0.4647595770755402
 30
0.0
  0
INSERT
  5
2078B
330
20786
100
AcDbEntity
  8
0
100
AcDbBlockReference
  2
B259351_M
 10
1.347500000696348
 20
-0.4647595769934921
 30
0.0
 41
-1.0
 50
180.0
  0
ENDBLK
  5
2078C
330
20786
100
AcDbEntity
  8
0
100
AcDbBlockEnd
  0
BLOCK
  5
2079D
330
2078D
100
AcDbEntity
  8
0
100
AcDbBlockBegin
  2
S522CR01
 70
     0
 10
0.0
 20
0.0
 30
0.0
  3
S522CR01
  1

  0
DIMENSION
  5
207E1
330
2078D
100
AcDbEntity
  8
DIME
100
AcDbDimension
  2
*D30
 10
-0.6875
 20
-2.607999466143649
 30
0.0
 11
-0.9168485675306953
 21
-1.647749733071815
 31
0.0
 70
    32
  1
DLO
 71
     5
 42
1.920499466143667
  3
EXT_ON-OFF
100
AcDbAlignedDimension
 13
0.0130000000000052
 23
-0.6874999999999823
 33
0.0
 14
-0.1797499999819658
 24
-2.607999466143649
 34
0.0
 50
90.0
100
AcDbRotatedDimension
  0
DIMENSION
  5
207E2
330
2078D
100
AcDbEntity
  8
DIME
100
AcDbDimension
  2
*D31
 10
-0.6875
 20
-0.6874999999999822
 30
0.0
 11
-0.9168485675306957
 21
0.0000000000000178
 31
0.0
 70
    32
 71
     5
 42
1.375
  3
EXT_ON-ON
100
AcDbAlignedDimension
 13
0.0130000000000052
 23
0.6875000000000178
 33
0.0
 14
0.0130000000000052
 24
-0.6874999999999823
 34
0.0
 50
90.0
100
AcDbRotatedDimension
  0
DIMENSION
  5
207E3
330
2078D
100
AcDbEntity
  8
DIME
100
AcDbDimension
  2
*D32
 10
-0.6875
 20
2.60799946614366
 30
0.0
 11
-0.9168485675306962
 21
1.647749733071838
 31
0.0
 70
    32
  1
DLO
 71
     5
 42
1.920499466143642
  3
EXT_ON-OFF
100
AcDbAlignedDimension
 13
0.0130000000000052
 23
0.6875000000000178
 33
0.0
 14
-0.1797499999819658
 24
2.60799946614366
 34
0.0
 50
90.0
100
AcDbRotatedDimension
  0
LINE
  5
207E4
330
2078D
100
AcDbEntity
  8
0
100
AcDbLine
 10
2.25
 20
-2.607999466143649
 30
0.0
 11
2.25
 21
2.607999466143663
 31
0.0
  0
LINE
  5
207E5
330
2078D
100
AcDbEntity
  8
0
100
AcDbLine
 10
0.0
 20
-2.607999466143649
 30
0.0
 11
0.0
 21
2.60799946614366
 31
0.0
  0
INSERT
  5
207E6
330
2078D
100
AcDbEntity
  8
0
100
AcDbBlockReference
  2
S522GT03
 10
0.1249999999999893
 20
0.6875000000000036
 30
0.0
  0
INSERT
  5
207E7
330
2078D
100
AcDbEntity
  8
0
100
AcDbBlockReference
  2
S522GT01
 10
0.1249999999999893
 20
-0.6874999999999965
 30
0.0
  0
LWPOLYLINE
  5
207E8
330
2078D
100
AcDbEntity
  8
0
  6
Continuous
100
AcDbPolyline
 90
        6
 70
     0
 43
0.0
 10
-0.1797499999819658
 20
2.60799946614366
 10
1.153488813193152
 20
2.60799946614366
 10
1.215988813193153
 20
2.436282127427745
 10
1.340988813193153
 20
2.779716804859575
 10
1.403488813193152
 20
2.60799946614366
 10
2.430250000018034
 20
2.60799946614366
  0
LWPOLYLINE
  5
207E9
330
2078D
100
AcDbEntity
  8
0
  6
Continuous
100
AcDbPolyline
 90
        6
 70
     0
 43
0.0
 10
-0.1797499999819658
 20
-2.607999466143649
 10
1.153488813193152
 20
-2.607999466143649
 10
1.215988813193153
 20
-2.436282127427727
 10
1.340988813193153
 20
-2.779716804859557
 10
1.403488813193152
 20
-2.607999466143649
 10
2.430250000018034
 20
-2.607999466143649
  0
INSERT
  5
207EA
330
2078D
100
AcDbEntity
  8
0
100
AcDbBlockReference
  2
B522116
 10
0.0
 20
0.0
 30
0.0
  0
ENDBLK
  5
2079E
330
2078D
100
AcDbEntity
  8
0
100
AcDbBlockEnd
  0
BLOCK
  5
207EF
330
207EE
100
AcDbEntity
  8
0
100
AcDbBlockBegin
  2
*D30
 70
     1
 10
0.0
 20
0.0
 30
0.0
  3
*D30
  1

  0
LINE
  5
207F1
330
207EE
100
AcDbEntity
  8
DIME
 62
     0
370
    -2
100
AcDbLine
 10
-0.3619999999999948
 20
-0.6874999999999822
 30
0.0
 11
-0.8674999999999995
 21
-0.6874999999999821
 31
0.0
  0
LINE
  5
207F2
330
207EE
100
AcDbEntity
  8
DIME
 62
     0
370
    -2
100
AcDbLine
 10
-0.6874999999999997
 20
-0.937499999999982
 30
0.0
 11
-0.6875
 21
-2.357999466143649
 31
0.0
  0
SOLID
  5
207F3
330
207EE
100
AcDbEntity
  8
DIME
 62
     0
100
AcDbTrace
 10
-0.7291666666666663
 20
-0.937499999999982
 30
0.0
 11
-0.6458333333333331
 21
-0.937499999999982
 31
0.0
 12
-0.6874999999999996
 22
-0.6874999999999822
 32
0.0
 13
-0.6874999999999996
 23
-0.6874999999999822
 33
0.0
  0
SOLID
  5
207F4
330
207EE
100
AcDbEntity
  8
DIME
 62
     0
100
AcDbTrace
 10
-0.7291666666666666
 20
-2.357999466143649
 30
0.0
 11
-0.6458333333333334
 21
-2.357999466143649
 31
0.0
 12
-0.6875
 22
-2.607999466143649
 32
0.0
 13
-0.6875
 23
-2.607999466143649
 33
0.0
  0
MTEXT
  5
207F5
330
207EE
100
AcDbEntity
  8
DIME
 62
     0
100
AcDbMText
 10
-0.9168485675306953
 20
-1.647749733071815
 30
0.0
 40
0.25
 41
0.0
 71
     5
 72
     1
  1
\A1;DLO
 11
0.0000000000000001
 21
1.0
 31
0.0
 73
     1
 44
1.0
1001
ACAD
1000
MTEXTBEGIN
1070
    73
1070
     1
1070
    44
1040
1.0
1070
    74
1070
     0
1000
MTEXTEND
  0
POINT
  5
207F6
330
207EE
100
AcDbEntity
  8
DEFPOINTS
 62
     0
100
AcDbPoint
 10
0.0130000000000052
 20
-0.6874999999999823
 30
0.0
  0
POINT
  5
207F7
330
207EE
100
AcDbEntity
  8
DEFPOINTS
 62
     0
100
AcDbPoint
 10
-0.1797499999819658
 20
-2.607999466143649
 30
0.0
  0
POINT
  5
207F8
330
207EE
100
AcDbEntity
  8
DEFPOINTS
 62
     0
100
AcDbPoint
 10
-0.6875
 20
-2.607999466143649
 30
0.0
  0
ENDBLK
  5
207F0
330
207EE
100
AcDbEntity
  8
0
100
AcDbBlockEnd
  0
BLOCK
  5
207FA
330
207F9
100
AcDbEntity
  8
0
100
AcDbBlockBegin
  2
*D31
 70
     1
 10
0.0
 20
0.0
 30
0.0
  3
*D31
  1

  0
LINE
  5
207FC
330
207F9
100
AcDbEntity
  8
DIME
 62
     0
370
    -2
100
AcDbLine
 10
-0.3619999999999948
 20
0.6875000000000179
 30
0.0
 11
-0.8674999999999997
 21
0.687500000000018
 31
0.0
  0
LINE
  5
207FD
330
207F9
100
AcDbEntity
  8
DIME
 62
     0
370
    -2
100
AcDbLine
 10
-0.3619999999999948
 20
-0.6874999999999822
 30
0.0
 11
-0.8674999999999998
 21
-0.6874999999999821
 31
0.0
  0
LINE
  5
207FE
330
207F9
100
AcDbEntity
  8
DIME
 62
     0
370
    -2
100
AcDbLine
 10
-0.6874999999999999
 20
0.437500000000018
 30
0.0
 11
-0.6875
 21
-0.4374999999999821
 31
0.0
  0
SOLID
  5
207FF
330
207F9
100
AcDbEntity
  8
DIME
 62
     0
100
AcDbTrace
 10
-0.7291666666666665
 20
0.437500000000018
 30
0.0
 11
-0.6458333333333332
 21
0.437500000000018
 31
0.0
 12
-0.6874999999999999
 22
0.6875000000000179
 32
0.0
 13
-0.6874999999999999
 23
0.6875000000000179
 33
0.0
  0
SOLID
  5
20800
330
207F9
100
AcDbEntity
  8
DIME
 62
     0
100
AcDbTrace
 10
-0.7291666666666666
 20
-0.4374999999999821
 30
0.0
 11
-0.6458333333333334
 21
-0.4374999999999821
 31
0.0
 12
-0.6875
 22
-0.6874999999999822
 32
0.0
 13
-0.6875
 23
-0.6874999999999822
 33
0.0
  0
MTEXT
  5
20801
330
207F9
100
AcDbEntity
  8
DIME
 62
     0
100
AcDbMText
 10
-0.9168485675306957
 20
0.0000000000000178
 30
0.0
 40
0.25
 41
0.0
 71
     5
 72
     1
  1
\A1;1 3/8"
 11
0.0000000000000001
 21
1.0
 31
0.0
 73
     1
 44
1.0
1001
ACAD
1000
MTEXTBEGIN
1070
    73
1070
     1
1070
    44
1040
1.0
1070
    74
1070
     0
1000
MTEXTEND
  0
POINT
  5
20802
330
207F9
100
AcDbEntity
  8
DEFPOINTS
 62
     0
100
AcDbPoint
 10
0.0130000000000052
 20
0.6875000000000178
 30
0.0
  0
POINT
  5
20803
330
207F9
100
AcDbEntity
  8
DEFPOINTS
 62
     0
100
AcDbPoint
 10
0.0130000000000052
 20
-0.6874999999999823
 30
0.0
  0
POINT
  5
20804
330
207F9
100
AcDbEntity
  8
DEFPOINTS
 62
     0
100
AcDbPoint
 10
-0.6875
 20
-0.6874999999999822
 30
0.0
  0
ENDBLK
  5
207FB
330
207F9
100
AcDbEntity
  8
0
100
AcDbBlockEnd
  0
BLOCK
  5
20806
330
20805
100
AcDbEntity
  8
0
100
AcDbBlockBegin
  2
*D32
 70
     1
 10
0.0
 20
0.0
 30
0.0
  3
*D32
  1

  0
LINE
  5
20808
330
20805
100
AcDbEntity
  8
DIME
 62
     0
370
    -2
100
AcDbLine
 10
-0.3619999999999948
 20
0.6875000000000179
 30
0.0
 11
-0.8675000000000004
 21
0.687500000000018
 31
0.0
  0
LINE
  5
20809
330
20805
100
AcDbEntity
  8
DIME
 62
     0
370
    -2
100
AcDbLine
 10
-0.6875000000000004
 20
0.9375000000000179
 30
0.0
 11
-0.6875
 21
2.35799946614366
 31
0.0
  0
SOLID
  5
2080A
330
20805
100
AcDbEntity
  8
DIME
 62
     0
100
AcDbTrace
 10
-0.729166666666667
 20
0.9375000000000179
 30
0.0
 11
-0.6458333333333338
 21
0.9375000000000179
 31
0.0
 12
-0.6875000000000005
 22
0.6875000000000179
 32
0.0
 13
-0.6875000000000005
 23
0.6875000000000179
 33
0.0
  0
SOLID
  5
2080B
330
20805
100
AcDbEntity
  8
DIME
 62
     0
100
AcDbTrace
 10
-0.7291666666666666
 20
2.35799946614366
 30
0.0
 11
-0.6458333333333334
 21
2.35799946614366
 31
0.0
 12
-0.6875
 22
2.60799946614366
 32
0.0
 13
-0.6875
 23
2.60799946614366
 33
0.0
  0
MTEXT
  5
2080C
330
20805
100
AcDbEntity
  8
DIME
 62
     0
100
AcDbMText
 10
-0.9168485675306962
 20
1.647749733071838
 30
0.0
 40
0.25
 41
0.0
 71
     5
 72
     1
  1
\A1;DLO
 11
0.0000000000000001
 21
1.0
 31
0.0
 73
     1
 44
1.0
1001
ACAD
1000
MTEXTBEGIN
1070
    73
1070
     1
1070
    44
1040
1.0
1070
    74
1070
     0
1000
MTEXTEND
  0
POINT
  5
2080D
330
20805
100
AcDbEntity
  8
DEFPOINTS
 62
     0
100
AcDbPoint
 10
0.0130000000000052
 20
0.6875000000000178
 30
0.0
  0
POINT
  5
2080E
330
20805
100
AcDbEntity
  8
DEFPOINTS
 62
     0
100
AcDbPoint
 10
-0.1797499999819658
 20
2.60799946614366
 30
0.0
  0
POINT
  5
2080F
330
20805
100
AcDbEntity
  8
DEFPOINTS
 62
     0
100
AcDbPoint
 10
-0.6875
 20
2.60799946614366
 30
0.0
  0
ENDBLK
  5
20807
330
20805
100
AcDbEntity
  8
0
100
AcDbBlockEnd
  0
BLOCK
  5
2083B
330
20838
100
AcDbEntity
  8
0
100
AcDbBlockBegin
  2
B522017
 70
     0
 10
0.0
 20
0.0
 30
0.0
  3
B522017
  1

  0
LWPOLYLINE
  5
2083C
330
20838
100
AcDbEntity
  8
0
100
AcDbPolyline
 90
       76
 70
     1
 43
0.0
 10
1.774858545152333
 20
-3.975598998865831
 42
0.123758164439828
 10
1.767520411233171
 20
-3.982020810899006
 10
1.743057112786203
 20
-4.017350300568545
 42
0.254070043959942
 10
1.740998720621732
 20
-4.036332133393178
 10
1.749566607300494
 20
-4.057199926035875
 42
0.3281932863521669
 10
1.759688801220512
 20
-4.063363751838783
 10
1.787247306575416
 20
-4.060952695036658
 42
0.2048158433769061
 10
1.794180053221325
 20
-4.0572431746191
 10
1.806182435437435
 20
-4.042261752691094
 42
-0.2976378995951363
 10
1.816574929961845
 20
-4.038854920991558
 10
1.903882429971915
 20
-4.062248895112444
 10
1.984499995375507
 20
-4.062248895112444
 42
0.4142135623730869
 10
2.046499995375498
 20
-4.000248895112439
 10
2.046499995375505
 20
-3.750999999999973
 10
2.140247995375496
 20
-3.750999999999973
 10
2.156499995375497
 20
-4.074999999999953
 10
2.124499995375494
 20
-4.074999999999953
 10
2.124499995375494
 20
-4.124999999999965
 10
2.236499995375503
 20
-4.124999999999965
 10
2.236499995375467
 20
4.125000000000032
 10
2.124499995375494
 20
4.125000000000032
 10
2.124499995375494
 20
4.075000000000021
 10
2.156499995375497
 20
4.075000000000021
 10
2.140247995375496
 20
3.751000000000037
 10
2.046499995375498
 20
3.751000000000037
 10
2.046499995375498
 20
4.00024889511251
 42
0.4142135623730992
 10
1.9844999953755
 20
4.062248895112507
 10
1.903882431731929
 20
4.062248895112507
 10
1.816574931721909
 20
4.038854920991636
 42
-0.2976378995951363
 10
1.806182437197499
 20
4.042261752691172
 10
1.794180054981389
 20
4.057243174619178
 42
0.2048158433769061
 10
1.78724730833548
 20
4.060952695036736
 10
1.759688802980576
 20
4.063363751838861
 42
0.3281932863521669
 10
1.749566609060558
 20
4.057199926035953
 10
1.740998722381796
 20
4.036332133393256
 42
0.2540700439599418
 10
1.743057114546267
 20
4.017350300568627
 10
1.767520412993235
 20
3.982020810899084
 42
0.123758164439828
 10
1.774858546912398
 20
3.975598998865909
 10
1.833473249361176
 20
3.945629887399673
 42
0.7818493696233066
 10
1.846217143255216
 20
3.960269353014209
 10
1.871036051932165
 20
3.977647739959953
 42
0.3689783014497569
 10
1.874287319948223
 20
3.990224833228443
 42
-0.5486861486952166
 10
1.883099828263411
 20
4.004608883005613
 10
1.901650947246103
 20
4.004932693991936
 42
-0.419334801786278
 10
1.921999995374839
 20
3.984935740086908
 10
1.921999995359087
 20
3.819583413772879
 42
-0.4142135647781547
 10
1.911999995359074
 20
3.809583413690778
 10
1.891999995374327
 20
3.809583413690806
 10
1.843995937734803
 20
3.83729856929114
 42
0.5868857373532505
 10
1.828999995374566
 20
3.846243667728761
 10
1.810799995375496
 20
3.835735892830034
 10
1.810799995375511
 20
3.734583413690754
 42
0.414213562372991
 10
1.825799995375511
 20
3.719583413690753
 10
1.921499995375498
 20
3.719583413690775
 10
1.921499995375498
 20
3.688000000000042
 42
0.4142143034153122
 10
1.983499995375488
 20
3.626000000000051
 10
2.11149999537546
 20
3.626000000000044
 10
2.111499995375503
 20
-3.625999999999973
 10
1.983499995375488
 20
-3.62599999999998
 42
0.4142143034153374
 10
1.921499995375505
 20
-3.687999999999974
 10
1.921499995375498
 20
-3.719583413690707
 10
1.825799995375518
 20
-3.719583413690686
 42
0.4142135623731297
 10
1.810799995375511
 20
-3.734583413690686
 10
1.810799995375496
 20
-3.835735892829963
 10
1.828999995374573
 20
-3.84624366772869
 42
0.5868857373532772
 10
1.843995937734803
 20
-3.837298569291069
 10
1.891999995374327
 20
-3.809583413690735
 10
1.911999995359074
 20
-3.80958341369071
 42
-0.4142135647781547
 10
1.921999995359087
 20
-3.819583413772812
 10
1.921999995374839
 20
-3.984935740117546
 42
-0.4193348017862782
 10
1.901650947246103
 20
-4.004932694022582
 10
1.883099826503347
 20
-4.004608883005535
 42
-0.5486861486952166
 10
1.874287318188159
 20
-3.990224833228364
 42
0.3689783014497569
 10
1.871036050172101
 20
-3.977647739959874
 10
1.846217141495152
 20
-3.960269353014131
 42
0.7818493696233066
 10
1.833473247601112
 20
-3.945629887399594
  0
ENDBLK
  5
2083D
330
20838
100
AcDbEntity
  8
0
100
AcDbBlockEnd
  0
BLOCK
  5
20841
330
2083E
100
AcDbEntity
  8
0
100
AcDbBlockBegin
  2
B522018
 70
     0
 10
0.0
 20
0.0
 30
0.0
  3
B522018
  1

  0
LWPOLYLINE
  5
20842
330
2083E
100
AcDbEntity
  8
0
100
AcDbPolyline
 90
       10
 70
     1
 43
0.0
 10
1.237999996073988
 20
-3.937248895112475
 10
1.237999996073988
 20
3.937248895112479
 10
0.3114999946425172
 20
3.937248895112486
 10
0.3114999946425172
 20
3.688000000000006
 42
-0.4142135623730951
 10
0.2494999946425196
 20
3.626000000000009
 10
0.1374999946425461
 20
3.626000000000009
 10
0.1374999946425461
 20
-3.626000000000012
 10
0.2494999946425196
 20
-3.626000000000012
 42
-0.4142135623730783
 10
0.3114999946425172
 20
-3.68800000000001
 10
0.3114999946425172
 20
-3.937248895112483
  0
LWPOLYLINE
  5
20843
330
2083E
100
AcDbEntity
  8
0
100
AcDbPolyline
 90
       72
 70
     1
 43
0.0
 10
1.365117559477141
 20
4.062248894726299
 10
0.2644999946425202
 20
4.062248895112479
 42
0.4142135623730951
 10
0.2024999946425225
 20
4.000248895112481
 10
0.2024999946425225
 20
3.751000000000016
 10
0.1087519946425246
 20
3.751000000000016
 10
0.0925001952845008
 20
4.074999999999993
 10
0.1244999946425267
 20
4.074999999999993
 10
0.1244999946425267
 20
4.125000000000004
 10
0.0124999946425035
 20
4.125000000000004
 10
0.0124999946425462
 20
-4.125000000000004
 10
0.1244999946425338
 20
-4.125000000000007
 10
0.1244999946425338
 20
-4.074999999999996
 10
0.0925001952845008
 20
-4.074999999999996
 10
0.1087519946425317
 20
-3.751000000000012
 10
0.2024999946425225
 20
-3.751000000000012
 10
0.2024999946425225
 20
-4.000248895112478
 42
0.4142135623730887
 10
0.2644999946425202
 20
-4.062248895112483
 10
1.356328986313627
 20
-4.062248895112475
 10
1.356328984883901
 20
-4.062248895495568
 10
1.365117559934809
 20
-4.062248895495568
 10
1.452425059944907
 20
-4.038854921374675
 42
-0.2976378995951365
 10
1.462817554469317
 20
-4.042261753074211
 10
1.474819936685427
 20
-4.057243175002217
 42
0.2048158433769049
 10
1.481752683331336
 20
-4.060952695419776
 10
1.50931118868624
 20
-4.0633637522219
 42
0.3281932863521554
 10
1.519433382606258
 20
-4.057199926418992
 10
1.52800126928502
 20
-4.036332133776295
 42
0.2540700439599451
 10
1.525942877120549
 20
-4.017350300951666
 10
1.501479578673581
 20
-3.982020811282127
 42
0.1237581644398301
 10
1.494141444754419
 20
-3.975598999248952
 10
1.43552674230564
 20
-3.945629887782716
 42
0.7818493696233572
 10
1.4227828484116
 20
-3.960269353397252
 10
1.397963939734651
 20
-3.977647740342995
 42
0.3689783014497897
 10
1.394712671718593
 20
-3.990224833611486
 42
-0.5486861486951847
 10
1.385900163403405
 20
-4.004608883388656
 10
1.367349042830994
 20
-4.004932694402726
 42
-0.4193348090108876
 10
1.346999994702258
 20
-3.984935740331693
 10
1.346999996090431
 20
-3.81958341377284
 42
-0.4142135647782588
 10
1.356999996090443
 20
-3.809583413690739
 10
1.376999994645323
 20
-3.809583413690686
 10
1.425004052284862
 20
-3.837298569291019
 42
0.5868857373532772
 10
1.439999994645091
 20
-3.846243667728637
 10
1.458199994644182
 20
-3.835735892829913
 10
1.458199996073993
 20
-3.734583413690715
 42
0.4142135623727482
 10
1.443199996074007
 20
-3.719583413690714
 10
1.362999996073988
 20
-3.719583413690654
 10
1.362999996073988
 20
3.719583413690654
 10
1.443199996074007
 20
3.719583413690718
 42
0.4142135623729563
 10
1.458199996073986
 20
3.734583413690718
 10
1.458199994644175
 20
3.835735892829871
 10
1.439999994645091
 20
3.846243667728598
 42
0.5868857373532621
 10
1.425004052284855
 20
3.837298569290976
 10
1.376999994645323
 20
3.809583413690643
 10
1.356999996090443
 20
3.809583413690742
 42
-0.4142135647782588
 10
1.346999996090431
 20
3.819583413772837
 10
1.346999996074643
 20
3.984935738746519
 42
-0.4193348090108949
 10
1.367349044203379
 20
4.004932693143094
 10
1.385900164775797
 20
4.004608882129017
 42
-0.548686148695185
 10
1.394712673090978
 20
3.990224832351846
 42
0.3689783014497815
 10
1.397963941107043
 20
3.977647739083356
 10
1.422782849783985
 20
3.960269352137612
 42
0.7818493696233572
 10
1.435526743678032
 20
3.945629886523076
 10
1.49414144612681
 20
3.975598997989313
 42
0.1237581644398302
 10
1.501479580045973
 20
3.982020810022487
 10
1.525942878492941
 20
4.01735029969203
 42
0.2540700439599464
 10
1.528001270657412
 20
4.036332132516659
 10
1.51943338397865
 20
4.057199925159356
 42
0.3281932863521681
 10
1.509311190058632
 20
4.063363750962264
 10
1.481752684703728
 20
4.06095269416014
 42
0.2048158433769208
 10
1.474819938057819
 20
4.057243173742581
 10
1.462817555841709
 20
4.042261751814575
 42
-0.2976378995951365
 10
1.452425061317299
 20
4.038854920115039
  0
ENDBLK
  5
20844
330
2083E
100
AcDbEntity
  8
0
100
AcDbBlockEnd
  0
BLOCK
  5
20848
330
20845
100
AcDbEntity
  8
0
100
AcDbBlockBegin
  2
B522118
 70
     0
 10
0.0
 20
0.0
 30
0.0
  3
B522118
  1

  0
INSERT
  5
20849
330
20845
100
AcDbEntity
  8
0
100
AcDbBlockReference
  2
B259351_M
 10
1.346999996082539
 20
3.902259576259679
 30
0.0
  0
INSERT
  5
2084A
330
20845
100
AcDbEntity
  8
0
100
AcDbBlockReference
  2
B259351_M
 10
1.346999996082539
 20
-3.902259576259678
 30
0.0
 41
-1.0
 50
180.0
  0
INSERT
  5
2084B
330
20845
100
AcDbEntity
  8
0
100
AcDbBlockReference
  2
B522017
 10
0.0
 20
0.0
 30
0.0
  0
INSERT
  5
2084C
330
20845
100
AcDbEntity
  8
0
100
AcDbBlockReference
  2
B522018
 10
0.0
 20
0.0
 30
0.0
  0
ENDBLK
  5
2084D
330
20845
100
AcDbEntity
  8
0
100
AcDbBlockEnd
  0
BLOCK
  5
2085E
330
2084E
100
AcDbEntity
  8
0
100
AcDbBlockBegin
  2
S522CR02
 70
     0
 10
0.0
 20
0.0
 30
0.0
  3
S522CR02
  1

  0
DIMENSION
  5
208A1
330
2084E
100
AcDbEntity
  8
DIME
100
AcDbDimension
  2
*D37
 10
-0.6875
 20
-6.045499466143591
 30
0.0
 11
-0.9168485675306946
 21
-5.085249733071772
 31
0.0
 70
    32
  1
DLO
 71
     5
 42
1.920499466143638
  3
EXT_ON-OFF
100
AcDbAlignedDimension
 13
0.012749994642526
 23
-4.124999999999952
 33
0.0
 14
-0.1819934340208782
 24
-6.045499466143591
 34
0.0
 50
90.0
100
AcDbRotatedDimension
  0
DIMENSION
  5
208A2
330
2084E
100
AcDbEntity
  8
DIME
100
AcDbDimension
  2
*D38
 10
-0.6875
 20
-4.124999999999952
 30
0.0
 11
-0.9167633015006812
 21
0.0000000000000471
 31
0.0
 70
    32
 71
     5
 42
8.25
  3
EXT_ON-ON
100
AcDbAlignedDimension
 13
0.0127499946425545
 23
4.125000000000047
 33
0.0
 14
0.012749994642526
 24
-4.124999999999952
 34
0.0
 50
90.0
100
AcDbRotatedDimension
  0
DIMENSION
  5
208A3
330
2084E
100
AcDbEntity
  8
DIME
100
AcDbDimension
  2
*D39
 10
-0.6875
 20
6.0454994661437
 30
0.0
 11
-0.9168485675306968
 21
5.085249733071873
 31
0.0
 70
    32
  1
DLO
 71
     5
 42
1.920499466143652
  3
EXT_ON-OFF
100
AcDbAlignedDimension
 13
0.0127499946425545
 23
4.125000000000047
 33
0.0
 14
-0.1819934340206828
 24
6.0454994661437
 34
0.0
 50
90.0
100
AcDbRotatedDimension
  0
LWPOLYLINE
  5
208A4
330
2084E
100
AcDbEntity
  8
0
100
AcDbPolyline
 90
        6
 70
     0
 43
0.0
 10
2.476106787238038
 20
-6.045499466143591
 10
1.451106787238039
 20
-6.045499466143591
 10
1.401106787238035
 20
-6.245499466143594
 10
1.30110678723804
 20
-5.845499466143595
 10
1.251106787238043
 20
-6.045499466143591
 10
-0.1819934340208782
 20
-6.045499466143591
  0
LINE
  5
208A5
330
2084E
100
AcDbEntity
  8
0
100
AcDbLine
 10
0.0
 20
-6.045499466143591
 30
0.0
 11
0.0
 21
6.0454994661437
 31
0.0
  0
LINE
  5
208A6
330
2084E
100
AcDbEntity
  8
0
100
AcDbLine
 10
2.250000000000198
 20
-6.045499466143591
 30
0.0
 11
2.250000000000198
 21
6.045499466143621
 31
0.0
  0
LWPOLYLINE
  5
208A7
330
2084E
100
AcDbEntity
  8
0
100
AcDbPolyline
 90
        6
 70
     0
 43
0.0
 10
2.476106787238236
 20
6.045499466143614
 10
1.451106787238231
 20
6.04549946614365
 10
1.401106787238241
 20
6.245499466143653
 10
1.301106787238225
 20
5.845499466143654
 10
1.251106787238242
 20
6.045499466143657
 10
-0.1819934340206828
 20
6.0454994661437
  0
INSERT
  5
208A8
330
2084E
100
AcDbEntity
  8
0
100
AcDbBlockReference
  2
S522GT03
 10
0.1244999946425298
 20
4.125000000000007
 30
0.0
  0
INSERT
  5
208A9
330
2084E
100
AcDbEntity
  8
0
100
AcDbBlockReference
  2
S522GT01
 10
0.1244999946425302
 20
-4.125000000000006
 30
0.0
  0
INSERT
  5
208AA
330
2084E
100
AcDbEntity
  8
0
100
AcDbBlockReference
  2
B522118
 10
0.0
 20
0.0
 30
0.0
  0
ENDBLK
  5
2085F
330
2084E
100
AcDbEntity
  8
0
100
AcDbBlockEnd
  0
BLOCK
  5
208AF
330
208AE
100
AcDbEntity
  8
0
100
AcDbBlockBegin
  2
*D37
 70
     1
 10
0.0
 20
0.0
 30
0.0
  3
*D37
  1

  0
LINE
  5
208B1
330
208AE
100
AcDbEntity
  8
DIME
 62
     0
370
    -2
100
AcDbLine
 10
-0.362250005357474
 20
-4.124999999999952
 30
0.0
 11
-0.8674999999999995
 21
-4.124999999999952
 31
0.0
  0
LINE
  5
208B2
330
208AE
100
AcDbEntity
  8
DIME
 62
     0
370
    -2
100
AcDbLine
 10
-0.6874999999999997
 20
-4.374999999999952
 30
0.0
 11
-0.6875
 21
-5.795499466143591
 31
0.0
  0
SOLID
  5
208B3
330
208AE
100
AcDbEntity
  8
DIME
 62
     0
100
AcDbTrace
 10
-0.7291666666666663
 20
-4.374999999999952
 30
0.0
 11
-0.6458333333333331
 21
-4.374999999999952
 31
0.0
 12
-0.6874999999999996
 22
-4.124999999999952
 32
0.0
 13
-0.6874999999999996
 23
-4.124999999999952
 33
0.0
  0
SOLID
  5
208B4
330
208AE
100
AcDbEntity
  8
DIME
 62
     0
100
AcDbTrace
 10
-0.7291666666666666
 20
-5.795499466143591
 30
0.0
 11
-0.6458333333333334
 21
-5.795499466143591
 31
0.0
 12
-0.6875
 22
-6.045499466143591
 32
0.0
 13
-0.6875
 23
-6.045499466143591
 33
0.0
  0
MTEXT
  5
208B5
330
208AE
100
AcDbEntity
  8
DIME
 62
     0
100
AcDbMText
 10
-0.9168485675306946
 20
-5.085249733071772
 30
0.0
 40
0.25
 41
0.0
 71
     5
 72
     1
  1
\A1;DLO
 11
0.0000000000000001
 21
1.0
 31
0.0
 73
     1
 44
1.0
1001
ACAD
1000
MTEXTBEGIN
1070
    73
1070
     1
1070
    44
1040
1.0
1070
    74
1070
     0
1000
MTEXTEND
  0
POINT
  5
208B6
330
208AE
100
AcDbEntity
  8
DEFPOINTS
 62
     0
100
AcDbPoint
 10
0.012749994642526
 20
-4.124999999999952
 30
0.0
  0
POINT
  5
208B7
330
208AE
100
AcDbEntity
  8
DEFPOINTS
 62
     0
100
AcDbPoint
 10
-0.1819934340208782
 20
-6.045499466143591
 30
0.0
  0
POINT
  5
208B8
330
208AE
100
AcDbEntity
  8
DEFPOINTS
 62
     0
100
AcDbPoint
 10
-0.6875
 20
-6.045499466143591
 30
0.0
  0
ENDBLK
  5
208B0
330
208AE
100
AcDbEntity
  8
0
100
AcDbBlockEnd
  0
BLOCK
  5
208BA
330
208B9
100
AcDbEntity
  8
0
100
AcDbBlockBegin
  2
*D38
 70
     1
 10
0.0
 20
0.0
 30
0.0
  3
*D38
  1

  0
LINE
  5
208BC
330
208B9
100
AcDbEntity
  8
DIME
 62
     0
370
    -2
100
AcDbLine
 10
-0.3622500053574455
 20
4.125000000000047
 30
0.0
 11
-0.8674999999999981
 21
4.125000000000047
 31
0.0
  0
LINE
  5
208BD
330
208B9
100
AcDbEntity
  8
DIME
 62
     0
370
    -2
100
AcDbLine
 10
-0.362250005357474
 20
-4.124999999999952
 30
0.0
 11
-0.8674999999999998
 21
-4.124999999999952
 31
0.0
  0
LINE
  5
208BE
330
208B9
100
AcDbEntity
  8
DIME
 62
     0
370
    -2
100
AcDbLine
 10
-0.6874999999999983
 20
3.875000000000047
 30
0.0
 11
-0.6875
 21
-3.874999999999952
 31
0.0
  0
SOLID
  5
208BF
330
208B9
100
AcDbEntity
  8
DIME
 62
     0
100
AcDbTrace
 10
-0.7291666666666649
 20
3.875000000000047
 30
0.0
 11
-0.6458333333333317
 21
3.875000000000047
 31
0.0
 12
-0.6874999999999983
 22
4.125000000000047
 32
0.0
 13
-0.6874999999999983
 23
4.125000000000047
 33
0.0
  0
SOLID
  5
208C0
330
208B9
100
AcDbEntity
  8
DIME
 62
     0
100
AcDbTrace
 10
-0.7291666666666666
 20
-3.874999999999952
 30
0.0
 11
-0.6458333333333334
 21
-3.874999999999952
 31
0.0
 12
-0.6875
 22
-4.124999999999952
 32
0.0
 13
-0.6875
 23
-4.124999999999952
 33
0.0
  0
MTEXT
  5
208C1
330
208B9
100
AcDbEntity
  8
DIME
 62
     0
100
AcDbMText
 10
-0.9167633015006812
 20
0.0000000000000471
 30
0.0
 40
0.25
 41
0.0
 71
     5
 72
     1
  1
\A1;8 1/4"
 11
0.0000000000000001
 21
1.0
 31
0.0
 73
     1
 44
1.0
1001
ACAD
1000
MTEXTBEGIN
1070
    73
1070
     1
1070
    44
1040
1.0
1070
    74
1070
     0
1000
MTEXTEND
  0
POINT
  5
208C2
330
208B9
100
AcDbEntity
  8
DEFPOINTS
 62
     0
100
AcDbPoint
 10
0.0127499946425545
 20
4.125000000000047
 30
0.0
  0
POINT
  5
208C3
330
208B9
100
AcDbEntity
  8
DEFPOINTS
 62
     0
100
AcDbPoint
 10
0.012749994642526
 20
-4.124999999999952
 30
0.0
  0
POINT
  5
208C4
330
208B9
100
AcDbEntity
  8
DEFPOINTS
 62
     0
100
AcDbPoint
 10
-0.6875
 20
-4.124999999999952
 30
0.0
  0
ENDBLK
  5
208BB
330
208B9
100
AcDbEntity
  8
0
100
AcDbBlockEnd
  0
BLOCK
  5
208C6
330
208C5
100
AcDbEntity
  8
0
100
AcDbBlockBegin
  2
*D39
 70
     1
 10
0.0
 20
0.0
 30
0.0
  3
*D39
  1

  0
LINE
  5
208C8
330
208C5
100
AcDbEntity
  8
DIME
 62
     0
370
    -2
100
AcDbLine
 10
-0.3622500053574455
 20
4.125000000000047
 30
0.0
 11
-0.8675000000000004
 21
4.125000000000047
 31
0.0
  0
LINE
  5
208C9
330
208C5
100
AcDbEntity
  8
DIME
 62
     0
370
    -2
100
AcDbLine
 10
-0.6875000000000004
 20
4.375000000000047
 30
0.0
 11
-0.6875
 21
5.7954994661437
 31
0.0
  0
SOLID
  5
208CA
330
208C5
100
AcDbEntity
  8
DIME
 62
     0
100
AcDbTrace
 10
-0.729166666666667
 20
4.375000000000047
 30
0.0
 11
-0.6458333333333338
 21
4.375000000000047
 31
0.0
 12
-0.6875000000000005
 22
4.125000000000047
 32
0.0
 13
-0.6875000000000005
 23
4.125000000000047
 33
0.0
  0
SOLID
  5
208CB
330
208C5
100
AcDbEntity
  8
DIME
 62
     0
100
AcDbTrace
 10
-0.7291666666666666
 20
5.7954994661437
 30
0.0
 11
-0.6458333333333334
 21
5.7954994661437
 31
0.0
 12
-0.6875
 22
6.0454994661437
 32
0.0
 13
-0.6875
 23
6.0454994661437
 33
0.0
  0
MTEXT
  5
208CC
330
208C5
100
AcDbEntity
  8
DIME
 62
     0
100
AcDbMText
 10
-0.9168485675306968
 20
5.085249733071873
 30
0.0
 40
0.25
 41
0.0
 71
     5
 72
     1
  1
\A1;DLO
 11
0.0000000000000001
 21
1.0
 31
0.0
 73
     1
 44
1.0
1001
ACAD
1000
MTEXTBEGIN
1070
    73
1070
     1
1070
    44
1040
1.0
1070
    74
1070
     0
1000
MTEXTEND
  0
POINT
  5
208CD
330
208C5
100
AcDbEntity
  8
DEFPOINTS
 62
     0
100
AcDbPoint
 10
0.0127499946425545
 20
4.125000000000047
 30
0.0
  0
POINT
  5
208CE
330
208C5
100
AcDbEntity
  8
DEFPOINTS
 62
     0
100
AcDbPoint
 10
-0.1819934340206828
 20
6.0454994661437
 30
0.0
  0
POINT
  5
208CF
330
208C5
100
AcDbEntity
  8
DEFPOINTS
 62
     0
100
AcDbPoint
 10
-0.6875
 20
6.0454994661437
 30
0.0
  0
ENDBLK
  5
208C7
330
208C5
100
AcDbEntity
  8
0
100
AcDbBlockEnd
  0
BLOCK
  5
2093D
330
2093A
100
AcDbEntity
  8
0
100
AcDbBlockBegin
  2
B522013
 70
     0
 10
0.0
 20
0.0
 30
0.0
  3
B522013
  1

  0
LWPOLYLINE
  5
2093E
330
2093A
100
AcDbEntity
  8
0
100
AcDbPolyline
 90
       72
 70
     1
 43
0.0
 10
2.140748001447946
 20
10.31355041930444
 10
2.047000001447948
 20
10.31355041930445
 10
2.047000001447955
 20
10.56279931441692
 42
0.4142135623730951
 10
1.985000001447957
 20
10.62479931441692
 10
1.922500001447957
 20
10.62479931441692
 10
1.904382436044393
 20
10.62479931441692
 10
1.817074936034295
 20
10.60140534029603
 42
-0.2976378995951365
 10
1.806682441509884
 20
10.60481217199557
 10
1.794680059293774
 20
10.61979359392356
 42
0.2048158433768918
 10
1.787747312647866
 20
10.62350311434113
 10
1.760188807292962
 20
10.62591417114326
 42
0.3281932863521831
 10
1.750066613372943
 20
10.61975034534035
 10
1.741498726694182
 20
10.59888255269765
 42
0.2540700439599368
 10
1.743557118858653
 20
10.57990071987301
 10
1.768020417305621
 20
10.54457123020348
 42
0.1237581644398266
 10
1.775358551224783
 20
10.5381494181703
 10
1.833973253673562
 20
10.50818030670406
 42
0.7818493696233729
 10
1.846717147567602
 20
10.5228197723186
 10
1.871536056244551
 20
10.54019815926435
 42
0.3689783014497471
 10
1.874787324260609
 20
10.55277525253284
 42
-0.5486861486952359
 10
1.883599832575796
 20
10.56715930231
 10
1.922500001449066
 20
10.56783830728339
 10
1.922500001431536
 20
10.38213383307728
 42
-0.4142135647780507
 10
1.912500001431524
 20
10.37213383299518
 10
1.892500001446784
 20
10.37213383299521
 10
1.84449594380726
 20
10.39984898859554
 42
0.5868857373532356
 10
1.82950000144703
 20
10.40879408703316
 10
1.811300001447953
 20
10.39828631213444
 10
1.81130000144796
 20
10.29713383299516
 42
0.4142135623729044
 10
1.826300001447968
 20
10.28213383299515
 10
1.922000001447955
 20
10.28213383299518
 10
1.922000001447955
 20
10.25055041930444
 42
0.4142143034153751
 10
1.984000001447938
 20
10.18855041930445
 10
2.112000001447952
 20
10.18855041930445
 10
2.112000001447931
 20
1.687536769333469
 42
-0.9999999999999998
 10
2.04700406072132
 20
1.687536769333469
 10
2.04700406072132
 20
1.717215900726159
 42
0.4142135623730292
 10
2.016004060721328
 20
1.748215900726158
 10
1.826304059087796
 20
1.748215900726201
 42
0.4142135623729217
 10
1.811304059087788
 20
1.7332159007262
 10
1.81130000144796
 20
1.63206342158692
 10
1.82950000144703
 20
1.621555646688193
 42
0.5868857373532625
 10
1.844495943807267
 20
1.630500745125814
 10
1.892500001446791
 20
1.658215900726148
 10
1.91250405908778
 20
1.658215900726176
 42
-0.4142135623737456
 10
1.922504059087785
 20
1.648215900726178
 10
1.922500201747325
 20
1.482863139686187
 42
-0.4193279442819222
 10
1.902151153624025
 20
1.462866652342007
 10
1.883601863164244
 20
1.463190431411348
 42
-0.5486861486952987
 10
1.874789354849056
 20
1.477574481188511
 42
0.3689783014497471
 10
1.871538086832998
 20
1.490151574457001
 10
1.84671917815605
 20
1.507529961402745
 42
0.7818493696234907
 10
1.83397528426201
 20
1.522169427017288
 10
1.775360581813231
 20
1.492200315551045
 42
0.1237581644398266
 10
1.768022447894068
 20
1.48577850351787
 10
1.743559149447094
 20
1.450449013848334
 42
0.254070043959938
 10
1.741500757282622
 20
1.431467181023698
 10
1.750068643961384
 20
1.410599388381001
 42
0.3281932863521831
 10
1.76019083788141
 20
1.404435562578093
 10
1.787749343236313
 20
1.406846619380218
 42
0.2048158433768539
 10
1.794682089882215
 20
1.410556139797783
 10
1.806684472098325
 20
1.425537561725782
 42
-0.2976378995951367
 10
1.817076966622735
 20
1.428944393425318
 10
1.904384466632791
 20
1.405550419304439
 10
1.922500001447957
 20
1.405550419304439
 10
2.125000001447958
 20
1.405550419304439
 10
2.125000001447951
 20
0.6875504193044364
 10
2.237000001447931
 20
0.6875504193044364
 10
2.237000001447952
 20
10.68755041930443
 10
2.125000001447943
 20
10.68755041930443
 10
2.125000001447943
 20
10.63755041930442
 10
2.157000001447947
 20
10.63755041930442
  0
ENDBLK
  5
2093F
330
2093A
100
AcDbEntity
  8
0
100
AcDbBlockEnd
  0
BLOCK
  5
20943
330
20940
100
AcDbEntity
  8
0
100
AcDbBlockBegin
  2
B522014
 70
     0
 10
0.0
 20
0.0
 30
0.0
  3
B522014
  1

  0
LWPOLYLINE
  5
20944
330
20940
100
AcDbEntity
  8
0
100
AcDbPolyline
 90
       10
 70
     1
 43
0.0
 10
1.23850000143144
 20
10.49979931441646
 10
1.238500001431461
 20
1.530550419303992
 10
0.3119999999999834
 20
1.530550419303992
 10
0.3119999999999834
 20
1.686215900725791
 42
0.4142135623730951
 10
0.2809999999999846
 20
1.71721590072579
 10
0.137999999999991
 20
1.717215900725783
 10
0.1380000000000052
 20
10.188550419304
 10
0.2499999999999787
 20
10.188550419304
 42
0.414213562373093
 10
0.3119999999999834
 20
10.250550419304
 10
0.3119999999999834
 20
10.49979931441647
  0
LWPOLYLINE
  5
20945
330
20940
100
AcDbEntity
  8
0
100
AcDbPolyline
 90
       68
 70
     1
 43
0.0
 10
0.1092519999999837
 20
10.313550419304
 10
0.2029999999999816
 20
10.313550419304
 10
0.2029999999999816
 20
10.56279931441647
 42
-0.4142135623731034
 10
0.2649999999999792
 20
10.62479931441647
 10
1.362984513766477
 20
10.62479931441647
 42
-0.0655434628152436
 10
1.368160894668527
 20
10.62411783094225
 10
1.452925063726645
 20
10.60140534029603
 42
0.2976378995951365
 10
1.463317558251056
 20
10.60481217199557
 10
1.475319940467166
 20
10.61979359392357
 42
-0.2048158433769049
 10
1.482252687113074
 20
10.62350311434113
 10
1.509811192467978
 20
10.62591417114326
 42
-0.3281932863521554
 10
1.519933386387997
 20
10.61975034534035
 10
1.528501273066758
 20
10.59888255269765
 42
-0.254070043959938
 10
1.526442880902287
 20
10.57990071987301
 10
1.501979582455319
 20
10.54457123020348
 42
-0.1237581644398301
 10
1.494641448536157
 20
10.5381494181703
 10
1.436026746087378
 20
10.50818030670406
 42
-0.7818493696233043
 10
1.423282852193331
 20
10.5228197723186
 10
1.398463943516389
 20
10.54019815926435
 42
-0.3689783014497897
 10
1.395212675500324
 20
10.55277525253284
 42
0.5486861486952451
 10
1.386400167185144
 20
10.56715930231
 10
1.367849049560845
 20
10.56748311327262
 42
0.419334801786345
 10
1.347500001432109
 20
10.54748615936758
 10
1.347500001447897
 20
10.38213383307683
 42
0.4142135647781547
 10
1.35750000144791
 20
10.37213383299473
 10
1.37750000143265
 20
10.37213383299476
 10
1.425504059072181
 20
10.39984898859509
 42
-0.5868857373532621
 10
1.440500001432418
 20
10.40879408703272
 10
1.458700001431502
 20
10.39828631213399
 10
1.458700001431452
 20
10.29713383299471
 42
-0.4142135623727482
 10
1.443700001431466
 20
10.28213383299471
 10
1.394500001431417
 20
10.28213383299467
 42
0.4142135623728659
 10
1.36350000143144
 20
10.25113383299467
 10
1.363500001431461
 20
1.779215900725695
 42
0.4142135623728648
 10
1.394500001431431
 20
1.748215900725696
 10
1.44370000143148
 20
1.748215900725661
 42
-0.414213562372887
 10
1.458700001431473
 20
1.733215900725667
 10
1.458700001431481
 20
1.632063421586479
 10
1.440500001432397
 20
1.621555646687752
 42
-0.5868857373533123
 10
1.425504059072153
 20
1.630500745125374
 10
1.377500001432622
 20
1.658215900725707
 10
1.357500001447888
 20
1.658215900725735
 42
0.4142135647776345
 10
1.347500001447869
 20
1.648215900643641
 10
1.347500001432266
 20
1.482863538913193
 42
0.4193348017860323
 10
1.367849049561002
 20
1.462866585008178
 10
1.386402197573239
 20
1.463190431411348
 42
0.5486861486951966
 10
1.395214705888427
 20
1.477574481188511
 42
-0.3689783014497952
 10
1.398465973904485
 20
1.490151574457001
 10
1.423284882581434
 20
1.507529961402745
 42
-0.7818493696232557
 10
1.436028776475474
 20
1.522169427017288
 10
1.494643478924253
 20
1.492200315551045
 42
-0.1237581644398302
 10
1.501981612843415
 20
1.48577850351787
 10
1.526444911290383
 20
1.450449013848334
 42
-0.2540700439599428
 10
1.528503303454854
 20
1.431467181023698
 10
1.519935416776093
 20
1.410599388381001
 42
-0.3281932863521681
 10
1.509813222856074
 20
1.404435562578093
 10
1.48225471750117
 20
1.406846619380218
 42
-0.2048158433769268
 10
1.475321970855262
 20
1.410556139797783
 10
1.463319588639151
 20
1.425537561725782
 42
0.2976378995951365
 10
1.452927094114741
 20
1.428944393425318
 10
1.365619594103023
 20
1.405550419303999
 10
0.1250000000000071
 20
1.405550419303999
 10
0.1250000000000071
 20
0.6875504193039959
 10
0.0129999999999839
 20
0.687550419304003
 10
0.0130000000000052
 20
10.68755041930399
 10
0.1249999999999858
 20
10.687550419304
 10
0.1249999999999858
 20
10.63755041930399
 10
0.0930002006419599
 20
10.63755041930399
  0
ENDBLK
  5
20946
330
20940
100
AcDbEntity
  8
0
100
AcDbBlockEnd
  0
BLOCK
  5
2094A
330
20947
100
AcDbEntity
  8
0
100
AcDbBlockBegin
  2
B522114
 70
     0
 10
0.0
 20
0.0
 30
0.0
  3
B522114
  1

  0
INSERT
  5
2094B
330
20947
100
AcDbEntity
  8
0
100
AcDbBlockReference
  2
B522013
 10
0.0
 20
0.0
 30
0.0
  0
INSERT
  5
2094C
330
20947
100
AcDbEntity
  8
0
100
AcDbBlockReference
  2
B522014
 10
0.0
 20
0.0
 30
0.0
  0
INSERT
  5
2094D
330
20947
100
AcDbEntity
  8
0
100
AcDbBlockReference
  2
B259351_M
 10
1.347500001440003
 20
10.46480999622221
 30
0.0
  0
INSERT
  5
2094E
330
20947
100
AcDbEntity
  8
0
100
AcDbBlockReference
  2
B259351_M
 10
1.347500001440067
 20
1.565539719778417
 30
0.0
 41
-1.0
 50
180.0
  0
ENDBLK
  5
2094F
330
20947
100
AcDbEntity
  8
0
100
AcDbBlockEnd
  0
BLOCK
  5
20968
330
20953
100
AcDbEntity
  8
0
100
AcDbBlockBegin
  2
S522BR03
 70
     0
 10
0.0
 20
0.0
 30
0.0
  3
S522BR03
  1

  0
DIMENSION
  5
20A97
330
20953
100
AcDbEntity
  8
DIME
100
AcDbDimension
  2
*D44
 10
-3.124999999266968
 20
12.60804988544808
 30
0.0
 11
-3.354348566797666
 21
6.304024942724041
 31
0.0
 70
    32
  1
O.D.
 71
     5
 42
12.60804988544808
  3
EXT_ON-OFF
100
AcDbAlignedDimension
 13
-3.312994378419119
 23
0.0
 33
0.0
 14
-0.1817434279303782
 24
12.60804988544808
 34
0.0
 50
90.0
100
AcDbRotatedDimension
  0
DIMENSION
  5
20A98
330
20953
100
AcDbEntity
  8
DIME
100
AcDbDimension
  2
*D45
 10
-2.499999999266968
 20
12.60804988544808
 30
0.0
 11
-2.72499999926697
 21
6.304024942724041
 31
0.0
 70
    32
  1
F.H.
 71
     5
 42
12.60804988544808
  3
EXT_ON-OFF
100
AcDbAlignedDimension
 13
-3.312994378419119
 23
0.0
 33
0.0
 14
-0.1817434279303782
 24
12.60804988544808
 34
0.0
 50
90.0
100
AcDbRotatedDimension
  0
LINE
  5
20A99
330
20953
100
AcDbEntity
  8
0
100
AcDbLine
 10
-3.312994378419119
 20
0.0
 30
0.0
 11
3.875000000733027
 21
0.0
 31
0.0
  0
DIMENSION
  5
20A9A
330
20953
100
AcDbEntity
  8
DIME
100
AcDbDimension
  2
*D46
 10
-1.874999999266968
 20
12.60804988544808
 30
0.0
 11
-2.104348566797666
 21
6.304024942724041
 31
0.0
 70
    32
  1
D.O.
 71
     5
 42
12.60804988544808
  3
EXT_ON-OFF
100
AcDbAlignedDimension
 13
-3.312994378419119
 23
0.0
 33
0.0
 14
-0.1817434279303782
 24
12.60804988544808
 34
0.0
 50
90.0
100
AcDbRotatedDimension
  0
DIMENSION
  5
20A9B
330
20953
100
AcDbEntity
  8
DIME
100
AcDbDimension
  2
*D47
 10
-1.249999999266968
 20
12.60804988544808
 30
0.0
 11
-1.479263300767653
 21
6.647800152376262
 31
0.0
 70
    32
  1
D.S.
 71
     5
 42
11.92049946614364
  3
EXT_ON-OFF
100
AcDbAlignedDimension
 13
0.0000000007330492
 23
0.6875504193044435
 33
0.0
 14
-0.1817434279303782
 24
12.60804988544808
 34
0.0
 50
90.0
100
AcDbRotatedDimension
  0
DIMENSION
  5
20A9C
330
20953
100
AcDbEntity
  8
DIME
100
AcDbDimension
  2
*D48
 10
-0.6874999992669686
 20
10.68755041930444
 30
0.0
 11
-0.9151432461973934
 21
5.687550419304443
 31
0.0
 70
    32
 71
     5
 42
10.0
  3
EXT_ON-ON
100
AcDbAlignedDimension
 13
0.0000000007330492
 23
0.6875504193044435
 33
0.0
 14
0.0130000007330686
 24
10.68755041930444
 34
0.0
 50
90.0
100
AcDbRotatedDimension
  0
DIMENSION
  5
20A9D
330
20953
100
AcDbEntity
  8
DIME
100
AcDbDimension
  2
*D49
 10
-0.6874999992669686
 20
12.60804988544808
 30
0.0
 11
-0.9168485667976664
 21
11.64780015237626
 31
0.0
 70
    32
  1
DLO
 71
     5
 42
1.920499466143638
  3
EXT_ON-OFF
100
AcDbAlignedDimension
 13
0.0130000007330686
 23
10.68755041930444
 33
0.0
 14
-0.1817434279303782
 24
12.60804988544808
 34
0.0
 50
90.0
100
AcDbRotatedDimension
  0
DIMENSION
  5
20A9E
330
20953
100
AcDbEntity
  8
DIME
100
AcDbDimension
  2
*D50
 10
-1.249999999266968
 20
-0.0000000000000006
 30
0.0
 11
-1.47926330076765
 21
-1.071776944065485
 31
0.0
 70
    32
 71
     5
 42
0.6875504193044443
  3
EXT_ON-ON
100
AcDbAlignedDimension
 13
0.0000000007330492
 23
0.6875504193044435
 33
0.0
 14
-3.312994378419119
 24
0.0
 34
0.0
 50
90.0
100
AcDbRotatedDimension
  0
LWPOLYLINE
  5
20A9F
330
20953
100
AcDbEntity
  8
0
100
AcDbPolyline
 90
        6
 70
     0
 43
0.0
 10
2.476356793328537
 20
12.60804988544808
 10
1.451356793328535
 20
12.60804988544808
 10
1.401356793328538
 20
12.80804988544808
 10
1.301356793328537
 20
12.40804988544809
 10
1.25135679332854
 20
12.60804988544808
 10
-0.1817434279303782
 20
12.60804988544808
  0
LINE
  5
20AA0
330
20953
100
AcDbEntity
  8
0
100
AcDbLine
 10
0.0309999999999882
 20
11.249550419304
 30
0.0
 11
0.0309999999999882
 21
12.60804988544808
 31
0.0
  0
LINE
  5
20AA1
330
20953
100
AcDbEntity
  8
0
100
AcDbLine
 10
2.218750001447951
 20
11.25005041930444
 30
0.0
 11
2.218750001447951
 21
12.60804988544808
 31
0.0
  0
LINE
  5
20AA2
330
20953
100
AcDbEntity
  8
0
100
AcDbLine
 10
0.0000000007330492
 20
0.6875504193044435
 30
0.0
 11
0.0000000007330492
 21
12.60804988544808
 31
0.0
  0
LINE
  5
20AA3
330
20953
100
AcDbEntity
  8
0
100
AcDbLine
 10
2.250000000733049
 20
0.6875504193044435
 30
0.0
 11
2.250000000733049
 21
12.60804988544808
 31
0.0
  0
INSERT
  5
20AA4
330
20953
100
AcDbEntity
  8
0
100
AcDbBlockReference
  2
S522GT03
 10
0.1249999999999893
 20
10.687550419304
 30
0.0
  0
INSERT
  5
20AA5
330
20953
100
AcDbEntity
  8
0
100
AcDbBlockReference
  2
B522114
 10
0.0
 20
0.0
 30
0.0
  0
ENDBLK
  5
20969
330
20953
100
AcDbEntity
  8
0
100
AcDbBlockEnd
  0
BLOCK
  5
20AAB
330
20AAA
100
AcDbEntity
  8
0
100
AcDbBlockBegin
  2
*D44
 70
     1
 10
0.0
 20
0.0
 30
0.0
  3
*D44
  1

  0
LINE
  5
20AAD
330
20AAA
100
AcDbEntity
  8
DIME
 62
     0
370
    -2
100
AcDbLine
 10
-2.937994378419119
 20
-0.0000000000000001
 30
0.0
 11
-2.944999999266971
 21
-0.0000000000000001
 31
0.0
  0
LINE
  5
20AAE
330
20AAA
100
AcDbEntity
  8
DIME
 62
     0
370
    -2
100
AcDbLine
 10
-3.124999999266971
 20
0.25
 30
0.0
 11
-3.124999999266968
 21
12.35804988544808
 31
0.0
  0
SOLID
  5
20AAF
330
20AAA
100
AcDbEntity
  8
DIME
 62
     0
100
AcDbTrace
 10
-3.166666665933637
 20
0.25
 30
0.0
 11
-3.083333332600304
 21
0.25
 31
0.0
 12
-3.124999999266971
 22
-0.0000000000000001
 32
0.0
 13
-3.124999999266971
 23
-0.0000000000000001
 33
0.0
  0
SOLID
  5
20AB0
330
20AAA
100
AcDbEntity
  8
DIME
 62
     0
100
AcDbTrace
 10
-3.166666665933635
 20
12.35804988544808
 30
0.0
 11
-3.083333332600302
 21
12.35804988544808
 31
0.0
 12
-3.124999999266968
 22
12.60804988544808
 32
0.0
 13
-3.124999999266968
 23
12.60804988544808
 33
0.0
  0
MTEXT
  5
20AB1
330
20AAA
100
AcDbEntity
  8
DIME
 62
     0
100
AcDbMText
 10
-3.354348566797666
 20
6.304024942724041
 30
0.0
 40
0.25
 41
0.0
 71
     5
 72
     1
  1
\A1;O.D.
 11
0.0000000000000001
 21
1.0
 31
0.0
 73
     1
 44
1.0
1001
ACAD
1000
MTEXTBEGIN
1070
    73
1070
     1
1070
    44
1040
1.0
1070
    74
1070
     0
1000
MTEXTEND
  0
POINT
  5
20AB2
330
20AAA
100
AcDbEntity
  8
DEFPOINTS
 62
     0
100
AcDbPoint
 10
-3.312994378419119
 20
0.0
 30
0.0
  0
POINT
  5
20AB3
330
20AAA
100
AcDbEntity
  8
DEFPOINTS
 62
     0
100
AcDbPoint
 10
-0.1817434279303782
 20
12.60804988544808
 30
0.0
  0
POINT
  5
20AB4
330
20AAA
100
AcDbEntity
  8
DEFPOINTS
 62
     0
100
AcDbPoint
 10
-3.124999999266968
 20
12.60804988544808
 30
0.0
  0
ENDBLK
  5
20AAC
330
20AAA
100
AcDbEntity
  8
0
100
AcDbBlockEnd
  0
BLOCK
  5
20AB6
330
20AB5
100
AcDbEntity
  8
0
100
AcDbBlockBegin
  2
*D45
 70
     1
 10
0.0
 20
0.0
 30
0.0
  3
*D45
  1

  0
LINE
  5
20AB8
330
20AB5
100
AcDbEntity
  8
DIME
 62
     0
370
    -2
100
AcDbLine
 10
-2.937994378419119
 20
-0.0000000000000001
 30
0.0
 11
-2.319999999266971
 21
-0.0000000000000003
 31
0.0
  0
LINE
  5
20AB9
330
20AB5
100
AcDbEntity
  8
DIME
 62
     0
370
    -2
100
AcDbLine
 10
-2.499999999266971
 20
0.2499999999999998
 30
0.0
 11
-2.499999999266968
 21
12.35804988544808
 31
0.0
  0
SOLID
  5
20ABA
330
20AB5
100
AcDbEntity
  8
DIME
 62
     0
100
AcDbTrace
 10
-2.541666665933637
 20
0.2499999999999998
 30
0.0
 11
-2.458333332600304
 21
0.2499999999999998
 31
0.0
 12
-2.499999999266971
 22
-0.0000000000000002
 32
0.0
 13
-2.499999999266971
 23
-0.0000000000000002
 33
0.0
  0
SOLID
  5
20ABB
330
20AB5
100
AcDbEntity
  8
DIME
 62
     0
100
AcDbTrace
 10
-2.541666665933635
 20
12.35804988544808
 30
0.0
 11
-2.458333332600302
 21
12.35804988544808
 31
0.0
 12
-2.499999999266968
 22
12.60804988544808
 32
0.0
 13
-2.499999999266968
 23
12.60804988544808
 33
0.0
  0
MTEXT
  5
20ABC
330
20AB5
100
AcDbEntity
  8
DIME
 62
     0
100
AcDbMText
 10
-2.72499999926697
 20
6.304024942724041
 30
0.0
 40
0.25
 41
0.0
 71
     5
 72
     1
  1
\A1;F.H.
 11
0.0000000000000001
 21
1.0
 31
0.0
 73
     1
 44
1.0
1001
ACAD
1000
MTEXTBEGIN
1070
    73
1070
     1
1070
    44
1040
1.0
1070
    74
1070
     0
1000
MTEXTEND
  0
POINT
  5
20ABD
330
20AB5
100
AcDbEntity
  8
DEFPOINTS
 62
     0
100
AcDbPoint
 10
-3.312994378419119
 20
0.0
 30
0.0
  0
POINT
  5
20ABE
330
20AB5
100
AcDbEntity
  8
DEFPOINTS
 62
     0
100
AcDbPoint
 10
-0.1817434279303782
 20
12.60804988544808
 30
0.0
  0
POINT
  5
20ABF
330
20AB5
100
AcDbEntity
  8
DEFPOINTS
 62
     0
100
AcDbPoint
 10
-2.499999999266968
 20
12.60804988544808
 30
0.0
  0
ENDBLK
  5
20AB7
330
20AB5
100
AcDbEntity
  8
0
100
AcDbBlockEnd
  0
BLOCK
  5
20AC1
330
20AC0
100
AcDbEntity
  8
0
100
AcDbBlockBegin
  2
*D46
 70
     1
 10
0.0
 20
0.0
 30
0.0
  3
*D46
  1

  0
LINE
  5
20AC3
330
20AC0
100
AcDbEntity
  8
DIME
 62
     0
370
    -2
100
AcDbLine
 10
-2.937994378419119
 20
-0.0000000000000001
 30
0.0
 11
-1.694999999266971
 21
-0.0000000000000005
 31
0.0
  0
LINE
  5
20AC4
330
20AC0
100
AcDbEntity
  8
DIME
 62
     0
370
    -2
100
AcDbLine
 10
-1.874999999266971
 20
0.2499999999999996
 30
0.0
 11
-1.874999999266968
 21
12.35804988544808
 31
0.0
  0
SOLID
  5
20AC5
330
20AC0
100
AcDbEntity
  8
DIME
 62
     0
100
AcDbTrace
 10
-1.916666665933638
 20
0.2499999999999996
 30
0.0
 11
-1.833333332600304
 21
0.2499999999999996
 31
0.0
 12
-1.874999999266971
 22
-0.0000000000000004
 32
0.0
 13
-1.874999999266971
 23
-0.0000000000000004
 33
0.0
  0
SOLID
  5
20AC6
330
20AC0
100
AcDbEntity
  8
DIME
 62
     0
100
AcDbTrace
 10
-1.916666665933635
 20
12.35804988544808
 30
0.0
 11
-1.833333332600302
 21
12.35804988544808
 31
0.0
 12
-1.874999999266968
 22
12.60804988544808
 32
0.0
 13
-1.874999999266968
 23
12.60804988544808
 33
0.0
  0
MTEXT
  5
20AC7
330
20AC0
100
AcDbEntity
  8
DIME
 62
     0
100
AcDbMText
 10
-2.104348566797666
 20
6.304024942724041
 30
0.0
 40
0.25
 41
0.0
 71
     5
 72
     1
  1
\A1;D.O.
 11
0.0000000000000001
 21
1.0
 31
0.0
 73
     1
 44
1.0
1001
ACAD
1000
MTEXTBEGIN
1070
    73
1070
     1
1070
    44
1040
1.0
1070
    74
1070
     0
1000
MTEXTEND
  0
POINT
  5
20AC8
330
20AC0
100
AcDbEntity
  8
DEFPOINTS
 62
     0
100
AcDbPoint
 10
-3.312994378419119
 20
0.0
 30
0.0
  0
POINT
  5
20AC9
330
20AC0
100
AcDbEntity
  8
DEFPOINTS
 62
     0
100
AcDbPoint
 10
-0.1817434279303782
 20
12.60804988544808
 30
0.0
  0
POINT
  5
20ACA
330
20AC0
100
AcDbEntity
  8
DEFPOINTS
 62
     0
100
AcDbPoint
 10
-1.874999999266968
 20
12.60804988544808
 30
0.0
  0
ENDBLK
  5
20AC2
330
20AC0
100
AcDbEntity
  8
0
100
AcDbBlockEnd
  0
BLOCK
  5
20ACC
330
20ACB
100
AcDbEntity
  8
0
100
AcDbBlockBegin
  2
*D47
 70
     1
 10
0.0
 20
0.0
 30
0.0
  3
*D47
  1

  0
LINE
  5
20ACE
330
20ACB
100
AcDbEntity
  8
DIME
 62
     0
370
    -2
100
AcDbLine
 10
-0.3749999992669508
 20
0.6875504193044436
 30
0.0
 11
-1.429999999266971
 21
0.687550419304444
 31
0.0
  0
LINE
  5
20ACF
330
20ACB
100
AcDbEntity
  8
DIME
 62
     0
370
    -2
100
AcDbLine
 10
-1.249999999266971
 20
0.9375504193044438
 30
0.0
 11
-1.249999999266968
 21
12.35804988544808
 31
0.0
  0
SOLID
  5
20AD0
330
20ACB
100
AcDbEntity
  8
DIME
 62
     0
100
AcDbTrace
 10
-1.291666665933638
 20
0.9375504193044438
 30
0.0
 11
-1.208333332600304
 21
0.9375504193044438
 31
0.0
 12
-1.249999999266971
 22
0.6875504193044439
 32
0.0
 13
-1.249999999266971
 23
0.6875504193044439
 33
0.0
  0
SOLID
  5
20AD1
330
20ACB
100
AcDbEntity
  8
DIME
 62
     0
100
AcDbTrace
 10
-1.291666665933635
 20
12.35804988544808
 30
0.0
 11
-1.208333332600302
 21
12.35804988544808
 31
0.0
 12
-1.249999999266968
 22
12.60804988544808
 32
0.0
 13
-1.249999999266968
 23
12.60804988544808
 33
0.0
  0
MTEXT
  5
20AD2
330
20ACB
100
AcDbEntity
  8
DIME
 62
     0
100
AcDbMText
 10
-1.479263300767653
 20
6.647800152376262
 30
0.0
 40
0.25
 41
0.0
 71
     5
 72
     1
  1
\A1;D.S.
 11
0.0000000000000001
 21
1.0
 31
0.0
 73
     1
 44
1.0
1001
ACAD
1000
MTEXTBEGIN
1070
    73
1070
     1
1070
    44
1040
1.0
1070
    74
1070
     0
1000
MTEXTEND
  0
POINT
  5
20AD3
330
20ACB
100
AcDbEntity
  8
DEFPOINTS
 62
     0
100
AcDbPoint
 10
0.0000000007330492
 20
0.6875504193044435
 30
0.0
  0
POINT
  5
20AD4
330
20ACB
100
AcDbEntity
  8
DEFPOINTS
 62
     0
100
AcDbPoint
 10
-0.1817434279303782
 20
12.60804988544808
 30
0.0
  0
POINT
  5
20AD5
330
20ACB
100
AcDbEntity
  8
DEFPOINTS
 62
     0
100
AcDbPoint
 10
-1.249999999266968
 20
12.60804988544808
 30
0.0
  0
ENDBLK
  5
20ACD
330
20ACB
100
AcDbEntity
  8
0
100
AcDbBlockEnd
  0
BLOCK
  5
20AD7
330
20AD6
100
AcDbEntity
  8
0
100
AcDbBlockBegin
  2
*D48
 70
     1
 10
0.0
 20
0.0
 30
0.0
  3
*D48
  1

  0
LINE
  5
20AD9
330
20AD6
100
AcDbEntity
  8
DIME
 62
     0
370
    -2
100
AcDbLine
 10
-0.3749999992669508
 20
0.6875504193044436
 30
0.0
 11
-0.8674999992669707
 21
0.6875504193044437
 31
0.0
  0
LINE
  5
20ADA
330
20AD6
100
AcDbEntity
  8
DIME
 62
     0
370
    -2
100
AcDbLine
 10
-0.3619999992669314
 20
10.68755041930444
 30
0.0
 11
-0.8674999992669684
 21
10.68755041930444
 31
0.0
  0
LINE
  5
20ADB
330
20AD6
100
AcDbEntity
  8
DIME
 62
     0
370
    -2
100
AcDbLine
 10
-0.6874999992669708
 20
0.9375504193044436
 30
0.0
 11
-0.6874999992669686
 21
10.43755041930444
 31
0.0
  0
SOLID
  5
20ADC
330
20AD6
100
AcDbEntity
  8
DIME
 62
     0
100
AcDbTrace
 10
-0.7291666659336374
 20
0.9375504193044436
 30
0.0
 11
-0.6458333326003041
 21
0.9375504193044436
 31
0.0
 12
-0.6874999992669708
 22
0.6875504193044436
 32
0.0
 13
-0.6874999992669708
 23
0.6875504193044436
 33
0.0
  0
SOLID
  5
20ADD
330
20AD6
100
AcDbEntity
  8
DIME
 62
     0
100
AcDbTrace
 10
-0.7291666659336352
 20
10.43755041930444
 30
0.0
 11
-0.645833332600302
 21
10.43755041930444
 31
0.0
 12
-0.6874999992669686
 22
10.68755041930444
 32
0.0
 13
-0.6874999992669686
 23
10.68755041930444
 33
0.0
  0
MTEXT
  5
20ADE
330
20AD6
100
AcDbEntity
  8
DIME
 62
     0
100
AcDbMText
 10
-0.9151432461973934
 20
5.687550419304443
 30
0.0
 40
0.25
 41
0.0
 71
     5
 72
     1
  1
\A1;10"
 11
0.0000000000000001
 21
1.0
 31
0.0
 73
     1
 44
1.0
1001
ACAD
1000
MTEXTBEGIN
1070
    73
1070
     1
1070
    44
1040
1.0
1070
    74
1070
     0
1000
MTEXTEND
  0
POINT
  5
20ADF
330
20AD6
100
AcDbEntity
  8
DEFPOINTS
 62
     0
100
AcDbPoint
 10
0.0000000007330492
 20
0.6875504193044435
 30
0.0
  0
POINT
  5
20AE0
330
20AD6
100
AcDbEntity
  8
DEFPOINTS
 62
     0
100
AcDbPoint
 10
0.0130000007330686
 20
10.68755041930444
 30
0.0
  0
POINT
  5
20AE1
330
20AD6
100
AcDbEntity
  8
DEFPOINTS
 62
     0
100
AcDbPoint
 10
-0.6874999992669686
 20
10.68755041930444
 30
0.0
  0
ENDBLK
  5
20AD8
330
20AD6
100
AcDbEntity
  8
0
100
AcDbBlockEnd
  0
BLOCK
  5
20AE3
330
20AE2
100
AcDbEntity
  8
0
100
AcDbBlockBegin
  2
*D49
 70
     1
 10
0.0
 20
0.0
 30
0.0
  3
*D49
  1

  0
LINE
  5
20AE5
330
20AE2
100
AcDbEntity
  8
DIME
 62
     0
370
    -2
100
AcDbLine
 10
-0.3619999992669314
 20
10.68755041930444
 30
0.0
 11
-0.867499999266969
 21
10.68755041930444
 31
0.0
  0
LINE
  5
20AE6
330
20AE2
100
AcDbEntity
  8
DIME
 62
     0
370
    -2
100
AcDbLine
 10
-0.687499999266969
 20
10.93755041930444
 30
0.0
 11
-0.6874999992669686
 21
12.35804988544808
 31
0.0
  0
SOLID
  5
20AE7
330
20AE2
100
AcDbEntity
  8
DIME
 62
     0
100
AcDbTrace
 10
-0.7291666659336356
 20
10.93755041930444
 30
0.0
 11
-0.6458333326003024
 21
10.93755041930444
 31
0.0
 12
-0.6874999992669691
 22
10.68755041930444
 32
0.0
 13
-0.6874999992669691
 23
10.68755041930444
 33
0.0
  0
SOLID
  5
20AE8
330
20AE2
100
AcDbEntity
  8
DIME
 62
     0
100
AcDbTrace
 10
-0.7291666659336352
 20
12.35804988544808
 30
0.0
 11
-0.645833332600302
 21
12.35804988544808
 31
0.0
 12
-0.6874999992669686
 22
12.60804988544808
 32
0.0
 13
-0.6874999992669686
 23
12.60804988544808
 33
0.0
  0
MTEXT
  5
20AE9
330
20AE2
100
AcDbEntity
  8
DIME
 62
     0
100
AcDbMText
 10
-0.9168485667976664
 20
11.64780015237626
 30
0.0
 40
0.25
 41
0.0
 71
     5
 72
     1
  1
\A1;DLO
 11
0.0000000000000001
 21
1.0
 31
0.0
 73
     1
 44
1.0
1001
ACAD
1000
MTEXTBEGIN
1070
    73
1070
     1
1070
    44
1040
1.0
1070
    74
1070
     0
1000
MTEXTEND
  0
POINT
  5
20AEA
330
20AE2
100
AcDbEntity
  8
DEFPOINTS
 62
     0
100
AcDbPoint
 10
0.0130000007330686
 20
10.68755041930444
 30
0.0
  0
POINT
  5
20AEB
330
20AE2
100
AcDbEntity
  8
DEFPOINTS
 62
     0
100
AcDbPoint
 10
-0.1817434279303782
 20
12.60804988544808
 30
0.0
  0
POINT
  5
20AEC
330
20AE2
100
AcDbEntity
  8
DEFPOINTS
 62
     0
100
AcDbPoint
 10
-0.6874999992669686
 20
12.60804988544808
 30
0.0
  0
ENDBLK
  5
20AE4
330
20AE2
100
AcDbEntity
  8
0
100
AcDbBlockEnd
  0
BLOCK
  5
20AEE
330
20AED
100
AcDbEntity
  8
0
100
AcDbBlockBegin
  2
*D50
 70
     1
 10
0.0
 20
0.0
 30
0.0
  3
*D50
  1

  0
LINE
  5
20AF0
330
20AED
100
AcDbEntity
  8
DIME
 62
     0
370
    -2
100
AcDbLine
 10
-0.3749999992669508
 20
0.6875504193044436
 30
0.0
 11
-1.429999999266968
 21
0.687550419304444
 31
0.0
  0
LINE
  5
20AF1
330
20AED
100
AcDbEntity
  8
DIME
 62
     0
370
    -2
100
AcDbLine
 10
-2.937994378419119
 20
-0.0000000000000001
 30
0.0
 11
-1.069999999266968
 21
-0.0000000000000006
 31
0.0
  0
LINE
  5
20AF2
330
20AED
100
AcDbEntity
  8
DIME
 62
     0
370
    -2
100
AcDbLine
 10
-1.249999999266968
 20
0.9375504193044438
 30
0.0
 11
-1.249999999266968
 21
1.187550419304443
 31
0.0
  0
LINE
  5
20AF3
330
20AED
100
AcDbEntity
  8
DIME
 62
     0
370
    -2
100
AcDbLine
 10
-1.249999999266968
 20
-0.2500000000000006
 30
0.0
 11
-1.249999999266969
 21
-1.643553888130969
 31
0.0
  0
SOLID
  5
20AF4
330
20AED
100
AcDbEntity
  8
DIME
 62
     0
100
AcDbTrace
 10
-1.291666665933635
 20
0.9375504193044438
 30
0.0
 11
-1.208333332600301
 21
0.9375504193044438
 31
0.0
 12
-1.249999999266968
 22
0.6875504193044439
 32
0.0
 13
-1.249999999266968
 23
0.6875504193044439
 33
0.0
  0
SOLID
  5
20AF5
330
20AED
100
AcDbEntity
  8
DIME
 62
     0
100
AcDbTrace
 10
-1.291666665933635
 20
-0.2500000000000006
 30
0.0
 11
-1.208333332600301
 21
-0.2500000000000006
 31
0.0
 12
-1.249999999266968
 22
-0.0000000000000006
 32
0.0
 13
-1.249999999266968
 23
-0.0000000000000006
 33
0.0
  0
MTEXT
  5
20AF6
330
20AED
100
AcDbEntity
  8
DIME
 62
     0
100
AcDbMText
 10
-1.47926330076765
 20
-1.071776944065485
 30
0.0
 40
0.25
 41
0.0
 71
     5
 72
     1
  1
\A1;11/16"
 11
0.0000000000000001
 21
1.0
 31
0.0
 73
     1
 44
1.0
1001
ACAD
1000
MTEXTBEGIN
1070
    73
1070
     1
1070
    44
1040
1.0
1070
    74
1070
     0
1000
MTEXTEND
  0
POINT
  5
20AF7
330
20AED
100
AcDbEntity
  8
DEFPOINTS
 62
     0
100
AcDbPoint
 10
0.0000000007330492
 20
0.6875504193044435
 30
0.0
  0
POINT
  5
20AF8
330
20AED
100
AcDbEntity
  8
DEFPOINTS
 62
     0
100
AcDbPoint
 10
-3.312994378419119
 20
0.0
 30
0.0
  0
POINT
  5
20AF9
330
20AED
100
AcDbEntity
  8
DEFPOINTS
 62
     0
100
AcDbPoint
 10
-1.249999999266968
 20
-0.0000000000000006
 30
0.0
  0
ENDBLK
  5
20AEF
330
20AED
100
AcDbEntity
  8
0
100
AcDbBlockEnd
  0
BLOCK
  5
20B16
330
20B15
100
AcDbEntity
  8
0
100
AcDbBlockBegin
  2
B128345
 70
     0
 10
0.0
 20
0.0
 30
0.0
  3
B128345
  1
m:/products/fastener/wblocks/B128345
  0
LINE
  5
20B17
330
20B15
100
AcDbEntity
  8
0
100
AcDbLine
 10
0.4374992999999999
 20
-0.09500021
 30
0.0
 11
0.5624993
 21
-0.06500024
 31
0.0
  0
LINE
  5
20B18
330
20B15
100
AcDbEntity
  8
0
100
AcDbLine
 10
0.5625
 20
-0.06500006
 30
0.0
 11
0.5625
 21
0.06499988
 31
0.0
  0
LINE
  5
20B19
330
20B15
100
AcDbEntity
  8
0
100
AcDbLine
 10
0.4374995000000001
 20
0.09499997
 30
0.0
 11
0.5624995000000001
 21
0.06499994
 31
0.0
  0
LINE
  5
20B1A
330
20B15
100
AcDbEntity
  8
0
100
AcDbLine
 10
0.00000005626477
 20
-0.1924996
 30
0.0
 11
0.1121609
 21
-0.09499979
 31
0.0
  0
LINE
  5
20B1B
330
20B15
100
AcDbEntity
  8
0
100
AcDbLine
 10
0.00000007245171
 20
0.1924996
 30
0.0
 11
0.112161
 21
0.09499967
 31
0.0
  0
LINE
  5
20B1C
330
20B15
100
AcDbEntity
  8
0
100
AcDbLine
 10
0.0
 20
0.1924999
 30
0.0
 11
0.0
 21
-0.1924999
 31
0.0
  0
LINE
  5
20B1D
330
20B15
100
AcDbEntity
  8
0
100
AcDbLine
 10
0.112161
 20
-0.09500003
 30
0.0
 11
0.4375
 21
-0.09500003
 31
0.0
  0
LINE
  5
20B1E
330
20B15
100
AcDbEntity
  8
0
100
AcDbLine
 10
0.1121613
 20
0.09499991
 30
0.0
 11
0.4375
 21
0.09499991
 31
0.0
  0
LINE
  5
20B1F
330
20B15
100
AcDbEntity
  8
0
100
AcDbLine
 10
0.1121609
 20
-0.09499961
 30
0.0
 11
0.1121609
 21
0.09499961
 31
0.0
  0
LINE
  5
20B20
330
20B15
100
AcDbEntity
  8
CENTER
100
AcDbLine
 10
-0.1436461
 20
0.0
 30
0.0
 11
0.7183838
 21
0.0
 31
0.0
  0
ENDBLK
  5
20B21
330
20B15
100
AcDbEntity
  8
0
100
AcDbBlockEnd
  0
BLOCK
  5
20B23
330
20B22
100
AcDbEntity
  8
0
  6
Continuous
 62
     7
100
AcDbBlockBegin
  2
B451079
 70
     0
 10
0.0
 20
0.0
 30
0.0
  3
B451079
  1
g:/products/rd014/blocks/B451079
  0
LWPOLYLINE
  5
20B24
330
20B22
100
AcDbEntity
  8
0
100
AcDbPolyline
 90
       24
 70
     1
 43
0.0
 10
2.878600000000002
 20
2.0625
 10
1.619800000000001
 20
2.0625
 42
0.8533345914292086
 10
1.616072100425039
 20
2.039093740106459
 10
1.721886696318541
 20
2.004510433155902
 42
-0.8533345914291928
 10
1.715673530360271
 20
1.965500000000002
 10
1.121790381196008
 20
1.9655
 42
-0.5773080015851985
 10
1.113129493202121
 20
1.980498901795129
 10
1.156130443996943
 20
2.055000549102434
 42
0.5773080015851911
 10
1.151799999999999
 20
2.0625
 10
1.061799999999999
 20
2.0625
 10
0.9533000000000022
 20
2.0
 10
0.0239999999999991
 20
2.0
 10
0.0239999999999991
 20
0.0
 10
4.475799999999999
 20
0.0
 10
4.475799999999999
 20
2.0
 10
3.545300000000001
 20
2.0
 10
3.436800000000001
 20
2.0625
 10
3.346600000000005
 20
2.0625
 42
0.5763447263134277
 10
3.342262347856596
 20
2.055013079437779
 10
3.384998177822911
 20
1.980473841124439
 42
-0.5763447263135673
 10
3.376322873536096
 20
1.9655
 10
2.783242745734192
 20
1.9655
 42
-0.852709700737763
 10
2.777002081955849
 20
2.004501424041523
 10
2.882344398267008
 20
2.039099145575086
 42
0.8527097007377607
  0
LWPOLYLINE
  5
20B25
330
20B22
100
AcDbEntity
  8
0
100
AcDbPolyline
 90
        8
 70
     1
 43
0.0
 10
1.792999999999999
 20
1.875
 10
0.1489999999999991
 20
1.875
 10
0.1489999999999991
 20
0.125
 10
4.350799999999999
 20
0.125
 10
4.350799999999999
 20
1.875
 10
2.706800000000001
 20
1.875
 10
2.609300000000001
 20
1.972499999999996
 10
1.890499999999999
 20
1.9725
  0
ENDBLK
  5
20B26
330
20B22
100
AcDbEntity
  8
0
  6
Continuous
 62
     7
100
AcDbBlockEnd
  0
BLOCK
  5
20B28
330
20B27
100
AcDbEntity
  8
0
100
AcDbBlockBegin
  2
B028400-H
 70
     0
 10
0.0
 20
0.0
 30
0.0
  3
B028400-H
  1

  0
LINE
  5
20B29
330
20B27
100
AcDbEntity
  8
0
100
AcDbLine
 10
-0.01549995
 20
0.09949994
 30
0.0
 11
0.01550001
 21
0.09949994
 31
0.0
  0
LINE
  5
20B2A
330
20B27
100
AcDbEntity
  8
0
100
AcDbLine
 10
-0.01549995
 20
-0.09949994
 30
0.0
 11
0.01550001
 21
-0.09949994
 31
0.0
  0
LINE
  5
20B2B
330
20B27
100
AcDbEntity
  8
0
100
AcDbLine
 10
-0.09949994
 20
0.0155
 30
0.0
 11
-0.09949994
 21
-0.0155
 31
0.0
  0
LINE
  5
20B2C
330
20B27
100
AcDbEntity
  8
0
100
AcDbLine
 10
0.09949994
 20
0.0155
 30
0.0
 11
0.09949994
 21
-0.0155
 31
0.0
  0
LINE
  5
20B2D
330
20B27
100
AcDbEntity
  8
0
100
AcDbLine
 10
-0.01549995
 20
0.09949994
 30
0.0
 11
-0.01549995
 21
0.06524998
 31
0.0
  0
LINE
  5
20B2E
330
20B27
100
AcDbEntity
  8
0
100
AcDbLine
 10
0.01550001
 20
0.09949994
 30
0.0
 11
0.01550001
 21
0.06524998
 31
0.0
  0
LINE
  5
20B2F
330
20B27
100
AcDbEntity
  8
0
100
AcDbLine
 10
-0.09949994
 20
0.0155
 30
0.0
 11
-0.06524992
 21
0.0155
 31
0.0
  0
LINE
  5
20B30
330
20B27
100
AcDbEntity
  8
0
100
AcDbLine
 10
-0.09949994
 20
-0.0155
 30
0.0
 11
-0.06524992
 21
-0.0155
 31
0.0
  0
LINE
  5
20B31
330
20B27
100
AcDbEntity
  8
0
100
AcDbLine
 10
0.06525004
 20
0.0155
 30
0.0
 11
0.09949994
 21
0.0155
 31
0.0
  0
LINE
  5
20B32
330
20B27
100
AcDbEntity
  8
0
100
AcDbLine
 10
0.06525004
 20
-0.0155
 30
0.0
 11
0.09949994
 21
-0.0155
 31
0.0
  0
LINE
  5
20B33
330
20B27
100
AcDbEntity
  8
0
100
AcDbLine
 10
-0.01549995
 20
-0.06524998
 30
0.0
 11
-0.01549995
 21
-0.09949994
 31
0.0
  0
LINE
  5
20B34
330
20B27
100
AcDbEntity
  8
0
100
AcDbLine
 10
0.01550001
 20
-0.06524998
 30
0.0
 11
0.01550001
 21
-0.09949994
 31
0.0
  0
LINE
  5
20B35
330
20B27
100
AcDbEntity
  8
CENTER
100
AcDbLine
 10
0.0
 20
0.2485
 30
0.0
 11
0.0
 21
-0.2485
 31
0.0
  0
LINE
  5
20B36
330
20B27
100
AcDbEntity
  8
CENTER
100
AcDbLine
 10
-0.2485
 20
0.0
 30
0.0
 11
0.2485
 21
0.0
 31
0.0
  0
CIRCLE
  5
20B37
330
20B27
100
AcDbEntity
  8
0
100
AcDbCircle
 10
0.0
 20
0.0
 30
0.0
 40
0.1865
  0
ARC
  5
20B38
330
20B27
100
AcDbEntity
  8
0
100
AcDbCircle
 10
-0.06524992
 20
-0.06524998
 30
0.0
 40
0.04975
100
AcDbArc
 50
0.0
 51
89.99990999999999
  0
ARC
  5
20B39
330
20B27
100
AcDbEntity
  8
0
100
AcDbCircle
 10
0.06525004
 20
-0.06524998
 30
0.0
 40
0.04975
100
AcDbArc
 50
89.99996999999998
 51
180.0
  0
ARC
  5
20B3A
330
20B27
100
AcDbEntity
  8
0
100
AcDbCircle
 10
0.06525004
 20
0.06524998
 30
0.0
 40
0.04975
100
AcDbArc
 50
180.0
 51
270.0
  0
ARC
  5
20B3B
330
20B27
100
AcDbEntity
  8
0
100
AcDbCircle
 10
-0.06524992
 20
0.06524998
 30
0.0
 40
0.04975
100
AcDbArc
 50
270.0
 51
0.0
  0
ENDBLK
  5
20B3C
330
20B27
100
AcDbEntity
  8
0
100
AcDbBlockEnd
  0
BLOCK
  5
20B3F
330
20B3D
100
AcDbEntity
  8
0
100
AcDbBlockBegin
  2
B451140
 70
     0
 10
0.0
 20
0.0
 30
0.0
  3
B451140
  1

  0
LINE
  5
20B40
330
20B3D
100
AcDbEntity
  8
CENTER
100
AcDbLine
 10
2.0748999959412
 20
1.953790661513115
 30
0.0
 11
2.0748999959412
 21
0.0000000007839982
 31
0.0
  0
LINE
  5
20B41
330
20B3D
100
AcDbEntity
  8
CENTER
100
AcDbLine
 10
3.574799995941197
 20
1.920245155216415
 30
0.0
 11
3.574799995941197
 21
1.420095155216416
 31
0.0
  0
LINE
  5
20B42
330
20B3D
100
AcDbEntity
  8
CENTER
100
AcDbLine
 10
0.5748999959412009
 20
1.920245155216415
 30
0.0
 11
0.5748999959412009
 21
1.420095155216416
 31
0.0
  0
LINE
  5
20B43
330
20B3D
100
AcDbEntity
  8
HIDDEN
100
AcDbLine
 10
3.657299995941193
 20
1.770245155216416
 30
0.0
 11
3.657299995941193
 21
1.57024515521642
 31
0.0
  0
LINE
  5
20B44
330
20B3D
100
AcDbEntity
  8
HIDDEN
100
AcDbLine
 10
3.492299995941194
 20
1.770245155216416
 30
0.0
 11
3.492299995941194
 21
1.57024515521642
 31
0.0
  0
LINE
  5
20B45
330
20B3D
100
AcDbEntity
  8
HIDDEN
100
AcDbLine
 10
0.6573999959412041
 20
1.770245155216416
 30
0.0
 11
0.6573999959412041
 21
1.57024515521642
 31
0.0
  0
LINE
  5
20B46
330
20B3D
100
AcDbEntity
  8
HIDDEN
100
AcDbLine
 10
0.4923999959412049
 20
1.770245155216416
 30
0.0
 11
0.4923999959412049
 21
1.57024515521642
 31
0.0
  0
LINE
  5
20B47
330
20B3D
100
AcDbEntity
  8
0
100
AcDbLine
 10
0.9288999959412036
 20
0.8142451552164168
 30
0.0
 11
0.9288999959412036
 21
0.6582451552164144
 31
0.0
  0
LINE
  5
20B48
330
20B3D
100
AcDbEntity
  8
0
100
AcDbLine
 10
1.220899995941201
 20
0.8142451552164168
 30
0.0
 11
1.220899995941198
 21
0.6582451552164144
 31
0.0
  0
LINE
  5
20B49
330
20B3D
100
AcDbEntity
  8
0
100
AcDbLine
 10
2.928799995941196
 20
0.8142451552164168
 30
0.0
 11
2.928799995941196
 21
0.6582451552164144
 31
0.0
  0
LINE
  5
20B4A
330
20B3D
100
AcDbEntity
  8
0
100
AcDbLine
 10
3.220799995941198
 20
0.8142451552164168
 30
0.0
 11
3.220799995941194
 21
0.6582451552164144
 31
0.0
  0
LINE
  5
20B4B
330
20B3D
100
AcDbEntity
  8
CENTER
100
AcDbLine
 10
1.0748999959412
 20
1.277222623801212
 30
0.0
 11
1.0748999959412
 21
0.3981970881973154
 31
0.0
  0
LINE
  5
20B4C
330
20B3D
100
AcDbEntity
  8
CENTER
100
AcDbLine
 10
3.074799995941197
 20
1.277222623801212
 30
0.0
 11
3.074799995941197
 21
0.3981970881973154
 31
0.0
  0
LINE
  5
20B4D
330
20B3D
100
AcDbEntity
  8
0
100
AcDbLine
 10
4.036299995941198
 20
1.332215181669466
 30
0.0
 11
4.149799995941196
 21
1.332215181669466
 31
0.0
  0
LINE
  5
20B4E
330
20B3D
100
AcDbEntity
  8
0
100
AcDbLine
 10
-0.0000000040587969
 20
1.332215181669467
 30
0.0
 11
0.1089999959412031
 21
1.332215181669466
 31
0.0
  0
LINE
  5
20B4F
330
20B3D
100
AcDbEntity
  8
HIDDEN
100
AcDbLine
 10
1.723399995941206
 20
1.832245155216414
 30
0.0
 11
1.723399995941206
 21
1.707246293814947
 31
0.0
  0
LINE
  5
20B50
330
20B3D
100
AcDbEntity
  8
HIDDEN
100
AcDbLine
 10
2.426399995941205
 20
1.832245155216414
 30
0.0
 11
2.426399995941205
 21
1.707249015456447
 31
0.0
  0
LINE
  5
20B51
330
20B3D
100
AcDbEntity
  8
HIDDEN
100
AcDbLine
 10
1.723399995941206
 20
0.1922451552164133
 30
0.0
 11
1.723399995941206
 21
0.0982451552164121
 31
0.0
  0
LINE
  5
20B52
330
20B3D
100
AcDbEntity
  8
HIDDEN
100
AcDbLine
 10
2.426399995941202
 20
0.1922451552164133
 30
0.0
 11
2.426399995941205
 21
0.0982451552164125
 31
0.0
  0
LINE
  5
20B53
330
20B3D
100
AcDbEntity
  8
HIDDEN
100
AcDbLine
 10
1.992399995941204
 20
0.1922451552164137
 30
0.0
 11
1.992399995941208
 21
0.0982451552164121
 31
0.0
  0
LINE
  5
20B54
330
20B3D
100
AcDbEntity
  8
HIDDEN
100
AcDbLine
 10
2.157399995941204
 20
0.1922451552164137
 30
0.0
 11
2.157399995941204
 21
0.0982451552164121
 31
0.0
  0
LWPOLYLINE
  5
20B55
330
20B3D
100
AcDbEntity
  8
0
100
AcDbPolyline
 90
       36
 70
     1
 43
0.0
 10
0.2000999959412111
 20
1.482245155216455
 42
-2.414213562373064
 10
0.3000999959412099
 20
1.582245155216414
 42
0.8013797685734246
 10
0.4182187339586934
 20
1.555877033610711
 42
-0.290677896643797
 10
0.4408453369252899
 20
1.570245155216421
 10
0.7038592803294419
 20
1.570245155216421
 42
-0.3711751372883971
 10
0.7285817473092005
 20
1.548959940060095
 42
0.1604188347414237
 10
0.7917045414215176
 20
1.423849700696723
 42
0.9999999999999594
 10
0.8793893178225813
 20
1.511534477097792
 42
-2.414213562373052
 10
1.020810674059863
 20
1.51153447709776
 42
0.9999999999999998
 10
1.108495450460888
 20
1.423849700696737
 42
0.3089691246358914
 10
1.155247337729456
 20
1.672205191800534
 42
-0.5411374222938457
 10
1.178142638566499
 20
1.7072451503486
 10
2.971859356142789
 20
1.707250158930551
 42
-0.5411470236576223
 10
2.994754630035532
 20
1.672209697522897
 42
0.3089751396777967
 10
3.041504541421507
 20
1.423849700696722
 42
0.9999999999999998
 10
3.129189317822546
 20
1.51153447709776
 42
-2.414213562373052
 10
3.270610674059828
 20
1.511534477097792
 42
0.9999999999999589
 10
3.358295450460892
 20
1.423849700696723
 42
0.1604188347414268
 10
3.421418244573215
 20
1.548959940060099
 42
-0.3711751372883811
 10
3.446140711552968
 20
1.570245155216421
 10
3.709154654957028
 20
1.570245155216421
 42
-0.2906778966439078
 10
3.731781257923706
 20
1.555877033610736
 42
0.8013797685735859
 10
3.849899995941203
 20
1.582245155216414
 42
-2.414213562373034
 10
3.949899995941206
 20
1.482245155216455
 42
0.9999999999999714
 10
3.949899995941206
 20
1.358240155216416
 42
0.1050905971360325
 10
4.040999995941203
 20
1.377601489238136
 10
4.040999995941201
 20
0.8142451552164139
 10
2.665899995941198
 20
0.8142451552164139
 42
0.4142135623730951
 10
2.540899995941198
 20
0.6892451552164141
 10
2.540899995941201
 20
0.1922451552164142
 10
1.608899995941199
 20
0.1922451552164142
 10
1.608899995941199
 20
0.6892451552164141
 42
0.4142135623730951
 10
1.483899995941199
 20
0.8142451552164139
 10
0.1089999959412031
 20
0.8142451552164139
 10
0.1089999959412031
 20
1.377601489238204
 42
0.1050905971360554
 10
0.2000999959412111
 20
1.358240155216416
 42
0.9999999999999714
  0
LWPOLYLINE
  5
20B56
330
20B3D
100
AcDbEntity
  8
0
100
AcDbPolyline
 90
       22
 70
     1
 43
0.0
 10
0.7628999959412069
 20
1.770245155216417
 10
0.8248999959412008
 20
1.832245155216415
 10
3.3248999959412
 20
1.832245155216415
 10
3.386899995941198
 20
1.770245155216417
 10
3.762899995941196
 20
1.770245155216417
 10
3.8248999959412
 20
1.832245155216415
 10
4.024999995941205
 20
1.832245155216418
 42
-0.414213562373093
 10
4.149999995941203
 20
1.707245155216418
 10
4.149999995941203
 20
0.7832451552164117
 42
-0.414213562373093
 10
4.024999995941203
 20
0.6582451552164117
 10
2.634899995941199
 20
0.6582451552164153
 10
2.634899995941201
 20
0.1922451552164142
 42
-0.4142135623730948
 10
2.540899995941201
 20
0.098245155216413
 10
1.608899995941201
 20
0.098245155216413
 42
-0.4142135623730951
 10
1.514899995941202
 20
0.1922451552164142
 10
1.514899995941202
 20
0.6582451552164117
 10
0.1249999959412014
 20
0.6582451552164117
 42
-0.4142135623730951
 10
-0.0000000040587986
 20
0.7832451552164117
 10
-0.0000000040587951
 20
1.707245155216415
 42
-0.4142135623730951
 10
0.1249999959412049
 20
1.832245155216415
 10
0.3248999959412044
 20
1.832245155216415
 10
0.3873999959412009
 20
1.770245155216417
  0
ENDBLK
  5
20B57
330
20B3D
100
AcDbEntity
  8
0
100
AcDbBlockEnd
  0
BLOCK
  5
20B5B
330
20B58
100
AcDbEntity
  8
0
100
AcDbBlockBegin
  2
B451548
 70
     0
 10
0.0
 20
0.0
 30
0.0
  3
B451548
  1

  0
INSERT
  5
20B5C
330
20B58
100
AcDbEntity
  8
0
  6
Continuous
100
AcDbBlockReference
  2
B028400-H
 10
0.37510000000003
 20
1.625000000000018
 30
0.0
  0
INSERT
  5
20B5D
330
20B58
100
AcDbEntity
  8
0
  6
Continuous
100
AcDbBlockReference
  2
B028400-H
 10
1.125100000000037
 20
1.62459269214654
 30
0.0
  0
INSERT
  5
20B5E
330
20B58
100
AcDbEntity
  8
0
  6
Continuous
100
AcDbBlockReference
  2
B028400-H
 10
3.37489999999997
 20
1.62459269214654
 30
0.0
  0
INSERT
  5
20B5F
330
20B58
100
AcDbEntity
  8
0
  6
Continuous
100
AcDbBlockReference
  2
B028400-H
 10
4.12489999999998
 20
1.62459269214656
 30
0.0
  0
INSERT
  5
20B60
330
20B58
100
AcDbEntity
  8
0
  6
Continuous
100
AcDbBlockReference
  2
B128345
 10
0.7499000000000003
 20
2.0
 30
0.0
 50
270.0
  0
INSERT
  5
20B61
330
20B58
100
AcDbEntity
  8
0
  6
Continuous
100
AcDbBlockReference
  2
B128345
 10
3.749799999999996
 20
2.0
 30
0.0
 50
270.0
  0
INSERT
  5
20B62
330
20B58
100
AcDbEntity
  8
0
  6
Continuous
100
AcDbBlockReference
  2
B451140
 10
0.1750000040587984
 20
0.0427548447835848
 30
0.0
  0
ENDBLK
  5
20B63
330
20B58
100
AcDbEntity
  8
0
100
AcDbBlockEnd
  0
BLOCK
  5
20D06
330
20D05
100
AcDbEntity
  8
0
100
AcDbBlockBegin
  2
B028520
 70
     0
 10
0.0
 20
0.0
 30
0.0
  3
B028520
  1

  0
LINE
  5
20D07
330
20D05
100
AcDbEntity
  8
0
100
AcDbLine
 10
0.1121613
 20
0.09499997
 30
0.0
 11
0.9049995999999998
 21
0.09499997
 31
0.0
  0
LINE
  5
20D08
330
20D05
100
AcDbEntity
  8
0
100
AcDbLine
 10
0.112161
 20
-0.09499991
 30
0.0
 11
0.9049995999999998
 21
-0.09499991
 31
0.0
  0
LINE
  5
20D09
330
20D05
100
AcDbEntity
  8
0
100
AcDbLine
 10
0.999999
 20
-0.0000003793217
 30
0.0
 11
0.9049990999999998
 21
-0.09500033
 31
0.0
  0
LINE
  5
20D0A
330
20D05
100
AcDbEntity
  8
0
100
AcDbLine
 10
0.999999
 20
0.0000003793217
 30
0.0
 11
0.9049990999999998
 21
0.09500033
 31
0.0
  0
LINE
  5
20D0B
330
20D05
100
AcDbEntity
  8
0
100
AcDbLine
 10
0.0
 20
0.1925
 30
0.0
 11
0.0
 21
-0.1924998
 31
0.0
  0
LINE
  5
20D0C
330
20D05
100
AcDbEntity
  8
0
100
AcDbLine
 10
0.0000001056758
 20
0.1924998
 30
0.0
 11
0.112161
 21
0.09499979
 31
0.0
  0
LINE
  5
20D0D
330
20D05
100
AcDbEntity
  8
0
100
AcDbLine
 10
0.00000009536888
 20
-0.1924997
 30
0.0
 11
0.112161
 21
-0.09499979
 31
0.0
  0
LINE
  5
20D0E
330
20D05
100
AcDbEntity
  8
0
100
AcDbLine
 10
0.112161
 20
-0.09499955
 30
0.0
 11
0.112161
 21
0.09499973
 31
0.0
  0
LINE
  5
20D0F
330
20D05
100
AcDbEntity
  8
CENTER
100
AcDbLine
 10
-0.153122
 20
0.0
 30
0.0
 11
1.17572
 21
0.0
 31
0.0
  0
ENDBLK
  5
20D10
330
20D05
100
AcDbEntity
  8
0
100
AcDbBlockEnd
  0
BLOCK
  5
20D12
330
20D11
100
AcDbEntity
  8
0
100
AcDbBlockBegin
  2
B049064
 70
     0
 10
0.0
 20
0.0
 30
0.0
  3
B049064
  1

  0
INSERT
  5
20D13
330
20D11
100
AcDbEntity
  8
0
100
AcDbBlockReference
  2
B069214
 10
0.0
 20
0.0
 30
0.0
  0
INSERT
  5
20D14
330
20D11
100
AcDbEntity
  8
0
100
AcDbBlockReference
  2
B027078
 10
2.048999999999999
 20
-0.4149999999999992
 30
0.0
  0
ENDBLK
  5
20D15
330
20D11
100
AcDbEntity
  8
0
100
AcDbBlockEnd
  0
BLOCK
  5
20D17
330
20D16
100
AcDbEntity
  8
0
100
AcDbBlockBegin
  2
B069214
 70
     0
 10
0.0
 20
0.0
 30
0.0
  3
B069214
  1

  0
LINE
  5
20D18
330
20D16
100
AcDbEntity
  8
0
100
AcDbLine
 10
1.968999999999999
 20
0.0
 30
0.0
 11
2.3440014752
 21
-0.0065500000000007
 31
0.0
  0
LINE
  5
20D19
330
20D16
100
AcDbEntity
  8
0
100
AcDbLine
 10
2.3440014752
 20
-0.0065500000000007
 30
0.0
 11
2.3440014752
 21
-0.0619999999999976
 31
0.0
  0
LINE
  5
20D1A
330
20D16
100
AcDbEntity
  8
0
100
AcDbLine
 10
2.3440014752
 20
-0.0619999999999976
 30
0.0
 11
2.135001475199997
 21
-0.0619999999999976
 31
0.0
  0
LINE
  5
20D1B
330
20D16
100
AcDbEntity
  8
0
100
AcDbLine
 10
2.135001475199997
 20
-0.0619999999999976
 30
0.0
 11
2.135001475199997
 21
-0.5
 31
0.0
  0
LINE
  5
20D1C
330
20D16
100
AcDbEntity
  8
0
100
AcDbLine
 10
2.135001475199997
 20
-0.5
 30
0.0
 11
3.907001475199997
 21
-0.5
 31
0.0
  0
LINE
  5
20D1D
330
20D16
100
AcDbEntity
  8
0
100
AcDbLine
 10
3.907001475199997
 20
-0.5
 30
0.0
 11
3.907001475199997
 21
-0.0619999999999976
 31
0.0
  0
LINE
  5
20D1E
330
20D16
100
AcDbEntity
  8
0
100
AcDbLine
 10
3.907001475199997
 20
-0.0619999999999976
 30
0.0
 11
3.7190014752
 21
-0.0619999999999976
 31
0.0
  0
LINE
  5
20D1F
330
20D16
100
AcDbEntity
  8
0
100
AcDbLine
 10
3.7190014752
 20
-0.0619999999999976
 30
0.0
 11
3.7190014752
 21
-0.0043599999999984
 31
0.0
  0
LINE
  5
20D20
330
20D16
100
AcDbEntity
  8
0
100
AcDbLine
 10
3.7190014752
 20
-0.0043599999999984
 30
0.0
 11
3.969001475200002
 21
0.0
 31
0.0
  0
LINE
  5
20D21
330
20D16
100
AcDbEntity
  8
0
100
AcDbLine
 10
3.969001475200002
 20
0.0
 30
0.0
 11
3.969001475200002
 21
-0.625
 31
0.0
  0
LINE
  5
20D22
330
20D16
100
AcDbEntity
  8
0
100
AcDbLine
 10
3.969001475200002
 20
-0.625
 30
0.0
 11
2.0
 21
-0.625
 31
0.0
  0
ARC
  5
20D23
330
20D16
100
AcDbEntity
  8
0
100
AcDbCircle
 10
1.986
 20
-0.3079999999999998
 30
0.0
 40
0.0170000000000001
100
AcDbArc
 50
180.0
 51
0.0
  0
LINE
  5
20D24
330
20D16
100
AcDbEntity
  8
0
100
AcDbLine
 10
2.003
 20
-0.3079999999999998
 30
0.0
 11
2.003
 21
-0.2899999999999991
 31
0.0
  0
ARC
  5
20D25
330
20D16
100
AcDbEntity
  8
0
100
AcDbCircle
 10
2.025999999999999
 20
-0.2899999999999991
 30
0.0
 40
0.0229999999999999
100
AcDbArc
 50
0.0
 51
180.0
  0
LINE
  5
20D26
330
20D16
100
AcDbEntity
  8
0
100
AcDbLine
 10
2.048999999999999
 20
-0.2899999999999991
 30
0.0
 11
2.048999999999999
 21
-0.5399999999999992
 31
0.0
  0
ARC
  5
20D27
330
20D16
100
AcDbEntity
  8
0
100
AcDbCircle
 10
2.025999999999999
 20
-0.5399999999999992
 30
0.0
 40
0.0229999999999999
100
AcDbArc
 50
180.0
 51
0.0
  0
LINE
  5
20D28
330
20D16
100
AcDbEntity
  8
0
100
AcDbLine
 10
2.003
 20
-0.5399999999999992
 30
0.0
 11
2.003
 21
-0.5219999999999985
 31
0.0
  0
ARC
  5
20D29
330
20D16
100
AcDbEntity
  8
0
100
AcDbCircle
 10
1.986
 20
-0.5219999999999985
 30
0.0
 40
0.0169999999999999
100
AcDbArc
 50
0.0
 51
180.0
  0
LINE
  5
20D2A
330
20D16
100
AcDbEntity
  8
0
100
AcDbLine
 10
1.968999999999999
 20
-0.5219999999999985
 30
0.0
 11
1.968999999999999
 21
-0.5940000000000012
 31
0.0
  0
ARC
  5
20D2B
330
20D16
100
AcDbEntity
  8
0
100
AcDbCircle
 10
2.0
 20
-0.5940000000000012
 30
0.0
 40
0.0309999999999999
100
AcDbArc
 50
180.0
 51
270.0
  0
LINE
  5
20D2C
330
20D16
100
AcDbEntity
  8
0
100
AcDbLine
 10
1.968999999999999
 20
0.0
 30
0.0
 11
1.968999999999999
 21
-0.3079999999999998
 31
0.0
  0
ENDBLK
  5
20D2D
330
20D16
100
AcDbEntity
  8
0
100
AcDbBlockEnd
  0
BLOCK
  5
20D2F
330
20D2E
100
AcDbEntity
  8
0
100
AcDbBlockBegin
  2
B027078
 70
     0
 10
0.0
 20
0.0
 30
0.0
  3
B027078
  1

  0
LINE
  5
20D30
330
20D2E
100
AcDbEntity
  8
0
100
AcDbLine
 10
-0.0057499999999999
 20
-0.1350000000000017
 30
0.0
 11
-0.0057499999999999
 21
-0.0620000000000012
 31
0.0
  0
LINE
  5
20D31
330
20D2E
100
AcDbEntity
  8
0
100
AcDbLine
 10
-0.0207500000000005
 20
0.0769999999999982
 30
0.0
 11
-0.0207500000000005
 21
0.1349999999999982
 31
0.0
  0
LINE
  5
20D32
330
20D2E
100
AcDbEntity
  8
0
100
AcDbLine
 10
-0.0057499999999999
 20
0.0620000000000012
 30
0.0
 11
-0.0057499999999999
 21
0.1349999999999982
 31
0.0
  0
LINE
  5
20D33
330
20D2E
100
AcDbEntity
  8
0
100
AcDbLine
 10
-0.0617499999999973
 20
-0.0620000000000012
 30
0.0
 11
-0.0617499999999973
 21
0.0620000000000012
 31
0.0
  0
LINE
  5
20D34
330
20D2E
100
AcDbEntity
  8
0
100
AcDbLine
 10
-0.0617499999999973
 20
-0.0620000000000012
 30
0.0
 11
-0.0057499999999999
 21
-0.0620000000000012
 31
0.0
  0
LINE
  5
20D35
330
20D2E
100
AcDbEntity
  8
0
100
AcDbLine
 10
-0.079749999999998
 20
-0.0770000000000017
 30
0.0
 11
-0.0207500000000005
 21
-0.0770000000000017
 31
0.0
  0
LINE
  5
20D36
330
20D2E
100
AcDbEntity
  8
0
100
AcDbLine
 10
-0.0207500000000005
 20
-0.1350000000000017
 30
0.0
 11
-0.0207500000000005
 21
-0.0770000000000017
 31
0.0
  0
LINE
  5
20D37
330
20D2E
100
AcDbEntity
  8
0
100
AcDbLine
 10
-0.0057499999999999
 20
0.0620000000000012
 30
0.0
 11
-0.0617499999999973
 21
0.0620000000000012
 31
0.0
  0
LINE
  5
20D38
330
20D2E
100
AcDbEntity
  8
0
100
AcDbLine
 10
-0.0207500000000005
 20
0.0769999999999982
 30
0.0
 11
-0.079749999999998
 21
0.0769999999999982
 31
0.0
  0
LINE
  5
20D39
330
20D2E
100
AcDbEntity
  8
0
100
AcDbLine
 10
-0.0797499999999999
 20
0.1560210464494197
 30
0.0
 11
-0.0797499999999999
 21
-0.1559810474383633
 31
0.0
  0
LINE
  5
20D3A
330
20D2E
100
AcDbEntity
  8
0
100
AcDbLine
 10
-0.1737499999999999
 20
0.1560210464494197
 30
0.0
 11
-0.1737499999999999
 21
-0.1559810474383633
 31
0.0
  0
LINE
  5
20D3B
330
20D2E
100
AcDbEntity
  8
0
100
AcDbLine
 10
-0.0207500000000005
 20
-0.1350000000000017
 30
0.0
 11
-0.0057499999999999
 21
-0.1350000000000017
 31
0.0
  0
LINE
  5
20D3C
330
20D2E
100
AcDbEntity
  8
0
100
AcDbLine
 10
-0.0057499999999999
 20
0.1349999999999982
 30
0.0
 11
-0.0207500000000005
 21
0.1349999999999981
 31
0.0
  0
ARC
  5
20D3D
330
20D2E
100
AcDbEntity
  8
0
100
AcDbCircle
 10
-0.126749999999999
 20
0.1560210464494197
 30
0.0
 40
0.047000000000001
100
AcDbArc
 50
0.0
 51
180.0
  0
ARC
  5
20D3E
330
20D2E
100
AcDbEntity
  8
0
100
AcDbCircle
 10
-0.1267499999999999
 20
-0.1559810474383633
 30
0.0
 40
0.047
100
AcDbArc
 50
180.0
 51
0.0
  0
LINE
  5
20D3F
330
20D2E
100
AcDbEntity
  8
0
100
AcDbLine
 10
-0.1537499999999999
 20
0.1560210464494197
 30
0.0
 11
-0.1537499999999999
 21
-0.1559810474383633
 31
0.0
  0
LINE
  5
20D40
330
20D2E
100
AcDbEntity
  8
0
100
AcDbLine
 10
-0.09975
 20
0.1560210464494197
 30
0.0
 11
-0.09975
 21
-0.1559810474383633
 31
0.0
  0
ARC
  5
20D41
330
20D2E
100
AcDbEntity
  8
0
100
AcDbCircle
 10
-0.126749999999999
 20
0.1560210464494197
 30
0.0
 40
0.027000000000001
100
AcDbArc
 50
0.0
 51
180.0
  0
ARC
  5
20D42
330
20D2E
100
AcDbEntity
  8
0
100
AcDbCircle
 10
-0.1267499999999999
 20
-0.1559810474383633
 30
0.0
 40
0.027
100
AcDbArc
 50
180.0
 51
0.0
  0
ENDBLK
  5
20D43
330
20D2E
100
AcDbEntity
  8
0
100
AcDbBlockEnd
  0
BLOCK
  5
20D51
330
20D48
100
AcDbEntity
  8
0
100
AcDbBlockBegin
  2
S522DS01
 70
     0
 10
0.0
 20
0.0
 30
0.0
  3
S522DS01
  1

  0
INSERT
  5
20E56
330
20D48
100
AcDbEntity
  8
0
100
AcDbBlockReference
  2
B028520
 10
3.06203102147638
 20
-0.6254999999999989
 30
0.0
 50
90.0
  0
INSERT
  5
20E57
330
20D48
100
AcDbEntity
  8
0
100
AcDbBlockReference
  2
B049064
 10
0.49941999358879
 20
0.0
 30
0.0
  0
ENDBLK
  5
20D52
330
20D48
100
AcDbEntity
  8
0
100
AcDbBlockEnd
  0
BLOCK
  5
20E73
330
20E72
100
AcDbEntity
  8
0
100
AcDbBlockBegin
  2
B028354
 70
     0
 10
0.0
 20
0.0
 30
0.0
  3
B028354
  1

  0
LINE
  5
20E74
330
20E72
100
AcDbEntity
  8
0
100
AcDbLine
 10
0.08099997
 20
0.09499991
 30
0.0
 11
0.3749985
 21
0.09499991
 31
0.0
  0
LINE
  5
20E75
330
20E72
100
AcDbEntity
  8
0
100
AcDbLine
 10
0.08099997
 20
-0.09500003
 30
0.0
 11
0.3749989
 21
-0.09500003
 31
0.0
  0
LINE
  5
20E76
330
20E72
100
AcDbEntity
  8
0
100
AcDbLine
 10
0.00000004623963
 20
0.1924995
 30
0.0
 11
0.08099997
 21
0.1220873
 31
0.0
  0
LINE
  5
20E77
330
20E72
100
AcDbEntity
  8
0
100
AcDbLine
 10
0.00000002139323
 20
-0.1924994
 30
0.0
 11
0.08099991
 21
-0.1220873
 31
0.0
  0
LINE
  5
20E78
330
20E72
100
AcDbEntity
  8
0
100
AcDbLine
 10
0.3749977
 20
0.09499997
 30
0.0
 11
0.4999978
 21
0.06499994
 31
0.0
  0
LINE
  5
20E79
330
20E72
100
AcDbEntity
  8
0
100
AcDbLine
 10
0.3749978
 20
-0.09500021
 30
0.0
 11
0.4999978
 21
-0.06500024
 31
0.0
  0
LINE
  5
20E7A
330
20E72
100
AcDbEntity
  8
0
100
AcDbLine
 10
0.5
 20
-0.06500006
 30
0.0
 11
0.5
 21
0.06499988
 31
0.0
  0
LINE
  5
20E7B
330
20E72
100
AcDbEntity
  8
0
100
AcDbLine
 10
0.08099997
 20
0.1220873
 30
0.0
 11
0.08099997
 21
-0.1220873
 31
0.0
  0
LINE
  5
20E7C
330
20E72
100
AcDbEntity
  8
CENTER
100
AcDbLine
 10
-0.1056858
 20
0.0
 30
0.0
 11
0.5982035
 21
0.0
 31
0.0
  0
ENDBLK
  5
20E7D
330
20E72
100
AcDbEntity
  8
0
100
AcDbBlockEnd
  0
BLOCK
  5
20E7F
330
20E7E
100
AcDbEntity
  8
0
100
AcDbBlockBegin
  2
B039345
 70
     0
 10
0.0
 20
0.0
 30
0.0
  3
B039345
  1

  0
LINE
  5
20E80
330
20E7E
100
AcDbEntity
  8
0
100
AcDbLine
 10
0.0
 20
0.0
 30
0.0
 11
0.1392836322856319
 21
-0.0633172154893269
 31
0.0
  0
LINE
  5
20E81
330
20E7E
100
AcDbEntity
  8
0
100
AcDbLine
 10
0.1771642168986254
 20
0.1254271935255557
 30
0.0
 11
0.9415172872111774
 21
-0.2220415453974917
 31
0.0
  0
ARC
  5
20E82
330
20E7E
100
AcDbEntity
  8
0
100
AcDbCircle
 10
0.9340682030359623
 20
-0.2384278550781545
 30
0.0
 40
0.018
100
AcDbArc
 50
310.315397513927
 51
65.55383828539273
  0
LINE
  5
20E83
330
20E7E
100
AcDbEntity
  8
0
100
AcDbLine
 10
0.8093016281171491
 20
-0.3679019906536731
 30
0.0
 11
0.9457141078806074
 21
-0.2521527558191246
 31
0.0
  0
ARC
  5
20E84
330
20E7E
100
AcDbEntity
  8
0
100
AcDbCircle
 10
0.0624953571948974
 20
0.2885010057678874
 30
0.0
 40
0.0625
100
AcDbArc
 50
16.84274727070723
 51
180.0009220543281
  0
LINE
  5
20E85
330
20E7E
100
AcDbEntity
  8
0
100
AcDbLine
 10
0.1771642168986246
 20
0.1254271935255561
 30
0.0
 11
0.1223143315755477
 21
0.3066101278903732
 31
0.0
  0
LINE
  5
20E86
330
20E7E
100
AcDbEntity
  8
0
100
AcDbLine
 10
0.0000000000000008
 20
-0.0000000000000004
 30
0.0
 11
-0.0000046427970091
 21
0.2884999999626428
 31
0.0
  0
LINE
  5
20E87
330
20E7E
100
AcDbEntity
  8
0
100
AcDbLine
 10
0.1330760621396176
 20
-0.0769724735565471
 30
0.0
 11
0.1840556922572324
 21
-0.1001474021016599
 31
0.0
  0
LINE
  5
20E88
330
20E7E
100
AcDbEntity
  8
0
100
AcDbLine
 10
0.1392836322856303
 20
-0.0633172154893281
 30
0.0
 11
0.1330760621396183
 21
-0.0769724735565455
 31
0.0
  0
LINE
  5
20E89
330
20E7E
100
AcDbEntity
  8
0
100
AcDbLine
 10
0.1902632624032443
 20
-0.0864921440344406
 30
0.0
 11
0.1840556922572332
 21
-0.1001474021016583
 31
0.0
  0
LINE
  5
20E8A
330
20E7E
100
AcDbEntity
  8
0
100
AcDbLine
 10
0.3668712667392704
 20
-0.1667767179228689
 30
0.0
 11
0.3606636965932585
 21
-0.1804319759900862
 31
0.0
  0
LINE
  5
20E8B
330
20E7E
100
AcDbEntity
  8
0
100
AcDbLine
 10
0.417850896856887
 20
-0.1899516464679825
 30
0.0
 11
0.411643326710875
 21
-0.2036069045351998
 31
0.0
  0
LINE
  5
20E8C
330
20E7E
100
AcDbEntity
  8
0
100
AcDbLine
 10
0.3606636965932577
 20
-0.1804319759900878
 30
0.0
 11
0.4116433267108742
 21
-0.2036069045352014
 31
0.0
  0
LINE
  5
20E8D
330
20E7E
100
AcDbEntity
  8
0
100
AcDbLine
 10
0.1902632624032436
 20
-0.0864921440344422
 30
0.0
 11
0.3668712667392704
 21
-0.1667767179228689
 31
0.0
  0
LINE
  5
20E8E
330
20E7E
100
AcDbEntity
  8
0
100
AcDbLine
 10
0.417850896856887
 20
-0.1899516464679825
 30
0.0
 11
0.8093016281171491
 21
-0.3679019906536731
 31
0.0
  0
ENDBLK
  5
20E8F
330
20E7E
100
AcDbEntity
  8
0
100
AcDbBlockEnd
  0
BLOCK
  5
20E95
330
20E92
100
AcDbEntity
  8
0
100
AcDbBlockBegin
  2
S522MD03
 70
     0
 10
0.0
 20
0.0
 30
0.0
  3
S522MD03
  1

  0
INSERT
  5
20E93
330
20E92
100
AcDbEntity
  8
0
100
AcDbBlockReference
  2
B028354
 10
0.4972715288693056
 20
-0.0200910078535751
 30
0.0
 50
245.5538382853927
  0
INSERT
  5
20E94
330
20E92
100
AcDbEntity
  8
0
100
AcDbBlockReference
  2
B039345
 10
0.0
 20
0.0
 30
0.0
  0
ENDBLK
  5
20E96
330
20E92
100
AcDbEntity
  8
0
100
AcDbBlockEnd
  0
BLOCK
  5
212A1
330
21295
100
AcDbEntity
  8
0
100
AcDbBlockBegin
  2
Kawneer Logo English
 70
     0
 10
0.0
 20
0.0
 30
0.0
  3
Kawneer Logo English
  1

  0
MTEXT
  5
21296
102
{ACAD_XDICTIONARY
360
21357
102
}
330
21295
100
AcDbEntity
  8
Kawneer Logo-English
100
AcDbMText
 10
1.510096758583198
 20
0.0372523876656778
 30
0.0
 40
0.036
 41
0.6125900866323382
 71
     3
 72
     5
  1
{\fArial TUR|b0|i0|c0|p34;\T1.05;AN ARCONIC COMPANY}
 73
     1
 44
1.0
1001
ACAD
1000
ACAD_MTEXT_COLUMN_INFO_BEGIN
1070
    75
1070
     2
1070
    79
1070
     0
1070
    76
1070
     1
1070
    78
1070
     0
1070
    48
1040
0.6125900866323382
1070
    49
1040
1.0
1070
    50
1070
     1
1040
0.0
1000
ACAD_MTEXT_COLUMN_INFO_END
1000
MTEXTBEGIN
1070
    73
1070
     1
1070
    44
1040
1.0
1070
    74
1070
     0
1000
MTEXTEND
  0
HATCH
  5
21297
330
21295
100
AcDbEntity
  8
Kawneer Logo-English
100
AcDbHatch
 10
0.0
 20
0.0
 30
0.0
210
0.0
220
0.0
230
1.0
  2
SOLID
 70
     1
 71
     0
 91
        1
 92
        1
 93
       81
 72
     1
 10
0.2706169776412204
 20
0.0336337282279411
 11
0.2687512969786691
 21
0.0350329887248546
 72
     1
 10
0.2687512969786696
 20
0.0350329887248547
 11
0.2633408230572721
 21
0.039137486182467
 72
     1
 10
0.2633408230572729
 20
0.0391374861824669
 11
0.2550385441089194
 21
0.0453875164020133
 72
     1
 10
0.2550385441089191
 20
0.0453875164020132
 11
0.2442175962661241
 21
0.053596511317238
 72
     1
 10
0.2442175962661235
 20
0.0535965113172379
 11
0.2314376837276472
 21
0.0632980507625037
 72
     1
 10
0.2314376837276479
 20
0.0632980507625037
 11
0.2172585106922595
 21
0.0741189986052996
 72
     1
 10
0.2172585106922598
 20
0.0741189986052996
 11
0.2019599292593419
 21
0.0856862187131167
 72
     1
 10
0.201959929259341
 20
0.0856862187131167
 11
0.1862882116939105
 21
0.0976265749534437
 72
     1
 10
0.1862882116939102
 20
0.0976265749534437
 11
0.1706164941284813
 21
0.1095669311937706
 72
     1
 10
0.1706164941284811
 20
0.1095669311937709
 11
0.1553179126955632
 21
0.1211341513015875
 72
     1
 10
0.1553179126955642
 20
0.1211341513015876
 11
0.1411387396601757
 21
0.131955099144384
 72
     1
 10
0.1411387396601755
 20
0.1319550991443839
 11
0.1284521111548274
 21
0.141749922622777
 72
     1
 10
0.1284521111548278
 20
0.1417499226227768
 11
0.117631163312031
 21
0.1499589175380016
 72
     1
 10
0.1176311633120304
 20
0.1499589175380017
 11
0.1094221683968068
 21
0.1563022317906752
 72
     1
 10
0.1094221683968062
 20
0.1563022317906754
 11
0.1041049785085351
 21
0.1604067292482882
 72
     1
 10
0.1041049785085351
 20
0.1604067292482878
 11
0.1023325818791119
 21
0.1618992737783286
 72
     1
 10
0.1023325818791116
 20
0.1618992737783289
 11
0.1043848306079176
 21
0.1636716704077524
 72
     1
 10
0.1043848306079194
 20
0.1636716704077524
 11
0.1100751566286996
 21
0.1683358720641301
 72
     1
 10
0.1100751566286986
 20
0.1683358720641301
 11
0.1189371397758159
 21
0.1757053106812067
 72
     1
 10
0.1189371397758161
 20
0.1757053106812067
 11
0.1304110758505067
 21
0.1851269980270901
 72
     1
 10
0.1304110758505059
 20
0.1851269980270902
 11
0.1439372606540007
 21
0.1963210820023967
 72
     1
 10
0.1439372606540017
 20
0.1963210820023967
 11
0.1589559899875385
 21
0.2087278584083611
 72
     1
 10
0.1589559899875379
 20
0.2087278584083611
 11
0.1750941277186041
 21
0.2220674751456017
 72
     1
 10
0.1750941277186047
 20
0.2220674751456017
 11
0.19169868561531
 21
0.2358735120484796
 72
     1
 10
0.1916986856153105
 20
0.2358735120484796
 11
0.208303243512014
 21
0.2495862649182301
 72
     1
 10
0.2083032435120131
 20
0.2495862649182304
 11
0.2244413812430811
 21
0.2628325976223432
 72
     1
 10
0.2244413812430812
 20
0.2628325976223429
 11
0.239460110576618
 21
0.2753326580614352
 72
     1
 10
0.2394601105766174
 20
0.2753326580614351
 11
0.2529862953801122
 21
0.2864334580036143
 72
     1
 10
0.2529862953801132
 20
0.2864334580036143
 11
0.2643669474216756
 21
0.2958551453494973
 72
     1
 10
0.2643669474216757
 20
0.2958551453494973
 11
0.2731356465356649
 21
0.3031312999334466
 72
     1
 10
0.273135646535664
 20
0.3031312999334466
 11
0.2788259725564443
 21
0.3077955015898243
 72
     1
 10
0.278825972556445
 20
0.3077955015898246
 11
0.2807849372521245
 21
0.3094746141861208
 72
     1
 10
0.2807849372521249
 20
0.3094746141861205
 11
0.2798520969208501
 21
0.3094746141861205
 72
     1
 10
0.2798520969208496
 20
0.3094746141861205
 11
0.2769602918938953
 21
0.3095678982192478
 72
     1
 10
0.2769602918938943
 20
0.3095678982192481
 11
0.2724826583037715
 21
0.3095678982192481
 72
     1
 10
0.2724826583037729
 20
0.3095678982192481
 11
0.2666057642167363
 21
0.3095678982192481
 72
     1
 10
0.266605764216735
 20
0.3095678982192481
 11
0.2597027457652953
 21
0.3095678982192481
 72
     1
 10
0.2597027457652956
 20
0.3095678982192481
 11
0.2519601710157094
 21
0.3095678982192481
 72
     1
 10
0.2519601710157104
 20
0.3095678982192481
 11
0.2437511761004851
 21
0.3095678982192481
 72
     1
 10
0.243751176100484
 20
0.3095678982192481
 11
0.2351690450527495
 21
0.3095678982192481
 72
     1
 10
0.2351690450527495
 20
0.3095678982192481
 11
0.2266801980381413
 21
0.3095678982192481
 72
     1
 10
0.2266801980381423
 20
0.3095678982192481
 11
0.2183779190897905
 21
0.3094746141861208
 72
     1
 10
0.2183779190897899
 20
0.3094746141861205
 11
0.2106353443402037
 21
0.3094746141861205
 72
     1
 10
0.2106353443402029
 20
0.3094746141861205
 11
0.2037323258887632
 21
0.3094746141861205
 72
     1
 10
0.203732325888764
 20
0.3094746141861205
 11
0.1978554318017273
 21
0.3094746141861205
 72
     1
 10
0.1978554318017278
 20
0.3094746141861205
 11
0.1932845141784786
 21
0.3094746141861205
 72
     1
 10
0.1932845141784787
 20
0.3094746141861205
 11
0.1903927091515244
 21
0.3094746141861205
 72
     1
 10
0.1903927091515234
 20
0.3094746141861205
 11
0.1893665847871204
 21
0.3094746141861205
 72
     1
 10
0.1893665847871206
 20
0.3094746141861205
 11
0.1879673242902067
 21
0.3077955015898243
 72
     1
 10
0.1879673242902076
 20
0.3077955015898246
 11
0.1841426789319786
 21
0.3030380159003196
 72
     1
 10
0.1841426789319787
 20
0.3030380159003192
 11
0.1780792167786874
 21
0.29576186131637
 72
     1
 10
0.1780792167786873
 20
0.29576186131637
 11
0.170243357995973
 21
0.2862468899373593
 72
     1
 10
0.170243357995973
 20
0.2862468899373593
 11
0.1610082387163447
 21
0.2750528059620528
 72
     1
 10
0.1610082387163438
 20
0.2750528059620528
 11
0.1507469950723126
 21
0.2624594614898328
 72
     1
 10
0.1507469950723133
 20
0.2624594614898328
 11
0.1396461951301336
 21
0.2491198447525922
 72
     1
 10
0.1396461951301333
 20
0.2491198447525922
 11
0.1282655430885727
 21
0.2352205238165866
 72
     1
 10
0.1282655430885726
 20
0.2352205238165868
 11
0.1168848910470102
 21
0.2214144869137089
 72
     1
 10
0.1168848910470102
 20
0.2214144869137087
 11
0.1058773751379587
 21
0.2079815861433408
 72
     1
 10
0.105877375137958
 20
0.2079815861433408
 11
0.0955228474608004
 21
0.1954815257042486
 72
     1
 10
0.0955228474608019
 20
0.1954815257042488
 11
0.0862877281811736
 21
0.1842874417289424
 72
     1
 10
0.0862877281811727
 20
0.1842874417289424
 11
0.0784518693984583
 21
0.1747724703499316
 72
     1
 10
0.0784518693984584
 20
0.1747724703499314
 11
0.0723884072451672
 21
0.1674963157659821
 72
     1
 10
0.0723884072451671
 20
0.1674963157659822
 11
0.0685637618869363
 21
0.1627388300764767
 72
     1
 10
0.0685637618869364
 20
0.1627388300764767
 11
0.0671645013900242
 21
0.1611530015133082
 72
     1
 10
0.0671645013900251
 20
0.1611530015133082
 11
0.0680040576881734
 21
0.1596604569832674
 72
     1
 10
0.0680040576881726
 20
0.1596604569832674
 11
0.0704294425494878
 21
0.1556492435587824
 72
     1
 10
0.0704294425494871
 20
0.1556492435587824
 11
0.0742540879077179
 21
0.1493059293061089
 72
     1
 10
0.0742540879077192
 20
0.1493059293061089
 11
0.0791048576303511
 21
0.1411902184240116
 72
     1
 10
0.0791048576303508
 20
0.1411902184240116
 11
0.0848884676842594
 21
0.1314886789787458
 72
     1
 10
0.0848884676842596
 20
0.1314886789787459
 11
0.0913250659700619
 21
0.1207610151690772
 72
     1
 10
0.0913250659700613
 20
0.1207610151690775
 11
0.0982280844214992
 21
0.1091937950612604
 72
     1
 10
0.0982280844214985
 20
0.1091937950612603
 11
0.1053176709391927
 21
0.0973467228540611
 72
     1
 10
0.105317670939193
 20
0.0973467228540612
 11
0.1124072574568872
 21
0.0854996506468619
 72
     1
 10
0.1124072574568871
 20
0.0854996506468617
 11
0.1193102759083267
 21
0.0739324305390446
 72
     1
 10
0.1193102759083278
 20
0.0739324305390448
 11
0.1257468741941283
 21
0.0632047667293762
 72
     1
 10
0.1257468741941277
 20
0.063204766729376
 11
0.1315304842480362
 21
0.0535032272841102
 72
     1
 10
0.1315304842480365
 20
0.0535032272841104
 11
0.1363812539706702
 21
0.0453875164020132
 72
     1
 10
0.1363812539706699
 20
0.0453875164020132
 11
0.1402058993288989
 21
0.0391374861824667
 72
     1
 10
0.1402058993288988
 20
0.0391374861824669
 11
0.1426312841902157
 21
0.0350329887248546
 72
     1
 10
0.1426312841902164
 20
0.0350329887248547
 11
0.1434708404883648
 21
0.0336337282279412
 72
     1
 10
0.143470840488364
 20
0.0336337282279411
 11
0.2706169776412211
 21
0.0336337282279411
 97
        0
 75
     0
 76
     1
 98
        1
 10
-0.3743130907707726
 20
-0.2500502867693841
1001
ACAD
1010
0.0
1020
0.0
1030
0.0
  0
HATCH
  5
21298
330
21295
100
AcDbEntity
  8
Kawneer Logo-English
100
AcDbHatch
 10
0.0
 20
0.0
 30
0.0
210
0.0
220
0.0
230
1.0
  2
SOLID
 70
     1
 71
     0
 91
        1
 92
        1
 93
       18
 72
     1
 10
0.0001865656044393
 20
0.2563959993365415
 11
-0.0000000024618153
 21
0.113671428651383
 72
     1
 10
-0.0000000024618159
 20
0.1136714286513832
 11
0.0012126899688416
 21
0.1152572572145516
 72
     1
 10
0.0012126899688421
 20
0.1152572572145516
 11
0.0045709151614355
 21
0.1197348908046738
 72
     1
 10
0.004570915161435
 20
0.119734890804674
 11
0.0098881050497044
 21
0.1268244773223682
 72
     1
 10
0.0098881050497044
 20
0.1268244773223682
 11
0.0166978394680158
 21
0.1359663125688683
 72
     1
 10
0.016697839468016
 20
0.1359663125688683
 11
0.0248135503501131
 21
0.1467872604116651
 72
     1
 10
0.024813550350113
 20
0.1467872604116652
 11
0.0338621015634867
 21
0.1588209006851195
 72
     1
 10
0.0338621015634872
 20
0.1588209006851194
 11
0.0434703569756247
 21
0.1716940972567221
 72
     1
 10
0.0434703569756247
 20
0.1716940972567224
 11
0.0534517485202732
 21
0.1850337139939626
 72
     1
 10
0.0534517485202724
 20
0.1850337139939624
 11
0.0634331400649208
 21
0.1983733307312025
 72
     1
 10
0.0634331400649222
 20
0.1983733307312024
 11
0.0730413954770597
 21
0.2112465273028051
 72
     1
 10
0.0730413954770595
 20
0.2112465273028053
 11
0.0820899466904331
 21
0.2233734516093873
 72
     1
 10
0.0820899466904321
 20
0.2233734516093873
 11
0.0902056575725293
 21
0.2341943994521837
 72
     1
 10
0.0902056575725308
 20
0.2341943994521837
 11
0.0970153919908422
 21
0.2433362346986839
 72
     1
 10
0.0970153919908405
 20
0.2433362346986839
 11
0.1022392978459834
 21
0.2503325371832507
 72
     1
 10
0.1022392978459843
 20
0.2503325371832508
 11
0.1056908070717041
 21
0.2549034548065008
 72
     1
 10
0.1056908070717046
 20
0.254903454806501
 11
0.1069034995023621
 21
0.2564892833696694
 72
     1
 10
0.1069034995023625
 20
0.2564892833696695
 11
0.0001865656044399
 21
0.2563959993365418
 97
        0
 75
     0
 76
     1
 98
        1
 10
-0.3743130907707726
 20
-0.2500502867693841
1001
ACAD
1010
0.0
1020
0.0
1030
0.0
  0
HATCH
  5
21299
330
21295
100
AcDbEntity
  8
Kawneer Logo-English
100
AcDbHatch
 10
0.0
 20
0.0
 30
0.0
210
0.0
220
0.0
230
1.0
  2
SOLID
 70
     1
 71
     0
 91
        2
 92
       16
 93
       76
 72
     1
 10
1.358402087941634
 20
0.1650709309046659
 11
1.358402087941634
 21
0.16796273593162
 72
     1
 10
1.358402087941634
 20
0.1679627359316202
 11
1.358402087941634
 21
0.1729067896873803
 72
     1
 10
1.358402087941634
 20
0.1729067896873803
 11
1.358402087941634
 21
0.1791568199069267
 72
     1
 10
1.358402087941634
 20
0.1791568199069267
 11
1.358402087941634
 21
0.1861531223914932
 72
     1
 10
1.358402087941634
 20
0.186153122391493
 11
1.358402087941634
 21
0.1931494248760595
 72
     1
 10
1.358402087941634
 20
0.1931494248760596
 11
1.358402087941634
 21
0.1994927391287338
 72
     1
 10
1.358402087941634
 20
0.1994927391287336
 11
1.358402087941634
 21
0.2044367928844937
 72
     1
 10
1.358402087941634
 20
0.2044367928844937
 11
1.358402087941634
 21
0.2072353138783208
 72
     1
 10
1.358402087941634
 20
0.2072353138783208
 11
1.359894632471676
 21
0.2072353138783208
 72
     1
 10
1.359894632471676
 20
0.2072353138783208
 11
1.362693153465502
 21
0.2072353138783208
 72
     1
 10
1.362693153465502
 20
0.2072353138783208
 11
1.366424514790605
 21
0.2072353138783208
 72
     1
 10
1.366424514790606
 20
0.2072353138783208
 11
1.371088716446983
 21
0.2072353138783208
 72
     1
 10
1.371088716446982
 20
0.2072353138783208
 11
1.376405906335254
 21
0.2072353138783208
 72
     1
 10
1.376405906335254
 20
0.2072353138783208
 11
1.382282800422289
 21
0.2072353138783208
 72
     1
 10
1.38228280042229
 20
0.2072353138783208
 11
1.388346262575581
 21
0.2072353138783208
 72
     1
 10
1.388346262575579
 20
0.2072353138783208
 11
1.394596292795125
 21
0.2072353138783208
 72
     1
 10
1.394596292795125
 20
0.2072353138783208
 11
1.400753038981545
 21
0.2072353138783208
 72
     1
 10
1.400753038981546
 20
0.2072353138783208
 11
1.406723217101709
 21
0.2072353138783208
 72
     1
 10
1.406723217101708
 20
0.2072353138783208
 11
1.412320259089362
 21
0.2072353138783208
 72
     1
 10
1.412320259089362
 20
0.2072353138783208
 11
1.417264312845122
 21
0.2072353138783208
 72
     1
 10
1.417264312845123
 20
0.2072353138783208
 11
1.421368810302735
 21
0.2072353138783208
 72
     1
 10
1.421368810302734
 20
0.2072353138783208
 11
1.424540467429071
 21
0.2072353138783208
 72
     1
 10
1.424540467429072
 20
0.2072353138783208
 11
1.426592716157878
 21
0.2072353138783208
 72
     1
 10
1.426592716157878
 20
0.2072353138783208
 11
1.427338988422898
 21
0.2072353138783208
 72
     1
 10
1.427338988422898
 20
0.2072353138783208
 11
1.430977065714873
 21
0.207142029845193
 72
     1
 10
1.430977065714872
 20
0.207142029845193
 11
1.434335290907465
 21
0.2068621777458102
 72
     1
 10
1.434335290907465
 20
0.2068621777458102
 11
1.435921119470633
 21
0.2066756096795552
 72
     1
 10
1.435921119470633
 20
0.206675609679555
 11
1.437413664000673
 21
0.2063957575801723
 72
     1
 10
1.437413664000674
 20
0.2063957575801723
 11
1.438906208530714
 21
0.2061159054807895
 72
     1
 10
1.438906208530714
 20
0.2061159054807898
 11
1.440398753060756
 21
0.2056494853151523
 72
     1
 10
1.440398753060756
 20
0.2056494853151521
 11
1.441704729524542
 21
0.2050897811163865
 72
     1
 10
1.441704729524542
 20
0.2050897811163866
 11
1.443010705988328
 21
0.204530076917621
 72
     1
 10
1.443010705988329
 20
0.204530076917621
 11
1.444223398418986
 21
0.2036905206194736
 72
     1
 10
1.444223398418985
 20
0.2036905206194736
 11
1.445436090849643
 21
0.2028509643213252
 72
     1
 10
1.445436090849643
 20
0.2028509643213252
 11
1.446555499247174
 21
0.2018248399569224
 72
     1
 10
1.446555499247173
 20
0.2018248399569223
 11
1.447581623611576
 21
0.2007054315593917
 72
     1
 10
1.447581623611578
 20
0.2007054315593915
 11
1.448607747975981
 21
0.1993061710624781
 72
     1
 10
1.448607747975981
 20
0.1993061710624781
 11
1.449540588307258
 21
0.1978136265324374
 72
     1
 10
1.449540588307256
 20
0.1978136265324373
 11
1.450380144605403
 21
0.1961345139361415
 72
     1
 10
1.450380144605404
 20
0.1961345139361415
 11
1.451126416870426
 21
0.1944554013398453
 72
     1
 10
1.451126416870426
 20
0.1944554013398454
 11
1.451592837036063
 21
0.1929628568098046
 72
     1
 10
1.451592837036062
 20
0.1929628568098046
 11
1.451965973168573
 21
0.1913770282466361
 72
     1
 10
1.451965973168574
 20
0.1913770282466361
 11
1.452245825267955
 21
0.1899777677497231
 72
     1
 10
1.452245825267954
 20
0.1899777677497231
 11
1.452432393334211
 21
0.188671791285937
 72
     1
 10
1.452432393334211
 20
0.1886717912859369
 11
1.452432393334211
 21
0.1874590988552789
 72
     1
 10
1.452432393334211
 20
0.1874590988552789
 11
1.452525677367338
 21
0.1863396904577482
 72
     1
 10
1.452525677367337
 20
0.1863396904577481
 11
1.452432393334211
 21
0.1844740097951972
 72
     1
 10
1.452432393334211
 20
0.1844740097951974
 11
1.452245825267955
 21
0.1827948971989012
 72
     1
 10
1.452245825267954
 20
0.1827948971989009
 11
1.451872689135445
 21
0.1810225005694773
 72
     1
 10
1.451872689135446
 20
0.1810225005694774
 11
1.451406268969809
 21
0.1794366720063093
 72
     1
 10
1.451406268969809
 20
0.1794366720063094
 11
1.450846564771043
 21
0.1779441274762682
 72
     1
 10
1.450846564771041
 20
0.1779441274762681
 11
1.450100292506021
 21
0.1764515829462274
 72
     1
 10
1.450100292506023
 20
0.1764515829462275
 11
1.449260736207875
 21
0.1750523224493141
 72
     1
 10
1.449260736207873
 20
0.1750523224493139
 11
1.448327895876597
 21
0.1737463459855283
 72
     1
 10
1.448327895876596
 20
0.1737463459855281
 11
1.44702191941281
 21
0.1723470854886151
 72
     1
 10
1.447021919412811
 20
0.1723470854886151
 11
1.445715942949025
 21
0.1711343930579568
 72
     1
 10
1.445715942949026
 20
0.1711343930579568
 11
1.444316682452114
 21
0.1700149846604262
 72
     1
 10
1.444316682452114
 20
0.1700149846604259
 11
1.442824137922072
 21
0.168988860296023
 72
     1
 10
1.442824137922072
 20
0.168988860296023
 11
1.441238309358904
 21
0.1682425880310024
 72
     1
 10
1.441238309358902
 20
0.1682425880310024
 11
1.439559196762608
 21
0.1674963157659821
 72
     1
 10
1.439559196762608
 20
0.1674963157659822
 11
1.437880084166311
 21
0.1669366115672166
 72
     1
 10
1.437880084166311
 20
0.1669366115672167
 11
1.436107687536888
 21
0.1664701914015788
 72
     1
 10
1.436107687536888
 20
0.1664701914015789
 11
1.434242006874337
 21
0.166003771235941
 72
     1
 10
1.434242006874337
 20
0.1660037712359412
 11
1.432376326211786
 21
0.1657239191365588
 72
     1
 10
1.432376326211785
 20
0.1657239191365585
 11
1.430417361516107
 21
0.1655373510703035
 72
     1
 10
1.430417361516108
 20
0.1655373510703037
 11
1.428458396820429
 21
0.1653507830040482
 72
     1
 10
1.428458396820428
 20
0.1653507830040482
 11
1.424353899362817
 21
0.1651642149377932
 72
     1
 10
1.424353899362817
 20
0.1651642149377932
 11
1.420156117872077
 21
0.1650709309046658
 72
     1
 10
1.420156117872076
 20
0.1650709309046659
 11
1.41773073301076
 21
0.1650709309046659
 72
     1
 10
1.417730733010761
 20
0.1650709309046659
 11
1.411107566658704
 21
0.1650709309046659
 72
     1
 10
1.411107566658702
 20
0.1650709309046659
 11
1.401779163345947
 21
0.1650709309046659
 72
     1
 10
1.401779163345949
 20
0.1650709309046659
 11
1.390958215503152
 21
0.1650709309046659
 72
     1
 10
1.390958215503152
 20
0.1650709309046659
 11
1.379950699594101
 21
0.1650709309046659
 72
     1
 10
1.379950699594099
 20
0.1650709309046659
 11
1.369969308049451
 21
0.1650709309046659
 72
     1
 10
1.369969308049451
 20
0.1650709309046659
 11
1.362320017332992
 21
0.1650709309046659
 72
     1
 10
1.362320017332992
 20
0.1650709309046659
 11
1.358402087941635
 21
0.1650709309046659
 97
        0
 92
        1
 93
      107
 72
     1
 10
1.443756978253348
 20
0.1485596570410883
 11
1.446928635379685
 21
0.1492126452729816
 72
     1
 10
1.446928635379685
 20
0.1492126452729817
 11
1.449540588307256
 21
0.1498656335048746
 72
     1
 10
1.449540588307256
 20
0.1498656335048745
 11
1.451872689135445
 21
0.1506119057698948
 72
     1
 10
1.451872689135446
 20
0.1506119057698946
 11
1.45401822189738
 21
0.1514514620680426
 72
     1
 10
1.45401822189738
 20
0.1514514620680425
 11
1.455883902559929
 21
0.1521977343330632
 72
     1
 10
1.455883902559929
 20
0.1521977343330631
 11
1.457563015156225
 21
0.1530372906312111
 72
     1
 10
1.457563015156225
 20
0.1530372906312111
 11
1.459148843719394
 21
0.1539701309624869
 72
     1
 10
1.459148843719394
 20
0.1539701309624866
 11
1.460641388249434
 21
0.1549029712937624
 72
     1
 10
1.460641388249434
 20
0.1549029712937622
 11
1.462133932779476
 21
0.155835811625038
 72
     1
 10
1.462133932779476
 20
0.155835811625038
 11
1.463439909243262
 21
0.1568619359894408
 72
     1
 10
1.463439909243262
 20
0.1568619359894408
 11
1.464745885707048
 21
0.1579813443869714
 72
     1
 10
1.464745885707047
 20
0.1579813443869716
 11
1.465865294104579
 21
0.1591007527845022
 72
     1
 10
1.465865294104579
 20
0.1591007527845025
 11
1.466984702502109
 21
0.1602201611820331
 72
     1
 10
1.466984702502108
 20
0.1602201611820328
 11
1.468010826866511
 21
0.1613395695795634
 72
     1
 10
1.468010826866511
 20
0.1613395695795637
 11
1.468943667197788
 21
0.1625522620102216
 72
     1
 10
1.468943667197788
 20
0.1625522620102216
 11
1.469876507529063
 21
0.1636716704077522
 72
     1
 10
1.469876507529063
 20
0.1636716704077524
 11
1.470622779794084
 21
0.1648843628384107
 72
     1
 10
1.470622779794084
 20
0.1648843628384107
 11
1.471462336092232
 21
0.1661903393021964
 72
     1
 10
1.471462336092232
 20
0.1661903393021967
 11
1.472115324324125
 21
0.1674030317328546
 72
     1
 10
1.472115324324124
 20
0.1674030317328546
 11
1.472768312556016
 21
0.1686157241635125
 72
     1
 10
1.472768312556017
 20
0.1686157241635125
 11
1.473328016754783
 21
0.1699217006272986
 72
     1
 10
1.473328016754782
 20
0.1699217006272989
 11
1.47379443692042
 21
0.1711343930579568
 72
     1
 10
1.47379443692042
 20
0.1711343930579568
 11
1.474260857086057
 21
0.1724403695217425
 72
     1
 10
1.474260857086058
 20
0.1724403695217424
 11
1.474727277251697
 21
0.1736530619524008
 72
     1
 10
1.474727277251697
 20
0.173653061952401
 11
1.475380265483589
 21
0.1760784468137175
 72
     1
 10
1.475380265483588
 20
0.1760784468137173
 11
1.475846685649225
 21
0.1785038316750338
 72
     1
 10
1.475846685649226
 20
0.1785038316750335
 11
1.476219821781737
 21
0.1808359325032223
 72
     1
 10
1.476219821781738
 20
0.1808359325032223
 11
1.47649967388112
 21
0.1830747492982838
 72
     1
 10
1.47649967388112
 20
0.1830747492982838
 11
1.476592957914248
 21
0.1851269980270901
 72
     1
 10
1.476592957914248
 20
0.1851269980270902
 11
1.476686241947374
 21
0.1870859627227688
 72
     1
 10
1.476686241947375
 20
0.1870859627227687
 11
1.476592957914249
 21
0.1888583593521923
 72
     1
 10
1.476592957914248
 20
0.1888583593521922
 11
1.476499673881119
 21
0.1906307559816158
 72
     1
 10
1.47649967388112
 20
0.1906307559816159
 11
1.476406389847991
 21
0.1924031526110394
 72
     1
 10
1.476406389847991
 20
0.1924031526110394
 11
1.476126537748608
 21
0.1940822652073352
 72
     1
 10
1.476126537748608
 20
0.1940822652073352
 11
1.475846685649226
 21
0.195761377803631
 72
     1
 10
1.475846685649226
 20
0.1957613778036309
 11
1.475566833549843
 21
0.1974404903999272
 72
     1
 10
1.475566833549843
 20
0.1974404903999272
 11
1.475100413384206
 21
0.1990263189630953
 72
     1
 10
1.475100413384205
 20
0.1990263189630952
 11
1.474633993218568
 21
0.2006121475262637
 72
     1
 10
1.474633993218568
 20
0.2006121475262639
 11
1.47416757305293
 21
0.2021046920563051
 72
     1
 10
1.474167573052932
 20
0.2021046920563049
 11
1.473514584821038
 21
0.2035972365863457
 72
     1
 10
1.473514584821037
 20
0.2035972365863459
 11
1.472954880622271
 21
0.2050897811163867
 72
     1
 10
1.472954880622272
 20
0.2050897811163866
 11
1.472208608357252
 21
0.2064890416133
 72
     1
 10
1.472208608357252
 20
0.2064890416133001
 11
1.471462336092232
 21
0.2078883021102135
 72
     1
 10
1.471462336092232
 20
0.2078883021102136
 11
1.470622779794083
 21
0.2091942785739993
 72
     1
 10
1.470622779794084
 20
0.2091942785739991
 11
1.469783223495935
 21
0.2105002550377848
 72
     1
 10
1.469783223495934
 20
0.2105002550377851
 11
1.468850383164659
 21
0.2118062315015707
 72
     1
 10
1.468850383164661
 20
0.2118062315015709
 11
1.467917542833386
 21
0.2130189239322288
 72
     1
 10
1.467917542833385
 20
0.2130189239322289
 11
1.466891418468982
 21
0.2141383323297595
 72
     1
 10
1.466891418468982
 20
0.2141383323297595
 11
1.465772010071451
 21
0.2153510247604178
 72
     1
 10
1.46577201007145
 20
0.215351024760418
 11
1.464652601673919
 21
0.2163771491248209
 72
     1
 10
1.46465260167392
 20
0.2163771491248209
 11
1.463533193276389
 21
0.2174032734892238
 72
     1
 10
1.463533193276389
 20
0.2174032734892238
 11
1.462227216812603
 21
0.2184293978536266
 72
     1
 10
1.462227216812602
 20
0.2184293978536266
 11
1.461014524381945
 21
0.2193622381849024
 72
     1
 10
1.461014524381946
 20
0.2193622381849023
 11
1.459615263885032
 21
0.2202950785161781
 72
     1
 10
1.459615263885031
 20
0.2202950785161782
 11
1.458309287421245
 21
0.2211346348143262
 72
     1
 10
1.458309287421246
 20
0.221134634814326
 11
1.456816742891206
 21
0.221974191112474
 72
     1
 10
1.456816742891206
 20
0.2219741911124738
 11
1.455417482394292
 21
0.2227204633774945
 72
     1
 10
1.455417482394291
 20
0.2227204633774944
 11
1.453831653831122
 21
0.2233734516093874
 72
     1
 10
1.453831653831123
 20
0.2233734516093873
 11
1.452339109301082
 21
0.2240264398412803
 72
     1
 10
1.452339109301082
 20
0.2240264398412803
 11
1.450659996704785
 21
0.2245861440400459
 72
     1
 10
1.450659996704787
 20
0.2245861440400457
 11
1.44907416814162
 21
0.2251458482388108
 72
     1
 10
1.449074168141619
 20
0.2251458482388109
 11
1.447301771512194
 21
0.2256122684044489
 72
     1
 10
1.447301771512194
 20
0.2256122684044488
 11
1.445249522783388
 21
0.2261719726032139
 72
     1
 10
1.445249522783388
 20
0.226171972603214
 11
1.44329055808771
 21
0.2265451087357246
 72
     1
 10
1.443290558087712
 20
0.2265451087357244
 11
1.441145025325778
 21
0.2269182448682345
 72
     1
 10
1.441145025325776
 20
0.2269182448682345
 11
1.438906208530714
 21
0.2271980969676173
 72
     1
 10
1.438906208530714
 20
0.2271980969676173
 11
1.436387539636271
 21
0.2273846650338724
 72
     1
 10
1.436387539636271
 20
0.2273846650338724
 11
1.433495734609316
 21
0.2275712331001274
 72
     1
 10
1.433495734609317
 20
0.2275712331001274
 11
1.430044225383597
 21
0.2276645171332552
 72
     1
 10
1.430044225383597
 20
0.2276645171332549
 11
1.42612629599224
 21
0.2277578011663822
 72
     1
 10
1.42612629599224
 20
0.2277578011663825
 11
1.426033011959112
 21
0.2277578011663825
 72
     1
 10
1.426033011959111
 20
0.2277578011663825
 11
1.33489451159349
 21
0.2277578011663825
 72
     1
 10
1.334894511593491
 20
0.2277578011663825
 11
1.334894511593491
 21
0.0926825211976832
 72
     1
 10
1.334894511593491
 20
0.0926825211976832
 11
1.358588656007891
 21
0.0926825211976832
 72
     1
 10
1.358588656007891
 20
0.0926825211976832
 11
1.358588656007891
 21
0.0947347699264896
 72
     1
 10
1.358588656007891
 20
0.0947347699264896
 11
1.358588656007891
 21
0.1001452438478876
 72
     1
 10
1.358588656007891
 20
0.1001452438478875
 11
1.358588656007891
 21
0.1079811026306024
 72
     1
 10
1.358588656007891
 20
0.1079811026306024
 11
1.358588656007891
 21
0.1170296538439752
 72
     1
 10
1.358588656007891
 20
0.1170296538439753
 11
1.358588656007891
 21
0.1262647731236032
 72
     1
 10
1.358588656007891
 20
0.1262647731236031
 11
1.358588656007891
 21
0.1347536201382103
 72
     1
 10
1.358588656007891
 20
0.1347536201382104
 11
1.358588656007891
 21
0.1412835024571394
 72
     1
 10
1.358588656007891
 20
0.1412835024571393
 11
1.358588656007891
 21
0.1448282957159864
 72
     1
 10
1.358588656007891
 20
0.1448282957159865
 11
1.362320017332992
 21
0.1448282957159865
 72
     1
 10
1.362320017332992
 20
0.1448282957159865
 11
1.369409603850688
 21
0.1448282957159865
 72
     1
 10
1.369409603850688
 20
0.1448282957159865
 11
1.378738007163443
 21
0.1448282957159865
 72
     1
 10
1.378738007163443
 20
0.1448282957159865
 11
1.388999250807475
 21
0.1448282957159865
 72
     1
 10
1.388999250807473
 20
0.1448282957159865
 11
1.399260494451505
 21
0.1448282957159865
 72
     1
 10
1.399260494451506
 20
0.1448282957159865
 11
1.408215761631749
 21
0.1448282957159865
 72
     1
 10
1.408215761631748
 20
0.1448282957159865
 11
1.414745643950677
 21
0.1448282957159865
 72
     1
 10
1.414745643950678
 20
0.1448282957159865
 11
1.41773073301076
 21
0.1448282957159865
 72
     1
 10
1.417730733010761
 20
0.1448282957159865
 11
1.420062833838949
 21
0.1420297747221594
 72
     1
 10
1.420062833838949
 20
0.1420297747221597
 11
1.425193455660966
 21
0.1359663125688683
 72
     1
 10
1.425193455660965
 20
0.1359663125688683
 11
1.432283042178659
 21
0.1275707495873888
 72
     1
 10
1.432283042178659
 20
0.1275707495873886
 11
1.440305469027628
 21
0.1180557782083779
 72
     1
 10
1.440305469027629
 20
0.1180557782083781
 11
1.448234611843471
 21
0.1087273748956225
 72
     1
 10
1.448234611843471
 20
0.1087273748956225
 11
1.455044346261782
 21
0.1006116640135252
 72
     1
 10
1.455044346261782
 20
0.1006116640135252
 11
1.459895115984414
 21
0.0948280539596167
 72
     1
 10
1.459895115984414
 20
0.0948280539596169
 11
1.461760796646965
 21
0.0926825211976832
 72
     1
 10
1.461760796646967
 20
0.0926825211976832
 11
1.49254452757906
 21
0.0926825211976832
 72
     1
 10
1.492544527579059
 20
0.0926825211976832
 11
1.490678846916508
 21
0.0948280539596169
 72
     1
 10
1.490678846916508
 20
0.0948280539596169
 11
1.48564150912762
 21
0.100518379980398
 72
     1
 10
1.48564150912762
 20
0.1005183799803981
 11
1.478458638576797
 21
0.1088206589287502
 72
     1
 10
1.478458638576798
 20
0.1088206589287502
 11
1.470063075595318
 21
0.1183356303077609
 72
     1
 10
1.470063075595317
 20
0.118335630307761
 11
1.461480944547582
 21
0.1282237378192818
 72
     1
 10
1.461480944547582
 20
0.1282237378192818
 11
1.453551801731739
 21
0.1372722890326546
 72
     1
 10
1.45355180173174
 20
0.1372722890326546
 11
1.447395055545323
 21
0.1444551595834761
 72
     1
 10
1.447395055545323
 20
0.1444551595834759
 11
1.443756978253349
 21
0.1485596570410882
 97
        0
 75
     0
 76
     1
 98
        1
 10
-0.3743130907707726
 20
-0.2500502867693841
1001
ACAD
1010
0.0
1020
0.0
1030
0.0
  0
HATCH
  5
2129A
330
21295
100
AcDbEntity
  8
Kawneer Logo-English
100
AcDbHatch
 10
0.0
 20
0.0
 30
0.0
210
0.0
220
0.0
230
1.0
  2
SOLID
 70
     1
 71
     0
 91
        1
 92
        1
 93
       87
 72
     1
 10
1.205602841678699
 20
0.1525708704655737
 11
1.207468522341251
 21
0.1525708704655737
 72
     1
 10
1.207468522341252
 20
0.1525708704655737
 11
1.211199883666355
 21
0.1525708704655737
 72
     1
 10
1.211199883666355
 20
0.1525708704655737
 11
1.216517073554626
 21
0.1525708704655737
 72
     1
 10
1.216517073554626
 20
0.1525708704655737
 11
1.223046955873555
 21
0.1525708704655737
 72
     1
 10
1.223046955873553
 20
0.1525708704655737
 11
1.230602962556885
 21
0.1525708704655737
 72
     1
 10
1.230602962556885
 20
0.1525708704655737
 11
1.238998525538365
 21
0.1525708704655737
 72
     1
 10
1.238998525538365
 20
0.1525708704655737
 11
1.247767224652354
 21
0.1525708704655737
 72
     1
 10
1.247767224652355
 20
0.1525708704655737
 11
1.256815775865728
 21
0.1525708704655737
 72
     1
 10
1.256815775865729
 20
0.1525708704655737
 11
1.265771043045974
 21
0.1525708704655737
 72
     1
 10
1.265771043045973
 20
0.1525708704655737
 11
1.274446458126836
 21
0.1525708704655737
 72
     1
 10
1.274446458126837
 20
0.1525708704655737
 11
1.282562169008935
 21
0.1525708704655737
 72
     1
 10
1.282562169008935
 20
0.1525708704655737
 11
1.289745039559756
 21
0.1525708704655737
 72
     1
 10
1.289745039559755
 20
0.1525708704655737
 11
1.295808501713046
 21
0.1525708704655737
 72
     1
 10
1.295808501713046
 20
0.1525708704655737
 11
1.300472703369423
 21
0.1525708704655737
 72
     1
 10
1.300472703369423
 20
0.1525708704655737
 11
1.303457792429505
 21
0.1525708704655737
 72
     1
 10
1.303457792429505
 20
0.1525708704655737
 11
1.304483916793908
 21
0.1525708704655737
 72
     1
 10
1.304483916793908
 20
0.1525708704655737
 11
1.304483916793908
 21
0.1730000737205081
 72
     1
 10
1.304483916793908
 20
0.1730000737205078
 11
1.303457792429505
 21
0.1730000737205078
 72
     1
 10
1.303457792429505
 20
0.1730000737205078
 11
1.300472703369423
 21
0.1730000737205078
 72
     1
 10
1.300472703369423
 20
0.1730000737205078
 11
1.295808501713045
 21
0.1730000737205078
 72
     1
 10
1.295808501713046
 20
0.1730000737205078
 11
1.289745039559754
 21
0.1730000737205078
 72
     1
 10
1.289745039559755
 20
0.1730000737205078
 11
1.282562169008934
 21
0.1730000737205078
 72
     1
 10
1.282562169008935
 20
0.1730000737205078
 11
1.274446458126837
 21
0.1730000737205078
 72
     1
 10
1.274446458126837
 20
0.1730000737205078
 11
1.265771043045975
 21
0.1730000737205078
 72
     1
 10
1.265771043045973
 20
0.1730000737205078
 11
1.256815775865728
 21
0.1730000737205078
 72
     1
 10
1.256815775865729
 20
0.1730000737205078
 11
1.247767224652355
 21
0.1730000737205078
 72
     1
 10
1.247767224652355
 20
0.1730000737205078
 11
1.238998525538365
 21
0.1730000737205078
 72
     1
 10
1.238998525538365
 20
0.1730000737205078
 11
1.230602962556885
 21
0.1730000737205078
 72
     1
 10
1.230602962556885
 20
0.1730000737205078
 11
1.223046955873553
 21
0.1730000737205078
 72
     1
 10
1.223046955873553
 20
0.1730000737205078
 11
1.216517073554625
 21
0.1730000737205078
 72
     1
 10
1.216517073554626
 20
0.1730000737205078
 11
1.211199883666355
 21
0.1730000737205078
 72
     1
 10
1.211199883666355
 20
0.1730000737205078
 11
1.207468522341252
 21
0.1730000737205078
 72
     1
 10
1.207468522341252
 20
0.1730000737205078
 11
1.205602841678701
 21
0.1730000737205078
 72
     1
 10
1.205602841678699
 20
0.1730000737205078
 11
1.205602841678699
 21
0.1754254585818243
 72
     1
 10
1.205602841678699
 20
0.1754254585818245
 11
1.205602841678699
 21
0.1794366720063095
 72
     1
 10
1.205602841678699
 20
0.1794366720063094
 11
1.205602841678699
 21
0.1843807257620694
 72
     1
 10
1.205602841678699
 20
0.1843807257620694
 11
1.205602841678699
 21
0.1898844837165951
 72
     1
 10
1.205602841678699
 20
0.1898844837165951
 11
1.205602841678699
 21
0.1952949576379935
 72
     1
 10
1.205602841678699
 20
0.1952949576379937
 11
1.205602841678699
 21
0.2003322954268815
 72
     1
 10
1.205602841678699
 20
0.2003322954268814
 11
1.205602841678699
 21
0.2042502248182386
 72
     1
 10
1.205602841678699
 20
0.2042502248182386
 11
1.205602841678699
 21
0.206675609679555
 72
     1
 10
1.205602841678699
 20
0.206675609679555
 11
1.207468522341251
 21
0.206675609679555
 72
     1
 10
1.207468522341252
 20
0.206675609679555
 11
1.211293167699483
 21
0.206675609679555
 72
     1
 10
1.211293167699483
 20
0.206675609679555
 11
1.21670364162088
 21
0.206675609679555
 72
     1
 10
1.216703641620879
 20
0.206675609679555
 11
1.223420092006063
 21
0.206675609679555
 72
     1
 10
1.223420092006064
 20
0.206675609679555
 11
1.231255950788778
 21
0.206675609679555
 72
     1
 10
1.231255950788778
 20
0.206675609679555
 11
1.239744797803386
 21
0.206675609679555
 72
     1
 10
1.239744797803385
 20
0.206675609679555
 11
1.248886633049885
 21
0.206675609679555
 72
     1
 10
1.248886633049885
 20
0.206675609679555
 11
1.258121752329513
 21
0.206675609679555
 72
     1
 10
1.258121752329514
 20
0.206675609679555
 11
1.267356871609143
 21
0.206675609679555
 72
     1
 10
1.267356871609142
 20
0.206675609679555
 11
1.276218854756259
 21
0.206675609679555
 72
     1
 10
1.276218854756259
 20
0.206675609679555
 11
1.284521133704611
 21
0.206675609679555
 72
     1
 10
1.284521133704611
 20
0.206675609679555
 11
1.291890572321688
 21
0.206675609679555
 72
     1
 10
1.291890572321688
 20
0.206675609679555
 11
1.298140602541234
 21
0.206675609679555
 72
     1
 10
1.298140602541234
 20
0.206675609679555
 11
1.30289808823074
 21
0.206675609679555
 72
     1
 10
1.30289808823074
 20
0.206675609679555
 11
1.305976461323949
 21
0.206675609679555
 72
     1
 10
1.305976461323949
 20
0.206675609679555
 11
1.30709586972148
 21
0.206675609679555
 72
     1
 10
1.307095869721479
 20
0.206675609679555
 11
1.307095869721479
 21
0.2277578011663822
 72
     1
 10
1.307095869721479
 20
0.2277578011663825
 11
1.304577200827036
 21
0.2277578011663825
 72
     1
 10
1.304577200827037
 20
0.2277578011663825
 11
1.182188549363684
 21
0.2277578011663825
 72
     1
 10
1.182188549363684
 20
0.2277578011663825
 11
1.182188549363684
 21
0.0926825211976832
 72
     1
 10
1.182188549363684
 20
0.0926825211976832
 11
1.311853355410986
 21
0.0926825211976832
 72
     1
 10
1.311853355410985
 20
0.0926825211976832
 11
1.311853355410985
 21
0.113671428651383
 72
     1
 10
1.311853355410985
 20
0.1136714286513832
 11
1.310733947013454
 21
0.1136714286513832
 72
     1
 10
1.310733947013455
 20
0.1136714286513832
 11
1.307469005853991
 21
0.1136714286513832
 72
     1
 10
1.307469005853991
 20
0.1136714286513832
 11
1.302431668065102
 21
0.1136714286513832
 72
     1
 10
1.302431668065103
 20
0.1136714286513832
 11
1.295901785746174
 21
0.1136714286513832
 72
     1
 10
1.295901785746174
 20
0.1136714286513832
 11
1.288159210996586
 21
0.1136714286513832
 72
     1
 10
1.288159210996587
 20
0.1136714286513832
 11
1.279483795915724
 21
0.1136714286513832
 72
     1
 10
1.279483795915723
 20
0.1136714286513832
 11
1.270155392602968
 21
0.1136714286513832
 72
     1
 10
1.270155392602969
 20
0.1136714286513832
 11
1.260547137190832
 21
0.1136714286513832
 72
     1
 10
1.260547137190831
 20
0.1136714286513832
 11
1.250752313712437
 21
0.1136714286513832
 72
     1
 10
1.250752313712437
 20
0.1136714286513832
 11
1.241330626366554
 21
0.1136714286513832
 72
     1
 10
1.241330626366555
 20
0.1136714286513832
 11
1.23237535918631
 21
0.1136714286513832
 72
     1
 10
1.232375359186308
 20
0.1136714286513832
 11
1.224166364271082
 21
0.1136714286513832
 72
     1
 10
1.224166364271083
 20
0.1136714286513832
 11
1.217170061786517
 21
0.1136714286513832
 72
     1
 10
1.217170061786517
 20
0.1136714286513832
 11
1.211479735765737
 21
0.1136714286513832
 72
     1
 10
1.211479735765737
 20
0.1136714286513832
 11
1.20756180637438
 21
0.1136714286513832
 72
     1
 10
1.207561806374379
 20
0.1136714286513832
 11
1.2056028416787
 21
0.1136714286513832
 72
     1
 10
1.205602841678699
 20
0.1136714286513832
 11
1.205602841678699
 21
0.1163766656120825
 72
     1
 10
1.205602841678699
 20
0.1163766656120823
 11
1.205602841678699
 21
0.1209475832353323
 72
     1
 10
1.205602841678699
 20
0.1209475832353325
 11
1.205602841678699
 21
0.1267311932892411
 72
     1
 10
1.205602841678699
 20
0.1267311932892408
 11
1.205602841678699
 21
0.1330745075419143
 72
     1
 10
1.205602841678699
 20
0.1330745075419144
 11
1.205602841678699
 21
0.1395111058277156
 72
     1
 10
1.205602841678699
 20
0.1395111058277158
 11
1.205602841678699
 21
0.1452947158816239
 72
     1
 10
1.205602841678699
 20
0.145294715881624
 11
1.205602841678699
 21
0.1498656335048746
 72
     1
 10
1.205602841678699
 20
0.1498656335048745
 11
1.205602841678699
 21
0.1525708704655738
 97
        0
 75
     0
 76
     1
 98
        1
 10
-0.3743130907707726
 20
-0.2500502867693841
1001
ACAD
1010
0.0
1020
0.0
1030
0.0
  0
HATCH
  5
2129B
330
21295
100
AcDbEntity
  8
Kawneer Logo-English
100
AcDbHatch
 10
0.0
 20
0.0
 30
0.0
210
0.0
220
0.0
230
1.0
  2
SOLID
 70
     1
 71
     0
 91
        1
 92
        1
 93
       87
 72
     1
 10
1.049352086190046
 20
0.1525708704655737
 11
1.051217766852597
 21
0.1525708704655737
 72
     1
 10
1.051217766852596
 20
0.1525708704655737
 11
1.054949128177699
 21
0.1525708704655737
 72
     1
 10
1.0549491281777
 20
0.1525708704655737
 11
1.060173034032843
 21
0.1525708704655737
 72
     1
 10
1.060173034032843
 20
0.1525708704655737
 11
1.0667962003849
 21
0.1525708704655737
 72
     1
 10
1.0667962003849
 20
0.1525708704655737
 11
1.074352207068231
 21
0.1525708704655737
 72
     1
 10
1.074352207068232
 20
0.1525708704655737
 11
1.082747770049711
 21
0.1525708704655737
 72
     1
 10
1.082747770049711
 20
0.1525708704655737
 11
1.0915164691637
 21
0.1525708704655737
 72
     1
 10
1.091516469163701
 20
0.1525708704655737
 11
1.100565020377075
 21
0.1525708704655737
 72
     1
 10
1.100565020377073
 20
0.1525708704655737
 11
1.109520287557319
 21
0.1525708704655737
 72
     1
 10
1.10952028755732
 20
0.1525708704655737
 11
1.118195702638183
 21
0.1525708704655737
 72
     1
 10
1.118195702638182
 20
0.1525708704655737
 11
1.126218129487151
 21
0.1525708704655737
 72
     1
 10
1.126218129487152
 20
0.1525708704655737
 11
1.133401000037974
 21
0.1525708704655737
 72
     1
 10
1.133401000037974
 20
0.1525708704655737
 11
1.139557746224391
 21
0.1525708704655737
 72
     1
 10
1.139557746224392
 20
0.1525708704655737
 11
1.14422194788077
 21
0.1525708704655737
 72
     1
 10
1.144221947880769
 20
0.1525708704655737
 11
1.147207036940851
 21
0.1525708704655737
 72
     1
 10
1.147207036940852
 20
0.1525708704655737
 11
1.148233161305255
 21
0.1525708704655737
 72
     1
 10
1.148233161305255
 20
0.1525708704655737
 11
1.148233161305255
 21
0.1730000737205081
 72
     1
 10
1.148233161305255
 20
0.1730000737205078
 11
1.147207036940852
 21
0.1730000737205078
 72
     1
 10
1.147207036940852
 20
0.1730000737205078
 11
1.14422194788077
 21
0.1730000737205078
 72
     1
 10
1.144221947880769
 20
0.1730000737205078
 11
1.139557746224391
 21
0.1730000737205078
 72
     1
 10
1.139557746224392
 20
0.1730000737205078
 11
1.133494284071101
 21
0.1730000737205078
 72
     1
 10
1.133494284071101
 20
0.1730000737205078
 11
1.126218129487152
 21
0.1730000737205078
 72
     1
 10
1.126218129487152
 20
0.1730000737205078
 11
1.118195702638183
 21
0.1730000737205078
 72
     1
 10
1.118195702638182
 20
0.1730000737205078
 11
1.10952028755732
 21
0.1730000737205078
 72
     1
 10
1.10952028755732
 20
0.1730000737205078
 11
1.100565020377074
 21
0.1730000737205078
 72
     1
 10
1.100565020377073
 20
0.1730000737205078
 11
1.0915164691637
 21
0.1730000737205078
 72
     1
 10
1.091516469163701
 20
0.1730000737205078
 11
1.082747770049712
 21
0.1730000737205078
 72
     1
 10
1.082747770049711
 20
0.1730000737205078
 11
1.074352207068231
 21
0.1730000737205078
 72
     1
 10
1.074352207068232
 20
0.1730000737205078
 11
1.0667962003849
 21
0.1730000737205078
 72
     1
 10
1.0667962003849
 20
0.1730000737205078
 11
1.060173034032843
 21
0.1730000737205078
 72
     1
 10
1.060173034032843
 20
0.1730000737205078
 11
1.054949128177701
 21
0.1730000737205078
 72
     1
 10
1.0549491281777
 20
0.1730000737205078
 11
1.051217766852597
 21
0.1730000737205078
 72
     1
 10
1.051217766852596
 20
0.1730000737205078
 11
1.049352086190045
 21
0.1730000737205078
 72
     1
 10
1.049352086190046
 20
0.1730000737205078
 11
1.049352086190046
 21
0.1754254585818243
 72
     1
 10
1.049352086190046
 20
0.1754254585818245
 11
1.049352086190046
 21
0.1794366720063095
 72
     1
 10
1.049352086190046
 20
0.1794366720063094
 11
1.049352086190046
 21
0.1843807257620694
 72
     1
 10
1.049352086190046
 20
0.1843807257620694
 11
1.049352086190046
 21
0.1898844837165951
 72
     1
 10
1.049352086190046
 20
0.1898844837165951
 11
1.049352086190046
 21
0.1952949576379935
 72
     1
 10
1.049352086190046
 20
0.1952949576379937
 11
1.049352086190046
 21
0.2003322954268815
 72
     1
 10
1.049352086190046
 20
0.2003322954268814
 11
1.049352086190046
 21
0.2042502248182386
 72
     1
 10
1.049352086190046
 20
0.2042502248182386
 11
1.049352086190046
 21
0.206675609679555
 72
     1
 10
1.049352086190046
 20
0.206675609679555
 11
1.051217766852597
 21
0.206675609679555
 72
     1
 10
1.051217766852596
 20
0.206675609679555
 11
1.055042412210825
 21
0.206675609679555
 72
     1
 10
1.055042412210827
 20
0.206675609679555
 11
1.060452886132226
 21
0.206675609679555
 72
     1
 10
1.060452886132225
 20
0.206675609679555
 11
1.067169336517409
 21
0.206675609679555
 72
     1
 10
1.06716933651741
 20
0.206675609679555
 11
1.075005195300124
 21
0.206675609679555
 72
     1
 10
1.075005195300123
 20
0.206675609679555
 11
1.083494042314731
 21
0.206675609679555
 72
     1
 10
1.083494042314732
 20
0.206675609679555
 11
1.092542593528105
 21
0.206675609679555
 72
     1
 10
1.092542593528106
 20
0.206675609679555
 11
1.10187099684086
 21
0.206675609679555
 72
     1
 10
1.101870996840861
 20
0.206675609679555
 11
1.111106116120489
 21
0.206675609679555
 72
     1
 10
1.111106116120488
 20
0.206675609679555
 11
1.119968099267605
 21
0.206675609679555
 72
     1
 10
1.119968099267605
 20
0.206675609679555
 11
1.128270378215957
 21
0.206675609679555
 72
     1
 10
1.128270378215957
 20
0.206675609679555
 11
1.135639816833034
 21
0.206675609679555
 72
     1
 10
1.135639816833034
 20
0.206675609679555
 11
1.14188984705258
 21
0.206675609679555
 72
     1
 10
1.141889847052581
 20
0.206675609679555
 11
1.146647332742086
 21
0.206675609679555
 72
     1
 10
1.146647332742086
 20
0.206675609679555
 11
1.149725705835295
 21
0.206675609679555
 72
     1
 10
1.149725705835296
 20
0.206675609679555
 11
1.150845114232827
 21
0.206675609679555
 72
     1
 10
1.150845114232826
 20
0.206675609679555
 11
1.150845114232826
 21
0.2277578011663822
 72
     1
 10
1.150845114232826
 20
0.2277578011663825
 11
1.148326445338383
 21
0.2277578011663825
 72
     1
 10
1.148326445338383
 20
0.2277578011663825
 11
1.025937793875031
 21
0.2277578011663825
 72
     1
 10
1.025937793875032
 20
0.2277578011663825
 11
1.025937793875032
 21
0.0926825211976832
 72
     1
 10
1.025937793875032
 20
0.0926825211976832
 11
1.155602599922332
 21
0.0926825211976832
 72
     1
 10
1.155602599922332
 20
0.0926825211976832
 11
1.155602599922332
 21
0.113671428651383
 72
     1
 10
1.155602599922332
 20
0.1136714286513832
 11
1.154483191524801
 21
0.1136714286513832
 72
     1
 10
1.154483191524799
 20
0.1136714286513832
 11
1.151218250365336
 21
0.1136714286513832
 72
     1
 10
1.151218250365338
 20
0.1136714286513832
 11
1.146180912576449
 21
0.1136714286513832
 72
     1
 10
1.146180912576449
 20
0.1136714286513832
 11
1.13965103025752
 21
0.1136714286513832
 72
     1
 10
1.13965103025752
 20
0.1136714286513832
 11
1.131908455507932
 21
0.1136714286513832
 72
     1
 10
1.131908455507931
 20
0.1136714286513832
 11
1.12323304042707
 21
0.1136714286513832
 72
     1
 10
1.123233040427071
 20
0.1136714286513832
 11
1.113904637114314
 21
0.1136714286513832
 72
     1
 10
1.113904637114314
 20
0.1136714286513832
 11
1.104296381702177
 21
0.1136714286513832
 72
     1
 10
1.104296381702177
 20
0.1136714286513832
 11
1.094501558223783
 21
0.1136714286513832
 72
     1
 10
1.094501558223784
 20
0.1136714286513832
 11
1.085079870877901
 21
0.1136714286513832
 72
     1
 10
1.085079870877899
 20
0.1136714286513832
 11
1.076124603697654
 21
0.1136714286513832
 72
     1
 10
1.076124603697655
 20
0.1136714286513832
 11
1.067915608782429
 21
0.1136714286513832
 72
     1
 10
1.067915608782429
 20
0.1136714286513832
 11
1.060919306297863
 21
0.1136714286513832
 72
     1
 10
1.060919306297863
 20
0.1136714286513832
 11
1.055228980277083
 21
0.1136714286513832
 72
     1
 10
1.055228980277082
 20
0.1136714286513832
 11
1.051311050885725
 21
0.1136714286513832
 72
     1
 10
1.051311050885726
 20
0.1136714286513832
 11
1.049352086190046
 21
0.1136714286513832
 72
     1
 10
1.049352086190046
 20
0.1136714286513832
 11
1.049352086190046
 21
0.1163766656120825
 72
     1
 10
1.049352086190046
 20
0.1163766656120823
 11
1.049352086190046
 21
0.1209475832353323
 72
     1
 10
1.049352086190046
 20
0.1209475832353325
 11
1.049352086190046
 21
0.1267311932892411
 72
     1
 10
1.049352086190046
 20
0.1267311932892408
 11
1.049352086190046
 21
0.1330745075419143
 72
     1
 10
1.049352086190046
 20
0.1330745075419144
 11
1.049352086190046
 21
0.1395111058277156
 72
     1
 10
1.049352086190046
 20
0.1395111058277158
 11
1.049352086190046
 21
0.1452947158816239
 72
     1
 10
1.049352086190046
 20
0.145294715881624
 11
1.049352086190046
 21
0.1498656335048746
 72
     1
 10
1.049352086190046
 20
0.1498656335048745
 11
1.049352086190046
 21
0.1525708704655738
 97
        0
 75
     0
 76
     1
 98
        1
 10
-0.3743130907707726
 20
-0.2500502867693841
1001
ACAD
1010
0.0
1020
0.0
1030
0.0
  0
HATCH
  5
2129C
330
21295
100
AcDbEntity
  8
Kawneer Logo-English
100
AcDbHatch
 10
0.0
 20
0.0
 30
0.0
210
0.0
220
0.0
230
1.0
  2
SOLID
 70
     1
 71
     0
 91
        1
 92
        1
 93
       42
 72
     1
 10
0.9725793269260698
 20
0.2277578011663825
 11
0.9725793269260698
 21
0.1354998924032311
 72
     1
 10
0.9725793269260698
 20
0.1354998924032311
 11
0.9729524630585808
 21
0.1264513411898582
 72
     1
 10
0.9729524630585796
 20
0.1264513411898583
 11
0.9729524630585796
 21
0.1255185008585825
 72
     1
 10
0.9729524630585796
 20
0.1255185008585824
 11
0.9731390311248343
 21
0.1238393882622866
 72
     1
 10
0.9731390311248349
 20
0.1238393882622866
 11
0.9717397706279211
 21
0.1254252168254551
 72
     1
 10
0.97173977062792
 20
0.1254252168254551
 11
0.9710867823960281
 21
0.1262647731236031
 72
     1
 10
0.9710867823960294
 20
0.1262647731236031
 11
0.9641837639445897
 21
0.1339140638400625
 72
     1
 10
0.9641837639445899
 20
0.1339140638400624
 11
0.8755639324734129
 21
0.2277578011663823
 72
     1
 10
0.8755639324734115
 20
0.2277578011663825
 11
0.8529891964565429
 21
0.2277578011663825
 72
     1
 10
0.8529891964565434
 20
0.2277578011663825
 11
0.8529891964565434
 21
0.0926825211976832
 72
     1
 10
0.8529891964565434
 20
0.0926825211976832
 11
0.8756572165065401
 21
0.0926825211976832
 72
     1
 10
0.875657216506541
 20
0.0926825211976832
 11
0.875657216506541
 21
0.1927762887435495
 72
     1
 10
0.875657216506541
 20
0.1927762887435495
 11
0.875657216506541
 21
0.1931494248760597
 72
     1
 10
0.875657216506541
 20
0.1931494248760596
 11
0.8755639324734129
 21
0.193988981174208
 72
     1
 10
0.8755639324734115
 20
0.1939889811742079
 11
0.8754706484402849
 21
0.1952949576379935
 72
     1
 10
0.8754706484402859
 20
0.1952949576379937
 11
0.8753773644071577
 21
0.1967875021680344
 72
     1
 10
0.875377364407158
 20
0.1967875021680343
 11
0.8755639324734126
 21
0.1965076500686515
 72
     1
 10
0.8755639324734115
 20
0.1965076500686517
 11
0.8756572165065396
 21
0.1963210820023967
 72
     1
 10
0.875657216506541
 20
0.1963210820023967
 11
0.8764967728046894
 21
0.1954815257042487
 72
     1
 10
0.8764967728046887
 20
0.1954815257042488
 11
0.8781758854009835
 21
0.1936158450416976
 72
     1
 10
0.8781758854009842
 20
0.1936158450416973
 11
0.8797617139641527
 21
0.1917501643791464
 72
     1
 10
0.879761713964152
 20
0.1917501643791466
 11
0.8805079862291723
 21
0.1909106080809982
 72
     1
 10
0.8805079862291727
 20
0.190910608080998
 11
0.8816273946267036
 21
0.1897911996834678
 72
     1
 10
0.8816273946267028
 20
0.1897911996834681
 11
0.884519199653657
 21
0.1867128265902584
 72
     1
 10
0.8845191996536581
 20
0.1867128265902582
 11
0.8891834013100353
 21
0.1818620568676254
 72
     1
 10
0.889183401310035
 20
0.1818620568676252
 11
0.8951535794301982
 21
0.1756120266480794
 72
     1
 10
0.8951535794301985
 20
0.1756120266480794
 11
0.9021498819147662
 21
0.1681493039978751
 72
     1
 10
0.9021498819147669
 20
0.1681493039978752
 11
0.9099857406974814
 21
0.1598470250495227
 72
     1
 10
0.9099857406974813
 20
0.1598470250495225
 11
0.9183813036789613
 21
0.1509850419024051
 72
     1
 10
0.9183813036789612
 20
0.1509850419024052
 11
0.9271500027929521
 21
0.1418432066559046
 72
     1
 10
0.9271500027929509
 20
0.1418432066559046
 11
0.9358254178738118
 21
0.1326080873762767
 72
     1
 10
0.9358254178738132
 20
0.1326080873762767
 11
0.9442209808552931
 21
0.1237461042291589
 72
     1
 10
0.9442209808552931
 20
0.1237461042291589
 11
0.9520568396380092
 21
0.1154438252808068
 72
     1
 10
0.9520568396380092
 20
0.1154438252808068
 11
0.9590531421225751
 21
0.1079811026306025
 72
     1
 10
0.959053142122574
 20
0.1079811026306024
 11
0.9650233202427372
 21
0.101731072411056
 72
     1
 10
0.9650233202427376
 20
0.101731072411056
 11
0.9695942378659868
 21
0.0968803026884232
 72
     1
 10
0.9695942378659871
 20
0.096880302688423
 11
0.9725793269260696
 21
0.0938019295952138
 72
     1
 10
0.9725793269260698
 20
0.093801929595214
 11
0.9736054512904727
 21
0.0926825211976834
 72
     1
 10
0.9736054512904726
 20
0.0926825211976832
 11
0.9952473469760661
 21
0.0926825211976832
 72
     1
 10
0.9952473469760651
 20
0.0926825211976832
 11
0.9952473469760651
 21
0.2277578011663825
 72
     1
 10
0.9952473469760651
 20
0.2277578011663825
 11
0.9927286780816201
 21
0.2277578011663825
 72
     1
 10
0.9927286780816203
 20
0.2277578011663825
 11
0.9725793269260686
 21
0.2277578011663825
 97
        0
 75
     0
 76
     1
 98
        1
 10
-0.3743130907707726
 20
-0.2500502867693841
1001
ACAD
1010
0.0
1020
0.0
1030
0.0
  0
HATCH
  5
2129D
330
21295
100
AcDbEntity
  8
Kawneer Logo-English
100
AcDbHatch
 10
0.0
 20
0.0
 30
0.0
210
0.0
220
0.0
230
1.0
  2
SOLID
 70
     1
 71
     0
 91
        2
 92
       16
 93
       32
 72
     1
 10
0.5269615006757409
 20
0.144641727649731
 11
0.5290137494045469
 21
0.148652941074216
 72
     1
 10
0.5290137494045464
 20
0.1486529410742159
 11
0.5322786905640116
 21
0.1551828233931449
 72
     1
 10
0.532278690564012
 20
0.1551828233931452
 11
0.5364764720547521
 21
0.1633918183083696
 72
     1
 10
0.5364764720547526
 20
0.1633918183083696
 11
0.5409541056448736
 21
0.1722538014554874
 72
     1
 10
0.5409541056448726
 20
0.1722538014554873
 11
0.545338455201869
 21
0.1808359325032223
 72
     1
 10
0.5453384552018701
 20
0.1808359325032223
 11
0.5490698165269726
 21
0.1882053711202994
 72
     1
 10
0.549069816526973
 20
0.1882053711202996
 11
0.5515884854214162
 21
0.1932427089091875
 72
     1
 10
0.5515884854214148
 20
0.1932427089091872
 11
0.5526146097858177
 21
0.1952016736048658
 72
     1
 10
0.5526146097858194
 20
0.1952016736048658
 11
0.552801177852074
 21
0.195761377803631
 72
     1
 10
0.5528011778520723
 20
0.1957613778036309
 11
0.5533608820508379
 21
0.1970673542674166
 72
     1
 10
0.5533608820508378
 20
0.1970673542674169
 11
0.5542004383489863
 21
0.1990263189630955
 72
     1
 10
0.5542004383489872
 20
0.1990263189630952
 11
0.5550399946471356
 21
0.2012651357581567
 72
     1
 10
0.5550399946471352
 20
0.2012651357581567
 11
0.5555064148127727
 21
0.2001457273606265
 72
     1
 10
0.5555064148127729
 20
0.2001457273606264
 11
0.5560661190115385
 21
0.198933034929968
 72
     1
 10
0.5560661190115379
 20
0.198933034929968
 11
0.5567191072434298
 21
0.197533774433055
 72
     1
 10
0.5567191072434304
 20
0.197533774433055
 11
0.5574653795084506
 21
0.1959479458698865
 72
     1
 10
0.557465379508451
 20
0.1959479458698865
 11
0.5583049358065995
 21
0.1942688332735902
 72
     1
 10
0.5583049358065986
 20
0.1942688332735903
 11
0.5606370366347874
 21
0.1896046316172126
 72
     1
 10
0.5606370366347871
 20
0.1896046316172126
 11
0.5639952618273804
 21
0.1828881812320289
 72
     1
 10
0.5639952618273814
 20
0.1828881812320287
 11
0.5680064752518651
 21
0.1748657543830587
 72
     1
 10
0.5680064752518637
 20
0.1748657543830589
 11
0.57239082480886
 21
0.1661903393021966
 72
     1
 10
0.5723908248088612
 20
0.1661903393021967
 11
0.5765886062996012
 21
0.1577947763207168
 72
     1
 10
0.5765886062996
 20
0.1577947763207165
 11
0.5803199676247008
 21
0.1503320536705122
 72
     1
 10
0.5803199676247015
 20
0.1503320536705122
 11
0.5831184886185295
 21
0.144641727649731
 72
     1
 10
0.5831184886185295
 20
0.144641727649731
 11
0.5791072751940441
 21
0.144641727649731
 72
     1
 10
0.5791072751940436
 20
0.144641727649731
 11
0.5724841088419869
 21
0.144641727649731
 72
     1
 10
0.5724841088419872
 20
0.144641727649731
 11
0.5641818298936356
 21
0.144641727649731
 72
     1
 10
0.5641818298936352
 20
0.144641727649731
 11
0.5550399946471351
 21
0.144641727649731
 72
     1
 10
0.5550399946471352
 20
0.144641727649731
 11
0.5458981594006351
 21
0.144641727649731
 72
     1
 10
0.5458981594006352
 20
0.144641727649731
 11
0.5375958804522815
 21
0.144641727649731
 72
     1
 10
0.5375958804522814
 20
0.144641727649731
 11
0.5310659981333528
 21
0.144641727649731
 72
     1
 10
0.5310659981333524
 20
0.144641727649731
 11
0.5269615006757405
 21
0.144641727649731
 97
        0
 92
        1
 93
      141
 72
     1
 10
0.5656743744236757
 20
0.2277578011663825
 11
0.544405614870593
 21
0.2277578011663825
 72
     1
 10
0.544405614870593
 20
0.2277578011663825
 11
0.4748157261574382
 21
0.0934287934627039
 72
     1
 10
0.4748157261574378
 20
0.0934287934627039
 11
0.4729500454948865
 21
0.0955743262246376
 72
     1
 10
0.4729500454948874
 20
0.0955743262246376
 11
0.4699649564348049
 21
0.0991191194834847
 72
     1
 10
0.4699649564348043
 20
0.0991191194834847
 11
0.4661403110765752
 21
0.1036900371067346
 72
     1
 10
0.4661403110765754
 20
0.1036900371067347
 11
0.4615693934533244
 21
0.1091005110281331
 72
     1
 10
0.461569393453325
 20
0.109100511028133
 11
0.456345487598182
 21
0.1152572572145517
 72
     1
 10
0.4563454875981812
 20
0.1152572572145516
 11
0.4506551615774008
 21
0.1219737075997353
 72
     1
 10
0.4506551615774015
 20
0.1219737075997354
 11
0.4447782674903648
 21
0.1290632941174296
 72
     1
 10
0.4447782674903636
 20
0.1290632941174296
 11
0.4387148053370722
 21
0.1362461646682511
 72
     1
 10
0.4387148053370727
 20
0.1362461646682512
 11
0.4326513431837832
 21
0.1433357511859454
 72
     1
 10
0.4326513431837844
 20
0.1433357511859453
 11
0.4268677331298759
 21
0.1502387696373844
 72
     1
 10
0.4268677331298756
 20
0.1502387696373844
 11
0.4214572592084763
 21
0.1566753679231857
 72
     1
 10
0.4214572592084754
 20
0.1566753679231858
 11
0.4165132054527153
 21
0.1625522620102216
 72
     1
 10
0.4165132054527163
 20
0.1625522620102216
 11
0.4123154239619763
 21
0.1674963157659821
 72
     1
 10
0.4123154239619753
 20
0.1674963157659822
 11
0.4088639147362555
 21
0.1715075291904667
 72
     1
 10
0.4088639147362568
 20
0.1715075291904669
 11
0.4065318139080681
 21
0.1743993342174211
 72
     1
 10
0.4065318139080665
 20
0.1743993342174211
 11
0.405319121477409
 21
0.1757985947143345
 72
     1
 10
0.4053191214774104
 20
0.1757985947143345
 11
0.4067183819743243
 21
0.1769180031118651
 72
     1
 10
0.4067183819743235
 20
0.1769180031118651
 11
0.4094236189350213
 21
0.1788769678075437
 72
     1
 10
0.4094236189350218
 20
0.1788769678075437
 11
0.4132482642932526
 21
0.1816754888013702
 72
     1
 10
0.4132482642932525
 20
0.1816754888013703
 11
0.4179124659496298
 21
0.1852202820602174
 72
     1
 10
0.417912465949629
 20
0.1852202820602174
 11
0.4232296558379
 21
0.189138211451575
 72
     1
 10
0.4232296558379001
 20
0.1891382114515751
 11
0.4291065499249351
 21
0.1935225610085696
 72
     1
 10
0.4291065499249367
 20
0.1935225610085698
 11
0.4352632961113562
 21
0.1981867626649482
 72
     1
 10
0.4352632961113554
 20
0.1981867626649479
 11
0.4416066103640296
 21
0.2028509643213252
 72
     1
 10
0.4416066103640293
 20
0.2028509643213252
 11
0.4479499246167016
 21
0.2076084500108307
 72
     1
 10
0.4479499246167018
 20
0.2076084500108307
 11
0.4540133867699932
 21
0.2120860836009535
 72
     1
 10
0.4540133867699927
 20
0.2120860836009535
 11
0.4596104287576467
 21
0.2162838650916932
 72
     1
 10
0.4596104287576468
 20
0.216283865091693
 11
0.4646477665465351
 21
0.2200152264167952
 72
     1
 10
0.464647766546535
 20
0.2200152264167951
 11
0.4689388320704013
 21
0.223186883543132
 72
     1
 10
0.4689388320704016
 20
0.2231868835431323
 11
0.4721104891967386
 21
0.2256122684044488
 72
     1
 10
0.4721104891967376
 20
0.2256122684044488
 11
0.4742560219586717
 21
0.2271980969676172
 72
     1
 10
0.4742560219586727
 20
0.2271980969676173
 11
0.475002294223693
 21
0.2277578011663825
 72
     1
 10
0.4750022942236929
 20
0.2277578011663825
 11
0.4674462875403612
 21
0.2277578011663825
 72
     1
 10
0.4674462875403611
 20
0.2277578011663825
 11
0.4395543616352215
 21
0.2277578011663825
 72
     1
 10
0.439554361635222
 20
0.2277578011663825
 11
0.4386215213039473
 21
0.2270115289013622
 72
     1
 10
0.4386215213039466
 20
0.2270115289013622
 11
0.4359162843432469
 21
0.2250525642056836
 72
     1
 10
0.4359162843432465
 20
0.2250525642056836
 11
0.4318117868856346
 21
0.2220674751456017
 72
     1
 10
0.4318117868856351
 20
0.2220674751456017
 11
0.4264013129642376
 21
0.2180562617211167
 72
     1
 10
0.4264013129642379
 20
0.2180562617211168
 11
0.4200579987115638
 21
0.2132987760316117
 72
     1
 10
0.4200579987115641
 20
0.2132987760316114
 11
0.4128751281607416
 21
0.2079815861433408
 72
     1
 10
0.4128751281607408
 20
0.2079815861433408
 11
0.4051325534111546
 21
0.20229126012256
 72
     1
 10
0.4051325534111552
 20
0.20229126012256
 11
0.397016842529058
 21
0.1963210820023964
 72
     1
 10
0.3970168425290583
 20
0.1963210820023967
 11
0.3889011316469611
 21
0.1903509038822331
 72
     1
 10
0.3889011316469611
 20
0.190350903882233
 11
0.3808787047979902
 21
0.1844740097951972
 72
     1
 10
0.3808787047979898
 20
0.1844740097951974
 11
0.3733226981146581
 21
0.1787836837744166
 72
     1
 10
0.373322698114658
 20
0.1787836837744166
 11
0.3663263956300919
 21
0.173653061952401
 72
     1
 10
0.3663263956300931
 20
0.173653061952401
 11
0.3601696494436735
 21
0.169082144329151
 72
     1
 10
0.3601696494436726
 20
0.1690821443291508
 11
0.3550390276216579
 21
0.1653507830040483
 72
     1
 10
0.3550390276216584
 20
0.1653507830040482
 11
0.3513076662965558
 21
0.1625522620102218
 72
     1
 10
0.3513076662965551
 20
0.1625522620102216
 11
0.3490688495014928
 21
0.1609664334470531
 72
     1
 10
0.3490688495014926
 20
0.1609664334470531
 11
0.3490688495014926
 21
0.1631119662089868
 72
     1
 10
0.3490688495014926
 20
0.1631119662089868
 11
0.3490688495014926
 21
0.1662836233353237
 72
     1
 10
0.3490688495014926
 20
0.1662836233353238
 11
0.3490688495014926
 21
0.1702948367598088
 72
     1
 10
0.3490688495014926
 20
0.1702948367598088
 11
0.3490688495014926
 21
0.1749590384161865
 72
     1
 10
0.3490688495014926
 20
0.1749590384161865
 11
0.3490688495014926
 21
0.1801829442713294
 72
     1
 10
0.3490688495014926
 20
0.1801829442713296
 11
0.3490688495014926
 21
0.185779986258983
 72
     1
 10
0.3490688495014926
 20
0.1857799862589829
 11
0.3490688495014926
 21
0.1916568803460187
 72
     1
 10
0.3490688495014926
 20
0.1916568803460186
 11
0.3490688495014926
 21
0.1975337744330549
 72
     1
 10
0.3490688495014926
 20
0.197533774433055
 11
0.3490688495014926
 21
0.2033173844869632
 72
     1
 10
0.3490688495014926
 20
0.2033173844869631
 11
0.3490688495014926
 21
0.2088211424414888
 72
     1
 10
0.3490688495014926
 20
0.2088211424414888
 11
0.3490688495014926
 21
0.2139517642635044
 72
     1
 10
0.3490688495014926
 20
0.2139517642635044
 11
0.3490688495014926
 21
0.2185226818867544
 72
     1
 10
0.3490688495014926
 20
0.2185226818867545
 11
0.3490688495014926
 21
0.2222540432118567
 72
     1
 10
0.3490688495014926
 20
0.2222540432118567
 11
0.3490688495014926
 21
0.2252391322719387
 72
     1
 10
0.3490688495014926
 20
0.2252391322719387
 11
0.3490688495014926
 21
0.2271048129344895
 72
     1
 10
0.3490688495014926
 20
0.2271048129344895
 11
0.3490688495014926
 21
0.2277578011663825
 72
     1
 10
0.3490688495014926
 20
0.2277578011663825
 11
0.3258411252527322
 21
0.2277578011663825
 72
     1
 10
0.3258411252527336
 20
0.2277578011663825
 11
0.3258411252527336
 21
0.0926825211976832
 72
     1
 10
0.3258411252527336
 20
0.0926825211976832
 11
0.3486957133689848
 21
0.0926825211976832
 72
     1
 10
0.3486957133689845
 20
0.0926825211976832
 11
0.3486957133689845
 21
0.0943616337939795
 72
     1
 10
0.3486957133689845
 20
0.0943616337939795
 11
0.3486957133689845
 21
0.0988392673841017
 72
     1
 10
0.3486957133689845
 20
0.0988392673841017
 11
0.3486957133689845
 21
0.1051825816367752
 72
     1
 10
0.3486957133689845
 20
0.1051825816367753
 11
0.3486957133689845
 21
0.1125520202538523
 72
     1
 10
0.3486957133689845
 20
0.1125520202538524
 11
0.3486957133689845
 21
0.1200147429040567
 72
     1
 10
0.3486957133689845
 20
0.1200147429040567
 11
0.3486957133689845
 21
0.1267311932892408
 72
     1
 10
0.3486957133689845
 20
0.1267311932892408
 11
0.3486957133689845
 21
0.1317685310781287
 72
     1
 10
0.3486957133689845
 20
0.1317685310781289
 11
0.3486957133689845
 21
0.1342871999725727
 72
     1
 10
0.3486957133689845
 20
0.1342871999725725
 11
0.3507479620977905
 21
0.1356864604694859
 72
     1
 10
0.35074796209779
 20
0.1356864604694859
 11
0.3548524595554018
 21
0.1387648335626952
 72
     1
 10
0.3548524595554015
 20
0.1387648335626952
 11
0.3605427855761835
 21
0.1428693310203079
 72
     1
 10
0.3605427855761842
 20
0.1428693310203079
 11
0.3668860998288565
 21
0.1476268167098129
 72
     1
 10
0.3668860998288568
 20
0.1476268167098129
 11
0.373322698114659
 21
0.1522910183661906
 72
     1
 10
0.373322698114658
 20
0.1522910183661908
 11
0.3791995922016947
 21
0.1565820838900582
 72
     1
 10
0.3791995922016946
 20
0.1565820838900582
 11
0.3836772257918156
 21
0.1599403090826502
 72
     1
 10
0.3836772257918159
 20
0.1599403090826503
 11
0.386195894686261
 21
0.1618059897452011
 72
     1
 10
0.3861958946862609
 20
0.1618059897452011
 11
0.3873153030837921
 21
0.1604067292482882
 72
     1
 10
0.3873153030837915
 20
0.1604067292482878
 11
0.3894608358457238
 21
0.1577947763207163
 72
     1
 10
0.3894608358457248
 20
0.1577947763207165
 11
0.3925392089389353
 21
0.1541566990287417
 72
     1
 10
0.3925392089389348
 20
0.1541566990287417
 11
0.396457138330292
 21
0.149492497372364
 72
     1
 10
0.3964571383302933
 20
0.149492497372364
 11
0.4009347719204161
 21
0.1442685915172211
 72
     1
 10
0.4009347719204146
 20
0.1442685915172209
 11
0.4057855416430466
 21
0.138391697430185
 72
     1
 10
0.4057855416430463
 20
0.1383916974301853
 11
0.4109161634650628
 21
0.1322349512437666
 72
     1
 10
0.410916163465064
 20
0.1322349512437666
 11
0.4162333533533335
 21
0.1259849210242201
 72
     1
 10
0.4162333533533334
 20
0.1259849210242201
 11
0.4215505432416044
 21
0.1196416067715466
 72
     1
 10
0.4215505432416045
 20
0.1196416067715466
 11
0.4265878810304927
 21
0.113671428651383
 72
     1
 10
0.4265878810304931
 20
0.1136714286513832
 11
0.4312520826868704
 21
0.1079811026306024
 72
     1
 10
0.4312520826868696
 20
0.1079811026306024
 11
0.4355431482107378
 21
0.1029437648417141
 72
     1
 10
0.435543148210738
 20
0.1029437648417139
 11
0.4390879414695842
 21
0.0987459833509739
 72
     1
 10
0.4390879414695843
 20
0.0987459833509741
 11
0.4417931784302841
 21
0.0954810421915098
 72
     1
 10
0.4417931784302845
 20
0.0954810421915096
 11
0.4435655750597076
 21
0.0934287934627037
 72
     1
 10
0.4435655750597074
 20
0.0934287934627039
 11
0.4442185632915993
 21
0.0926825211976832
 72
     1
 10
0.4442185632915985
 20
0.0926825211976832
 11
0.4743493059918004
 21
0.0926825211976832
 72
     1
 10
0.4743493059918001
 20
0.0926825211976832
 11
0.4753754303562029
 21
0.0926825211976832
 72
     1
 10
0.4753754303562033
 20
0.0926825211976832
 11
0.5008419714000258
 21
0.0926825211976832
 72
     1
 10
0.5008419714000265
 20
0.0926825211976832
 11
0.5014949596319184
 21
0.0939884976614689
 72
     1
 10
0.501494959631919
 20
0.0939884976614688
 11
0.5031740722282155
 21
0.0973467228540609
 72
     1
 10
0.503174072228215
 20
0.0973467228540612
 11
0.5055061730564038
 21
0.1021042085435666
 72
     1
 10
0.505506173056403
 20
0.1021042085435665
 11
0.5083046940502291
 21
0.1077012505312196
 72
     1
 10
0.5083046940502292
 20
0.1077012505312194
 11
0.5111032150440553
 21
0.1134848605851279
 72
     1
 10
0.5111032150440549
 20
0.1134848605851281
 11
0.5137151679716264
 21
0.1186154824071433
 72
     1
 10
0.5137151679716277
 20
0.1186154824071433
 11
0.5156741326673071
 21
0.1226266958316283
 72
     1
 10
0.5156741326673076
 20
0.122626695831628
 11
0.5167002570317104
 21
0.1247722285935621
 72
     1
 10
0.5167002570317103
 20
0.1247722285935622
 11
0.5180062334954961
 21
0.1247722285935622
 72
     1
 10
0.5180062334954961
 20
0.1247722285935622
 11
0.5207114704561957
 21
0.1247722285935622
 72
     1
 10
0.5207114704561944
 20
0.1247722285935622
 11
0.5246293998475517
 21
0.1247722285935622
 72
     1
 10
0.5246293998475525
 20
0.1247722285935622
 11
0.5295734536033125
 21
0.1247722285935622
 72
     1
 10
0.5295734536033115
 20
0.1247722285935622
 11
0.5352637796240919
 21
0.1247722285935622
 72
     1
 10
0.5352637796240929
 20
0.1247722285935622
 11
0.5415138098436386
 21
0.1247722285935622
 72
     1
 10
0.5415138098436394
 20
0.1247722285935622
 11
0.5482302602288245
 21
0.1247722285935622
 72
     1
 10
0.5482302602288236
 20
0.1247722285935622
 11
0.5551332786802616
 21
0.1247722285935622
 72
     1
 10
0.5551332786802608
 20
0.1247722285935622
 11
0.5620362971317004
 21
0.1247722285935622
 72
     1
 10
0.5620362971317015
 20
0.1247722285935622
 11
0.5687527475168847
 21
0.1247722285935622
 72
     1
 10
0.5687527475168839
 20
0.1247722285935622
 11
0.5750027777364317
 21
0.1247722285935622
 72
     1
 10
0.5750027777364322
 20
0.1247722285935622
 11
0.5806931037572126
 21
0.1247722285935622
 72
     1
 10
0.5806931037572119
 20
0.1247722285935622
 11
0.585637157512972
 21
0.1247722285935622
 72
     1
 10
0.5856371575129727
 20
0.1247722285935622
 11
0.5895550869043299
 21
0.1247722285935622
 72
     1
 10
0.5895550869043289
 20
0.1247722285935622
 11
0.5922603238650286
 21
0.1247722285935622
 72
     1
 10
0.5922603238650291
 20
0.1247722285935622
 11
0.5935663003288148
 21
0.1247722285935622
 72
     1
 10
0.5935663003288148
 20
0.1247722285935622
 11
0.5945924246932176
 21
0.1226266958316281
 72
     1
 10
0.5945924246932175
 20
0.122626695831628
 11
0.5965513893888953
 21
0.1186154824071431
 72
     1
 10
0.5965513893888957
 20
0.1186154824071433
 11
0.5991633423164672
 21
0.1134848605851281
 72
     1
 10
0.5991633423164667
 20
0.1134848605851281
 11
0.6019618633102946
 21
0.1077012505312196
 72
     1
 10
0.6019618633102959
 20
0.1077012505312194
 11
0.604760384304122
 21
0.1021042085435664
 72
     1
 10
0.6047603843041221
 20
0.1021042085435665
 11
0.6070924851323109
 21
0.0973467228540611
 72
     1
 10
0.6070924851323101
 20
0.0973467228540612
 11
0.6087715977286067
 21
0.0939884976614691
 72
     1
 10
0.6087715977286062
 20
0.0939884976614688
 11
0.609424585960498
 21
0.0926825211976832
 72
     1
 10
0.6094245859604986
 20
0.0926825211976832
 11
0.6363836715343633
 21
0.0926825211976832
 72
     1
 10
0.6363836715343641
 20
0.0926825211976832
 11
0.5671669189537184
 21
0.2277578011663825
 72
     1
 10
0.5671669189537179
 20
0.2277578011663825
 11
0.5656743744236758
 21
0.2277578011663825
 97
        0
 75
     0
 76
     1
 98
        1
 10
-0.3743130907707726
 20
-0.2500502867693841
1001
ACAD
1010
0.0
1020
0.0
1030
0.0
  0
HATCH
  5
2129E
330
21295
100
AcDbEntity
  8
Kawneer Logo-English
100
AcDbHatch
 10
0.0
 20
0.0
 30
0.0
210
0.0
220
0.0
230
1.0
  2
SOLID
 70
     1
 71
     0
 91
        1
 92
        1
 93
       69
 72
     1
 10
0.8092389849197205
 20
0.2277578011663825
 11
0.778921674153266
 21
0.1309289747799811
 72
     1
 10
0.778921674153267
 20
0.1309289747799809
 11
0.7781754018882468
 21
0.1287834420180468
 72
     1
 10
0.7781754018882468
 20
0.1287834420180467
 11
0.7776156976894812
 21
0.1270110453886236
 72
     1
 10
0.7776156976894813
 20
0.1270110453886237
 11
0.7771492775238438
 21
0.1253319327923275
 72
     1
 10
0.7771492775238436
 20
0.1253319327923274
 11
0.7766828573582045
 21
0.1238393882622867
 72
     1
 10
0.7766828573582046
 20
0.1238393882622866
 11
0.7764030052588217
 21
0.1248655126266895
 72
     1
 10
0.776403005258822
 20
0.1248655126266896
 11
0.7761231531594392
 21
0.1259849210242202
 72
     1
 10
0.7761231531594391
 20
0.1259849210242201
 11
0.7759365850931844
 21
0.1268244773223681
 72
     1
 10
0.7759365850931843
 20
0.1268244773223682
 11
0.7758433010600562
 21
0.1271976134548783
 72
     1
 10
0.7758433010600552
 20
0.1271976134548783
 11
0.7755634489606744
 21
0.1280371697530267
 72
     1
 10
0.775563448960674
 20
0.1280371697530267
 11
0.7750970287950349
 21
0.1291565781505569
 72
     1
 10
0.7750970287950363
 20
0.1291565781505568
 11
0.773977620397507
 21
0.1323282352768938
 72
     1
 10
0.7739776203975062
 20
0.1323282352768939
 11
0.7721119397349549
 21
0.1372722890326544
 72
     1
 10
0.7721119397349554
 20
0.1372722890326546
 11
0.7697798389067666
 21
0.1436156032853281
 72
     1
 10
0.769779838906767
 20
0.1436156032853281
 11
0.7670746019460673
 21
0.1511716099686602
 72
     1
 10
0.7670746019460668
 20
0.15117160996866
 11
0.7639962288528581
 21
0.1595671729501399
 72
     1
 10
0.7639962288528582
 20
0.15956717295014
 11
0.7606380036602665
 21
0.1686157241635125
 72
     1
 10
0.7606380036602652
 20
0.1686157241635125
 11
0.7572797784676718
 21
0.1778508434431408
 72
     1
 10
0.7572797784676726
 20
0.1778508434431408
 11
0.753921553275081
 21
0.187179246755896
 72
     1
 10
0.7539215532750814
 20
0.1871792467558961
 11
0.7505633280824898
 21
0.1962277979692689
 72
     1
 10
0.7505633280824902
 20
0.1962277979692689
 11
0.7474849549892814
 21
0.2046233609507488
 72
     1
 10
0.7474849549892797
 20
0.2046233609507488
 11
0.74477971802858
 21
0.2121793676340809
 72
     1
 10
0.7447797180285814
 20
0.2121793676340809
 11
0.7424476172003926
 21
0.2185226818867544
 72
     1
 10
0.7424476172003929
 20
0.2185226818867545
 11
0.7405819365378416
 21
0.2234667356425151
 72
     1
 10
0.7405819365378408
 20
0.2234667356425151
 11
0.7394625281403098
 21
0.2266383927688516
 72
     1
 10
0.7394625281403103
 20
0.2266383927688516
 11
0.7390893920078009
 21
0.2277578011663822
 72
     1
 10
0.7390893920078004
 20
0.2277578011663825
 11
0.7191266089185034
 21
0.2277578011663825
 72
     1
 10
0.7191266089185029
 20
0.2277578011663825
 11
0.6843316645619254
 21
0.1336342117406798
 72
     1
 10
0.6843316645619267
 20
0.1336342117406795
 11
0.6832122561643957
 21
0.130649122680598
 72
     1
 10
0.6832122561643961
 20
0.1306491226805981
 11
0.6823726998662476
 21
0.1282237378192816
 72
     1
 10
0.6823726998662468
 20
0.1282237378192818
 11
0.6817197116343549
 21
0.1260782050573481
 72
     1
 10
0.6817197116343552
 20
0.1260782050573481
 11
0.6811600074355896
 21
0.1241192403616695
 72
     1
 10
0.6811600074355884
 20
0.1241192403616695
 11
0.6808801553362055
 21
0.1250520806929446
 72
     1
 10
0.6808801553362059
 20
0.1250520806929445
 11
0.6805070192036949
 21
0.1261714890904751
 72
     1
 10
0.680507019203696
 20
0.1261714890904752
 11
0.6802271671043131
 21
0.1272908974880058
 72
     1
 10
0.680227167104313
 20
0.1272908974880061
 11
0.6798540309718037
 21
0.1286901579849195
 72
     1
 10
0.6798540309718031
 20
0.1286901579849194
 11
0.6794808948392922
 21
0.12980956638245
 72
     1
 10
0.6794808948392932
 20
0.1298095663824503
 11
0.6784547704748904
 21
0.1328879394756595
 72
     1
 10
0.67845477047489
 20
0.1328879394756595
 11
0.6769622259448497
 21
0.1378319932314196
 72
     1
 10
0.6769622259448496
 20
0.1378319932314196
 11
0.6750032612491701
 21
0.1441753074840938
 72
     1
 10
0.6750032612491697
 20
0.1441753074840937
 11
0.6725778763878547
 21
0.1516380301342981
 72
     1
 10
0.6725778763878556
 20
0.1516380301342981
 11
0.6699659234602841
 21
0.160033593115778
 72
     1
 10
0.6699659234602829
 20
0.160033593115778
 11
0.6671674024664549
 21
0.168988860296023
 72
     1
 10
0.6671674024664554
 20
0.168988860296023
 11
0.6642755974395012
 21
0.1782239795756509
 72
     1
 10
0.6642755974395019
 20
0.178223979575651
 11
0.6613837924125477
 21
0.1874590988552789
 72
     1
 10
0.6613837924125466
 20
0.1874590988552789
 11
0.6585852714187205
 21
0.1964143660355239
 72
     1
 10
0.6585852714187204
 20
0.1964143660355237
 11
0.6559733184911489
 21
0.2047166449838762
 72
     1
 10
0.6559733184911494
 20
0.2047166449838765
 11
0.6536412176629606
 21
0.2122726516672082
 72
     1
 10
0.6536412176629614
 20
0.2122726516672082
 11
0.6515889689341538
 21
0.2186159659198823
 72
     1
 10
0.6515889689341537
 20
0.2186159659198821
 11
0.6500964244041133
 21
0.2234667356425149
 72
     1
 10
0.6500964244041132
 20
0.2234667356425151
 11
0.6490703000397104
 21
0.2266383927688516
 72
     1
 10
0.6490703000397105
 20
0.2266383927688516
 11
0.6487904479403276
 21
0.2277578011663822
 72
     1
 10
0.648790447940328
 20
0.2277578011663825
 11
0.6237903270621445
 21
0.2277578011663825
 72
     1
 10
0.6237903270621437
 20
0.2277578011663825
 11
0.6676338226320932
 21
0.0926825211976832
 72
     1
 10
0.6676338226320926
 20
0.0926825211976832
 11
0.6922608073777669
 21
0.0926825211976832
 72
     1
 10
0.6922608073777666
 20
0.0926825211976832
 11
0.726029627369941
 21
0.1855001341596003
 72
     1
 10
0.7260296273699423
 20
0.1855001341596003
 11
0.7269624677012189
 21
0.1882986551534267
 72
     1
 10
0.7269624677012177
 20
0.1882986551534266
 11
0.7278020239993661
 21
0.1906307559816158
 72
     1
 10
0.727802023999367
 20
0.1906307559816159
 11
0.7284550122312589
 21
0.1927762887435496
 72
     1
 10
0.7284550122312581
 20
0.1927762887435495
 11
0.7290147164300237
 21
0.1947352534392281
 72
     1
 10
0.7290147164300232
 20
0.1947352534392282
 11
0.7298542727281716
 21
0.192216584544784
 72
     1
 10
0.729854272728173
 20
0.1922165845447839
 11
0.7306938290263214
 21
0.1894180635509575
 72
     1
 10
0.7306938290263206
 20
0.1894180635509575
 11
0.7318132374238499
 21
0.1863396904577483
 72
     1
 10
0.7318132374238511
 20
0.1863396904577481
 11
0.7331192138876387
 21
0.1827016131657736
 72
     1
 10
0.7331192138876382
 20
0.1827016131657737
 11
0.7654887733828987
 21
0.0926825211976834
 72
     1
 10
0.7654887733828986
 20
0.0926825211976832
 11
0.7895560539298075
 21
0.0926825211976832
 72
     1
 10
0.7895560539298075
 20
0.0926825211976832
 11
0.8341458217647785
 21
0.2277578011663825
 72
     1
 10
0.8341458217647783
 20
0.2277578011663825
 11
0.830601028505932
 21
0.2277578011663825
 72
     1
 10
0.8306010285059324
 20
0.2277578011663825
 11
0.8092389849197216
 21
0.2277578011663825
 97
        0
 75
     0
 76
     1
 98
        1
 10
-0.3743130907707726
 20
-0.2500502867693841
1001
ACAD
1010
0.0
1020
0.0
1030
0.0
  0
ENDBLK
  5
212A2
330
21295
100
AcDbEntity
  8
0
100
AcDbBlockEnd
  0
ENDSEC
  0
SECTION
  2
ENTITIES
  0
TEXT
  5
1F793
330
1F
100
AcDbEntity
  8
TEXT
  6
Continuous
100
AcDbText
 10
55.86598109691752
 20
30.51034817129846
 30
0.0
 40
0.375
  1
DOOR STOP FOR LCN CLOSER
100
AcDbText
  0
TEXT
  5
1F794
330
1F
100
AcDbEntity
  8
TEXT
  6
Continuous
100
AcDbText
 10
55.85459847581751
 20
29.83828192526534
 30
0.0
 40
0.375
  1
FOR THERMAL DOOR
100
AcDbText
  0
TEXT
  5
1F797
330
1F
100
AcDbEntity
  8
TEXT
  6
Continuous
100
AcDbText
 10
56.0401636271229
 20
16.46779610493876
 30
0.0
 40
0.375
  1
THRESHOLD STOP FOR EXIT DEVICE
100
AcDbText
  0
TEXT
  5
1F798
330
1F
100
AcDbEntity
  8
TEXT
  6
Continuous
100
AcDbText
 10
56.02878100602288
 20
15.79572985890564
 30
0.0
 40
0.375
  1
PART 033981
100
AcDbText
  0
LWPOLYLINE
  5
204CE
330
1F
100
AcDbEntity
  8
FORMAT
100
AcDbPolyline
 90
        3
 70
     0
 43
0.0
 10
98.88781733323208
 20
0.0
 10
0.0
 20
0.0
 10
0.0
 20
65.72500641906796
  0
MTEXT
  5
204DE
330
1F
100
AcDbEntity
  8
TEXT
100
AcDbMText
 10
34.9212401379761
 20
2.75938352543082
 30
0.0
 40
0.4375
 41
11.91800541288839
 71
     2
 72
     5
  1
DETAIL SCALE: 1" = 1"
 73
     1
 44
1.0
1001
ACAD
1000
MTEXTBEGIN
1070
    73
1070
     1
1070
    44
1040
1.0
1070
    74
1070
     0
1000
MTEXTEND
  0
MTEXT
  5
204DF
102
{ACAD_XDICTIONARY
360
21355
102
}
330
1F
100
AcDbEntity
  8
TEXT
100
AcDbMText
 10
34.9212401379761
 20
5.106381671453192
 30
0.0
 40
0.5
 41
19.60719762783066
 71
     2
 72
     5
  1
\A1;AA™ 250/425 THERMAL ENTRANCES \PMISCELLANEOUS DETAILS
 73
     1
 44
1.0
1001
ACAD
1000
MTEXTBEGIN
1070
    73
1070
     1
1070
    44
1040
1.0
1070
    74
1070
     0
1000
MTEXTEND
1000
ACAD_MTEXT_DEFINED_HEIGHT_BEGIN
1070
    46
1040
2.355105455282967
1000
ACAD_MTEXT_DEFINED_HEIGHT_END
  0
MTEXT
  5
204F0
330
1F
100
AcDbEntity
  8
DEFPOINTS
 62
    21
100
AcDbMText
 10
9.808827213961471
 20
36.28311535607001
 30
0.0
 40
0.375
 41
7.34375
 71
     2
 72
     5
  1
S522TR02
 73
     1
 44
1.0
1001
ACAD
1000
MTEXTBEGIN
1070
    73
1070
     1
1070
    44
1040
1.0
1070
    74
1070
     0
1000
MTEXTEND
  0
INSERT
  5
20585
330
1F
100
AcDbEntity
  8
0
100
AcDbBlockReference
 66
     1
  2
S522TR02
 10
8.562698645115908
 20
42.49615259478142
 30
0.0
  0
ATTRIB
  5
20586
330
20585
100
AcDbEntity
  8
P_ATTR
100
AcDbText
 10
12.68769864523058
 20
40.43370351827884
 30
0.0
 40
0.25
  1

 72
     4
 11
12.68769864523058
 21
40.43370351827884
 31
0.0
100
AcDbAttribute
  2
LIST
 70
     0
  0
SEQEND
  5
20587
330
20585
100
AcDbEntity
  8
0
  0
MTEXT
  5
205E6
330
1F
100
AcDbEntity
  8
TEXT
100
AcDbMText
 10
5.909571313864248
 20
45.41704898110476
 30
0.0
 40
0.25
 41
8.697235065669715
 71
     1
 72
     5
  1
\A1;522107  2-1/2" DEEP WEB TOP DOOR RAIL \P              W/ OFFSET PIVOTS OR BUTT HINGES
 73
     1
 44
1.0
1001
ACAD
1000
MTEXTBEGIN
1070
    73
1070
     1
1070
    44
1040
1.0
1070
    74
1070
     0
1000
MTEXTEND
  0
MTEXT
  5
20637
330
1F
100
AcDbEntity
  8
DEFPOINTS
 62
    21
100
AcDbMText
 10
25.40148891781666
 20
34.93932022059353
 30
0.0
 40
0.375
 41
7.34375
 71
     2
 72
     5
  1
S522TR04
 73
     1
 44
1.0
1001
ACAD
1000
MTEXTBEGIN
1070
    73
1070
     1
1070
    44
1040
1.0
1070
    74
1070
     0
1000
MTEXTEND
  0
INSERT
  5
2069B
330
1F
100
AcDbEntity
  8
0
100
AcDbBlockReference
 66
     1
  2
S522TR04
 10
23.99312753458544
 20
42.4961525947814
 30
0.0
  0
ATTRIB
  5
2069C
330
2069B
100
AcDbEntity
  8
P_ATTR
100
AcDbText
 10
28.11812753393707
 20
40.43370351827883
 30
0.0
 40
0.25
  1

 72
     4
 11
28.11812753393707
 21
40.43370351827883
 31
0.0
100
AcDbAttribute
  2
LIST
 70
     0
  0
SEQEND
  5
2069D
330
2069B
100
AcDbEntity
  8
0
  0
MTEXT
  5
206F1
330
1F
100
AcDbEntity
  8
TEXT
100
AcDbMText
 10
21.82874379581959
 20
45.41704898110476
 30
0.0
 40
0.25
 41
8.697235065669715
 71
     1
 72
     5
  1
\A1;522207  4-1/4 DEEP WEB TOP DOOR RAIL \P              W/ OFFSET PIVOTS OR BUTT HINGES
 73
     1
 44
1.0
1001
ACAD
1000
MTEXTBEGIN
1070
    73
1070
     1
1070
    44
1040
1.0
1070
    74
1070
     0
1000
MTEXTEND
  0
MTEXT
  5
20741
330
1F
100
AcDbEntity
  8
DEFPOINTS
 62
    21
100
AcDbMText
 10
9.808827213961471
 20
19.65677637658119
 30
0.0
 40
0.375
 41
7.34375
 71
     2
 72
     5
  1
S522CR01
 73
     1
 44
1.0
1001
ACAD
1000
MTEXTBEGIN
1070
    73
1070
     1
1070
    44
1040
1.0
1070
    74
1070
     0
1000
MTEXTEND
  0
INSERT
  5
2079F
330
1F
100
AcDbEntity
  8
0
100
AcDbBlockReference
 66
     1
  2
S522CR01
 10
8.687448645097877
 20
22.99347599879579
 30
0.0
  0
ATTRIB
  5
207A0
330
2079F
100
AcDbEntity
  8
P_ATTR
100
AcDbText
 10
12.68744864509788
 20
22.38547653265217
 30
0.0
 40
0.25
  1

 72
     4
 11
12.68744864509788
 21
22.38547653265217
 31
0.0
100
AcDbAttribute
  2
LIST
 70
     0
  0
SEQEND
  5
207A1
330
2079F
100
AcDbEntity
  8
0
  0
MTEXT
  5
207DD
330
1F
100
AcDbEntity
  8
TEXT
100
AcDbMText
 10
7.532816535922691
 20
26.92328433133416
 30
0.0
 40
0.25
 41
8.697235065669715
 71
     1
 72
     5
  1
\A1;522116  1-3/8" CROSSRAIL
 73
     1
 44
1.0
1001
ACAD
1000
MTEXTBEGIN
1070
    73
1070
     1
1070
    44
1040
1.0
1070
    74
1070
     0
1000
MTEXTEND
  0
MTEXT
  5
20815
330
1F
100
AcDbEntity
  8
DEFPOINTS
 62
    21
100
AcDbMText
 10
25.35383795354089
 20
12.69485059247164
 30
0.0
 40
0.375
 41
7.34375
 71
     2
 72
     5
  1
S522CR02
 73
     1
 44
1.0
1001
ACAD
1000
MTEXTBEGIN
1070
    73
1070
     1
1070
    44
1040
1.0
1070
    74
1070
     0
1000
MTEXTEND
  0
INSERT
  5
20860
330
1F
100
AcDbEntity
  8
0
100
AcDbBlockReference
 66
     1
  2
S522CR02
 10
24.11862753992715
 20
19.55597599885195
 30
0.0
  0
ATTRIB
  5
20861
330
20860
100
AcDbEntity
  8
P_ATTR
100
AcDbText
 10
28.11862753992715
 20
19.33210823656853
 30
0.0
 40
0.25
  1

 72
     4
 11
28.11862753992715
 21
19.33210823656853
 31
0.0
100
AcDbAttribute
  2
LIST
 70
     0
  0
SEQEND
  5
20862
330
20860
100
AcDbEntity
  8
0
  0
MTEXT
  5
2089D
330
1F
100
AcDbEntity
  8
TEXT
100
AcDbMText
 10
22.98807172803905
 20
26.96622533794013
 30
0.0
 40
0.25
 41
8.697235065669715
 71
     1
 72
     5
  1
\A1;522118  8-1/4" CROSSRAIL
 73
     1
 44
1.0
1001
ACAD
1000
MTEXTBEGIN
1070
    73
1070
     1
1070
    44
1040
1.0
1070
    74
1070
     0
1000
MTEXTEND
  0
MTEXT
  5
208D8
330
1F
100
AcDbEntity
  8
DEFPOINTS
 62
    21
100
AcDbMText
 10
41.62574479101256
 20
10.58420655000399
 30
0.0
 40
0.375
 41
7.34375
 71
     2
 72
     5
  1
S522BR03
 73
     1
 44
1.0
1001
ACAD
1000
MTEXTBEGIN
1070
    73
1070
     1
1070
    44
1040
1.0
1070
    74
1070
     0
1000
MTEXTEND
  0
INSERT
  5
2096A
330
1F
100
AcDbEntity
  8
0
100
AcDbBlockReference
 66
     1
  2
S522BR03
 10
42.22917885449345
 20
12.99342557949178
 30
0.0
  0
ATTRIB
  5
2096B
330
2096A
100
AcDbEntity
  8
P_ATTR
100
AcDbText
 10
46.22917885449346
 20
15.55592557949178
 30
0.0
 40
0.25
  1

 72
     4
 11
46.22917885449346
 21
15.55592557949178
 31
0.0
100
AcDbAttribute
  2
LIST
 70
     0
  0
SEQEND
  5
2096C
330
2096A
100
AcDbEntity
  8
0
  0
MTEXT
  5
20A29
330
1F
100
AcDbEntity
  8
TEXT
100
AcDbMText
 10
41.26208662747146
 20
27.33049098674178
 30
0.0
 40
0.25
 41
8.697235065669715
 71
     1
 72
     5
  1
\A1;522114  STANDARD 10" \P              BOTTOM DOOR RAIL
 73
     1
 44
1.0
1001
ACAD
1000
MTEXTBEGIN
1070
    73
1070
     1
1070
    44
1040
1.0
1070
    74
1070
     0
1000
MTEXTEND
  0
INSERT
  5
20BC1
330
1F
100
AcDbEntity
  8
HIDDEN
  6
Continuous
100
AcDbBlockReference
  2
B451079
 10
55.83626993378167
 20
26.41847700793818
 30
0.0
  0
INSERT
  5
20BD1
330
1F
100
AcDbEntity
  8
HIDDEN
  6
Continuous
100
AcDbBlockReference
  2
B451548
 10
55.83626993378167
 20
26.41847700793818
 30
0.0
  0
INSERT
  5
20D6F
330
1F
100
AcDbEntity
  8
0
100
AcDbBlockReference
 66
     1
  2
S522DS01
 10
55.83626993378167
 20
26.41847700793818
 30
0.0
  0
ATTRIB
  5
20D70
330
20D6F
100
AcDbEntity
  8
P_ATTR
100
AcDbText
 10
60.94694140257044
 20
24.41847700793818
 30
0.0
 40
0.25
  1

 72
     4
 11
60.94694140257044
 21
24.41847700793818
 31
0.0
100
AcDbAttribute
  2
LIST
 70
     0
  0
ATTRIB
  5
20D71
330
20D6F
100
AcDbEntity
  8
P_ATTR
100
AcDbText
 10
61.94694140257045
 20
24.41847700793818
 30
0.0
 40
0.25
  1

 72
     4
 11
61.94694140257045
 21
24.41847700793818
 31
0.0
100
AcDbAttribute
  2
LIST
 70
     0
  0
SEQEND
  5
20D72
330
20D6F
100
AcDbEntity
  8
0
  0
MTEXT
  5
20D7A
330
1F
100
AcDbEntity
  8
TEXT
100
AcDbMText
 10
61.36906464026571
 20
28.41847700793818
 30
0.0
 40
0.25
 41
7.716724927168929
 71
     1
 72
     5
  3
\A1;451079  D/A COC T-BAR/HEADER\P451548  O/P HEADER/T-BAR COC\P              SHEAR BLOCK PACKAGE\P^I                     OR\P451549  B/H HEADER/T-BAR COC\P              SHEAR BLOCK PACKAGE\P049064  DOOR STOP ASSEMBLY         \P028520  #10 x 1" AB FHS
  1
T\P   
 73
     1
 44
1.0
1001
ACAD
1000
MTEXTBEGIN
1070
    73
1070
     1
1070
    44
1040
1.0
1070
    74
1070
     0
1000
MTEXTEND
  0
MTEXT
  5
20E71
330
1F
100
AcDbEntity
  8
DEFPOINTS
 62
    21
100
AcDbMText
 10
57.05717704346104
 20
31.58691256485898
 30
0.0
 40
0.375
 41
7.34375
 71
     2
 72
     5
  1
S522DS01
 73
     1
 44
1.0
1001
ACAD
1000
MTEXTBEGIN
1070
    73
1070
     1
1070
    44
1040
1.0
1070
    74
1070
     0
1000
MTEXTEND
  0
INSERT
  5
20E97
330
1F
100
AcDbEntity
  8
0
100
AcDbBlockReference
  2
S522MD03
 10
58.90461029248811
 20
14.46213809238058
 30
0.0
 41
2.0
 42
2.0
 43
2.0
  0
MTEXT
  5
20EAA
330
1F
100
AcDbEntity
  8
DEFPOINTS
 62
    21
100
AcDbMText
 10
57.40756313500283
 20
17.72115280296008
 30
0.0
 40
0.375
 41
7.34375
 71
     2
 72
     5
  1
S522MD03
 73
     1
 44
1.0
1001
ACAD
1000
MTEXTBEGIN
1070
    73
1070
     1
1070
    44
1040
1.0
1070
    74
1070
     0
1000
MTEXTEND
  0
MTEXT
  5
2116B
330
1F
100
AcDbEntity
  8
TEXT
100
AcDbMText
 10
1.0
 20
1.999999942131637
 30
0.0
 40
0.375
 41
14.22387531454843
 71
     1
 72
     5
  1
ENGINEERING CHANGE:  97910-087 (MARCH 2017)\PFILE NAME:  KCDA050 SHEET 03 OF 03.DWG
 73
     1
 44
1.0
1001
ACAD
1000
ACAD_MTEXT_COLUMN_INFO_BEGIN
1070
    75
1070
     2
1070
    79
1070
     0
1070
    76
1070
     1
1070
    78
1070
     0
1070
    48
1040
14.22387531454843
1070
    49
1040
1.25
1070
    50
1070
     1
1040
0.0
1000
ACAD_MTEXT_COLUMN_INFO_END
1000
MTEXTBEGIN
1070
    73
1070
     1
1070
    44
1040
1.0
1070
    74
1070
     0
1000
MTEXTEND
  0
INSERT
  5
212A3
330
1F
100
AcDbEntity
  8
0
100
AcDbBlockReference
  2
Kawneer Logo English
 10
1.0
 20
2.5
 30
0.0
 41
5.337
 42
5.337
 43
5.337
  0
ENDSEC
  0
SECTION
  2
OBJECTS
  0
DICTIONARY
  5
C
330
0
100
AcDbDictionary
281
     1
  3
ACAD_2007HEADERVARS_RT
350
2135B
  3
ACAD_CIP_PREVIOUS_PRODUCT_INFO
350
204A8
  3
ACAD_COLOR
350
73
  3
ACAD_GROUP
350
D
  3
ACAD_LAYOUT
350
1A
  3
ACAD_MATERIAL
350
72
  3
ACAD_MLEADERSTYLE
350
D7
  3
ACAD_MLINESTYLE
350
17
  3
ACAD_PLOTSETTINGS
350
19
  3
ACAD_PLOTSTYLENAME
350
E
  3
ACAD_SCALELIST
350
B6
  3
ACAD_TABLESTYLE
350
86
  3
ACAD_VISUALSTYLE
350
99
  3
ACDB_RECOMPOSE_DATA
350
21359
  3
AcDbVariableDictionary
350
66
  3
AEC_PROPERTY_SET_DEFS
350
1E9EC
  3
DWGPROPS
350
2135A
  0
DICTIONARY
  5
68F
330
8
100
AcDbDictionary
280
     1
281
     1
  0
DICTIONARY
  5
165
330
2
100
AcDbDictionary
280
     1
281
     1
  3
ACAD_LAYERFILTERS
360
20191
  3
ACAD_LAYERSTATES
360
166
  3
ACLYDICTIONARY
360
20190
  0
DICTIONARY
  5
E6
330
10
100
AcDbDictionary
280
     1
281
     1
  3
ADSK_XREC_LAYER_RECONCILED
360
678
  0
DICTIONARY
  5
680
330
2D9
100
AcDbDictionary
280
     1
281
     1
  3
ADSK_XREC_LAYER_RECONCILED
360
681
  0
DICTIONARY
  5
204D5
330
204D4
100
AcDbDictionary
280
     1
281
     1
  0
DICTIONARY
  5
2056F
330
2056E
100
AcDbDictionary
280
     1
281
     1
  0
DICTIONARY
  5
20571
330
20570
100
AcDbDictionary
280
     1
281
     1
  0
DICTIONARY
  5
1D98
330
1F
100
AcDbDictionary
280
     1
281
     1
  3
ACAD_SORTENTS
360
1D99
  0
DICTIONARY
  5
2052C
330
2052B
100
AcDbDictionary
280
     1
281
     1
  3
ACAD_SORTENTS
360
2052D
  0
DICTIONARY
  5
20532
330
20531
100
AcDbDictionary
280
     1
281
     1
  3
ACAD_SORTENTS
360
20533
  0
DICTIONARY
  5
20539
330
20538
100
AcDbDictionary
280
     1
281
     1
  3
ACAD_SORTENTS
360
2053A
  0
DICTIONARY
  5
20543
330
20542
100
AcDbDictionary
280
     1
281
     1
  3
ACAD_SORTENTS
360
20544
  0
DICTIONARY
  5
20550
330
2054F
100
AcDbDictionary
280
     1
281
     1
  3
ACAD_SORTENTS
360
20551
  0
DICTIONARY
  5
20556
330
20555
100
AcDbDictionary
280
     1
281
     1
  3
ACAD_SORTENTS
360
20557
  0
DICTIONARY
  5
2055E
330
2055D
100
AcDbDictionary
280
     1
281
     1
  3
ACAD_SORTENTS
360
2055F
  0
DICTIONARY
  5
205F8
330
20573
100
AcDbDictionary
280
     1
281
     1
  3
ACAD_SORTENTS
360
20633
  0
DICTIONARY
  5
20674
330
20673
100
AcDbDictionary
280
     1
281
     1
  3
ACAD_SORTENTS
360
20675
  0
DICTIONARY
  5
2067A
330
20679
100
AcDbDictionary
280
     1
281
     1
  3
ACAD_SORTENTS
360
2067B
  0
DICTIONARY
  5
20681
330
20680
100
AcDbDictionary
280
     1
281
     1
  3
ACAD_SORTENTS
360
20682
  0
DICTIONARY
  5
20702
330
20689
100
AcDbDictionary
280
     1
281
     1
  3
ACAD_SORTENTS
360
2073D
  0
DICTIONARY
  5
20747
330
20746
100
AcDbDictionary
280
     1
281
     1
  0
DICTIONARY
  5
2077A
330
20779
100
AcDbDictionary
280
     1
281
     1
  3
ACAD_SORTENTS
360
2077B
  0
DICTIONARY
  5
20780
330
2077F
100
AcDbDictionary
280
     1
281
     1
  3
ACAD_SORTENTS
360
20781
  0
DICTIONARY
  5
207ED
330
2078D
100
AcDbDictionary
280
     1
281
     1
  3
ACAD_SORTENTS
360
20810
  0
DICTIONARY
  5
20839
330
20838
100
AcDbDictionary
280
     1
281
     1
  3
ACAD_SORTENTS
360
2083A
  0
DICTIONARY
  5
2083F
330
2083E
100
AcDbDictionary
280
     1
281
     1
  3
ACAD_SORTENTS
360
20840
  0
DICTIONARY
  5
20846
330
20845
100
AcDbDictionary
280
     1
281
     1
  3
ACAD_SORTENTS
360
20847
  0
DICTIONARY
  5
208AD
330
2084E
100
AcDbDictionary
280
     1
281
     1
  3
ACAD_SORTENTS
360
208D0
  0
DICTIONARY
  5
2093B
330
2093A
100
AcDbDictionary
280
     1
281
     1
  3
ACAD_SORTENTS
360
2093C
  0
DICTIONARY
  5
20941
330
20940
100
AcDbDictionary
280
     1
281
     1
  3
ACAD_SORTENTS
360
20942
  0
DICTIONARY
  5
20948
330
20947
100
AcDbDictionary
280
     1
281
     1
  3
ACAD_SORTENTS
360
20949
  0
DICTIONARY
  5
20AA9
330
20953
100
AcDbDictionary
280
     1
281
     1
  3
ACAD_SORTENTS
360
20AFA
  0
DICTIONARY
  5
20B3E
330
20B3D
100
AcDbDictionary
280
     1
281
     1
  0
DICTIONARY
  5
20B59
330
20B58
100
AcDbDictionary
280
     1
281
     1
  3
ACAD_SORTENTS
360
20B5A
  0
DICTIONARY
  5
20E5C
330
20D48
100
AcDbDictionary
280
     1
281
     1
  0
DICTIONARY
  5
2129F
330
21295
100
AcDbDictionary
280
     1
281
     1
  3
ACAD_SORTENTS
360
212A0
  0
DICTIONARY
  5
21357
330
21296
100
AcDbDictionary
280
     1
281
     1
  3
ACAD_MTEXT_2008_RT
360
21358
  0
DICTIONARY
  5
21355
330
204DF
100
AcDbDictionary
280
     1
281
     1
  3
ACAD_MTEXT_2008_RT
360
21356
  0
DICTIONARY
  5
2135B
102
{ACAD_REACTORS
330
C
102
}
330
C
100
AcDbDictionary
281
     1
  3
DIMARCSYM
350
2135C
  0
XRECORD
  5
204A8
102
{ACAD_REACTORS
330
C
102
}
330
C
100
AcDbXrecord
280
     1
300
ACD
300
2012
300
85730ACD_2012_0F
  0
DICTIONARY
  5
73
102
{ACAD_REACTORS
330
C
102
}
330
C
100
AcDbDictionary
281
     1
  0
DICTIONARY
  5
D
102
{ACAD_REACTORS
330
C
102
}
330
C
100
AcDbDictionary
281
     1
  0
DICTIONARY
  5
1A
102
{ACAD_REACTORS
330
C
102
}
330
C
100
AcDbDictionary
281
     1
  3
Layout1
350
59
  3
Layout2
350
5E
  3
Model
350
22
  0
DICTIONARY
  5
72
102
{ACAD_REACTORS
330
C
102
}
330
C
100
AcDbDictionary
281
     1
  3
ByBlock
350
97
  3
ByLayer
350
96
  3
Global
350
98
  0
DICTIONARY
  5
D7
102
{ACAD_REACTORS
330
C
102
}
330
C
100
AcDbDictionary
281
     1
  3
Standard
350
A186
  0
DICTIONARY
  5
17
102
{ACAD_REACTORS
330
C
102
}
330
C
100
AcDbDictionary
281
     1
  3
Standard
350
18
  0
DICTIONARY
  5
19
102
{ACAD_REACTORS
330
C
102
}
330
C
100
AcDbDictionary
281
     1
  0
ACDBDICTIONARYWDFLT
  5
E
102
{ACAD_REACTORS
330
C
102
}
330
C
100
AcDbDictionary
281
     1
  3
Normal
350
F
100
AcDbDictionaryWithDefault
340
F
  0
DICTIONARY
  5
B6
102
{ACAD_REACTORS
330
C
102
}
330
C
100
AcDbDictionary
281
     1
  3
A0
350
B7
  3
A1
350
21276
  3
A2
350
21277
  3
A3
350
21278
  3
A4
350
21279
  3
A5
350
2127A
  3
A6
350
2127B
  3
A7
350
2127C
  3
A8
350
2127D
  3
A9
350
2127E
  3
B0
350
2127F
  3
B1
350
21280
  3
B2
350
21281
  3
B3
350
21282
  3
B4
350
21283
  3
B5
350
21284
  3
B6
350
21285
  0
DICTIONARY
  5
86
102
{ACAD_REACTORS
330
C
102
}
330
C
100
AcDbDictionary
281
     1
  3
Standard
350
87
  0
DICTIONARY
  5
99
102
{ACAD_REACTORS
330
C
102
}
330
C
100
AcDbDictionary
281
     1
  3
2dWireframe
350
9F
  3
3D Hidden
350
A1
  3
3dWireframe
350
A0
  3
Basic
350
9E
  3
Brighten
350
A5
  3
ColorChange
350
A9
  3
Conceptual
350
A2
  3
Dim
350
A4
  3
EdgeColorOff
350
204A3
  3
Facepattern
350
A8
  3
Flat
350
9A
  3
FlatWithEdges
350
9B
  3
Gouraud
350
9C
  3
GouraudWithEdges
350
9D
  3
Hidden
350
2049B
  3
JitterOff
350
204A1
  3
Linepattern
350
A7
  3
OverhangOff
350
204A2
  3
Realistic
350
A3
  3
Shaded
350
204A0
  3
Shaded with edges
350
2049F
  3
Shades of Gray
350
2049C
  3
Sketchy
350
2049D
  3
Thicken
350
A6
  3
Wireframe
350
2049A
  3
X-Ray
350
2049E
  0
XRECORD
  5
21359
102
{ACAD_REACTORS
330
C
102
}
330
C
100
AcDbXrecord
280
     1
 90
        1
330
87
330
204DF
330
2116B
330
21296
  0
DICTIONARY
  5
66
102
{ACAD_REACTORS
330
C
102
}
330
C
100
AcDbDictionary
281
     1
  3
CANNOSCALE
350
F0
  3
CMLEADERSTYLE
350
EF
  3
CTABLESTYLE
350
89
  3
DIMASSOC
350
67
  3
HIDETEXT
350
6B
  3
INDEXCTL
350
9CE2
  3
LAYEREVAL
350
210F4
  3
LAYERNOTIFY
350
210F5
  3
LIGHTINGUNITS
350
6A6
  3
MSLTSCALE
350
6A5
  3
SORTENTS
350
9CE1
  3
XCLIPFRAME
350
21351
  0
DICTIONARY
  5
1E9EC
102
{ACAD_REACTORS
330
C
102
}
330
C
100
AcDbDictionary
281
     1
  0
XRECORD
  5
2135A
102
{ACAD_REACTORS
330
C
102
}
330
C
100
AcDbXrecord
280
     1
  1
DWGPROPS COOKIE
  2

  3

  4

  6

  7

  8
quadiss
  9

300
=
301
=
302
=
303
=
304
=
305
=
306
=
307
=
308
=
309
=
 40
1.316263310185185
 41
2454830.611812187
 42
2457799.479772929
  1

 90
        0
  0
DICTIONARY
  5
20191
102
{ACAD_REACTORS
330
165
102
}
330
165
100
AcDbDictionary
281
     1
  0
DICTIONARY
  5
166
102
{ACAD_REACTORS
330
165
102
}
330
165
100
AcDbDictionary
281
     1
  0
DICTIONARY
  5
20190
102
{ACAD_REACTORS
330
165
102
}
330
165
100
AcDbDictionary
281
     1
1001
ACAD
1000
<All
  0
XRECORD
  5
678
102
{ACAD_REACTORS
330
E6
102
}
330
E6
100
AcDbXrecord
280
     1
290
     1
  0
XRECORD
  5
681
102
{ACAD_REACTORS
330
680
102
}
330
680
100
AcDbXrecord
280
     1
290
     1
  0
SORTENTSTABLE
  5
1D99
102
{ACAD_REACTORS
330
1D98
102
}
330
1D98
100
AcDbSortentsTable
330
1F
331
20BC1
  5
20BC1
331
20585
  5
20585
331
1F793
  5
1FDC0
331
20815
  5
20815
331
2089D
  5
2089D
331
2096A
  5
2096A
331
204DE
  5
204DE
331
208D8
  5
208D8
331
207DD
  5
207DD
331
1F794
  5
1FDC1
331
1F797
  5
1FDC6
331
204DF
  5
204DF
331
20A29
  5
20A29
331
1F798
  5
1FDC5
331
20860
  5
20860
331
20BD1
  5
20BD1
331
204CE
  5
204CE
331
206F1
  5
206F1
331
204F0
  5
204F0
331
205E6
  5
205E6
331
2079F
  5
2079F
331
2069B
  5
2069B
331
20741
  5
20741
331
20637
  5
20637
  0
SORTENTSTABLE
  5
2052D
102
{ACAD_REACTORS
330
2052C
102
}
330
2052C
100
AcDbSortentsTable
330
2052B
  0
SORTENTSTABLE
  5
20533
102
{ACAD_REACTORS
330
20532
102
}
330
20532
100
AcDbSortentsTable
330
20531
  0
SORTENTSTABLE
  5
2053A
102
{ACAD_REACTORS
330
20539
102
}
330
20539
100
AcDbSortentsTable
330
20538
  0
SORTENTSTABLE
  5
20544
102
{ACAD_REACTORS
330
20543
102
}
330
20543
100
AcDbSortentsTable
330
20542
  0
SORTENTSTABLE
  5
20551
102
{ACAD_REACTORS
330
20550
102
}
330
20550
100
AcDbSortentsTable
330
2054F
  0
SORTENTSTABLE
  5
20557
102
{ACAD_REACTORS
330
20556
102
}
330
20556
100
AcDbSortentsTable
330
20555
331
2055A
  5
93A
331
2055B
  5
939
  0
SORTENTSTABLE
  5
2055F
102
{ACAD_REACTORS
330
2055E
102
}
330
2055E
100
AcDbSortentsTable
330
2055D
  0
SORTENTSTABLE
  5
20633
102
{ACAD_REACTORS
330
205F8
102
}
330
205F8
100
AcDbSortentsTable
330
20573
  0
SORTENTSTABLE
  5
20675
102
{ACAD_REACTORS
330
20674
102
}
330
20674
100
AcDbSortentsTable
330
20673
  0
SORTENTSTABLE
  5
2067B
102
{ACAD_REACTORS
330
2067A
102
}
330
2067A
100
AcDbSortentsTable
330
20679
  0
SORTENTSTABLE
  5
20682
102
{ACAD_REACTORS
330
20681
102
}
330
20681
100
AcDbSortentsTable
330
20680
  0
SORTENTSTABLE
  5
2073D
102
{ACAD_REACTORS
330
20702
102
}
330
20702
100
AcDbSortentsTable
330
20689
  0
SORTENTSTABLE
  5
2077B
102
{ACAD_REACTORS
330
2077A
102
}
330
2077A
100
AcDbSortentsTable
330
20779
  0
SORTENTSTABLE
  5
20781
102
{ACAD_REACTORS
330
20780
102
}
330
20780
100
AcDbSortentsTable
330
2077F
  0
SORTENTSTABLE
  5
20810
102
{ACAD_REACTORS
330
207ED
102
}
330
207ED
100
AcDbSortentsTable
330
2078D
  0
SORTENTSTABLE
  5
2083A
102
{ACAD_REACTORS
330
20839
102
}
330
20839
100
AcDbSortentsTable
330
20838
  0
SORTENTSTABLE
  5
20840
102
{ACAD_REACTORS
330
2083F
102
}
330
2083F
100
AcDbSortentsTable
330
2083E
  0
SORTENTSTABLE
  5
20847
102
{ACAD_REACTORS
330
20846
102
}
330
20846
100
AcDbSortentsTable
330
20845
  0
SORTENTSTABLE
  5
208D0
102
{ACAD_REACTORS
330
208AD
102
}
330
208AD
100
AcDbSortentsTable
330
2084E
  0
SORTENTSTABLE
  5
2093C
102
{ACAD_REACTORS
330
2093B
102
}
330
2093B
100
AcDbSortentsTable
330
2093A
  0
SORTENTSTABLE
  5
20942
102
{ACAD_REACTORS
330
20941
102
}
330
20941
100
AcDbSortentsTable
330
20940
  0
SORTENTSTABLE
  5
20949
102
{ACAD_REACTORS
330
20948
102
}
330
20948
100
AcDbSortentsTable
330
20947
  0
SORTENTSTABLE
  5
20AFA
102
{ACAD_REACTORS
330
20AA9
102
}
330
20AA9
100
AcDbSortentsTable
330
20953
  0
SORTENTSTABLE
  5
20B5A
102
{ACAD_REACTORS
330
20B59
102
}
330
20B59
100
AcDbSortentsTable
330
20B58
  0
SORTENTSTABLE
  5
212A0
102
{ACAD_REACTORS
330
2129F
102
}
330
2129F
100
AcDbSortentsTable
330
21295
  0
XRECORD
  5
21358
102
{ACAD_REACTORS
330
21357
102
}
330
21357
100
AcDbXrecord
280
     1
 40
102645.0
  1
\pxqr;{\fArial TUR|b0|i0|c0|p34;\T1.05;AN ARCONIC COMPANY}
  0
XRECORD
  5
21356
102
{ACAD_REACTORS
330
21355
102
}
330
21355
100
AcDbXrecord
280
     1
 40
175550.0
  1
\A1;\pxqc;AA™ 250/425 THERMAL ENTRANCES \PMISCELLANEOUS DETAILS
  0
XRECORD
  5
2135C
102
{ACAD_REACTORS
330
2135B
102
}
330
2135B
100
AcDbXrecord
280
     1
 70
     1
  0
LAYOUT
  5
59
102
{ACAD_XDICTIONARY
360
2135F
102
}
102
{ACAD_REACTORS
330
1A
102
}
330
1A
100
AcDbPlotSettings
  1

  2
None
  4

  6

 40
0.0
 41
0.0
 42
0.0
 43
0.0
 44
0.0
 45
0.0
 46
0.0
 47
0.0
 48
0.0
 49
0.0
140
0.0
141
0.0
142
1.0
143
1.0
 70
   688
 72
     0
 73
     0
 74
     5
  7
monochrome2.ctb
 75
    16
147
1.0
148
0.0
149
0.0
100
AcDbLayout
  1
Layout1
 70
     1
 71
     1
 10
0.0
 20
0.0
 11
12.0
 21
9.0
 12
0.0
 22
0.0
 32
0.0
 14
0.0
 24
0.0
 34
0.0
 15
0.0
 25
0.0
 35
0.0
146
0.0
 13
0.0
 23
0.0
 33
0.0
 16
1.0
 26
0.0
 36
0.0
 17
0.0
 27
1.0
 37
0.0
 76
     0
330
58
  0
LAYOUT
  5
5E
102
{ACAD_XDICTIONARY
360
21361
102
}
102
{ACAD_REACTORS
330
1A
102
}
330
1A
100
AcDbPlotSettings
  1

  2
None
  4

  6

 40
0.0
 41
0.0
 42
0.0
 43
0.0
 44
0.0
 45
0.0
 46
0.0
 47
0.0
 48
0.0
 49
0.0
140
0.0
141
0.0
142
1.0
143
1.0
 70
   688
 72
     0
 73
     0
 74
     5
  7
monochrome2.ctb
 75
    16
147
1.0
148
0.0
149
0.0
100
AcDbLayout
  1
Layout2
 70
     1
 71
     2
 10
0.0
 20
0.0
 11
12.0
 21
9.0
 12
0.0
 22
0.0
 32
0.0
 14
0.0
 24
0.0
 34
0.0
 15
0.0
 25
0.0
 35
0.0
146
0.0
 13
0.0
 23
0.0
 33
0.0
 16
1.0
 26
0.0
 36
0.0
 17
0.0
 27
1.0
 37
0.0
 76
     0
330
5D
  0
LAYOUT
  5
22
102
{ACAD_XDICTIONARY
360
2135D
102
}
102
{ACAD_REACTORS
330
1A
102
}
330
1A
100
AcDbPlotSettings
  1

  2
none_device
  4
ANSI_A_(8.50_x_11.00_Inches)
  6

 40
6.349999904632568
 41
19.04999923706055
 42
6.350006103515625
 43
19.04998779296875
 44
215.8999938964844
 45
279.3999938964844
 46
0.0
 47
0.0
 48
0.0
 49
0.0
140
0.0
141
0.0
142
1.0
143
2.584895464708373
 70
 11952
 72
     0
 73
     1
 74
     0
  7
monochrome2.ctb
 75
     0
147
0.3868628397755418
148
0.0
149
0.0
100
AcDbLayout
  1
Model
 70
     1
 71
     0
 10
0.0
 20
0.0
 11
12.0
 21
9.0
 12
0.0
 22
0.0
 32
0.0
 14
0.0
 24
0.0
 34
0.0
 15
0.0
 25
0.0
 35
0.0
146
0.0
 13
0.0
 23
0.0
 33
0.0
 16
1.0
 26
0.0
 36
0.0
 17
0.0
 27
1.0
 37
0.0
 76
     0
330
1F
331
94
  0
MATERIAL
  5
97
102
{ACAD_XDICTIONARY
360
21366
102
}
102
{ACAD_REACTORS
330
72
102
}
330
72
100
AcDbMaterial
  1
ByBlock
  0
MATERIAL
  5
96
102
{ACAD_XDICTIONARY
360
21364
102
}
102
{ACAD_REACTORS
330
72
102
}
330
72
100
AcDbMaterial
  1
ByLayer
  0
MATERIAL
  5
98
102
{ACAD_XDICTIONARY
360
110
102
}
102
{ACAD_REACTORS
330
72
102
}
330
72
100
AcDbMaterial
  1
Global
 43
0.0208000000566244
 43
0.0
 43
0.0
 43
0.0
 43
0.0
 43
0.0208000000566244
 43
0.0
 43
0.0
 43
0.0
 43
0.0
 43
1.0
 43
0.0
 43
0.0
 43
0.0
 43
0.0
 43
1.0
 49
0.0208000000566244
 49
0.0
 49
0.0
 49
0.0
 49
0.0
 49
0.0208000000566244
 49
0.0
 49
0.0
 49
0.0
 49
0.0
 49
1.0
 49
0.0
 49
0.0
 49
0.0
 49
0.0
 49
1.0
142
0.0208000000566244
142
0.0
142
0.0
142
0.0
142
0.0
142
0.0208000000566244
142
0.0
142
0.0
142
0.0
142
0.0
142
1.0
142
0.0
142
0.0
142
0.0
142
0.0
142
1.0
144
0.0208000000566244
144
0.0
144
0.0
144
0.0
144
0.0
144
0.0208000000566244
144
0.0
144
0.0
144
0.0
144
0.0
144
1.0
144
0.0
144
0.0
144
0.0
144
0.0
144
1.0
1001
ACAD
1070
    -1
1070
     3
1070
     0
1000

1071
        0
1070
     0
  0
MLEADERSTYLE
  5
A186
102
{ACAD_XDICTIONARY
360
21353
102
}
102
{ACAD_REACTORS
330
D7
102
}
330
D7
100
AcDbMLeaderStyle
170
     2
171
     1
172
     0
 90
        2
 40
0.0
 41
0.0
173
     1
 91
-1056964608
340
14
 92
       -2
290
     1
 42
0.09
291
     1
 43
0.36
  3
Standard
 44
0.18
300

342
11
174
     1
178
     6
175
     1
176
     0
 93
-1056964608
 45
0.18
292
     0
297
     0
 46
0.18
 94
-1056964608
 47
1.0
 49
1.0
140
1.0
293
     1
141
0.0
294
     1
177
     0
142
1.0
295
     0
296
     0
143
0.125
1001
ACAD_MLEADERVER
1070
     2
  0
MLINESTYLE
  5
18
102
{ACAD_REACTORS
330
17
102
}
330
17
100
AcDbMlineStyle
  2
STANDARD
 70
     0
  3

 62
   256
 51
90.0
 52
90.0
 71
     2
 49
0.5
 62
   256
  6
BYLAYER
 49
-0.5
 62
   256
  6
BYLAYER
  0
ACDBPLACEHOLDER
  5
F
102
{ACAD_REACTORS
330
E
102
}
330
E
  0
SCALE
  5
B7
102
{ACAD_REACTORS
330
B6
102
}
330
B6
100
AcDbScale
 70
     0
300
1:1
140
1.0
141
1.0
290
     1
  0
SCALE
  5
21276
102
{ACAD_REACTORS
330
B6
102
}
330
B6
100
AcDbScale
 70
     0
300
1/128" = 1'-0"
140
0.0078125
141
12.0
290
     0
  0
SCALE
  5
21277
102
{ACAD_REACTORS
330
B6
102
}
330
B6
100
AcDbScale
 70
     0
300
1/64" = 1'-0"
140
0.015625
141
12.0
290
     0
  0
SCALE
  5
21278
102
{ACAD_REACTORS
330
B6
102
}
330
B6
100
AcDbScale
 70
     0
300
1/32" = 1'-0"
140
0.03125
141
12.0
290
     0
  0
SCALE
  5
21279
102
{ACAD_REACTORS
330
B6
102
}
330
B6
100
AcDbScale
 70
     0
300
1/16" = 1'-0"
140
0.0625
141
12.0
290
     0
  0
SCALE
  5
2127A
102
{ACAD_REACTORS
330
B6
102
}
330
B6
100
AcDbScale
 70
     0
300
3/32" = 1'-0"
140
0.09375
141
12.0
290
     0
  0
SCALE
  5
2127B
102
{ACAD_REACTORS
330
B6
102
}
330
B6
100
AcDbScale
 70
     0
300
1/8" = 1'-0"
140
0.125
141
12.0
290
     0
  0
SCALE
  5
2127C
102
{ACAD_REACTORS
330
B6
102
}
330
B6
100
AcDbScale
 70
     0
300
3/16" = 1'-0"
140
0.1875
141
12.0
290
     0
  0
SCALE
  5
2127D
102
{ACAD_REACTORS
330
B6
102
}
330
B6
100
AcDbScale
 70
     0
300
1/4" = 1'-0"
140
0.25
141
12.0
290
     0
  0
SCALE
  5
2127E
102
{ACAD_REACTORS
330
B6
102
}
330
B6
100
AcDbScale
 70
     0
300
3/8" = 1'-0"
140
0.375
141
12.0
290
     0
  0
SCALE
  5
2127F
102
{ACAD_REACTORS
330
B6
102
}
330
B6
100
AcDbScale
 70
     0
300
1/2" = 1'-0"
140
0.5
141
12.0
290
     0
  0
SCALE
  5
21280
102
{ACAD_REACTORS
330
B6
102
}
330
B6
100
AcDbScale
 70
     0
300
3/4" = 1'-0"
140
0.75
141
12.0
290
     0
  0
SCALE
  5
21281
102
{ACAD_REACTORS
330
B6
102
}
330
B6
100
AcDbScale
 70
     0
300
1" = 1'-0"
140
1.0
141
12.0
290
     0
  0
SCALE
  5
21282
102
{ACAD_REACTORS
330
B6
102
}
330
B6
100
AcDbScale
 70
     0
300
1-1/2" = 1'-0"
140
1.5
141
12.0
290
     0
  0
SCALE
  5
21283
102
{ACAD_REACTORS
330
B6
102
}
330
B6
100
AcDbScale
 70
     0
300
3" = 1'-0"
140
3.0
141
12.0
290
     0
  0
SCALE
  5
21284
102
{ACAD_REACTORS
330
B6
102
}
330
B6
100
AcDbScale
 70
     0
300
6" = 1'-0"
140
6.0
141
12.0
290
     0
  0
SCALE
  5
21285
102
{ACAD_REACTORS
330
B6
102
}
330
B6
100
AcDbScale
 70
     0
300
1'-0" = 1'-0"
140
12.0
141
12.0
290
     0
  0
TABLESTYLE
  5
87
102
{ACAD_XDICTIONARY
360
104
102
}
102
{ACAD_REACTORS
330
86
102
}
330
86
100
AcDbTableStyle
  3
Standard
 70
     0
 71
     0
 40
0.06
 41
0.06
280
     0
281
     0
  7
Standard
140
0.18
170
     2
 62
     0
 63
     7
283
     0
274
    -2
284
     1
 64
     0
275
    -2
285
     1
 65
     0
276
    -2
286
     1
 66
     0
277
    -2
287
     1
 67
     0
278
    -2
288
     1
 68
     0
279
    -2
289
     1
 69
     0
  7
Standard
140
0.25
170
     5
 62
     0
 63
     7
283
     0
274
    -2
284
     1
 64
     0
275
    -2
285
     1
 65
     0
276
    -2
286
     1
 66
     0
277
    -2
287
     1
 67
     0
278
    -2
288
     1
 68
     0
279
    -2
289
     1
 69
     0
  7
Standard
140
0.18
170
     5
 62
     0
 63
     7
283
     0
274
    -2
284
     1
 64
     0
275
    -2
285
     1
 65
     0
276
    -2
286
     1
 66
     0
277
    -2
287
     1
 67
     0
278
    -2
288
     1
 68
     0
279
    -2
289
     1
 69
     0
  0
VISUALSTYLE
  5
9F
102
{ACAD_XDICTIONARY
360
21373
102
}
102
{ACAD_REACTORS
330
99
102
}
330
99
100
AcDbVisualStyle
  2
2dWireframe
 70
     4
 71
     0
 72
     2
 73
     1
 90
        0
 40
-0.6
 41
-30.0
 62
     5
 63
     7
 74
     1
 91
        4
 64
     7
 65
   257
 75
     1
175
     1
 42
1.0
 92
        0
 66
   257
 43
1.0
 76
     1
 77
     6
 78
     2
 67
     7
 79
     5
170
     0
171
     0
290
     0
174
     0
 93
        1
 44
0.0
173
     0
291
     0
 45
0.0
1001
ACAD
1000
AcDbSavedByObjectVersion
1070
     0
  0
VISUALSTYLE
  5
A1
102
{ACAD_XDICTIONARY
360
21377
102
}
102
{ACAD_REACTORS
330
99
102
}
330
99
100
AcDbVisualStyle
  2
3D Hidden
 70
     6
 71
     1
 72
     2
 73
     2
 90
        0
 40
-0.6
 41
-30.0
 62
     5
 63
     7
 74
     2
 91
        2
 64
     7
 65
   257
 75
     2
175
     1
 42
40.0
 92
        0
 66
   257
 43
1.0
 76
     1
 77
     6
 78
     2
 67
     7
 79
     3
170
     0
171
     0
290
     0
174
     0
 93
        1
 44
0.0
173
     0
291
     0
 45
0.0
1001
ACAD
1000
AcDbSavedByObjectVersion
1070
     0
  0
VISUALSTYLE
  5
A0
102
{ACAD_XDICTIONARY
360
21375
102
}
102
{ACAD_REACTORS
330
99
102
}
330
99
100
AcDbVisualStyle
  2
3dWireframe
 70
     5
 71
     0
 72
     2
 73
     1
 90
        0
 40
-0.6
 41
-30.0
 62
     5
 63
     7
 74
     1
 91
        4
 64
     7
 65
   257
 75
     1
175
     1
 42
1.0
 92
        0
 66
   257
 43
1.0
 76
     1
 77
     6
 78
     2
 67
     7
 79
     5
170
     0
171
     0
290
     0
174
     0
 93
        1
 44
0.0
173
     0
291
     0
 45
0.0
1001
ACAD
1000
AcDbSavedByObjectVersion
1070
     0
  0
VISUALSTYLE
  5
9E
102
{ACAD_XDICTIONARY
360
21371
102
}
102
{ACAD_REACTORS
330
99
102
}
330
99
100
AcDbVisualStyle
  2
Basic
 70
     7
 71
     1
 72
     0
 73
     1
 90
        0
 40
-0.6
 41
-30.0
 62
     5
 63
     7
 74
     0
 91
        4
 64
     7
 65
   257
 75
     1
175
     1
 42
1.0
 92
        8
 66
     7
 43
1.0
 76
     1
 77
     6
 78
     2
 67
     7
 79
     5
170
     0
171
     0
290
     0
174
     0
 93
        1
 44
0.0
173
     0
291
     1
 45
0.0
1001
ACAD
1000
AcDbSavedByObjectVersion
1070
     0
  0
VISUALSTYLE
  5
A5
102
{ACAD_XDICTIONARY
360
2137F
102
}
102
{ACAD_REACTORS
330
99
102
}
330
99
100
AcDbVisualStyle
  2
Brighten
 70
    12
 71
     2
 72
     2
 73
     1
 90
        0
 40
-0.6
 41
-30.0
 62
     5
 63
     7
 74
     1
 91
        4
 64
     7
 65
   257
 75
     1
175
     1
 42
1.0
 92
        8
 66
     7
 43
1.0
 76
     1
 77
     6
 78
     2
 67
     7
 79
     5
170
     0
171
     0
290
     0
174
     0
 93
        1
 44
50.0
173
     0
291
     1
 45
0.0
1001
ACAD
1000
AcDbSavedByObjectVersion
1070
     0
  0
VISUALSTYLE
  5
A9
102
{ACAD_XDICTIONARY
360
21387
102
}
102
{ACAD_REACTORS
330
99
102
}
330
99
100
AcDbVisualStyle
  2
ColorChange
 70
    16
 71
     2
 72
     2
 73
     3
 90
        0
 40
-0.6
 41
-30.0
 62
     5
 63
     8
 74
     1
 91
        4
 64
     7
 65
   257
 75
     1
175
     1
 42
1.0
 92
        8
 66
     8
 43
1.0
 76
     1
 77
     6
 78
     2
 67
     7
 79
     5
170
     0
171
     0
290
     0
174
     0
 93
        1
 44
0.0
173
     0
291
     1
 45
0.0
1001
ACAD
1000
AcDbSavedByObjectVersion
1070
     0
  0
VISUALSTYLE
  5
A2
102
{ACAD_XDICTIONARY
360
21379
102
}
102
{ACAD_REACTORS
330
99
102
}
330
99
100
AcDbVisualStyle
  2
Conceptual
 70
     9
 71
     3
 72
     2
 73
     1
 90
        0
 40
-0.6
 41
-30.0
 62
     5
 63
     7
 74
     2
 91
        2
 64
     7
 65
   257
 75
     1
175
     1
 42
40.0
 92
        8
 66
     7
 43
1.0
 76
     1
 77
     6
 78
     2
 67
     7
 79
     3
170
     0
171
     0
290
     0
174
     0
 93
        1
 44
0.0
173
     0
291
     0
 45
0.0
1001
ACAD
1000
AcDbSavedByObjectVersion
1070
     0
  0
VISUALSTYLE
  5
A4
102
{ACAD_XDICTIONARY
360
2137D
102
}
102
{ACAD_REACTORS
330
99
102
}
330
99
100
AcDbVisualStyle
  2
Dim
 70
    11
 71
     2
 72
     2
 73
     1
 90
        0
 40
-0.6
 41
-30.0
 62
     5
 63
     7
 74
     1
 91
        4
 64
     7
 65
   257
 75
     1
175
     1
 42
1.0
 92
        8
 66
     7
 43
1.0
 76
     1
 77
     6
 78
     2
 67
     7
 79
     5
170
     0
171
     0
290
     0
174
     0
 93
        1
 44
-50.0
173
     0
291
     1
 45
0.0
1001
ACAD
1000
AcDbSavedByObjectVersion
1070
     0
  0
VISUALSTYLE
  5
204A3
102
{ACAD_XDICTIONARY
360
2139B
102
}
102
{ACAD_REACTORS
330
99
102
}
330
99
100
AcDbVisualStyle
  2
EdgeColorOff
 70
    22
 71
     2
 72
     2
 73
     0
 90
        0
 40
-0.6
 41
-30.0
 62
     5
 63
     7
 74
     1
 91
        4
 64
     7
 65
   257
 75
     1
175
     1
 42
1.0
 92
        8
 66
     7
 43
1.0
 76
     1
 77
     6
 78
     2
 67
     7
 79
     5
170
     0
171
     0
290
     0
174
     0
 93
        1
 44
0.0
173
     0
291
     1
 45
0.0
1001
ACAD
1000
AcDbSavedByObjectVersion
1070
     0
  0
VISUALSTYLE
  5
A8
102
{ACAD_XDICTIONARY
360
21385
102
}
102
{ACAD_REACTORS
330
99
102
}
330
99
100
AcDbVisualStyle
  2
Facepattern
 70
    15
 71
     2
 72
     2
 73
     1
 90
        0
 40
-0.6
 41
-30.0
 62
     5
 63
     7
 74
     1
 91
        4
 64
     7
 65
   257
 75
     1
175
     1
 42
1.0
 92
        8
 66
     7
 43
1.0
 76
     1
 77
     6
 78
     2
 67
     7
 79
     5
170
     0
171
     0
290
     0
174
     0
 93
        1
 44
0.0
173
     0
291
     1
 45
0.0
1001
ACAD
1000
AcDbSavedByObjectVersion
1070
     0
  0
VISUALSTYLE
  5
9A
102
{ACAD_XDICTIONARY
360
21369
102
}
102
{ACAD_REACTORS
330
99
102
}
330
99
100
AcDbVisualStyle
  2
Flat
 70
     0
 71
     2
 72
     1
 73
     1
 90
        2
 40
-0.6
 41
30.0
 62
     5
 63
     7
 74
     0
 91
        4
 64
     7
 65
   257
 75
     1
175
     1
 42
1.0
 92
        8
 66
     7
 43
1.0
 76
     1
 77
     6
 78
     2
 67
     7
 79
     5
170
     0
171
     0
290
     0
174
     0
 93
        1
 44
0.0
173
     0
291
     1
 45
0.0
1001
ACAD
1000
AcDbSavedByObjectVersion
1070
     0
  0
VISUALSTYLE
  5
9B
102
{ACAD_XDICTIONARY
360
2136B
102
}
102
{ACAD_REACTORS
330
99
102
}
330
99
100
AcDbVisualStyle
  2
FlatWithEdges
 70
     1
 71
     2
 72
     1
 73
     1
 90
        2
 40
-0.6
 41
30.0
 62
     5
 63
     7
 74
     1
 91
        4
 64
     7
 65
   257
 75
     1
175
     1
 42
1.0
 92
        0
 66
   257
 43
1.0
 76
     1
 77
     6
 78
     2
 67
     7
 79
     5
170
     0
171
     0
290
     0
174
     0
 93
        1
 44
0.0
173
     0
291
     1
 45
0.0
1001
ACAD
1000
AcDbSavedByObjectVersion
1070
     0
  0
VISUALSTYLE
  5
9C
102
{ACAD_XDICTIONARY
360
2136D
102
}
102
{ACAD_REACTORS
330
99
102
}
330
99
100
AcDbVisualStyle
  2
Gouraud
 70
     2
 71
     2
 72
     2
 73
     1
 90
        2
 40
-0.6
 41
30.0
 62
     5
 63
     7
 74
     0
 91
        4
 64
     7
 65
   257
 75
     1
175
     1
 42
1.0
 92
        0
 66
     7
 43
1.0
 76
     1
 77
     6
 78
     2
 67
     7
 79
     5
170
     0
171
     0
290
     0
174
     0
 93
        1
 44
0.0
173
     0
291
     1
 45
0.0
1001
ACAD
1000
AcDbSavedByObjectVersion
1070
     0
  0
VISUALSTYLE
  5
9D
102
{ACAD_XDICTIONARY
360
2136F
102
}
102
{ACAD_REACTORS
330
99
102
}
330
99
100
AcDbVisualStyle
  2
GouraudWithEdges
 70
     3
 71
     2
 72
     2
 73
     1
 90
        2
 40
-0.6
 41
30.0
 62
     5
 63
     7
 74
     1
 91
        4
 64
     7
 65
   257
 75
     1
175
     1
 42
1.0
 92
        0
 66
   257
 43
1.0
 76
     1
 77
     6
 78
     2
 67
     7
 79
     5
170
     0
171
     0
290
     0
174
     0
 93
        1
 44
0.0
173
     0
291
     1
 45
0.0
1001
ACAD
1000
AcDbSavedByObjectVersion
1070
     0
  0
VISUALSTYLE
  5
2049B
102
{ACAD_XDICTIONARY
360
2138B
102
}
102
{ACAD_REACTORS
330
99
102
}
330
99
100
AcDbVisualStyle
  2
Hidden
 70
     6
 71
     1
 72
     2
 73
     2
 90
        0
 40
-0.6
 41
-30.0
 62
     5
 63
     7
 74
     2
 91
        2
 64
     7
 65
   257
 75
     2
175
     1
 42
40.0
 92
        0
 66
   257
 43
1.0
 76
     1
 77
     6
 78
     2
 67
     7
 79
     3
170
     0
171
     0
290
     0
174
     0
 93
        1
 44
0.0
173
     0
291
     0
 45
0.0
1001
ACAD
1000
AcDbSavedByObjectVersion
1070
     0
  0
VISUALSTYLE
  5
204A1
102
{ACAD_XDICTIONARY
360
21397
102
}
102
{ACAD_REACTORS
330
99
102
}
330
99
100
AcDbVisualStyle
  2
JitterOff
 70
    20
 71
     2
 72
     2
 73
     0
 90
        0
 40
-0.6
 41
-30.0
 62
     5
 63
     7
 74
     1
 91
        4
 64
     7
 65
   257
 75
     1
175
     1
 42
1.0
 92
       10
 66
     7
 43
1.0
 76
     1
 77
     6
 78
     2
 67
     7
 79
     5
170
     0
171
     0
290
     0
174
     0
 93
        1
 44
0.0
173
     0
291
     1
 45
0.0
1001
ACAD
1000
AcDbSavedByObjectVersion
1070
     0
  0
VISUALSTYLE
  5
A7
102
{ACAD_XDICTIONARY
360
21383
102
}
102
{ACAD_REACTORS
330
99
102
}
330
99
100
AcDbVisualStyle
  2
Linepattern
 70
    14
 71
     2
 72
     2
 73
     1
 90
        0
 40
-0.6
 41
-30.0
 62
     5
 63
     7
 74
     1
 91
        4
 64
     7
 65
   257
 75
     7
175
     7
 42
1.0
 92
        8
 66
     7
 43
1.0
 76
     1
 77
     6
 78
     2
 67
     7
 79
     5
170
     0
171
     0
290
     0
174
     0
 93
        1
 44
0.0
173
     0
291
     1
 45
0.0
1001
ACAD
1000
AcDbSavedByObjectVersion
1070
     0
  0
VISUALSTYLE
  5
204A2
102
{ACAD_XDICTIONARY
360
21399
102
}
102
{ACAD_REACTORS
330
99
102
}
330
99
100
AcDbVisualStyle
  2
OverhangOff
 70
    21
 71
     2
 72
     2
 73
     0
 90
        0
 40
-0.6
 41
-30.0
 62
     5
 63
     7
 74
     1
 91
        4
 64
     7
 65
   257
 75
     1
175
     1
 42
1.0
 92
        9
 66
     7
 43
1.0
 76
     1
 77
     6
 78
     2
 67
     7
 79
     5
170
     0
171
     0
290
     0
174
     0
 93
        1
 44
0.0
173
     0
291
     1
 45
0.0
1001
ACAD
1000
AcDbSavedByObjectVersion
1070
     0
  0
VISUALSTYLE
  5
A3
102
{ACAD_XDICTIONARY
360
2137B
102
}
102
{ACAD_REACTORS
330
99
102
}
330
99
100
AcDbVisualStyle
  2
Realistic
 70
     8
 71
     2
 72
     2
 73
     1
 90
        0
 40
-0.6
 41
-30.0
 62
     5
 63
     7
 74
     1
 91
        0
 64
     7
 65
   257
 75
     1
175
     1
 42
1.0
 92
        8
 66
     8
 43
1.0
 76
     1
 77
     6
 78
     2
 67
     7
 79
     5
170
     0
171
     0
290
     0
174
     0
 93
       13
 44
0.0
173
     0
291
     0
 45
0.0
1001
ACAD
1000
AcDbSavedByObjectVersion
1070
     0
  0
VISUALSTYLE
  5
204A0
102
{ACAD_XDICTIONARY
360
21395
102
}
102
{ACAD_REACTORS
330
99
102
}
330
99
100
AcDbVisualStyle
  2
Shaded
 70
    27
 71
     2
 72
     2
 73
     1
 90
        2
 40
-0.6
 41
30.0
 62
     5
 63
     7
 74
     0
 91
        4
 64
     7
 65
   257
 75
     1
175
     1
 42
1.0
 92
        8
 66
   257
 43
1.0
 76
     1
 77
     6
 78
     2
 67
     8
 79
     3
170
     0
171
     0
290
     0
174
     0
 93
        5
 44
0.0
173
     0
291
     0
 45
0.0
1001
ACAD
1000
AcDbSavedByObjectVersion
1070
     0
  0
VISUALSTYLE
  5
2049F
102
{ACAD_XDICTIONARY
360
21393
102
}
102
{ACAD_REACTORS
330
99
102
}
330
99
100
AcDbVisualStyle
  2
Shaded with edges
 70
    26
 71
     2
 72
     2
 73
     1
 90
        2
 40
-0.6
 41
30.0
 62
     5
 63
     7
 74
     1
 91
       10
 64
     7
 65
   257
 75
     2
175
     1
 42
1.0
 92
        8
 66
   257
 43
1.0
 76
     1
 77
     6
 78
     2
 67
     7
 79
     3
170
     0
171
     0
290
     0
174
     0
 93
        5
 44
0.0
173
     0
291
     0
 45
0.0
1001
ACAD
1000
AcDbSavedByObjectVersion
1070
     0
  0
VISUALSTYLE
  5
2049C
102
{ACAD_XDICTIONARY
360
2138D
102
}
102
{ACAD_REACTORS
330
99
102
}
330
99
100
AcDbVisualStyle
  2
Shades of Gray
 70
    23
 71
     2
 72
     2
 73
     3
 90
        0
 40
-0.6
 41
-30.0
 62
     5
 63
     7
 74
     2
 91
        2
 64
     7
 65
     7
 75
     1
175
     1
 42
40.0
 92
        8
 66
     7
 43
1.0
 76
     1
 77
     6
 78
     2
 67
     7
 79
     3
170
     0
171
     0
290
     0
174
     0
 93
        1
 44
0.0
173
     0
291
     0
 45
0.0
1001
ACAD
1000
AcDbSavedByObjectVersion
1070
     0
  0
VISUALSTYLE
  5
2049D
102
{ACAD_XDICTIONARY
360
2138F
102
}
102
{ACAD_REACTORS
330
99
102
}
330
99
100
AcDbVisualStyle
  2
Sketchy
 70
    24
 71
     1
 72
     2
 73
     2
 90
        0
 40
-0.6
 41
-30.0
 62
     5
 63
     7
 74
     2
 91
        2
 64
     7
 65
     7
 75
     1
175
     1
 42
40.0
 92
       11
 66
     7
 43
1.0
 76
     1
 77
     6
 78
     2
 67
     7
 79
     6
170
     0
171
     0
290
     0
174
     0
 93
        1
 44
0.0
173
     0
291
     0
 45
0.0
1001
ACAD
1000
AcDbSavedByObjectVersion
1070
     0
  0
VISUALSTYLE
  5
A6
102
{ACAD_XDICTIONARY
360
21381
102
}
102
{ACAD_REACTORS
330
99
102
}
330
99
100
AcDbVisualStyle
  2
Thicken
 70
    13
 71
     2
 72
     2
 73
     1
 90
        0
 40
-0.6
 41
-30.0
 62
     5
 63
     7
 74
     1
 91
        4
 64
     7
 65
   257
 75
     1
175
     1
 42
1.0
 92
       12
 66
     7
 43
1.0
 76
     1
 77
     6
 78
     2
 67
     7
 79
     5
170
     0
171
     0
290
     0
174
     0
 93
        1
 44
0.0
173
     0
291
     1
 45
0.0
1001
ACAD
1000
AcDbSavedByObjectVersion
1070
     0
  0
VISUALSTYLE
  5
2049A
102
{ACAD_XDICTIONARY
360
21389
102
}
102
{ACAD_REACTORS
330
99
102
}
330
99
100
AcDbVisualStyle
  2
Wireframe
 70
     5
 71
     0
 72
     2
 73
     0
 90
        0
 40
-0.6
 41
-30.0
 62
     5
 63
     7
 74
     1
 91
        4
 64
     7
 65
   257
 75
     1
175
     1
 42
1.0
 92
        0
 66
   257
 43
1.0
 76
     1
 77
     6
 78
     2
 67
     7
 79
     3
170
     0
171
     0
290
     0
174
     0
 93
        1
 44
0.0
173
     0
291
     0
 45
0.0
1001
ACAD
1000
AcDbSavedByObjectVersion
1070
     0
  0
VISUALSTYLE
  5
2049E
102
{ACAD_XDICTIONARY
360
21391
102
}
102
{ACAD_REACTORS
330
99
102
}
330
99
100
AcDbVisualStyle
  2
X-Ray
 70
    25
 71
     2
 72
     2
 73
     1
 90
        1
 40
0.5
 41
-30.0
 62
     5
 63
     7
 74
     1
 91
        0
 64
     7
 65
   257
 75
     1
175
     1
 42
1.0
 92
        8
 66
     7
 43
1.0
 76
     1
 77
     6
 78
     2
 67
     7
 79
     3
170
     0
171
     0
290
     0
174
     0
 93
       13
 44
0.0
173
     0
291
     0
 45
0.0
1001
ACAD
1000
AcDbSavedByObjectVersion
1070
     0
  0
DICTIONARYVAR
  5
F0
102
{ACAD_REACTORS
330
66
102
}
330
66
100
DictionaryVariables
280
     0
  1
1:1
  0
DICTIONARYVAR
  5
EF
102
{ACAD_REACTORS
330
66
102
}
330
66
100
DictionaryVariables
280
     0
  1
STANDARD
  0
DICTIONARYVAR
  5
89
102
{ACAD_REACTORS
330
66
102
}
330
66
100
DictionaryVariables
280
     0
  1
STANDARD
  0
DICTIONARYVAR
  5
67
102
{ACAD_REACTORS
330
66
102
}
330
66
100
DictionaryVariables
280
     0
  1
2
  0
DICTIONARYVAR
  5
6B
102
{ACAD_REACTORS
330
66
102
}
330
66
100
DictionaryVariables
280
     0
  1
1
  0
DICTIONARYVAR
  5
9CE2
102
{ACAD_REACTORS
330
66
102
}
330
66
100
DictionaryVariables
280
     0
  1
0
  0
DICTIONARYVAR
  5
210F4
102
{ACAD_REACTORS
330
66
102
}
330
66
100
DictionaryVariables
280
     0
  1
1
  0
DICTIONARYVAR
  5
210F5
102
{ACAD_REACTORS
330
66
102
}
330
66
100
DictionaryVariables
280
     0
  1
15
  0
DICTIONARYVAR
  5
6A6
102
{ACAD_REACTORS
330
66
102
}
330
66
100
DictionaryVariables
280
     0
  1
2
  0
DICTIONARYVAR
  5
6A5
102
{ACAD_REACTORS
330
66
102
}
330
66
100
DictionaryVariables
280
     0
  1
1
  0
DICTIONARYVAR
  5
9CE1
102
{ACAD_REACTORS
330
66
102
}
330
66
100
DictionaryVariables
280
     0
  1
127
  0
DICTIONARYVAR
  5
21351
102
{ACAD_REACTORS
330
66
102
}
330
66
100
DictionaryVariables
280
     0
  1
2
  0
DICTIONARY
  5
2135F
330
59
100
AcDbDictionary
280
     1
281
     1
  3
ACAD_XREC_ROUNDTRIP
360
21360
  0
DICTIONARY
  5
21361
330
5E
100
AcDbDictionary
280
     1
281
     1
  3
ACAD_XREC_ROUNDTRIP
360
21362
  0
DICTIONARY
  5
2135D
330
22
100
AcDbDictionary
280
     1
281
     1
  3
ACAD_XREC_ROUNDTRIP
360
2135E
  0
DICTIONARY
  5
21366
330
97
100
AcDbDictionary
280
     1
281
     1
  3
ACAD_XREC_ROUNDTRIP
360
21367
  0
DICTIONARY
  5
21364
330
96
100
AcDbDictionary
280
     1
281
     1
  3
ACAD_XREC_ROUNDTRIP
360
21365
  0
DICTIONARY
  5
110
330
98
100
AcDbDictionary
280
     1
281
     1
  3
ACAD_XREC_ROUNDTRIP
360
21368
  3
BUMPTILE
360
112
  3
DIFFUSETILE
360
111
  3
OPACITYTILE
360
113
  3
REFLECTIONTILE
360
114
  0
DICTIONARY
  5
21353
330
A186
100
AcDbDictionary
280
     1
281
     1
  3
ACAD_XREC_ROUNDTRIP
360
21354
  0
DICTIONARY
  5
104
330
87
100
AcDbDictionary
280
     1
281
     1
  3
ACAD_ROUNDTRIP_2008_TABLESTYLE_CELLSTYLEMAP
360
21352
  3
ACAD_XREC_ROUNDTRIP
360
21363
  0
DICTIONARY
  5
21373
330
9F
100
AcDbDictionary
280
     1
281
     1
  3
ACAD_XREC_ROUNDTRIP
360
21374
  0
DICTIONARY
  5
21377
330
A1
100
AcDbDictionary
280
     1
281
     1
  3
ACAD_XREC_ROUNDTRIP
360
21378
  0
DICTIONARY
  5
21375
330
A0
100
AcDbDictionary
280
     1
281
     1
  3
ACAD_XREC_ROUNDTRIP
360
21376
  0
DICTIONARY
  5
21371
330
9E
100
AcDbDictionary
280
     1
281
     1
  3
ACAD_XREC_ROUNDTRIP
360
21372
  0
DICTIONARY
  5
2137F
330
A5
100
AcDbDictionary
280
     1
281
     1
  3
ACAD_XREC_ROUNDTRIP
360
21380
  0
DICTIONARY
  5
21387
330
A9
100
AcDbDictionary
280
     1
281
     1
  3
ACAD_XREC_ROUNDTRIP
360
21388
  0
DICTIONARY
  5
21379
330
A2
100
AcDbDictionary
280
     1
281
     1
  3
ACAD_XREC_ROUNDTRIP
360
2137A
  0
DICTIONARY
  5
2137D
330
A4
100
AcDbDictionary
280
     1
281
     1
  3
ACAD_XREC_ROUNDTRIP
360
2137E
  0
DICTIONARY
  5
2139B
330
204A3
100
AcDbDictionary
280
     1
281
     1
  3
ACAD_XREC_ROUNDTRIP
360
2139C
  0
DICTIONARY
  5
21385
330
A8
100
AcDbDictionary
280
     1
281
     1
  3
ACAD_XREC_ROUNDTRIP
360
21386
  0
DICTIONARY
  5
21369
330
9A
100
AcDbDictionary
280
     1
281
     1
  3
ACAD_XREC_ROUNDTRIP
360
2136A
  0
DICTIONARY
  5
2136B
330
9B
100
AcDbDictionary
280
     1
281
     1
  3
ACAD_XREC_ROUNDTRIP
360
2136C
  0
DICTIONARY
  5
2136D
330
9C
100
AcDbDictionary
280
     1
281
     1
  3
ACAD_XREC_ROUNDTRIP
360
2136E
  0
DICTIONARY
  5
2136F
330
9D
100
AcDbDictionary
280
     1
281
     1
  3
ACAD_XREC_ROUNDTRIP
360
21370
  0
DICTIONARY
  5
2138B
330
2049B
100
AcDbDictionary
280
     1
281
     1
  3
ACAD_XREC_ROUNDTRIP
360
2138C
  0
DICTIONARY
  5
21397
330
204A1
100
AcDbDictionary
280
     1
281
     1
  3
ACAD_XREC_ROUNDTRIP
360
21398
  0
DICTIONARY
  5
21383
330
A7
100
AcDbDictionary
280
     1
281
     1
  3
ACAD_XREC_ROUNDTRIP
360
21384
  0
DICTIONARY
  5
21399
330
204A2
100
AcDbDictionary
280
     1
281
     1
  3
ACAD_XREC_ROUNDTRIP
360
2139A
  0
DICTIONARY
  5
2137B
330
A3
100
AcDbDictionary
280
     1
281
     1
  3
ACAD_XREC_ROUNDTRIP
360
2137C
  0
DICTIONARY
  5
21395
330
204A0
100
AcDbDictionary
280
     1
281
     1
  3
ACAD_XREC_ROUNDTRIP
360
21396
  0
DICTIONARY
  5
21393
330
2049F
100
AcDbDictionary
280
     1
281
     1
  3
ACAD_XREC_ROUNDTRIP
360
21394
  0
DICTIONARY
  5
2138D
330
2049C
100
AcDbDictionary
280
     1
281
     1
  3
ACAD_XREC_ROUNDTRIP
360
2138E
  0
DICTIONARY
  5
2138F
330
2049D
100
AcDbDictionary
280
     1
281
     1
  3
ACAD_XREC_ROUNDTRIP
360
21390
  0
DICTIONARY
  5
21381
330
A6
100
AcDbDictionary
280
     1
281
     1
  3
ACAD_XREC_ROUNDTRIP
360
21382
  0
DICTIONARY
  5
21389
330
2049A
100
AcDbDictionary
280
     1
281
     1
  3
ACAD_XREC_ROUNDTRIP
360
2138A
  0
DICTIONARY
  5
21391
330
2049E
100
AcDbDictionary
280
     1
281
     1
  3
ACAD_XREC_ROUNDTRIP
360
21392
  0
XRECORD
  5
21360
102
{ACAD_REACTORS
330
2135F
102
}
330
2135F
100
AcDbXrecord
280
     1
102
SHADEPLOT
 70
     0
102
SHADEPLOTRESLEVEL
 70
     2
102
SHADEPLOTCUSTOMDPI
 70
   300
  0
XRECORD
  5
21362
102
{ACAD_REACTORS
330
21361
102
}
330
21361
100
AcDbXrecord
280
     1
102
SHADEPLOT
 70
     0
102
SHADEPLOTRESLEVEL
 70
     2
102
SHADEPLOTCUSTOMDPI
 70
   300
  0
XRECORD
  5
2135E
102
{ACAD_REACTORS
330
2135D
102
}
330
2135D
100
AcDbXrecord
280
     1
102
SHADEPLOT
 70
     0
102
SHADEPLOTRESLEVEL
 70
     2
102
SHADEPLOTCUSTOMDPI
 70
   300
  0
XRECORD
  5
21367
102
{ACAD_REACTORS
330
21366
102
}
330
21366
100
AcDbXrecord
280
     1
102
MATERIAL
148
0.0
149
0.0
149
0.0
 93
        0
 94
       63
282
     0
 72
     1
 77
     1
171
     1
175
     1
179
     1
273
     0
  0
XRECORD
  5
21365
102
{ACAD_REACTORS
330
21364
102
}
330
21364
100
AcDbXrecord
280
     1
102
MATERIAL
148
0.0
149
0.0
149
0.0
 93
        0
 94
       63
282
     0
 72
     1
 77
     1
171
     1
175
     1
179
     1
273
     0
  0
XRECORD
  5
21368
102
{ACAD_REACTORS
330
110
102
}
330
110
100
AcDbXrecord
280
     1
102
MATERIAL
148
0.0
149
0.0
149
0.0
 93
        0
 94
       63
282
     0
 72
     1
 77
     1
171
     1
175
     1
179
     1
273
     0
  0
XRECORD
  5
112
102
{ACAD_REACTORS
330
110
102
}
330
110
100
AcDbXrecord
280
     1
270
     1
271
     1
  0
XRECORD
  5
111
102
{ACAD_REACTORS
330
110
102
}
330
110
100
AcDbXrecord
280
     1
270
     1
271
     1
  0
XRECORD
  5
113
102
{ACAD_REACTORS
330
110
102
}
330
110
100
AcDbXrecord
280
     1
270
     1
271
     1
  0
XRECORD
  5
114
102
{ACAD_REACTORS
330
110
102
}
330
110
100
AcDbXrecord
280
     1
270
     1
271
     1
  0
XRECORD
  5
21354
102
{ACAD_REACTORS
330
21353
102
}
330
21353
100
AcDbXrecord
280
     1
102
ACAD_ROUNDTRIP_2012_MLEADER_STYLE
298
     1
  0
CELLSTYLEMAP
  5
21352
102
{ACAD_REACTORS
330
104
102
}
330
104
100
AcDbCellStyleMap
 90
        3
300
CELLSTYLE
  1
TABLEFORMAT_BEGIN
 90
        5
170
     1
 91
        0
 92
    32768
 62
   257
 93
        1
300
CONTENTFORMAT
  1
CONTENTFORMAT_BEGIN
 90
        0
 91
        0
 92
      512
 93
        0
300

 40
0.0
140
1.0
 94
        5
 62
     0
340
11
144
0.25
309
CONTENTFORMAT_END
171
     1
301
MARGIN
  1
CELLMARGIN_BEGIN
 40
0.06
 40
0.06
 40
0.06
 40
0.06
 40
0.18
 40
0.18
309
CELLMARGIN_END
 94
        6
 95
        1
302
GRIDFORMAT
  1
GRIDFORMAT_BEGIN
 90
        0
 91
        1
 62
     0
 92
       -2
340
0
 93
        0
 40
0.045
309
GRIDFORMAT_END
 95
        2
302
GRIDFORMAT
  1
GRIDFORMAT_BEGIN
 90
        0
 91
        1
 62
     0
 92
       -2
340
0
 93
        0
 40
0.045
309
GRIDFORMAT_END
 95
        4
302
GRIDFORMAT
  1
GRIDFORMAT_BEGIN
 90
        0
 91
        1
 62
     0
 92
       -2
340
0
 93
        0
 40
0.045
309
GRIDFORMAT_END
 95
        8
302
GRIDFORMAT
  1
GRIDFORMAT_BEGIN
 90
        0
 91
        1
 62
     0
 92
       -2
340
0
 93
        0
 40
0.045
309
GRIDFORMAT_END
 95
       16
302
GRIDFORMAT
  1
GRIDFORMAT_BEGIN
 90
        0
 91
        1
 62
     0
 92
       -2
340
0
 93
        0
 40
0.045
309
GRIDFORMAT_END
 95
       32
302
GRIDFORMAT
  1
GRIDFORMAT_BEGIN
 90
        0
 91
        1
 62
     0
 92
       -2
340
0
 93
        0
 40
0.045
309
GRIDFORMAT_END
309
TABLEFORMAT_END
  1
CELLSTYLE_BEGIN
 90
        1
 91
        1
300
_TITLE
309
CELLSTYLE_END
300
CELLSTYLE
  1
TABLEFORMAT_BEGIN
 90
        5
170
     1
 91
        0
 92
        0
 62
   257
 93
        1
300
CONTENTFORMAT
  1
CONTENTFORMAT_BEGIN
 90
        0
 91
        0
 92
      512
 93
        0
300

 40
0.0
140
1.0
 94
        5
 62
     0
340
11
144
0.18
309
CONTENTFORMAT_END
171
     1
301
MARGIN
  1
CELLMARGIN_BEGIN
 40
0.06
 40
0.06
 40
0.06
 40
0.06
 40
0.18
 40
0.18
309
CELLMARGIN_END
 94
        6
 95
        1
302
GRIDFORMAT
  1
GRIDFORMAT_BEGIN
 90
        0
 91
        1
 62
     0
 92
       -2
340
0
 93
        0
 40
0.045
309
GRIDFORMAT_END
 95
        2
302
GRIDFORMAT
  1
GRIDFORMAT_BEGIN
 90
        0
 91
        1
 62
     0
 92
       -2
340
0
 93
        0
 40
0.045
309
GRIDFORMAT_END
 95
        4
302
GRIDFORMAT
  1
GRIDFORMAT_BEGIN
 90
        0
 91
        1
 62
     0
 92
       -2
340
0
 93
        0
 40
0.045
309
GRIDFORMAT_END
 95
        8
302
GRIDFORMAT
  1
GRIDFORMAT_BEGIN
 90
        0
 91
        1
 62
     0
 92
       -2
340
0
 93
        0
 40
0.045
309
GRIDFORMAT_END
 95
       16
302
GRIDFORMAT
  1
GRIDFORMAT_BEGIN
 90
        0
 91
        1
 62
     0
 92
       -2
340
0
 93
        0
 40
0.045
309
GRIDFORMAT_END
 95
       32
302
GRIDFORMAT
  1
GRIDFORMAT_BEGIN
 90
        0
 91
        1
 62
     0
 92
       -2
340
0
 93
        0
 40
0.045
309
GRIDFORMAT_END
309
TABLEFORMAT_END
  1
CELLSTYLE_BEGIN
 90
        2
 91
        1
300
_HEADER
309
CELLSTYLE_END
300
CELLSTYLE
  1
TABLEFORMAT_BEGIN
 90
        5
170
     1
 91
        0
 92
        0
 62
   257
 93
        1
300
CONTENTFORMAT
  1
CONTENTFORMAT_BEGIN
 90
        0
 91
        0
 92
      512
 93
        0
300

 40
0.0
140
1.0
 94
        2
 62
     0
340
11
144
0.18
309
CONTENTFORMAT_END
171
     1
301
MARGIN
  1
CELLMARGIN_BEGIN
 40
0.06
 40
0.06
 40
0.06
 40
0.06
 40
0.18
 40
0.18
309
CELLMARGIN_END
 94
        6
 95
        1
302
GRIDFORMAT
  1
GRIDFORMAT_BEGIN
 90
        0
 91
        1
 62
     0
 92
       -2
340
0
 93
        0
 40
0.045
309
GRIDFORMAT_END
 95
        2
302
GRIDFORMAT
  1
GRIDFORMAT_BEGIN
 90
        0
 91
        1
 62
     0
 92
       -2
340
0
 93
        0
 40
0.045
309
GRIDFORMAT_END
 95
        4
302
GRIDFORMAT
  1
GRIDFORMAT_BEGIN
 90
        0
 91
        1
 62
     0
 92
       -2
340
0
 93
        0
 40
0.045
309
GRIDFORMAT_END
 95
        8
302
GRIDFORMAT
  1
GRIDFORMAT_BEGIN
 90
        0
 91
        1
 62
     0
 92
       -2
340
0
 93
        0
 40
0.045
309
GRIDFORMAT_END
 95
       16
302
GRIDFORMAT
  1
GRIDFORMAT_BEGIN
 90
        0
 91
        1
 62
     0
 92
       -2
340
0
 93
        0
 40
0.045
309
GRIDFORMAT_END
 95
       32
302
GRIDFORMAT
  1
GRIDFORMAT_BEGIN
 90
        0
 91
        1
 62
     0
 92
       -2
340
0
 93
        0
 40
0.045
309
GRIDFORMAT_END
309
TABLEFORMAT_END
  1
CELLSTYLE_BEGIN
 90
        3
 91
        2
300
_DATA
309
CELLSTYLE_END
  0
XRECORD
  5
21363
102
{ACAD_REACTORS
330
104
102
}
330
104
100
AcDbXrecord
280
     1
102
ACAD_ROUNDTRIP_PRE2007_TABLESTYLE
 90
      512
 91
        0
  1

 92
      512
 93
        0
  2

 94
      512
 95
        0
  3

  0
XRECORD
  5
21374
102
{ACAD_REACTORS
330
21373
102
}
330
21373
100
AcDbXrecord
280
     1
102
RTVSPropertyOp0
 70
     1
102
RTVSPropertyOp1
 70
     1
102
RTVSPropertyOp2
 70
     1
102
RTVSPropertyOp3
 70
     1
102
RTVSPropertyOp4
 70
     1
102
RTVSPropertyOp5
 70
     1
102
RTVSPropertyOp6
 70
     1
102
RTVSPropertyOp7
 70
     1
102
RTVSPropertyOp8
 70
     1
102
RTVSPropertyOp9
 70
     1
102
RTVSPropertyOp10
 70
     1
102
RTVSPropertyOp11
 70
     1
102
RTVSPropertyOp12
 70
     1
102
RTVSPropertyOp13
 70
     1
102
RTVSPropertyOp14
 70
     1
102
RTVSPropertyOp15
 70
     1
102
RTVSPropertyOp16
 70
     1
102
RTVSPropertyOp17
 70
     1
102
RTVSPropertyOp18
 70
     1
102
RTVSPropertyOp19
 70
     1
102
RTVSPropertyOp20
 70
     1
102
RTVSPropertyOp21
 70
     1
102
RTVSPropertyOp22
 70
     1
102
RTVSPropertyOp23
 70
     1
102
RTVSPropertyOp24
 70
     1
102
RTVSPropertyOp25
 70
     1
102
RTVSPropertyOp26
 70
     1
102
RTVSPropertyOp27
 70
     1
102
RTVSPropertyOp28
 70
     1
102
RTVSPropertyOp29
 70
     1
102
RTVSPropertyOp30
 70
     1
102
RTVSPropertyOp31
 70
     1
102
RTVSPropertyOp32
 70
     1
  0
XRECORD
  5
21378
102
{ACAD_REACTORS
330
21377
102
}
330
21377
100
AcDbXrecord
280
     1
102
RTVSPropertyOp0
 70
     1
102
RTVSPropertyOp1
 70
     1
102
RTVSPropertyOp2
 70
     1
102
RTVSPropertyOp3
 70
     1
102
RTVSPropertyOp4
 70
     1
102
RTVSPropertyOp5
 70
     1
102
RTVSPropertyOp6
 70
     1
102
RTVSPropertyOp7
 70
     1
102
RTVSPropertyOp8
 70
     1
102
RTVSPropertyOp9
 70
     1
102
RTVSPropertyOp10
 70
     1
102
RTVSPropertyOp11
 70
     1
102
RTVSPropertyOp12
 70
     1
102
RTVSPropertyOp13
 70
     1
102
RTVSPropertyOp14
 70
     1
102
RTVSPropertyOp15
 70
     1
102
RTVSPropertyOp16
 70
     1
102
RTVSPropertyOp17
 70
     1
102
RTVSPropertyOp18
 70
     1
102
RTVSPropertyOp19
 70
     1
102
RTVSPropertyOp20
 70
     1
102
RTVSPropertyOp21
 70
     1
102
RTVSPropertyOp22
 70
     1
102
RTVSPropertyOp23
 70
     1
102
RTVSPropertyOp24
 70
     1
102
RTVSPropertyOp25
 70
     1
102
RTVSPropertyOp26
 70
     1
102
RTVSPropertyOp27
 70
     1
102
RTVSPropertyOp28
 70
     1
102
RTVSPropertyOp29
 70
     1
102
RTVSPropertyOp30
 70
     1
102
RTVSPropertyOp31
 70
     1
102
RTVSPropertyOp32
 70
     1
  0
XRECORD
  5
21376
102
{ACAD_REACTORS
330
21375
102
}
330
21375
100
AcDbXrecord
280
     1
102
RTVSPropertyOp0
 70
     1
102
RTVSPropertyOp1
 70
     1
102
RTVSPropertyOp2
 70
     1
102
RTVSPropertyOp3
 70
     1
102
RTVSPropertyOp4
 70
     1
102
RTVSPropertyOp5
 70
     1
102
RTVSPropertyOp6
 70
     1
102
RTVSPropertyOp7
 70
     1
102
RTVSPropertyOp8
 70
     1
102
RTVSPropertyOp9
 70
     1
102
RTVSPropertyOp10
 70
     1
102
RTVSPropertyOp11
 70
     1
102
RTVSPropertyOp12
 70
     1
102
RTVSPropertyOp13
 70
     1
102
RTVSPropertyOp14
 70
     1
102
RTVSPropertyOp15
 70
     1
102
RTVSPropertyOp16
 70
     1
102
RTVSPropertyOp17
 70
     1
102
RTVSPropertyOp18
 70
     1
102
RTVSPropertyOp19
 70
     1
102
RTVSPropertyOp20
 70
     1
102
RTVSPropertyOp21
 70
     1
102
RTVSPropertyOp22
 70
     1
102
RTVSPropertyOp23
 70
     1
102
RTVSPropertyOp24
 70
     1
102
RTVSPropertyOp25
 70
     1
102
RTVSPropertyOp26
 70
     1
102
RTVSPropertyOp27
 70
     1
102
RTVSPropertyOp28
 70
     1
102
RTVSPropertyOp29
 70
     1
102
RTVSPropertyOp30
 70
     1
102
RTVSPropertyOp31
 70
     1
102
RTVSPropertyOp32
 70
     1
  0
XRECORD
  5
21372
102
{ACAD_REACTORS
330
21371
102
}
330
21371
100
AcDbXrecord
280
     1
102
RTVSPropertyOp0
 70
     1
102
RTVSPropertyOp1
 70
     1
102
RTVSPropertyOp2
 70
     1
102
RTVSPropertyOp3
 70
     1
102
RTVSPropertyOp4
 70
     1
102
RTVSPropertyOp5
 70
     1
102
RTVSPropertyOp6
 70
     1
102
RTVSPropertyOp7
 70
     1
102
RTVSPropertyOp8
 70
     1
102
RTVSPropertyOp9
 70
     1
102
RTVSPropertyOp10
 70
     1
102
RTVSPropertyOp11
 70
     1
102
RTVSPropertyOp12
 70
     1
102
RTVSPropertyOp13
 70
     1
102
RTVSPropertyOp14
 70
     1
102
RTVSPropertyOp15
 70
     1
102
RTVSPropertyOp16
 70
     1
102
RTVSPropertyOp17
 70
     1
102
RTVSPropertyOp18
 70
     1
102
RTVSPropertyOp19
 70
     1
102
RTVSPropertyOp20
 70
     1
102
RTVSPropertyOp21
 70
     1
102
RTVSPropertyOp22
 70
     1
102
RTVSPropertyOp23
 70
     1
102
RTVSPropertyOp24
 70
     1
102
RTVSPropertyOp25
 70
     1
102
RTVSPropertyOp26
 70
     1
102
RTVSPropertyOp27
 70
     1
102
RTVSPropertyOp28
 70
     1
102
RTVSPropertyOp29
 70
     1
102
RTVSPropertyOp30
 70
     1
102
RTVSPropertyOp31
 70
     1
102
RTVSPropertyOp32
 70
     1
  0
XRECORD
  5
21380
102
{ACAD_REACTORS
330
2137F
102
}
330
2137F
100
AcDbXrecord
280
     1
102
RTVSPropertyOp0
 70
     1
102
RTVSPropertyOp1
 70
     1
102
RTVSPropertyOp2
 70
     1
102
RTVSPropertyOp3
 70
     1
102
RTVSPropertyOp4
 70
     1
102
RTVSPropertyOp5
 70
     1
102
RTVSPropertyOp6
 70
     1
102
RTVSPropertyOp7
 70
     1
102
RTVSPropertyOp8
 70
     1
102
RTVSPropertyOp9
 70
     1
102
RTVSPropertyOp10
 70
     1
102
RTVSPropertyOp11
 70
     1
102
RTVSPropertyOp12
 70
     1
102
RTVSPropertyOp13
 70
     1
102
RTVSPropertyOp14
 70
     1
102
RTVSPropertyOp15
 70
     1
102
RTVSPropertyOp16
 70
     1
102
RTVSPropertyOp17
 70
     1
102
RTVSPropertyOp18
 70
     1
102
RTVSPropertyOp19
 70
     1
102
RTVSPropertyOp20
 70
     1
102
RTVSPropertyOp21
 70
     1
102
RTVSPropertyOp22
 70
     1
102
RTVSPropertyOp23
 70
     1
102
RTVSPropertyOp24
 70
     1
102
RTVSPropertyOp25
 70
     1
102
RTVSPropertyOp26
 70
     1
102
RTVSPropertyOp27
 70
     1
102
RTVSPropertyOp28
 70
     1
102
RTVSPropertyOp29
 70
     1
102
RTVSPropertyOp30
 70
     1
102
RTVSPropertyOp31
 70
     1
102
RTVSPropertyOp32
 70
     1
  0
XRECORD
  5
21388
102
{ACAD_REACTORS
330
21387
102
}
330
21387
100
AcDbXrecord
280
     1
102
RTVSPropertyOp0
 70
     1
102
RTVSPropertyOp1
 70
     1
102
RTVSPropertyOp2
 70
     1
102
RTVSPropertyOp3
 70
     1
102
RTVSPropertyOp4
 70
     1
102
RTVSPropertyOp5
 70
     1
102
RTVSPropertyOp6
 70
     1
102
RTVSPropertyOp7
 70
     1
102
RTVSPropertyOp8
 70
     1
102
RTVSPropertyOp9
 70
     1
102
RTVSPropertyOp10
 70
     1
102
RTVSPropertyOp11
 70
     1
102
RTVSPropertyOp12
 70
     1
102
RTVSPropertyOp13
 70
     1
102
RTVSPropertyOp14
 70
     1
102
RTVSPropertyOp15
 70
     1
102
RTVSPropertyOp16
 70
     1
102
RTVSPropertyOp17
 70
     1
102
RTVSPropertyOp18
 70
     1
102
RTVSPropertyOp19
 70
     1
102
RTVSPropertyOp20
 70
     1
102
RTVSPropertyOp21
 70
     1
102
RTVSPropertyOp22
 70
     1
102
RTVSPropertyOp23
 70
     1
102
RTVSPropertyOp24
 70
     1
102
RTVSPropertyOp25
 70
     1
102
RTVSPropertyOp26
 70
     1
102
RTVSPropertyOp27
 70
     1
102
RTVSPropertyOp28
 70
     1
102
RTVSPropertyOp29
 70
     1
102
RTVSPropertyOp30
 70
     1
102
RTVSPropertyOp31
 70
     1
102
RTVSPropertyOp32
 70
     1
  0
XRECORD
  5
2137A
102
{ACAD_REACTORS
330
21379
102
}
330
21379
100
AcDbXrecord
280
     1
102
RTVSPropertyOp0
 70
     1
102
RTVSPropertyOp1
 70
     1
102
RTVSPropertyOp2
 70
     1
102
RTVSPropertyOp3
 70
     1
102
RTVSPropertyOp4
 70
     1
102
RTVSPropertyOp5
 70
     1
102
RTVSPropertyOp6
 70
     1
102
RTVSPropertyOp7
 70
     1
102
RTVSPropertyOp8
 70
     1
102
RTVSPropertyOp9
 70
     1
102
RTVSPropertyOp10
 70
     1
102
RTVSPropertyOp11
 70
     1
102
RTVSPropertyOp12
 70
     1
102
RTVSPropertyOp13
 70
     1
102
RTVSPropertyOp14
 70
     1
102
RTVSPropertyOp15
 70
     1
102
RTVSPropertyOp16
 70
     1
102
RTVSPropertyOp17
 70
     1
102
RTVSPropertyOp18
 70
     1
102
RTVSPropertyOp19
 70
     1
102
RTVSPropertyOp20
 70
     1
102
RTVSPropertyOp21
 70
     1
102
RTVSPropertyOp22
 70
     1
102
RTVSPropertyOp23
 70
     1
102
RTVSPropertyOp24
 70
     1
102
RTVSPropertyOp25
 70
     1
102
RTVSPropertyOp26
 70
     1
102
RTVSPropertyOp27
 70
     1
102
RTVSPropertyOp28
 70
     1
102
RTVSPropertyOp29
 70
     1
102
RTVSPropertyOp30
 70
     1
102
RTVSPropertyOp31
 70
     1
102
RTVSPropertyOp32
 70
     1
  0
XRECORD
  5
2137E
102
{ACAD_REACTORS
330
2137D
102
}
330
2137D
100
AcDbXrecord
280
     1
102
RTVSPropertyOp0
 70
     1
102
RTVSPropertyOp1
 70
     1
102
RTVSPropertyOp2
 70
     1
102
RTVSPropertyOp3
 70
     1
102
RTVSPropertyOp4
 70
     1
102
RTVSPropertyOp5
 70
     1
102
RTVSPropertyOp6
 70
     1
102
RTVSPropertyOp7
 70
     1
102
RTVSPropertyOp8
 70
     1
102
RTVSPropertyOp9
 70
     1
102
RTVSPropertyOp10
 70
     1
102
RTVSPropertyOp11
 70
     1
102
RTVSPropertyOp12
 70
     1
102
RTVSPropertyOp13
 70
     1
102
RTVSPropertyOp14
 70
     1
102
RTVSPropertyOp15
 70
     1
102
RTVSPropertyOp16
 70
     1
102
RTVSPropertyOp17
 70
     1
102
RTVSPropertyOp18
 70
     1
102
RTVSPropertyOp19
 70
     1
102
RTVSPropertyOp20
 70
     1
102
RTVSPropertyOp21
 70
     1
102
RTVSPropertyOp22
 70
     1
102
RTVSPropertyOp23
 70
     1
102
RTVSPropertyOp24
 70
     1
102
RTVSPropertyOp25
 70
     1
102
RTVSPropertyOp26
 70
     1
102
RTVSPropertyOp27
 70
     1
102
RTVSPropertyOp28
 70
     1
102
RTVSPropertyOp29
 70
     1
102
RTVSPropertyOp30
 70
     1
102
RTVSPropertyOp31
 70
     1
102
RTVSPropertyOp32
 70
     1
  0
XRECORD
  5
2139C
102
{ACAD_REACTORS
330
2139B
102
}
330
2139B
100
AcDbXrecord
280
     1
102
RTVSPropertyOp0
 70
     0
102
RTVSPropertyOp1
 70
     0
102
RTVSPropertyOp2
 70
     0
102
RTVSPropertyOp3
 70
     0
102
RTVSPropertyOp4
 70
     0
102
RTVSPropertyOp5
 70
     0
102
RTVSPropertyOp6
 70
     0
102
RTVSPropertyOp7
 70
     0
102
RTVSPropertyOp8
 70
     0
102
RTVSPropertyOp9
 70
     0
102
RTVSPropertyOp10
 70
     0
102
RTVSPropertyOp11
 70
     0
102
RTVSPropertyOp12
 70
     0
102
RTVSPropertyOp13
 70
     0
102
RTVSPropertyOp14
 70
     2
102
RTVSPropertyOp15
 70
     0
102
RTVSPropertyOp16
 70
     0
102
RTVSPropertyOp17
 70
     0
102
RTVSPropertyOp18
 70
     0
102
RTVSPropertyOp19
 70
     0
102
RTVSPropertyOp20
 70
     0
102
RTVSPropertyOp21
 70
     0
102
RTVSPropertyOp22
 70
     0
102
RTVSPropertyOp23
 70
     0
102
RTVSPropertyOp24
 70
     0
102
RTVSPropertyOp25
 70
     0
102
RTVSPropertyOp26
 70
     0
102
RTVSPropertyOp27
 70
     0
102
RTVSPropertyOp28
 70
     1
102
RTVSPropertyOp29
 70
     1
102
RTVSPropertyOp30
 70
     1
102
RTVSPropertyOp31
 70
     1
102
RTVSPropertyOp32
 70
     1
  0
XRECORD
  5
21386
102
{ACAD_REACTORS
330
21385
102
}
330
21385
100
AcDbXrecord
280
     1
102
RTVSPropertyOp0
 70
     1
102
RTVSPropertyOp1
 70
     1
102
RTVSPropertyOp2
 70
     1
102
RTVSPropertyOp3
 70
     1
102
RTVSPropertyOp4
 70
     1
102
RTVSPropertyOp5
 70
     1
102
RTVSPropertyOp6
 70
     1
102
RTVSPropertyOp7
 70
     1
102
RTVSPropertyOp8
 70
     1
102
RTVSPropertyOp9
 70
     1
102
RTVSPropertyOp10
 70
     1
102
RTVSPropertyOp11
 70
     1
102
RTVSPropertyOp12
 70
     1
102
RTVSPropertyOp13
 70
     1
102
RTVSPropertyOp14
 70
     1
102
RTVSPropertyOp15
 70
     1
102
RTVSPropertyOp16
 70
     1
102
RTVSPropertyOp17
 70
     1
102
RTVSPropertyOp18
 70
     1
102
RTVSPropertyOp19
 70
     1
102
RTVSPropertyOp20
 70
     1
102
RTVSPropertyOp21
 70
     1
102
RTVSPropertyOp22
 70
     1
102
RTVSPropertyOp23
 70
     1
102
RTVSPropertyOp24
 70
     1
102
RTVSPropertyOp25
 70
     1
102
RTVSPropertyOp26
 70
     1
102
RTVSPropertyOp27
 70
     1
102
RTVSPropertyOp28
 70
     1
102
RTVSPropertyOp29
 70
     1
102
RTVSPropertyOp30
 70
     1
102
RTVSPropertyOp31
 70
     1
102
RTVSPropertyOp32
 70
     1
  0
XRECORD
  5
2136A
102
{ACAD_REACTORS
330
21369
102
}
330
21369
100
AcDbXrecord
280
     1
102
RTVSPropertyOp0
 70
     1
102
RTVSPropertyOp1
 70
     1
102
RTVSPropertyOp2
 70
     1
102
RTVSPropertyOp3
 70
     1
102
RTVSPropertyOp4
 70
     1
102
RTVSPropertyOp5
 70
     1
102
RTVSPropertyOp6
 70
     1
102
RTVSPropertyOp7
 70
     1
102
RTVSPropertyOp8
 70
     1
102
RTVSPropertyOp9
 70
     1
102
RTVSPropertyOp10
 70
     1
102
RTVSPropertyOp11
 70
     1
102
RTVSPropertyOp12
 70
     1
102
RTVSPropertyOp13
 70
     1
102
RTVSPropertyOp14
 70
     1
102
RTVSPropertyOp15
 70
     1
102
RTVSPropertyOp16
 70
     1
102
RTVSPropertyOp17
 70
     1
102
RTVSPropertyOp18
 70
     1
102
RTVSPropertyOp19
 70
     1
102
RTVSPropertyOp20
 70
     1
102
RTVSPropertyOp21
 70
     1
102
RTVSPropertyOp22
 70
     1
102
RTVSPropertyOp23
 70
     1
102
RTVSPropertyOp24
 70
     1
102
RTVSPropertyOp25
 70
     1
102
RTVSPropertyOp26
 70
     1
102
RTVSPropertyOp27
 70
     1
102
RTVSPropertyOp28
 70
     1
102
RTVSPropertyOp29
 70
     1
102
RTVSPropertyOp30
 70
     1
102
RTVSPropertyOp31
 70
     1
102
RTVSPropertyOp32
 70
     1
  0
XRECORD
  5
2136C
102
{ACAD_REACTORS
330
2136B
102
}
330
2136B
100
AcDbXrecord
280
     1
102
RTVSPropertyOp0
 70
     1
102
RTVSPropertyOp1
 70
     1
102
RTVSPropertyOp2
 70
     1
102
RTVSPropertyOp3
 70
     1
102
RTVSPropertyOp4
 70
     1
102
RTVSPropertyOp5
 70
     1
102
RTVSPropertyOp6
 70
     1
102
RTVSPropertyOp7
 70
     1
102
RTVSPropertyOp8
 70
     1
102
RTVSPropertyOp9
 70
     1
102
RTVSPropertyOp10
 70
     1
102
RTVSPropertyOp11
 70
     1
102
RTVSPropertyOp12
 70
     1
102
RTVSPropertyOp13
 70
     1
102
RTVSPropertyOp14
 70
     1
102
RTVSPropertyOp15
 70
     1
102
RTVSPropertyOp16
 70
     1
102
RTVSPropertyOp17
 70
     1
102
RTVSPropertyOp18
 70
     1
102
RTVSPropertyOp19
 70
     1
102
RTVSPropertyOp20
 70
     1
102
RTVSPropertyOp21
 70
     1
102
RTVSPropertyOp22
 70
     1
102
RTVSPropertyOp23
 70
     1
102
RTVSPropertyOp24
 70
     1
102
RTVSPropertyOp25
 70
     1
102
RTVSPropertyOp26
 70
     1
102
RTVSPropertyOp27
 70
     1
102
RTVSPropertyOp28
 70
     1
102
RTVSPropertyOp29
 70
     1
102
RTVSPropertyOp30
 70
     1
102
RTVSPropertyOp31
 70
     1
102
RTVSPropertyOp32
 70
     1
  0
XRECORD
  5
2136E
102
{ACAD_REACTORS
330
2136D
102
}
330
2136D
100
AcDbXrecord
280
     1
102
RTVSPropertyOp0
 70
     1
102
RTVSPropertyOp1
 70
     1
102
RTVSPropertyOp2
 70
     1
102
RTVSPropertyOp3
 70
     1
102
RTVSPropertyOp4
 70
     1
102
RTVSPropertyOp5
 70
     1
102
RTVSPropertyOp6
 70
     1
102
RTVSPropertyOp7
 70
     1
102
RTVSPropertyOp8
 70
     1
102
RTVSPropertyOp9
 70
     1
102
RTVSPropertyOp10
 70
     1
102
RTVSPropertyOp11
 70
     1
102
RTVSPropertyOp12
 70
     1
102
RTVSPropertyOp13
 70
     1
102
RTVSPropertyOp14
 70
     1
102
RTVSPropertyOp15
 70
     1
102
RTVSPropertyOp16
 70
     1
102
RTVSPropertyOp17
 70
     1
102
RTVSPropertyOp18
 70
     1
102
RTVSPropertyOp19
 70
     1
102
RTVSPropertyOp20
 70
     1
102
RTVSPropertyOp21
 70
     1
102
RTVSPropertyOp22
 70
     1
102
RTVSPropertyOp23
 70
     1
102
RTVSPropertyOp24
 70
     1
102
RTVSPropertyOp25
 70
     1
102
RTVSPropertyOp26
 70
     1
102
RTVSPropertyOp27
 70
     1
102
RTVSPropertyOp28
 70
     1
102
RTVSPropertyOp29
 70
     1
102
RTVSPropertyOp30
 70
     1
102
RTVSPropertyOp31
 70
     1
102
RTVSPropertyOp32
 70
     1
  0
XRECORD
  5
21370
102
{ACAD_REACTORS
330
2136F
102
}
330
2136F
100
AcDbXrecord
280
     1
102
RTVSPropertyOp0
 70
     1
102
RTVSPropertyOp1
 70
     1
102
RTVSPropertyOp2
 70
     1
102
RTVSPropertyOp3
 70
     1
102
RTVSPropertyOp4
 70
     1
102
RTVSPropertyOp5
 70
     1
102
RTVSPropertyOp6
 70
     1
102
RTVSPropertyOp7
 70
     1
102
RTVSPropertyOp8
 70
     1
102
RTVSPropertyOp9
 70
     1
102
RTVSPropertyOp10
 70
     1
102
RTVSPropertyOp11
 70
     1
102
RTVSPropertyOp12
 70
     1
102
RTVSPropertyOp13
 70
     1
102
RTVSPropertyOp14
 70
     1
102
RTVSPropertyOp15
 70
     1
102
RTVSPropertyOp16
 70
     1
102
RTVSPropertyOp17
 70
     1
102
RTVSPropertyOp18
 70
     1
102
RTVSPropertyOp19
 70
     1
102
RTVSPropertyOp20
 70
     1
102
RTVSPropertyOp21
 70
     1
102
RTVSPropertyOp22
 70
     1
102
RTVSPropertyOp23
 70
     1
102
RTVSPropertyOp24
 70
     1
102
RTVSPropertyOp25
 70
     1
102
RTVSPropertyOp26
 70
     1
102
RTVSPropertyOp27
 70
     1
102
RTVSPropertyOp28
 70
     1
102
RTVSPropertyOp29
 70
     1
102
RTVSPropertyOp30
 70
     1
102
RTVSPropertyOp31
 70
     1
102
RTVSPropertyOp32
 70
     1
  0
XRECORD
  5
2138C
102
{ACAD_REACTORS
330
2138B
102
}
330
2138B
100
AcDbXrecord
280
     1
102
RTVSPropertyOp0
 70
     1
102
RTVSPropertyOp1
 70
     1
102
RTVSPropertyOp2
 70
     1
102
RTVSPropertyOp3
 70
     1
102
RTVSPropertyOp4
 70
     1
102
RTVSPropertyOp5
 70
     1
102
RTVSPropertyOp6
 70
     1
102
RTVSPropertyOp7
 70
     1
102
RTVSPropertyOp8
 70
     1
102
RTVSPropertyOp9
 70
     1
102
RTVSPropertyOp10
 70
     1
102
RTVSPropertyOp11
 70
     1
102
RTVSPropertyOp12
 70
     1
102
RTVSPropertyOp13
 70
     1
102
RTVSPropertyOp14
 70
     1
102
RTVSPropertyOp15
 70
     1
102
RTVSPropertyOp16
 70
     1
102
RTVSPropertyOp17
 70
     1
102
RTVSPropertyOp18
 70
     1
102
RTVSPropertyOp19
 70
     1
102
RTVSPropertyOp20
 70
     1
102
RTVSPropertyOp21
 70
     1
102
RTVSPropertyOp22
 70
     1
102
RTVSPropertyOp23
 70
     1
102
RTVSPropertyOp24
 70
     1
102
RTVSPropertyOp25
 70
     1
102
RTVSPropertyOp26
 70
     1
102
RTVSPropertyOp27
 70
     1
102
RTVSPropertyOp28
 70
     1
102
RTVSPropertyOp29
 70
     1
102
RTVSPropertyOp30
 70
     1
102
RTVSPropertyOp31
 70
     1
102
RTVSPropertyOp32
 70
     1
  0
XRECORD
  5
21398
102
{ACAD_REACTORS
330
21397
102
}
330
21397
100
AcDbXrecord
280
     1
102
RTVSPropertyOp0
 70
     0
102
RTVSPropertyOp1
 70
     0
102
RTVSPropertyOp2
 70
     0
102
RTVSPropertyOp3
 70
     0
102
RTVSPropertyOp4
 70
     0
102
RTVSPropertyOp5
 70
     0
102
RTVSPropertyOp6
 70
     0
102
RTVSPropertyOp7
 70
     0
102
RTVSPropertyOp8
 70
     0
102
RTVSPropertyOp9
 70
     0
102
RTVSPropertyOp10
 70
     0
102
RTVSPropertyOp11
 70
     0
102
RTVSPropertyOp12
 70
     0
102
RTVSPropertyOp13
 70
     0
102
RTVSPropertyOp14
 70
     2
102
RTVSPropertyOp15
 70
     0
102
RTVSPropertyOp16
 70
     0
102
RTVSPropertyOp17
 70
     0
102
RTVSPropertyOp18
 70
     0
102
RTVSPropertyOp19
 70
     0
102
RTVSPropertyOp20
 70
     0
102
RTVSPropertyOp21
 70
     0
102
RTVSPropertyOp22
 70
     0
102
RTVSPropertyOp23
 70
     0
102
RTVSPropertyOp24
 70
     0
102
RTVSPropertyOp25
 70
     0
102
RTVSPropertyOp26
 70
     0
102
RTVSPropertyOp27
 70
     0
102
RTVSPropertyOp28
 70
     1
102
RTVSPropertyOp29
 70
     1
102
RTVSPropertyOp30
 70
     1
102
RTVSPropertyOp31
 70
     1
102
RTVSPropertyOp32
 70
     1
  0
XRECORD
  5
21384
102
{ACAD_REACTORS
330
21383
102
}
330
21383
100
AcDbXrecord
280
     1
102
RTVSPropertyOp0
 70
     1
102
RTVSPropertyOp1
 70
     1
102
RTVSPropertyOp2
 70
     1
102
RTVSPropertyOp3
 70
     1
102
RTVSPropertyOp4
 70
     1
102
RTVSPropertyOp5
 70
     1
102
RTVSPropertyOp6
 70
     1
102
RTVSPropertyOp7
 70
     1
102
RTVSPropertyOp8
 70
     1
102
RTVSPropertyOp9
 70
     1
102
RTVSPropertyOp10
 70
     1
102
RTVSPropertyOp11
 70
     1
102
RTVSPropertyOp12
 70
     1
102
RTVSPropertyOp13
 70
     1
102
RTVSPropertyOp14
 70
     1
102
RTVSPropertyOp15
 70
     1
102
RTVSPropertyOp16
 70
     1
102
RTVSPropertyOp17
 70
     1
102
RTVSPropertyOp18
 70
     1
102
RTVSPropertyOp19
 70
     1
102
RTVSPropertyOp20
 70
     1
102
RTVSPropertyOp21
 70
     1
102
RTVSPropertyOp22
 70
     1
102
RTVSPropertyOp23
 70
     1
102
RTVSPropertyOp24
 70
     1
102
RTVSPropertyOp25
 70
     1
102
RTVSPropertyOp26
 70
     1
102
RTVSPropertyOp27
 70
     1
102
RTVSPropertyOp28
 70
     1
102
RTVSPropertyOp29
 70
     1
102
RTVSPropertyOp30
 70
     1
102
RTVSPropertyOp31
 70
     1
102
RTVSPropertyOp32
 70
     1
  0
XRECORD
  5
2139A
102
{ACAD_REACTORS
330
21399
102
}
330
21399
100
AcDbXrecord
280
     1
102
RTVSPropertyOp0
 70
     0
102
RTVSPropertyOp1
 70
     0
102
RTVSPropertyOp2
 70
     0
102
RTVSPropertyOp3
 70
     0
102
RTVSPropertyOp4
 70
     0
102
RTVSPropertyOp5
 70
     0
102
RTVSPropertyOp6
 70
     0
102
RTVSPropertyOp7
 70
     0
102
RTVSPropertyOp8
 70
     0
102
RTVSPropertyOp9
 70
     0
102
RTVSPropertyOp10
 70
     0
102
RTVSPropertyOp11
 70
     0
102
RTVSPropertyOp12
 70
     0
102
RTVSPropertyOp13
 70
     0
102
RTVSPropertyOp14
 70
     2
102
RTVSPropertyOp15
 70
     0
102
RTVSPropertyOp16
 70
     0
102
RTVSPropertyOp17
 70
     0
102
RTVSPropertyOp18
 70
     0
102
RTVSPropertyOp19
 70
     0
102
RTVSPropertyOp20
 70
     0
102
RTVSPropertyOp21
 70
     0
102
RTVSPropertyOp22
 70
     0
102
RTVSPropertyOp23
 70
     0
102
RTVSPropertyOp24
 70
     0
102
RTVSPropertyOp25
 70
     0
102
RTVSPropertyOp26
 70
     0
102
RTVSPropertyOp27
 70
     0
102
RTVSPropertyOp28
 70
     1
102
RTVSPropertyOp29
 70
     1
102
RTVSPropertyOp30
 70
     1
102
RTVSPropertyOp31
 70
     1
102
RTVSPropertyOp32
 70
     1
  0
XRECORD
  5
2137C
102
{ACAD_REACTORS
330
2137B
102
}
330
2137B
100
AcDbXrecord
280
     1
102
RTVSPropertyOp0
 70
     1
102
RTVSPropertyOp1
 70
     1
102
RTVSPropertyOp2
 70
     1
102
RTVSPropertyOp3
 70
     1
102
RTVSPropertyOp4
 70
     1
102
RTVSPropertyOp5
 70
     1
102
RTVSPropertyOp6
 70
     1
102
RTVSPropertyOp7
 70
     1
102
RTVSPropertyOp8
 70
     1
102
RTVSPropertyOp9
 70
     1
102
RTVSPropertyOp10
 70
     1
102
RTVSPropertyOp11
 70
     1
102
RTVSPropertyOp12
 70
     1
102
RTVSPropertyOp13
 70
     1
102
RTVSPropertyOp14
 70
     1
102
RTVSPropertyOp15
 70
     1
102
RTVSPropertyOp16
 70
     1
102
RTVSPropertyOp17
 70
     1
102
RTVSPropertyOp18
 70
     1
102
RTVSPropertyOp19
 70
     1
102
RTVSPropertyOp20
 70
     1
102
RTVSPropertyOp21
 70
     1
102
RTVSPropertyOp22
 70
     1
102
RTVSPropertyOp23
 70
     1
102
RTVSPropertyOp24
 70
     1
102
RTVSPropertyOp25
 70
     1
102
RTVSPropertyOp26
 70
     1
102
RTVSPropertyOp27
 70
     1
102
RTVSPropertyOp28
 70
     1
102
RTVSPropertyOp29
 70
     1
102
RTVSPropertyOp30
 70
     1
102
RTVSPropertyOp31
 70
     1
102
RTVSPropertyOp32
 70
     1
  0
XRECORD
  5
21396
102
{ACAD_REACTORS
330
21395
102
}
330
21395
100
AcDbXrecord
280
     1
102
RTVSPropertyOp0
 70
     1
102
RTVSPropertyOp1
 70
     1
102
RTVSPropertyOp2
 70
     1
102
RTVSPropertyOp3
 70
     1
102
RTVSPropertyOp4
 70
     1
102
RTVSPropertyOp5
 70
     1
102
RTVSPropertyOp6
 70
     1
102
RTVSPropertyOp7
 70
     1
102
RTVSPropertyOp8
 70
     1
102
RTVSPropertyOp9
 70
     1
102
RTVSPropertyOp10
 70
     1
102
RTVSPropertyOp11
 70
     1
102
RTVSPropertyOp12
 70
     1
102
RTVSPropertyOp13
 70
     1
102
RTVSPropertyOp14
 70
     1
102
RTVSPropertyOp15
 70
     1
102
RTVSPropertyOp16
 70
     1
102
RTVSPropertyOp17
 70
     1
102
RTVSPropertyOp18
 70
     1
102
RTVSPropertyOp19
 70
     1
102
RTVSPropertyOp20
 70
     1
102
RTVSPropertyOp21
 70
     1
102
RTVSPropertyOp22
 70
     1
102
RTVSPropertyOp23
 70
     1
102
RTVSPropertyOp24
 70
     1
102
RTVSPropertyOp25
 70
     1
102
RTVSPropertyOp26
 70
     1
102
RTVSPropertyOp27
 70
     1
102
RTVSPropertyOp28
 70
     1
102
RTVSPropertyOp29
 70
     1
102
RTVSPropertyOp30
 70
     1
102
RTVSPropertyOp31
 70
     1
102
RTVSPropertyOp32
 70
     1
  0
XRECORD
  5
21394
102
{ACAD_REACTORS
330
21393
102
}
330
21393
100
AcDbXrecord
280
     1
102
RTVSPropertyOp0
 70
     1
102
RTVSPropertyOp1
 70
     1
102
RTVSPropertyOp2
 70
     1
102
RTVSPropertyOp3
 70
     1
102
RTVSPropertyOp4
 70
     1
102
RTVSPropertyOp5
 70
     1
102
RTVSPropertyOp6
 70
     1
102
RTVSPropertyOp7
 70
     1
102
RTVSPropertyOp8
 70
     1
102
RTVSPropertyOp9
 70
     1
102
RTVSPropertyOp10
 70
     1
102
RTVSPropertyOp11
 70
     1
102
RTVSPropertyOp12
 70
     1
102
RTVSPropertyOp13
 70
     1
102
RTVSPropertyOp14
 70
     1
102
RTVSPropertyOp15
 70
     1
102
RTVSPropertyOp16
 70
     1
102
RTVSPropertyOp17
 70
     1
102
RTVSPropertyOp18
 70
     1
102
RTVSPropertyOp19
 70
     1
102
RTVSPropertyOp20
 70
     1
102
RTVSPropertyOp21
 70
     1
102
RTVSPropertyOp22
 70
     1
102
RTVSPropertyOp23
 70
     1
102
RTVSPropertyOp24
 70
     1
102
RTVSPropertyOp25
 70
     1
102
RTVSPropertyOp26
 70
     1
102
RTVSPropertyOp27
 70
     1
102
RTVSPropertyOp28
 70
     1
102
RTVSPropertyOp29
 70
     1
102
RTVSPropertyOp30
 70
     1
102
RTVSPropertyOp31
 70
     1
102
RTVSPropertyOp32
 70
     1
  0
XRECORD
  5
2138E
102
{ACAD_REACTORS
330
2138D
102
}
330
2138D
100
AcDbXrecord
280
     1
102
RTVSPropertyOp0
 70
     1
102
RTVSPropertyOp1
 70
     1
102
RTVSPropertyOp2
 70
     1
102
RTVSPropertyOp3
 70
     1
102
RTVSPropertyOp4
 70
     1
102
RTVSPropertyOp5
 70
     1
102
RTVSPropertyOp6
 70
     1
102
RTVSPropertyOp7
 70
     1
102
RTVSPropertyOp8
 70
     1
102
RTVSPropertyOp9
 70
     1
102
RTVSPropertyOp10
 70
     1
102
RTVSPropertyOp11
 70
     1
102
RTVSPropertyOp12
 70
     1
102
RTVSPropertyOp13
 70
     1
102
RTVSPropertyOp14
 70
     1
102
RTVSPropertyOp15
 70
     1
102
RTVSPropertyOp16
 70
     1
102
RTVSPropertyOp17
 70
     1
102
RTVSPropertyOp18
 70
     1
102
RTVSPropertyOp19
 70
     1
102
RTVSPropertyOp20
 70
     1
102
RTVSPropertyOp21
 70
     1
102
RTVSPropertyOp22
 70
     1
102
RTVSPropertyOp23
 70
     1
102
RTVSPropertyOp24
 70
     1
102
RTVSPropertyOp25
 70
     1
102
RTVSPropertyOp26
 70
     1
102
RTVSPropertyOp27
 70
     1
102
RTVSPropertyOp28
 70
     1
102
RTVSPropertyOp29
 70
     1
102
RTVSPropertyOp30
 70
     1
102
RTVSPropertyOp31
 70
     1
102
RTVSPropertyOp32
 70
     1
  0
XRECORD
  5
21390
102
{ACAD_REACTORS
330
2138F
102
}
330
2138F
100
AcDbXrecord
280
     1
102
RTVSPropertyOp0
 70
     1
102
RTVSPropertyOp1
 70
     1
102
RTVSPropertyOp2
 70
     1
102
RTVSPropertyOp3
 70
     1
102
RTVSPropertyOp4
 70
     1
102
RTVSPropertyOp5
 70
     1
102
RTVSPropertyOp6
 70
     1
102
RTVSPropertyOp7
 70
     1
102
RTVSPropertyOp8
 70
     1
102
RTVSPropertyOp9
 70
     1
102
RTVSPropertyOp10
 70
     1
102
RTVSPropertyOp11
 70
     1
102
RTVSPropertyOp12
 70
     1
102
RTVSPropertyOp13
 70
     1
102
RTVSPropertyOp14
 70
     1
102
RTVSPropertyOp15
 70
     1
102
RTVSPropertyOp16
 70
     1
102
RTVSPropertyOp17
 70
     1
102
RTVSPropertyOp18
 70
     1
102
RTVSPropertyOp19
 70
     1
102
RTVSPropertyOp20
 70
     1
102
RTVSPropertyOp21
 70
     1
102
RTVSPropertyOp22
 70
     1
102
RTVSPropertyOp23
 70
     1
102
RTVSPropertyOp24
 70
     1
102
RTVSPropertyOp25
 70
     1
102
RTVSPropertyOp26
 70
     1
102
RTVSPropertyOp27
 70
     1
102
RTVSPropertyOp28
 70
     1
102
RTVSPropertyOp29
 70
     1
102
RTVSPropertyOp30
 70
     1
102
RTVSPropertyOp31
 70
     1
102
RTVSPropertyOp32
 70
     1
  0
XRECORD
  5
21382
102
{ACAD_REACTORS
330
21381
102
}
330
21381
100
AcDbXrecord
280
     1
102
RTVSPropertyOp0
 70
     1
102
RTVSPropertyOp1
 70
     1
102
RTVSPropertyOp2
 70
     1
102
RTVSPropertyOp3
 70
     1
102
RTVSPropertyOp4
 70
     1
102
RTVSPropertyOp5
 70
     1
102
RTVSPropertyOp6
 70
     1
102
RTVSPropertyOp7
 70
     1
102
RTVSPropertyOp8
 70
     1
102
RTVSPropertyOp9
 70
     1
102
RTVSPropertyOp10
 70
     1
102
RTVSPropertyOp11
 70
     1
102
RTVSPropertyOp12
 70
     1
102
RTVSPropertyOp13
 70
     1
102
RTVSPropertyOp14
 70
     1
102
RTVSPropertyOp15
 70
     1
102
RTVSPropertyOp16
 70
     1
102
RTVSPropertyOp17
 70
     1
102
RTVSPropertyOp18
 70
     1
102
RTVSPropertyOp19
 70
     1
102
RTVSPropertyOp20
 70
     1
102
RTVSPropertyOp21
 70
     1
102
RTVSPropertyOp22
 70
     1
102
RTVSPropertyOp23
 70
     1
102
RTVSPropertyOp24
 70
     1
102
RTVSPropertyOp25
 70
     1
102
RTVSPropertyOp26
 70
     1
102
RTVSPropertyOp27
 70
     1
102
RTVSPropertyOp28
 70
     1
102
RTVSPropertyOp29
 70
     1
102
RTVSPropertyOp30
 70
     1
102
RTVSPropertyOp31
 70
     1
102
RTVSPropertyOp32
 70
     1
  0
XRECORD
  5
2138A
102
{ACAD_REACTORS
330
21389
102
}
330
21389
100
AcDbXrecord
280
     1
102
RTVSPropertyOp0
 70
     1
102
RTVSPropertyOp1
 70
     1
102
RTVSPropertyOp2
 70
     1
102
RTVSPropertyOp3
 70
     1
102
RTVSPropertyOp4
 70
     1
102
RTVSPropertyOp5
 70
     1
102
RTVSPropertyOp6
 70
     1
102
RTVSPropertyOp7
 70
     1
102
RTVSPropertyOp8
 70
     1
102
RTVSPropertyOp9
 70
     1
102
RTVSPropertyOp10
 70
     1
102
RTVSPropertyOp11
 70
     1
102
RTVSPropertyOp12
 70
     1
102
RTVSPropertyOp13
 70
     1
102
RTVSPropertyOp14
 70
     1
102
RTVSPropertyOp15
 70
     1
102
RTVSPropertyOp16
 70
     1
102
RTVSPropertyOp17
 70
     1
102
RTVSPropertyOp18
 70
     1
102
RTVSPropertyOp19
 70
     1
102
RTVSPropertyOp20
 70
     1
102
RTVSPropertyOp21
 70
     1
102
RTVSPropertyOp22
 70
     1
102
RTVSPropertyOp23
 70
     1
102
RTVSPropertyOp24
 70
     1
102
RTVSPropertyOp25
 70
     1
102
RTVSPropertyOp26
 70
     1
102
RTVSPropertyOp27
 70
     1
102
RTVSPropertyOp28
 70
     1
102
RTVSPropertyOp29
 70
     1
102
RTVSPropertyOp30
 70
     1
102
RTVSPropertyOp31
 70
     1
102
RTVSPropertyOp32
 70
     1
  0
XRECORD
  5
21392
102
{ACAD_REACTORS
330
21391
102
}
330
21391
100
AcDbXrecord
280
     1
102
RTVSPropertyOp0
 70
     1
102
RTVSPropertyOp1
 70
     1
102
RTVSPropertyOp2
 70
     1
102
RTVSPropertyOp3
 70
     1
102
RTVSPropertyOp4
 70
     1
102
RTVSPropertyOp5
 70
     1
102
RTVSPropertyOp6
 70
     1
102
RTVSPropertyOp7
 70
     1
102
RTVSPropertyOp8
 70
     1
102
RTVSPropertyOp9
 70
     1
102
RTVSPropertyOp10
 70
     1
102
RTVSPropertyOp11
 70
     1
102
RTVSPropertyOp12
 70
     1
102
RTVSPropertyOp13
 70
     1
102
RTVSPropertyOp14
 70
     1
102
RTVSPropertyOp15
 70
     1
102
RTVSPropertyOp16
 70
     1
102
RTVSPropertyOp17
 70
     1
102
RTVSPropertyOp18
 70
     1
102
RTVSPropertyOp19
 70
     1
102
RTVSPropertyOp20
 70
     1
102
RTVSPropertyOp21
 70
     1
102
RTVSPropertyOp22
 70
     1
102
RTVSPropertyOp23
 70
     1
102
RTVSPropertyOp24
 70
     1
102
RTVSPropertyOp25
 70
     1
102
RTVSPropertyOp26
 70
     1
102
RTVSPropertyOp27
 70
     1
102
RTVSPropertyOp28
 70
     1
102
RTVSPropertyOp29
 70
     1
102
RTVSPropertyOp30
 70
     1
102
RTVSPropertyOp31
 70
     1
102
RTVSPropertyOp32
 70
     1
  0
ENDSEC
  0
EOF
